  0
SECTION
  2
HEADER
  9
$ACADVER
  1
AC1009
  9
$INSBASE
 10
0.0
 20
0.0
 30
0.0
  9
$EXTMIN
 10
-9317.3245871225408
 20
393402.81400089961
 30
0.0
  9
$EXTMAX
 10
21045.108805895819
 20
799643.3234279257
 30
0.0
  9
$LIMMIN
 10
-127022.6804658414
 20
-67144.462473645661
  9
$LIMMAX
 10
-873.19720690528334
 20
6755.1563308572058
  9
$ORTHOMODE
 70
     1
  9
$REGENMODE
 70
     1
  9
$FILLMODE
 70
     1
  9
$QTEXTMODE
 70
     0
  9
$MIRRTEXT
 70
     0
  9
$DRAGMODE
 70
     2
  9
$LTSCALE
 40
50.0
  9
$OSMODE
 70
   679
  9
$ATTMODE
 70
     1
  9
$TEXTSIZE
 40
200.0
  9
$TRACEWID
 40
10.0
  9
$TEXTSTYLE
  7
R
  9
$CLAYER
  8
0
  9
$CELTYPE
  6
CONTINUOUS
  9
$CECOLOR
 62
   256
  9
$DIMSCALE
 40
50.0
  9
$DIMASZ
 40
2.0
  9
$DIMEXO
 40
0.063
  9
$DIMDLI
 40
5.0
  9
$DIMRND
 40
0.0
  9
$DIMDLE
 40
0.0
  9
$DIMEXE
 40
0.2
  9
$DIMTP
 40
0.0
  9
$DIMTM
 40
0.0
  9
$DIMTXT
 40
2.5
  9
$DIMCEN
 40
1.0
  9
$DIMTSZ
 40
0.0
  9
$DIMTOL
 70
     0
  9
$DIMLIM
 70
     0
  9
$DIMTIH
 70
     0
  9
$DIMTOH
 70
     0
  9
$DIMSE1
 70
     0
  9
$DIMSE2
 70
     0
  9
$DIMTAD
 70
     1
  9
$DIMZIN
 70
    12
  9
$DIMBLK
  1

  9
$DIMASO
 70
     1
  9
$DIMSHO
 70
     0
  9
$DIMPOST
  1

  9
$DIMAPOST
  1

  9
$DIMALT
 70
     0
  9
$DIMALTD
 70
     2
  9
$DIMALTF
 40
25.399999999999999
  9
$DIMLFAC
 40
1.0
  9
$DIMTOFL
 70
     1
  9
$DIMTVP
 40
0.0
  9
$DIMTIX
 70
     0
  9
$DIMSOXD
 70
     0
  9
$DIMSAH
 70
     1
  9
$DIMBLK1
  1
OPEN
  9
$DIMBLK2
  1
OPEN
  9
$DIMSTYLE
  2
EMBABA
  9
$DIMCLRD
 70
     0
  9
$DIMCLRE
 70
     0
  9
$DIMCLRT
 70
     7
  9
$DIMTFAC
 40
1.0
  9
$DIMGAP
 40
0.5
  9
$LUNITS
 70
     2
  9
$LUPREC
 70
     0
  9
$SKETCHINC
 40
10.0
  9
$FILLETRAD
 40
400.0
  9
$AUNITS
 70
     0
  9
$AUPREC
 70
     4
  9
$MENU
  1
ACAD
  9
$ELEVATION
 40
0.0
  9
$PELEVATION
 40
0.0
  9
$THICKNESS
 40
0.0
  9
$LIMCHECK
 70
     0
  9
$BLIPMODE
 70
     0
  9
$CHAMFERA
 40
0.0
  9
$CHAMFERB
 40
0.0
  9
$SKPOLY
 70
     0
  9
$TDCREATE
 40
2450205.720229167
  9
$TDUPDATE
 40
2453528.4801962161
  9
$TDINDWG
 40
42.364191886599997
  9
$TDUSRTIMER
 40
42.364191886599997
  9
$USRTIMER
 70
     1
  9
$ANGBASE
 50
0.0
  9
$ANGDIR
 70
     0
  9
$PDMODE
 70
     2
  9
$PDSIZE
 40
-5.0
  9
$PLINEWID
 40
0.0
  9
$COORDS
 70
     0
  9
$SPLFRAME
 70
     0
  9
$SPLINETYPE
 70
     6
  9
$SPLINESEGS
 70
     8
  9
$ATTDIA
 70
     0
  9
$ATTREQ
 70
     1
  9
$HANDLING
 70
     1
  9
$HANDSEED
  5
67EC2
  9
$SURFTAB1
 70
    18
  9
$SURFTAB2
 70
    18
  9
$SURFTYPE
 70
     6
  9
$SURFU
 70
    18
  9
$SURFV
 70
    18
  9
$UCSNAME
  2

  9
$UCSORG
 10
0.0
 20
0.0
 30
0.0
  9
$UCSXDIR
 10
1.0
 20
0.0
 30
0.0
  9
$UCSYDIR
 10
0.0
 20
1.0
 30
0.0
  9
$PUCSNAME
  2

  9
$PUCSORG
 10
0.0
 20
0.0
 30
0.0
  9
$PUCSXDIR
 10
1.0
 20
0.0
 30
0.0
  9
$PUCSYDIR
 10
0.0
 20
1.0
 30
0.0
  9
$USERI1
 70
     0
  9
$USERI2
 70
     0
  9
$USERI3
 70
     0
  9
$USERI4
 70
     0
  9
$USERI5
 70
     0
  9
$USERR1
 40
0.0
  9
$USERR2
 40
50.0
  9
$USERR3
 40
0.0
  9
$USERR4
 40
0.0
  9
$USERR5
 40
0.0
  9
$WORLDVIEW
 70
     1
  9
$SHADEDGE
 70
     3
  9
$SHADEDIF
 70
    70
  9
$TILEMODE
 70
     1
  9
$MAXACTVP
 70
    16
  9
$PLIMCHECK
 70
     0
  9
$PEXTMIN
 10
1.049999952316284
 20
0.7999999523162842
 30
0.0
  9
$PEXTMAX
 10
9.4499995708465558
 20
7.1999995708465558
 30
0.0
  9
$PLIMMIN
 10
-0.2500002402958907
 20
-0.2499999962453767
  9
$PLIMMAX
 10
10.74999951940821
 20
8.2499997634587316
  9
$UNITMODE
 70
     0
  9
$VISRETAIN
 70
     0
  9
$PLINEGEN
 70
     0
  9
$PSLTSCALE
 70
     1
  0
ENDSEC
  0
SECTION
  2
TABLES
  0
TABLE
  2
VPORT
 70
     4
  0
VPORT
  2
*ACTIVE
 70
     0
 10
0.0
 20
0.0
 11
1.0
 21
1.0
 12
1128.666559231373
 22
400439.56628838641
 13
0.0
 23
0.0
 14
1.0
 24
1.0
 15
1.0
 25
1.0
 16
0.0
 26
0.0
 36
1.0
 17
0.0
 27
0.0
 37
0.0
 40
19579.879019599291
 41
1.6116303219106951
 42
50.0
 43
0.0
 44
0.0
 50
0.0
 51
0.0
 71
     0
 72
   100
 73
     1
 74
     0
 75
     0
 76
     1
 77
     0
 78
     0
  0
ENDTAB
  0
TABLE
  2
LTYPE
 70
    13
  0
LTYPE
  2
CONTINUOUS
 70
     0
  3
Solid line
 72
    65
 73
     0
 40
0.0
  0
LTYPE
  2
ČERCHOVANÁ
 70
     0
  3
Čerchovaná __ . __ . __ . __ . __ . __ . __ . _
 72
    65
 73
     4
 40
1.0
 49
0.5
 49
-0.25
 49
0.0
 49
-0.25
  0
ENDTAB
  0
TABLE
  2
LAYER
 70
    38
  0
LAYER
  2
0
 70
     0
 62
     7
  6
CONTINUOUS
  0
LAYER
  2
RAZ
 70
     0
 62
     7
  6
CONTINUOUS
  0
LAYER
  2
KOTY
 70
     0
 62
     2
  6
CONTINUOUS
  0
LAYER
  2
DEFPOINTS
 70
     0
 62
     7
  6
CONTINUOUS
  0
LAYER
  2
2-VZT
 70
     0
 62
     4
  6
CONTINUOUS
  0
LAYER
  2
SILNA
 70
     0
 62
     7
  6
CONTINUOUS
  0
LAYER
  2
OBRYS
 70
     0
 62
     7
  6
CONTINUOUS
  0
LAYER
  2
S-OBRYS
 70
     0
 62
     7
  6
CONTINUOUS
  0
ENDTAB
  0
TABLE
  2
STYLE
 70
    11
  0
STYLE
  2
STANDARD
 70
     0
 40
0.0
 41
0.8
 50
0.0
 71
     0
 42
200.0
  3
ROMANS.SHX
  4

  0
STYLE
  2
R
 70
     0
 40
0.0
 41
1.0
 50
0.0
 71
     0
 42
200.0
  3
romans.shx
  4

  0
STYLE
  2
ROMANS
 70
     0
 40
0.0
 41
0.8
 50
0.0
 71
     0
 42
300.0
  3
ROMANS.shx
  4

  0
STYLE
  2
R08
 70
     0
 40
0.0
 41
0.8
 50
0.0
 71
     0
 42
800.0
  3
ROMANS.shx
  4

  0
STYLE
  2
ROMANT
 70
     0
 40
0.0
 41
0.7
 50
0.0
 71
     0
 42
3.0
  3
romant
  4

  0
STYLE
  2
CYRILLIC
 70
     0
 40
2.2999999999999989
 41
0.7
 50
0.0
 71
     0
 42
2.2999999999999989
  3
cyrillic
  4

  0
ENDTAB
  0
TABLE
  2
VIEW
 70
     0
  0
ENDTAB
  0
TABLE
  2
UCS
 70
     0
  0
ENDTAB
  0
TABLE
  2
APPID
 70
     6
  0
APPID
  2
ACAD
 70
     0
  0
APPID
  2
PHOENIX7010
 70
     0
  0
APPID
  2
CONTENTBLOCKICON
 70
     0
  0
APPID
  2
CONTENTLONGBLOCKNAME
 70
     0
  0
APPID
  2
ACAD_DSTYLE_DIMTEXT_FILL
 70
     0
  0
APPID
  2
DCO15
 70
     0
  0
ENDTAB
  0
TABLE
  2
DIMSTYLE
 70
     9
  0
DIMSTYLE
  2
STANDARD
 70
     0
  3

  4

  5

  6
OPEN
  7
OPEN
 40
1.0
 41
80.0
 42
1.0
 43
0.0
 44
1.0
 45
0.0
 46
0.8
 47
0.0
 48
0.0
140
70.0
141
-3.0
142
0.0
143
0.0394
144
1.0
145
1.0
146
0.5
147
1.0
 71
     0
 72
     0
 73
     0
 74
     0
 75
     0
 76
     0
 77
     0
 78
     8
170
     0
171
     2
172
     1
173
     1
174
     0
175
     0
176
     7
177
     7
178
     2
  0
DIMSTYLE
  2
EMBABA
 70
     0
  3

  4

  5

  6
OPEN
  7
OPEN
 40
50.0
 41
2.0
 42
0.063
 43
5.0
 44
0.2
 45
0.0
 46
0.0
 47
0.0
 48
0.0
140
2.5
141
1.0
142
0.0
143
25.399999999999999
144
1.0
145
0.0
146
1.0
147
0.5
 71
     0
 72
     0
 73
     0
 74
     0
 75
     0
 76
     0
 77
     1
 78
    12
170
     0
171
     2
172
     1
173
     1
174
     0
175
     0
176
     0
177
     0
178
     7
  0
ENDTAB
  0
ENDSEC
  0
SECTION
  2
BLOCKS
  0
BLOCK
  8
0
  2
$MODEL_SPACE
 70
     0
 10
0.0
 20
0.0
 30
0.0
  3
$MODEL_SPACE
  1

  0
ENDBLK
  5
9
  8
0
  0
BLOCK
 67
     1
  8
0
  2
$PAPER_SPACE
 70
     0
 10
0.0
 20
0.0
 30
0.0
  3
$PAPER_SPACE
  1

  0
ENDBLK
  5
E
 67
     1
  8
0
  0
BLOCK
  8
0
  2
_OPEN
 70
     0
 10
0.0
 20
0.0
 30
0.0
  3
_OPEN
  1

  0
LINE
  5
28
  8
0
  6
BYBLOCK
 62
     0
 10
-1.0
 20
0.1666666666666666
 30
0.0
 11
0.0
 21
0.0
 31
0.0
  0
LINE
  5
29
  8
0
  6
BYBLOCK
 62
     0
 10
0.0
 20
0.0
 30
0.0
 11
-1.0
 21
-0.1666666666666666
 31
0.0
  0
LINE
  5
2A
  8
0
  6
BYBLOCK
 62
     0
 10
0.0
 20
0.0
 30
0.0
 11
-1.0
 21
0.0
 31
0.0
  0
ENDBLK
  5
2C
  8
0
  0
BLOCK
  8
0
  2
A$C5B1234F8
 70
     0
 10
0.0
 20
0.0
 30
0.0
  3
A$C5B1234F8
  1

  0
POLYLINE
  5
5A113
  8
SILNA
  6
CONTINUOUS
 66
     1
 10
0.0
 20
0.0
 30
0.0
  0
VERTEX
  5
67A9E
  8
SILNA
  6
CONTINUOUS
 10
899.99999542257865
 20
900.0
 30
0.0
  0
VERTEX
  5
67A9F
  8
SILNA
  6
CONTINUOUS
 10
527.20778928679283
 20
900.0
 30
0.0
  0
VERTEX
  5
67AA0
  8
SILNA
  6
CONTINUOUS
 10
-0.0000045774213504
 20
372.79220613581128
 30
0.0
  0
VERTEX
  5
67AA1
  8
SILNA
  6
CONTINUOUS
 10
-0.0000045774213504
 20
0.0
 30
0.0
  0
SEQEND
  5
67AA2
  8
SILNA
  6
CONTINUOUS
  0
LINE
  5
5A114
  8
SILNA
  6
CONTINUOUS
 10
-0.0000045774213504
 20
0.0
 30
0.0
 11
159.99999542257859
 21
0.0
 31
0.0
  0
ARC
  5
5A115
  8
SILNA
  6
CONTINUOUS
 10
899.99999542257865
 20
0.0
 30
0.0
 40
740.0
 50
90.0
 51
180.0
  0
LINE
  5
5A116
  8
SILNA
  6
CONTINUOUS
 10
899.99999542257865
 20
900.0
 30
0.0
 11
899.99999542257865
 21
740.0
 31
0.0
  0
ENDBLK
  5
5A11A
  8
0
  0
BLOCK
  8
0
  2
*D86
 70
     1
 10
0.0
 20
0.0
 30
0.0
  3
*D86
  1

  0
LINE
  5
67481
  8
S-OBRYS
  6
CONTINUOUS
 62
     0
 10
-3622.7409639516168
 20
397102.1868205209
 30
0.0
 11
-3629.5909639516171
 21
397102.1868205209
 31
0.0
  0
LINE
  5
67482
  8
S-OBRYS
  6
CONTINUOUS
 62
     0
 10
-3622.7409639516168
 20
396402.1868205209
 30
0.0
 11
-3629.5909639516171
 21
396402.1868205209
 31
0.0
  0
LINE
  5
67483
  8
S-OBRYS
  6
CONTINUOUS
 62
     0
 10
-3619.5909639516181
 20
397002.1868205209
 30
0.0
 11
-3619.5909639516181
 21
396502.1868205209
 31
0.0
  0
INSERT
  5
67484
  8
S-OBRYS
  6
CONTINUOUS
 62
     0
  2
_OPEN
 10
-3619.5909639516181
 20
397102.1868205209
 30
0.0
 41
100.0
 42
100.0
 43
100.0
 50
90.0
  0
INSERT
  5
67485
  8
S-OBRYS
  6
CONTINUOUS
 62
     0
  2
_OPEN
 10
-3619.5909639516181
 20
396402.1868205209
 30
0.0
 41
100.0
 42
100.0
 43
100.0
 50
270.0
  0
INSERT
  5
67486
  8
0
  6
CONTINUOUS
  2
*U171
 10
0.0
 20
0.0
 30
0.0
  0
POINT
  5
67487
  8
DEFPOINTS
  6
CONTINUOUS
 62
     0
 10
-3619.5909639516181
 20
397102.1868205209
 30
0.0
  0
POINT
  5
67488
  8
DEFPOINTS
  6
CONTINUOUS
 62
     0
 10
-3619.5909639516181
 20
396402.1868205209
 30
0.0
  0
POINT
  5
67489
  8
DEFPOINTS
  6
CONTINUOUS
 62
     0
 10
-3619.5909639516181
 20
396402.1868205209
 30
0.0
  0
ENDBLK
  5
672C4
  8
0
  0
BLOCK
  8
0
  2
*D87
 70
     1
 10
0.0
 20
0.0
 30
0.0
  3
*D87
  1

  0
LINE
  5
6748A
  8
S-OBRYS
  6
CONTINUOUS
 62
     0
 10
-4134.5909639516176
 20
397849.03682052082
 30
0.0
 11
-4134.5909639516176
 21
397842.18682052079
 31
0.0
  0
LINE
  5
6748B
  8
S-OBRYS
  6
CONTINUOUS
 62
     0
 10
-5134.5909639516176
 20
397855.33682052081
 30
0.0
 11
-5134.5909639516176
 21
397862.18682052079
 31
0.0
  0
LINE
  5
6748C
  8
S-OBRYS
  6
CONTINUOUS
 62
     0
 10
-4234.5909639516167
 20
397852.18682052079
 30
0.0
 11
-5034.5909639516176
 21
397852.18682052079
 31
0.0
  0
INSERT
  5
6748D
  8
S-OBRYS
  6
CONTINUOUS
 62
     0
  2
_OPEN
 10
-4134.5909639516176
 20
397852.18682052079
 30
0.0
 41
100.0
 42
100.0
 43
100.0
  0
INSERT
  5
6748E
  8
S-OBRYS
  6
CONTINUOUS
 62
     0
  2
_OPEN
 10
-5134.5909639516176
 20
397852.18682052079
 30
0.0
 41
100.0
 42
100.0
 43
100.0
 50
180.0
  0
INSERT
  5
6748F
  8
0
  6
CONTINUOUS
  2
*U172
 10
0.0
 20
0.0
 30
0.0
  0
POINT
  5
67490
  8
DEFPOINTS
  6
CONTINUOUS
 62
     0
 10
-4134.5909639516176
 20
397852.1868205209
 30
0.0
  0
POINT
  5
67491
  8
DEFPOINTS
  6
CONTINUOUS
 62
     0
 10
-5134.5909639516176
 20
397852.18682052079
 30
0.0
  0
POINT
  5
67492
  8
DEFPOINTS
  6
CONTINUOUS
 62
     0
 10
-5134.5909639516176
 20
397852.18682052079
 30
0.0
  0
ENDBLK
  5
672D0
  8
0
  0
BLOCK
  8
0
  2
*D88
 70
     1
 10
0.0
 20
0.0
 30
0.0
  3
*D88
  1

  0
LINE
  5
67493
  8
S-OBRYS
  6
CONTINUOUS
 62
     0
 10
-3616.4409639516171
 20
397852.1868205209
 30
0.0
 11
-3608.744110502565
 21
397852.1868205209
 31
0.0
  0
LINE
  5
67494
  8
S-OBRYS
  6
CONTINUOUS
 62
     0
 10
-3616.4409639516161
 20
398552.1868205209
 30
0.0
 11
-3608.744110502565
 21
398552.1868205209
 31
0.0
  0
LINE
  5
67495
  8
S-OBRYS
  6
CONTINUOUS
 62
     0
 10
-3618.744110502565
 20
397952.1868205209
 30
0.0
 11
-3618.744110502565
 21
398452.1868205209
 31
0.0
  0
INSERT
  5
67496
  8
S-OBRYS
  6
CONTINUOUS
 62
     0
  2
_OPEN
 10
-3618.744110502565
 20
397852.1868205209
 30
0.0
 41
100.0
 42
100.0
 43
100.0
 50
270.0
  0
INSERT
  5
67497
  8
S-OBRYS
  6
CONTINUOUS
 62
     0
  2
_OPEN
 10
-3618.744110502565
 20
398552.1868205209
 30
0.0
 41
100.0
 42
100.0
 43
100.0
 50
90.0
  0
INSERT
  5
67498
  8
0
  6
CONTINUOUS
  2
*U173
 10
0.0
 20
0.0
 30
0.0
  0
POINT
  5
67499
  8
DEFPOINTS
  6
CONTINUOUS
 62
     0
 10
-3619.5909639516181
 20
397852.1868205209
 30
0.0
  0
POINT
  5
6749A
  8
DEFPOINTS
  6
CONTINUOUS
 62
     0
 10
-3619.5909639516158
 20
398552.1868205209
 30
0.0
  0
POINT
  5
6749B
  8
DEFPOINTS
  6
CONTINUOUS
 62
     0
 10
-3618.744110502565
 20
398552.1868205209
 30
0.0
  0
ENDBLK
  5
672DC
  8
0
  0
BLOCK
  8
0
  2
*D89
 70
     1
 10
0.0
 20
0.0
 30
0.0
  3
*D89
  1

  0
LINE
  5
6749C
  8
0
 62
     0
 10
-2838.105794504962
 20
403789.5163368432
 30
0.0
 11
-2838.105794504962
 21
403099.2930254917
 31
0.0
  0
LINE
  5
6749D
  8
0
 62
     0
 10
-2712.105794504962
 20
403789.5163368432
 30
0.0
 11
-2712.105794504962
 21
403099.2930254917
 31
0.0
  0
LINE
  5
6749E
  8
0
 62
     0
 10
-2612.1057945049611
 20
403109.29302549158
 30
0.0
 11
-2512.1057945049611
 21
403109.29302549158
 31
0.0
  0
LINE
  5
6749F
  8
0
 62
     0
 10
-2938.1057945049611
 20
403109.29302549158
 30
0.0
 11
-3330.9629373621051
 21
403109.29302549158
 31
0.0
  0
LINE
  5
674A0
  8
0
 62
     0
 10
-2712.105794504962
 20
403109.29302549158
 30
0.0
 11
-2838.105794504962
 21
403109.29302549158
 31
0.0
  0
INSERT
  5
674A1
  8
0
 62
     0
  2
_OPEN
 10
-2712.105794504962
 20
403109.29302549158
 30
0.0
 41
100.0
 42
100.0
 43
100.0
 50
180.0
  0
INSERT
  5
674A2
  8
0
 62
     0
  2
_OPEN
 10
-2838.105794504962
 20
403109.29302549158
 30
0.0
 41
100.0
 42
100.0
 43
100.0
  0
INSERT
  5
674A3
  8
0
  6
CONTINUOUS
  2
*U174
 10
0.0
 20
0.0
 30
0.0
  0
POINT
  5
674A4
  8
DEFPOINTS
 62
     0
 10
-2838.105794504962
 20
403792.66633684322
 30
0.0
  0
POINT
  5
674A5
  8
DEFPOINTS
 62
     0
 10
-2712.105794504962
 20
403792.66633684322
 30
0.0
  0
POINT
  5
674A6
  8
DEFPOINTS
 62
     0
 10
-2712.105794504962
 20
403109.29302549158
 30
0.0
  0
ENDBLK
  5
672EA
  8
0
  0
BLOCK
  8
0
  2
*D90
 70
     1
 10
0.0
 20
0.0
 30
0.0
  3
*D90
  1

  0
LINE
  5
674A7
  8
0
 62
     0
 10
-1429.5975931638679
 20
402718.91202332813
 30
0.0
 11
-1924.5166056578159
 21
403703.94955319399
 31
0.0
  0
LINE
  5
674A8
  8
0
 62
     0
 10
-2019.6949833521801
 20
403893.3831204928
 30
0.0
 11
-2064.590444528731
 21
403982.7385767657
 31
0.0
  0
INSERT
  5
674A9
  8
0
  6
CONTINUOUS
  2
*U175
 10
0.0
 20
0.0
 30
0.0
  0
LINE
  5
674AA
  8
0
 62
     0
 10
-1974.799522175628
 20
403804.02766421979
 30
0.0
 11
-1969.4120668343969
 21
403793.305009467
 31
0.0
  0
INSERT
  5
674AB
  8
0
 62
     0
  2
_OPEN
 10
-1974.799522175628
 20
403804.02766421979
 30
0.0
 41
100.0
 42
100.0
 43
100.0
 50
296.67663268773731
  0
INSERT
  5
674AC
  8
0
 62
     0
  2
_OPEN
 10
-1969.4120668343969
 20
403793.305009467
 30
0.0
 41
100.0
 42
100.0
 43
100.0
 50
116.6766326877373
  0
POINT
  5
674AD
  8
DEFPOINTS
 62
     0
 10
-1969.4120668343969
 20
403793.305009467
 30
0.0
  0
POINT
  5
674AE
  8
DEFPOINTS
 62
     0
 10
-1974.799522175628
 20
403804.02766421979
 30
0.0
  0
ENDBLK
  5
672F5
  8
0
  0
BLOCK
  8
0
  2
*D91
 70
     1
 10
0.0
 20
0.0
 30
0.0
  3
*D91
  1

  0
LINE
  5
674AF
  8
0
 62
     0
 10
-1276.6629584042239
 20
398708.46049234743
 30
0.0
 11
-1930.0166056581361
 21
400008.83054598537
 31
0.0
  0
LINE
  5
674B0
  8
0
 62
     0
 10
-2025.1949833519759
 20
400198.26411328412
 30
0.0
 11
-2070.0904445283518
 21
400287.6195695572
 31
0.0
  0
INSERT
  5
674B1
  8
0
  6
CONTINUOUS
  2
*U176
 10
0.0
 20
0.0
 30
0.0
  0
LINE
  5
674B2
  8
0
 62
     0
 10
-1980.299522175628
 20
400108.90865701111
 30
0.0
 11
-1974.9120668345131
 21
400098.1860022585
 31
0.0
  0
INSERT
  5
674B3
  8
0
 62
     0
  2
_OPEN
 10
-1980.299522175628
 20
400108.90865701111
 30
0.0
 41
100.0
 42
100.0
 43
100.0
 50
296.67663268761561
  0
INSERT
  5
674B4
  8
0
 62
     0
  2
_OPEN
 10
-1974.9120668345131
 20
400098.1860022585
 30
0.0
 41
100.0
 42
100.0
 43
100.0
 50
116.67663268761549
  0
POINT
  5
674B5
  8
DEFPOINTS
 62
     0
 10
-1974.9120668345131
 20
400098.1860022585
 30
0.0
  0
POINT
  5
674B6
  8
DEFPOINTS
 62
     0
 10
-1980.299522175628
 20
400108.90865701111
 30
0.0
  0
ENDBLK
  5
67300
  8
0
  0
BLOCK
  8
0
  2
*D92
 70
     1
 10
0.0
 20
0.0
 30
0.0
  3
*D92
  1

  0
LINE
  5
674B7
  8
0
 62
     0
 10
-3003.605794504962
 20
400094.39732963481
 30
0.0
 11
-3003.605794504962
 21
399404.17401828337
 31
0.0
  0
LINE
  5
674B8
  8
0
 62
     0
 10
-2877.605794504962
 20
400094.39732963481
 30
0.0
 11
-2877.605794504962
 21
399404.17401828337
 31
0.0
  0
LINE
  5
674B9
  8
0
 62
     0
 10
-2777.605794504962
 20
399414.17401828337
 30
0.0
 11
-2677.605794504962
 21
399414.17401828337
 31
0.0
  0
LINE
  5
674BA
  8
0
 62
     0
 10
-3103.605794504962
 20
399414.17401828337
 30
0.0
 11
-3496.4629373621051
 21
399414.17401828337
 31
0.0
  0
LINE
  5
674BB
  8
0
 62
     0
 10
-2877.605794504962
 20
399414.17401828337
 30
0.0
 11
-3003.605794504962
 21
399414.17401828337
 31
0.0
  0
INSERT
  5
674BC
  8
0
 62
     0
  2
_OPEN
 10
-2877.605794504962
 20
399414.17401828337
 30
0.0
 41
100.0
 42
100.0
 43
100.0
 50
180.0
  0
INSERT
  5
674BD
  8
0
 62
     0
  2
_OPEN
 10
-3003.605794504962
 20
399414.17401828337
 30
0.0
 41
100.0
 42
100.0
 43
100.0
  0
INSERT
  5
674BE
  8
0
  6
CONTINUOUS
  2
*U177
 10
0.0
 20
0.0
 30
0.0
  0
POINT
  5
674BF
  8
DEFPOINTS
 62
     0
 10
-3003.605794504962
 20
400097.54732963489
 30
0.0
  0
POINT
  5
674C0
  8
DEFPOINTS
 62
     0
 10
-2877.605794504962
 20
400097.54732963489
 30
0.0
  0
POINT
  5
674C1
  8
DEFPOINTS
 62
     0
 10
-2877.605794504962
 20
399414.17401828337
 30
0.0
  0
ENDBLK
  5
6730E
  8
0
  0
BLOCK
  8
0
  2
*D93
 70
     1
 10
0.0
 20
0.0
 30
0.0
  3
*D93
  1

  0
LINE
  5
674C2
  8
0
 62
     0
 10
-5086.7107755993266
 20
400849.2292584877
 30
0.0
 11
-5086.7107755993266
 21
401112.75005376851
 31
0.0
  0
LINE
  5
674C3
  8
0
 62
     0
 10
-4825.7107755993266
 20
400849.2292584877
 30
0.0
 11
-4825.7107755993266
 21
401112.75005376851
 31
0.0
  0
LINE
  5
674C4
  8
0
 62
     0
 10
-4986.7107755993266
 20
401102.75005376851
 30
0.0
 11
-4925.7107755993266
 21
401102.75005376851
 31
0.0
  0
LINE
  5
674C5
  8
0
 62
     0
 10
-4825.7107755993266
 20
401102.75005376851
 30
0.0
 11
-4062.8679099620449
 21
401102.75005376851
 31
0.0
  0
INSERT
  5
674C6
  8
0
 62
     0
  2
_OPEN
 10
-5086.7107755993266
 20
401102.75005376851
 30
0.0
 41
100.0
 42
100.0
 43
100.0
 50
180.0
  0
INSERT
  5
674C7
  8
0
 62
     0
  2
_OPEN
 10
-4825.7107755993266
 20
401102.75005376851
 30
0.0
 41
100.0
 42
100.0
 43
100.0
  0
INSERT
  5
674C8
  8
0
  6
CONTINUOUS
  2
*U178
 10
0.0
 20
0.0
 30
0.0
  0
POINT
  5
674C9
  8
DEFPOINTS
 62
     0
 10
-5086.7107755993266
 20
400846.07925848768
 30
0.0
  0
POINT
  5
674CA
  8
DEFPOINTS
 62
     0
 10
-4825.7107755993266
 20
400846.07925848768
 30
0.0
  0
POINT
  5
674CB
  8
DEFPOINTS
 62
     0
 10
-4825.7107755993266
 20
401102.75005376851
 30
0.0
  0
ENDBLK
  5
6731B
  8
0
  0
BLOCK
  8
0
  2
*D94
 70
     1
 10
0.0
 20
0.0
 30
0.0
  3
*D94
  1

  0
LINE
  5
674CC
  8
0
 62
     0
 10
-8083.1151587620616
 20
400807.01718956709
 30
0.0
 11
-8083.1151587620616
 21
401024.14963077637
 31
0.0
  0
LINE
  5
674CD
  8
0
 62
     0
 10
-7900.1151587620616
 20
400807.01718956709
 30
0.0
 11
-7900.1151587620616
 21
401024.14963077637
 31
0.0
  0
LINE
  5
674CE
  8
0
 62
     0
 10
-8183.1151587620616
 20
401014.14963077632
 30
0.0
 11
-8283.1151587620625
 21
401014.14963077632
 31
0.0
  0
LINE
  5
674CF
  8
0
 62
     0
 10
-7800.1151587620616
 20
401014.14963077632
 30
0.0
 11
-7407.2580159049194
 21
401014.14963077632
 31
0.0
  0
LINE
  5
674D0
  8
0
 62
     0
 10
-8083.1151587620616
 20
401014.14963077632
 30
0.0
 11
-7900.1151587620616
 21
401014.14963077632
 31
0.0
  0
INSERT
  5
674D1
  8
0
 62
     0
  2
_OPEN
 10
-8083.1151587620616
 20
401014.14963077632
 30
0.0
 41
100.0
 42
100.0
 43
100.0
  0
INSERT
  5
674D2
  8
0
 62
     0
  2
_OPEN
 10
-7900.1151587620616
 20
401014.14963077632
 30
0.0
 41
100.0
 42
100.0
 43
100.0
 50
180.0
  0
INSERT
  5
674D3
  8
0
  6
CONTINUOUS
  2
*U179
 10
0.0
 20
0.0
 30
0.0
  0
POINT
  5
674D4
  8
DEFPOINTS
 62
     0
 10
-8083.1151587620616
 20
400803.86718956713
 30
0.0
  0
POINT
  5
674D5
  8
DEFPOINTS
 62
     0
 10
-7900.1151587620616
 20
400803.86718956713
 30
0.0
  0
POINT
  5
674D6
  8
DEFPOINTS
 62
     0
 10
-7900.1151587620616
 20
401014.14963077632
 30
0.0
  0
ENDBLK
  5
67329
  8
0
  0
BLOCK
  8
0
  2
*D95
 70
     1
 10
0.0
 20
0.0
 30
0.0
  3
*D95
  1

  0
LINE
  5
674D7
  8
0
 62
     0
 10
-5331.2107755993266
 20
400649.22925848758
 30
0.0
 11
-5331.2107755993266
 21
401328.07925848762
 31
0.0
  0
LINE
  5
674D8
  8
0
 62
     0
 10
-4581.2107755993266
 20
400649.22925848758
 30
0.0
 11
-4581.2107755993266
 21
401328.07925848762
 31
0.0
  0
LINE
  5
674D9
  8
0
 62
     0
 10
-5231.2107755993266
 20
401318.07925848768
 30
0.0
 11
-4681.2107755993266
 21
401318.07925848768
 31
0.0
  0
INSERT
  5
674DA
  8
0
 62
     0
  2
_OPEN
 10
-5331.2107755993266
 20
401318.07925848768
 30
0.0
 41
100.0
 42
100.0
 43
100.0
 50
180.0
  0
INSERT
  5
674DB
  8
0
 62
     0
  2
_OPEN
 10
-4581.2107755993266
 20
401318.07925848768
 30
0.0
 41
100.0
 42
100.0
 43
100.0
  0
INSERT
  5
674DC
  8
0
  6
CONTINUOUS
  2
*U180
 10
0.0
 20
0.0
 30
0.0
  0
POINT
  5
674DD
  8
DEFPOINTS
 62
     0
 10
-5331.2107755993266
 20
400646.07925848768
 30
0.0
  0
POINT
  5
674DE
  8
DEFPOINTS
 62
     0
 10
-4581.2107755993266
 20
400646.07925848768
 30
0.0
  0
POINT
  5
674DF
  8
DEFPOINTS
 62
     0
 10
-4581.2107755993266
 20
401318.07925848768
 30
0.0
  0
ENDBLK
  5
67335
  8
0
  0
BLOCK
  8
0
  2
*D96
 70
     1
 10
0.0
 20
0.0
 30
0.0
  3
*D96
  1

  0
LINE
  5
674E0
  8
0
 62
     0
 10
-5381.2107755993284
 20
400267.92925848759
 30
0.0
 11
-5381.2107755993284
 21
399308.07925848768
 31
0.0
  0
LINE
  5
674E1
  8
0
 62
     0
 10
-4531.2107755993266
 20
400267.92925848759
 30
0.0
 11
-4531.2107755993266
 21
399308.07925848768
 31
0.0
  0
LINE
  5
674E2
  8
0
 62
     0
 10
-5281.2107755993266
 20
399318.07925848768
 30
0.0
 11
-4631.2107755993266
 21
399318.07925848768
 31
0.0
  0
INSERT
  5
674E3
  8
0
 62
     0
  2
_OPEN
 10
-5381.2107755993284
 20
399318.07925848768
 30
0.0
 41
100.0
 42
100.0
 43
100.0
 50
180.0
  0
INSERT
  5
674E4
  8
0
 62
     0
  2
_OPEN
 10
-4531.2107755993266
 20
399318.07925848768
 30
0.0
 41
100.0
 42
100.0
 43
100.0
  0
INSERT
  5
674E5
  8
0
  6
CONTINUOUS
  2
*U181
 10
0.0
 20
0.0
 30
0.0
  0
POINT
  5
674E6
  8
DEFPOINTS
 62
     0
 10
-5381.2107755993284
 20
400271.07925848768
 30
0.0
  0
POINT
  5
674E7
  8
DEFPOINTS
 62
     0
 10
-4531.2107755993266
 20
400271.07925848768
 30
0.0
  0
POINT
  5
674E8
  8
DEFPOINTS
 62
     0
 10
-4531.2107755993266
 20
399318.07925848768
 30
0.0
  0
ENDBLK
  5
67341
  8
0
  0
BLOCK
  8
0
  2
*D97
 70
     1
 10
0.0
 20
0.0
 30
0.0
  3
*D97
  1

  0
LINE
  5
674E9
  8
0
 62
     0
 10
-5356.2107755993266
 20
400043.92925848771
 30
0.0
 11
-5356.2107755993266
 21
399528.07925848768
 31
0.0
  0
LINE
  5
674EA
  8
0
 62
     0
 10
-4556.2107755993266
 20
400043.92925848771
 30
0.0
 11
-4556.2107755993266
 21
399528.07925848768
 31
0.0
  0
LINE
  5
674EB
  8
0
 62
     0
 10
-5256.2107755993284
 20
399538.07925848768
 30
0.0
 11
-4656.2107755993266
 21
399538.07925848768
 31
0.0
  0
INSERT
  5
674EC
  8
0
 62
     0
  2
_OPEN
 10
-5356.2107755993266
 20
399538.07925848768
 30
0.0
 41
100.0
 42
100.0
 43
100.0
 50
180.0
  0
INSERT
  5
674ED
  8
0
 62
     0
  2
_OPEN
 10
-4556.2107755993266
 20
399538.07925848768
 30
0.0
 41
100.0
 42
100.0
 43
100.0
  0
INSERT
  5
674EE
  8
0
  6
CONTINUOUS
  2
*U182
 10
0.0
 20
0.0
 30
0.0
  0
POINT
  5
674EF
  8
DEFPOINTS
 62
     0
 10
-5356.2107755993266
 20
400047.07925848762
 30
0.0
  0
POINT
  5
674F0
  8
DEFPOINTS
 62
     0
 10
-4556.2107755993266
 20
400047.07925848762
 30
0.0
  0
POINT
  5
674F1
  8
DEFPOINTS
 62
     0
 10
-4556.2107755993266
 20
399538.07925848768
 30
0.0
  0
ENDBLK
  5
6734D
  8
0
  0
BLOCK
  8
0
  2
*D98
 70
     1
 10
0.0
 20
0.0
 30
0.0
  3
*D98
  1

  0
LINE
  5
674F2
  8
0
 62
     0
 10
-5131.2107755993284
 20
400032.92925848771
 30
0.0
 11
-5131.2107755993284
 21
399768.07925848768
 31
0.0
  0
LINE
  5
674F3
  8
0
 62
     0
 10
-4781.2107755993266
 20
400032.92925848771
 30
0.0
 11
-4781.2107755993266
 21
399768.07925848768
 31
0.0
  0
LINE
  5
674F4
  8
0
 62
     0
 10
-5031.2107755993266
 20
399778.07925848768
 30
0.0
 11
-4881.2107755993284
 21
399778.07925848768
 31
0.0
  0
INSERT
  5
674F5
  8
0
 62
     0
  2
_OPEN
 10
-5131.2107755993284
 20
399778.07925848768
 30
0.0
 41
100.0
 42
100.0
 43
100.0
 50
180.0
  0
INSERT
  5
674F6
  8
0
 62
     0
  2
_OPEN
 10
-4781.2107755993266
 20
399778.07925848768
 30
0.0
 41
100.0
 42
100.0
 43
100.0
  0
INSERT
  5
674F7
  8
0
  6
CONTINUOUS
  2
*U183
 10
0.0
 20
0.0
 30
0.0
  0
POINT
  5
674F8
  8
DEFPOINTS
 62
     0
 10
-5131.2107755993284
 20
400036.07925848768
 30
0.0
  0
POINT
  5
674F9
  8
DEFPOINTS
 62
     0
 10
-4781.2107755993266
 20
400036.07925848768
 30
0.0
  0
POINT
  5
674FA
  8
DEFPOINTS
 62
     0
 10
-4781.2107755993266
 20
399778.07925848768
 30
0.0
  0
ENDBLK
  5
67359
  8
0
  0
BLOCK
  8
0
  2
*D99
 70
     1
 10
0.0
 20
0.0
 30
0.0
  3
*D99
  1

  0
LINE
  5
674FB
  8
0
 62
     0
 10
-5331.2107755993266
 20
404420.40071889688
 30
0.0
 11
-5331.2107755993266
 21
405099.2507188968
 31
0.0
  0
LINE
  5
674FC
  8
0
 62
     0
 10
-4581.2107755993266
 20
404420.40071889688
 30
0.0
 11
-4581.2107755993266
 21
405099.2507188968
 31
0.0
  0
LINE
  5
674FD
  8
0
 62
     0
 10
-5231.2107755993266
 20
405089.2507188968
 30
0.0
 11
-4681.2107755993266
 21
405089.2507188968
 31
0.0
  0
INSERT
  5
674FE
  8
0
 62
     0
  2
_OPEN
 10
-5331.2107755993266
 20
405089.2507188968
 30
0.0
 41
100.0
 42
100.0
 43
100.0
 50
180.0
  0
INSERT
  5
674FF
  8
0
 62
     0
  2
_OPEN
 10
-4581.2107755993266
 20
405089.2507188968
 30
0.0
 41
100.0
 42
100.0
 43
100.0
  0
INSERT
  5
67500
  8
0
  6
CONTINUOUS
  2
*U184
 10
0.0
 20
0.0
 30
0.0
  0
POINT
  5
67501
  8
DEFPOINTS
 62
     0
 10
-5331.2107755993266
 20
404417.2507188968
 30
0.0
  0
POINT
  5
67502
  8
DEFPOINTS
 62
     0
 10
-4581.2107755993266
 20
404417.2507188968
 30
0.0
  0
POINT
  5
67503
  8
DEFPOINTS
 62
     0
 10
-4581.2107755993266
 20
405089.2507188968
 30
0.0
  0
ENDBLK
  5
67365
  8
0
  0
BLOCK
  8
0
  2
*D100
 70
     1
 10
0.0
 20
0.0
 30
0.0
  3
*D100
  1

  0
LINE
  5
67504
  8
0
 62
     0
 10
-5086.7107755993266
 20
404620.40071889671
 30
0.0
 11
-5086.7107755993266
 21
404933.19010792091
 31
0.0
  0
LINE
  5
67505
  8
0
 62
     0
 10
-4825.7107755993266
 20
404620.40071889671
 30
0.0
 11
-4825.7107755993266
 21
404933.19010792091
 31
0.0
  0
LINE
  5
67506
  8
0
 62
     0
 10
-4986.7107755993266
 20
404923.19010792091
 30
0.0
 11
-4925.7107755993266
 21
404923.19010792091
 31
0.0
  0
LINE
  5
67507
  8
0
 62
     0
 10
-4825.7107755993266
 20
404923.19010792091
 30
0.0
 11
-4063.3516900818472
 21
404923.19010792091
 31
0.0
  0
INSERT
  5
67508
  8
0
 62
     0
  2
_OPEN
 10
-5086.7107755993266
 20
404923.19010792091
 30
0.0
 41
100.0
 42
100.0
 43
100.0
 50
180.0
  0
INSERT
  5
67509
  8
0
 62
     0
  2
_OPEN
 10
-4825.7107755993266
 20
404923.19010792091
 30
0.0
 41
100.0
 42
100.0
 43
100.0
  0
INSERT
  5
6750A
  8
0
  6
CONTINUOUS
  2
*U185
 10
0.0
 20
0.0
 30
0.0
  0
POINT
  5
6750B
  8
DEFPOINTS
 62
     0
 10
-5086.7107755993266
 20
404617.2507188968
 30
0.0
  0
POINT
  5
6750C
  8
DEFPOINTS
 62
     0
 10
-4825.7107755993266
 20
404617.2507188968
 30
0.0
  0
POINT
  5
6750D
  8
DEFPOINTS
 62
     0
 10
-4825.7107755993266
 20
404923.19010792091
 30
0.0
  0
ENDBLK
  5
67372
  8
0
  0
BLOCK
  8
0
  2
*D101
 70
     1
 10
0.0
 20
0.0
 30
0.0
  3
*D101
  1

  0
LINE
  5
6750E
  8
0
 62
     0
 10
-5131.2107755993284
 20
403804.10071889678
 30
0.0
 11
-5131.2107755993284
 21
403539.2507188968
 31
0.0
  0
LINE
  5
6750F
  8
0
 62
     0
 10
-4781.2107755993266
 20
403804.10071889678
 30
0.0
 11
-4781.2107755993266
 21
403539.2507188968
 31
0.0
  0
LINE
  5
67510
  8
0
 62
     0
 10
-5031.2107755993266
 20
403549.2507188968
 30
0.0
 11
-4881.2107755993284
 21
403549.2507188968
 31
0.0
  0
INSERT
  5
67511
  8
0
 62
     0
  2
_OPEN
 10
-5131.2107755993284
 20
403549.2507188968
 30
0.0
 41
100.0
 42
100.0
 43
100.0
 50
180.0
  0
INSERT
  5
67512
  8
0
 62
     0
  2
_OPEN
 10
-4781.2107755993266
 20
403549.2507188968
 30
0.0
 41
100.0
 42
100.0
 43
100.0
  0
INSERT
  5
67513
  8
0
  6
CONTINUOUS
  2
*U186
 10
0.0
 20
0.0
 30
0.0
  0
POINT
  5
67514
  8
DEFPOINTS
 62
     0
 10
-5131.2107755993284
 20
403807.2507188968
 30
0.0
  0
POINT
  5
67515
  8
DEFPOINTS
 62
     0
 10
-4781.2107755993266
 20
403807.2507188968
 30
0.0
  0
POINT
  5
67516
  8
DEFPOINTS
 62
     0
 10
-4781.2107755993266
 20
403549.2507188968
 30
0.0
  0
ENDBLK
  5
6737E
  8
0
  0
BLOCK
  8
0
  2
*D102
 70
     1
 10
0.0
 20
0.0
 30
0.0
  3
*D102
  1

  0
LINE
  5
67517
  8
0
 62
     0
 10
-5356.2107755993266
 20
403855.10071889672
 30
0.0
 11
-5356.2107755993266
 21
403299.2507188968
 31
0.0
  0
LINE
  5
67518
  8
0
 62
     0
 10
-4556.2107755993266
 20
403855.10071889672
 30
0.0
 11
-4556.2107755993266
 21
403299.2507188968
 31
0.0
  0
LINE
  5
67519
  8
0
 62
     0
 10
-5256.2107755993284
 20
403309.2507188968
 30
0.0
 11
-4656.2107755993266
 21
403309.2507188968
 31
0.0
  0
INSERT
  5
6751A
  8
0
 62
     0
  2
_OPEN
 10
-5356.2107755993266
 20
403309.2507188968
 30
0.0
 41
100.0
 42
100.0
 43
100.0
 50
180.0
  0
INSERT
  5
6751B
  8
0
 62
     0
  2
_OPEN
 10
-4556.2107755993266
 20
403309.2507188968
 30
0.0
 41
100.0
 42
100.0
 43
100.0
  0
INSERT
  5
6751C
  8
0
  6
CONTINUOUS
  2
*U187
 10
0.0
 20
0.0
 30
0.0
  0
POINT
  5
6751D
  8
DEFPOINTS
 62
     0
 10
-5356.2107755993266
 20
403858.2507188968
 30
0.0
  0
POINT
  5
6751E
  8
DEFPOINTS
 62
     0
 10
-4556.2107755993266
 20
403858.2507188968
 30
0.0
  0
POINT
  5
6751F
  8
DEFPOINTS
 62
     0
 10
-4556.2107755993266
 20
403309.2507188968
 30
0.0
  0
ENDBLK
  5
6738A
  8
0
  0
BLOCK
  8
0
  2
*D103
 70
     1
 10
0.0
 20
0.0
 30
0.0
  3
*D103
  1

  0
LINE
  5
67520
  8
0
 62
     0
 10
-5381.2107755993284
 20
404039.10071889678
 30
0.0
 11
-5381.2107755993284
 21
403079.2507188968
 31
0.0
  0
LINE
  5
67521
  8
0
 62
     0
 10
-4531.2107755993266
 20
404039.10071889678
 30
0.0
 11
-4531.2107755993266
 21
403079.2507188968
 31
0.0
  0
LINE
  5
67522
  8
0
 62
     0
 10
-5281.2107755993266
 20
403089.2507188968
 30
0.0
 11
-4631.2107755993266
 21
403089.2507188968
 31
0.0
  0
INSERT
  5
67523
  8
0
 62
     0
  2
_OPEN
 10
-5381.2107755993284
 20
403089.2507188968
 30
0.0
 41
100.0
 42
100.0
 43
100.0
 50
180.0
  0
INSERT
  5
67524
  8
0
 62
     0
  2
_OPEN
 10
-4531.2107755993266
 20
403089.2507188968
 30
0.0
 41
100.0
 42
100.0
 43
100.0
  0
INSERT
  5
67525
  8
0
  6
CONTINUOUS
  2
*U188
 10
0.0
 20
0.0
 30
0.0
  0
POINT
  5
67526
  8
DEFPOINTS
 62
     0
 10
-5381.2107755993284
 20
404042.2507188968
 30
0.0
  0
POINT
  5
67527
  8
DEFPOINTS
 62
     0
 10
-4531.2107755993266
 20
404042.2507188968
 30
0.0
  0
POINT
  5
67528
  8
DEFPOINTS
 62
     0
 10
-4531.2107755993266
 20
403089.2507188968
 30
0.0
  0
ENDBLK
  5
67396
  8
0
  0
BLOCK
  8
0
  2
*D104
 70
     1
 10
0.0
 20
0.0
 30
0.0
  3
*D104
  1

  0
LINE
  5
67529
  8
0
 62
     0
 10
-7967.6151587620616
 20
404633.50750408933
 30
0.0
 11
-7967.6151587620616
 21
404849.35750408919
 31
0.0
  0
LINE
  5
6752A
  8
0
 62
     0
 10
-7784.6151587620616
 20
404633.50750408933
 30
0.0
 11
-7784.6151587620616
 21
404849.35750408919
 31
0.0
  0
LINE
  5
6752B
  8
0
 62
     0
 10
-8067.6151587620634
 20
404839.3575040893
 30
0.0
 11
-8167.6151587620616
 21
404839.3575040893
 31
0.0
  0
LINE
  5
6752C
  8
0
 62
     0
 10
-7684.6151587620634
 20
404839.3575040893
 30
0.0
 11
-7291.7580159049194
 21
404839.3575040893
 31
0.0
  0
LINE
  5
6752D
  8
0
 62
     0
 10
-7967.6151587620616
 20
404839.3575040893
 30
0.0
 11
-7784.6151587620616
 21
404839.3575040893
 31
0.0
  0
INSERT
  5
6752E
  8
0
 62
     0
  2
_OPEN
 10
-7967.6151587620616
 20
404839.3575040893
 30
0.0
 41
100.0
 42
100.0
 43
100.0
  0
INSERT
  5
6752F
  8
0
 62
     0
  2
_OPEN
 10
-7784.6151587620616
 20
404839.3575040893
 30
0.0
 41
100.0
 42
100.0
 43
100.0
 50
180.0
  0
INSERT
  5
67530
  8
0
  6
CONTINUOUS
  2
*U189
 10
0.0
 20
0.0
 30
0.0
  0
POINT
  5
67531
  8
DEFPOINTS
 62
     0
 10
-7967.6151587620616
 20
404630.3575040893
 30
0.0
  0
POINT
  5
67532
  8
DEFPOINTS
 62
     0
 10
-7784.6151587620616
 20
404630.3575040893
 30
0.0
  0
POINT
  5
67533
  8
DEFPOINTS
 62
     0
 10
-7784.6151587620616
 20
404839.3575040893
 30
0.0
  0
ENDBLK
  5
673A4
  8
0
  0
BLOCK
  8
0
  2
*D105
 70
     1
 10
0.0
 20
0.0
 30
0.0
  3
*D105
  1

  0
LINE
  5
67534
  8
0
 62
     0
 10
-5359.3607755993271
 20
400047.07925848762
 30
0.0
 11
-5662.2107755993266
 21
400047.07925848762
 31
0.0
  0
LINE
  5
67535
  8
0
 62
     0
 10
-5134.3607755993271
 20
400036.07925848768
 30
0.0
 11
-5662.2107755993266
 21
400036.07925848768
 31
0.0
  0
LINE
  5
67536
  8
0
 62
     0
 10
-5652.2107755993284
 20
400147.07925848768
 30
0.0
 11
-5652.2107755993284
 21
400247.07925848768
 31
0.0
  0
LINE
  5
67537
  8
0
 62
     0
 10
-5652.2107755993284
 20
399936.07925848768
 30
0.0
 11
-5652.2107755993284
 21
399500.36497277347
 31
0.0
  0
LINE
  5
67538
  8
0
 62
     0
 10
-5652.2107755993284
 20
400047.07925848762
 30
0.0
 11
-5652.2107755993284
 21
400036.07925848768
 31
0.0
  0
INSERT
  5
67539
  8
0
 62
     0
  2
_OPEN
 10
-5652.2107755993284
 20
400047.07925848762
 30
0.0
 41
100.0
 42
100.0
 43
100.0
 50
270.0
  0
INSERT
  5
6753A
  8
0
 62
     0
  2
_OPEN
 10
-5652.2107755993284
 20
400036.07925848768
 30
0.0
 41
100.0
 42
100.0
 43
100.0
 50
90.0
  0
INSERT
  5
6753B
  8
0
  6
CONTINUOUS
  2
*U190
 10
0.0
 20
0.0
 30
0.0
  0
POINT
  5
6753C
  8
DEFPOINTS
 62
     0
 10
-5356.2107755993266
 20
400047.07925848762
 30
0.0
  0
POINT
  5
6753D
  8
DEFPOINTS
 62
     0
 10
-5131.2107755993284
 20
400036.07925848768
 30
0.0
  0
POINT
  5
6753E
  8
DEFPOINTS
 62
     0
 10
-5652.2107755993284
 20
400036.07925848768
 30
0.0
  0
ENDBLK
  5
673B2
  8
0
  0
BLOCK
  8
0
  2
*D106
 70
     1
 10
0.0
 20
0.0
 30
0.0
  3
*D106
  1

  0
LINE
  5
6753F
  8
0
 62
     0
 10
-8083.2651587620621
 20
400808.86718956713
 30
0.0
 11
-8584.1151587620625
 21
400808.86718956713
 31
0.0
  0
LINE
  5
67540
  8
0
 62
     0
 10
-8101.2651587620621
 20
400001.86718956713
 30
0.0
 11
-8584.1151587620625
 21
400001.86718956713
 31
0.0
  0
LINE
  5
67541
  8
0
 62
     0
 10
-8574.1151587620625
 20
400708.86718956713
 30
0.0
 11
-8574.1151587620625
 21
400101.86718956701
 31
0.0
  0
INSERT
  5
67542
  8
0
 62
     0
  2
_OPEN
 10
-8574.1151587620625
 20
400808.86718956713
 30
0.0
 41
100.0
 42
100.0
 43
100.0
 50
90.0
  0
INSERT
  5
67543
  8
0
 62
     0
  2
_OPEN
 10
-8574.1151587620625
 20
400001.86718956713
 30
0.0
 41
100.0
 42
100.0
 43
100.0
 50
270.0
  0
INSERT
  5
67544
  8
0
  6
CONTINUOUS
  2
*U191
 10
0.0
 20
0.0
 30
0.0
  0
POINT
  5
67545
  8
DEFPOINTS
 62
     0
 10
-8080.1151587620616
 20
400808.86718956713
 30
0.0
  0
POINT
  5
67546
  8
DEFPOINTS
 62
     0
 10
-8098.1151587620634
 20
400001.86718956713
 30
0.0
  0
POINT
  5
67547
  8
DEFPOINTS
 62
     0
 10
-8574.1151587620625
 20
400001.86718956713
 30
0.0
  0
ENDBLK
  5
673BE
  8
0
  0
BLOCK
  8
0
  2
*D107
 70
     1
 10
0.0
 20
0.0
 30
0.0
  3
*D107
  1

  0
LINE
  5
67548
  8
0
 62
     0
 10
-8083.1151587620616
 20
400807.01718956709
 30
0.0
 11
-8083.1151587620616
 21
401282.86718956713
 31
0.0
  0
LINE
  5
67549
  8
0
 62
     0
 10
-7013.1151587620616
 20
400591.01718956709
 30
0.0
 11
-7013.1151587620616
 21
401282.86718956713
 31
0.0
  0
LINE
  5
6754A
  8
0
 62
     0
 10
-7983.1151587620616
 20
401272.86718956713
 30
0.0
 11
-7113.1151587620616
 21
401272.86718956713
 31
0.0
  0
INSERT
  5
6754B
  8
0
 62
     0
  2
_OPEN
 10
-8083.1151587620616
 20
401272.86718956713
 30
0.0
 41
100.0
 42
100.0
 43
100.0
 50
180.0
  0
INSERT
  5
6754C
  8
0
 62
     0
  2
_OPEN
 10
-7013.1151587620616
 20
401272.86718956713
 30
0.0
 41
100.0
 42
100.0
 43
100.0
  0
INSERT
  5
6754D
  8
0
  6
CONTINUOUS
  2
*U192
 10
0.0
 20
0.0
 30
0.0
  0
POINT
  5
6754E
  8
DEFPOINTS
 62
     0
 10
-8083.1151587620616
 20
400803.86718956713
 30
0.0
  0
POINT
  5
6754F
  8
DEFPOINTS
 62
     0
 10
-7013.1151587620616
 20
400587.86718956713
 30
0.0
  0
POINT
  5
67550
  8
DEFPOINTS
 62
     0
 10
-7013.1151587620616
 20
401272.86718956713
 30
0.0
  0
ENDBLK
  5
673CA
  8
0
  0
BLOCK
  8
0
  2
*D108
 70
     1
 10
0.0
 20
0.0
 30
0.0
  3
*D108
  1

  0
LINE
  5
67551
  8
0
 62
     0
 10
-7013.1151587620616
 20
400260.71718956711
 30
0.0
 11
-7013.1151587620616
 21
399548.324806082
 31
0.0
  0
LINE
  5
67552
  8
0
 62
     0
 10
-7118.1151587620634
 20
399998.71718956699
 30
0.0
 11
-7118.1151587620634
 21
399548.324806082
 31
0.0
  0
LINE
  5
67553
  8
0
 62
     0
 10
-7218.1151587620634
 20
399558.324806082
 30
0.0
 11
-7318.1151587620634
 21
399558.324806082
 31
0.0
  0
LINE
  5
67554
  8
0
 62
     0
 10
-6913.1151587620616
 20
399558.324806082
 30
0.0
 11
-6520.2580159049194
 21
399558.324806082
 31
0.0
  0
LINE
  5
67555
  8
0
 62
     0
 10
-7118.1151587620634
 20
399558.324806082
 30
0.0
 11
-7013.1151587620616
 21
399558.324806082
 31
0.0
  0
INSERT
  5
67556
  8
0
 62
     0
  2
_OPEN
 10
-7118.1151587620634
 20
399558.324806082
 30
0.0
 41
100.0
 42
100.0
 43
100.0
  0
INSERT
  5
67557
  8
0
 62
     0
  2
_OPEN
 10
-7013.1151587620616
 20
399558.324806082
 30
0.0
 41
100.0
 42
100.0
 43
100.0
 50
180.0
  0
INSERT
  5
67558
  8
0
  6
CONTINUOUS
  2
*U193
 10
0.0
 20
0.0
 30
0.0
  0
POINT
  5
67559
  8
DEFPOINTS
 62
     0
 10
-7013.1151587620616
 20
400263.86718956701
 30
0.0
  0
POINT
  5
6755A
  8
DEFPOINTS
 62
     0
 10
-7118.1151587620634
 20
400001.86718956713
 30
0.0
  0
POINT
  5
6755B
  8
DEFPOINTS
 62
     0
 10
-7118.1151587620634
 20
399558.324806082
 30
0.0
  0
ENDBLK
  5
673D8
  8
0
  0
BLOCK
  8
0
  2
*D109
 70
     1
 10
0.0
 20
0.0
 30
0.0
  3
*D109
  1

  0
LINE
  5
6755C
  8
0
 62
     0
 10
-7118.1151587620634
 20
399998.71718956699
 30
0.0
 11
-7118.1151587620634
 21
399322.86718956713
 31
0.0
  0
LINE
  5
6755D
  8
0
 62
     0
 10
-7508.1151587620634
 20
399998.71718956699
 30
0.0
 11
-7508.1151587620634
 21
399322.86718956713
 31
0.0
  0
LINE
  5
6755E
  8
0
 62
     0
 10
-7218.1151587620634
 20
399332.86718956713
 30
0.0
 11
-7408.1151587620616
 21
399332.86718956713
 31
0.0
  0
INSERT
  5
6755F
  8
0
 62
     0
  2
_OPEN
 10
-7118.1151587620634
 20
399332.86718956713
 30
0.0
 41
100.0
 42
100.0
 43
100.0
  0
INSERT
  5
67560
  8
0
 62
     0
  2
_OPEN
 10
-7508.1151587620634
 20
399332.86718956713
 30
0.0
 41
100.0
 42
100.0
 43
100.0
 50
180.0
  0
INSERT
  5
67561
  8
0
  6
CONTINUOUS
  2
*U194
 10
0.0
 20
0.0
 30
0.0
  0
POINT
  5
67562
  8
DEFPOINTS
 62
     0
 10
-7118.1151587620634
 20
400001.86718956713
 30
0.0
  0
POINT
  5
67563
  8
DEFPOINTS
 62
     0
 10
-7508.1151587620634
 20
400001.86718956713
 30
0.0
  0
POINT
  5
67564
  8
DEFPOINTS
 62
     0
 10
-7508.1151587620634
 20
399332.86718956713
 30
0.0
  0
ENDBLK
  5
673E4
  8
0
  0
BLOCK
  8
0
  2
*D110
 70
     1
 10
0.0
 20
0.0
 30
0.0
  3
*D110
  1

  0
LINE
  5
67565
  8
0
 62
     0
 10
-7508.1151587620634
 20
399998.71718956699
 30
0.0
 11
-7508.1151587620634
 21
399322.86718956713
 31
0.0
  0
LINE
  5
67566
  8
0
 62
     0
 10
-8018.1151587620616
 20
399998.71718956699
 30
0.0
 11
-8018.1151587620616
 21
399322.86718956713
 31
0.0
  0
LINE
  5
67567
  8
0
 62
     0
 10
-7608.1151587620616
 20
399332.86718956713
 30
0.0
 11
-7918.1151587620634
 21
399332.86718956713
 31
0.0
  0
INSERT
  5
67568
  8
0
 62
     0
  2
_OPEN
 10
-7508.1151587620634
 20
399332.86718956713
 30
0.0
 41
100.0
 42
100.0
 43
100.0
  0
INSERT
  5
67569
  8
0
 62
     0
  2
_OPEN
 10
-8018.1151587620616
 20
399332.86718956713
 30
0.0
 41
100.0
 42
100.0
 43
100.0
 50
180.0
  0
INSERT
  5
6756A
  8
0
  6
CONTINUOUS
  2
*U195
 10
0.0
 20
0.0
 30
0.0
  0
POINT
  5
6756B
  8
DEFPOINTS
 62
     0
 10
-7508.1151587620634
 20
400001.86718956713
 30
0.0
  0
POINT
  5
6756C
  8
DEFPOINTS
 62
     0
 10
-8018.1151587620616
 20
400001.86718956713
 30
0.0
  0
POINT
  5
6756D
  8
DEFPOINTS
 62
     0
 10
-8018.1151587620616
 20
399332.86718956713
 30
0.0
  0
ENDBLK
  5
673F0
  8
0
  0
BLOCK
  8
0
  2
*D111
 70
     1
 10
0.0
 20
0.0
 30
0.0
  3
*D111
  1

  0
LINE
  5
6756E
  8
0
 62
     0
 10
-7680.1151587620616
 20
399987.71718956711
 30
0.0
 11
-7680.1151587620616
 21
399758.0209978245
 31
0.0
  0
LINE
  5
6756F
  8
0
 62
     0
 10
-7850.1151587620616
 20
399987.71718956711
 30
0.0
 11
-7850.1151587620616
 21
399758.0209978245
 31
0.0
  0
LINE
  5
67570
  8
0
 62
     0
 10
-7580.1151587620616
 20
399768.0209978245
 30
0.0
 11
-7480.1151587620616
 21
399768.0209978245
 31
0.0
  0
LINE
  5
67571
  8
0
 62
     0
 10
-7950.1151587620634
 20
399768.0209978245
 30
0.0
 11
-8342.9723016192056
 21
399768.0209978245
 31
0.0
  0
LINE
  5
67572
  8
0
 62
     0
 10
-7680.1151587620616
 20
399768.0209978245
 30
0.0
 11
-7850.1151587620616
 21
399768.0209978245
 31
0.0
  0
INSERT
  5
67573
  8
0
 62
     0
  2
_OPEN
 10
-7680.1151587620616
 20
399768.0209978245
 30
0.0
 41
100.0
 42
100.0
 43
100.0
 50
180.0
  0
INSERT
  5
67574
  8
0
 62
     0
  2
_OPEN
 10
-7850.1151587620616
 20
399768.0209978245
 30
0.0
 41
100.0
 42
100.0
 43
100.0
  0
INSERT
  5
67575
  8
0
  6
CONTINUOUS
  2
*U196
 10
0.0
 20
0.0
 30
0.0
  0
POINT
  5
67576
  8
DEFPOINTS
 62
     0
 10
-7680.1151587620616
 20
399990.86718956713
 30
0.0
  0
POINT
  5
67577
  8
DEFPOINTS
 62
     0
 10
-7850.1151587620616
 20
399990.86718956713
 30
0.0
  0
POINT
  5
67578
  8
DEFPOINTS
 62
     0
 10
-7850.1151587620616
 20
399768.0209978245
 30
0.0
  0
ENDBLK
  5
673FE
  8
0
  0
BLOCK
  8
0
  2
*D112
 70
     1
 10
0.0
 20
0.0
 30
0.0
  3
*D112
  1

  0
LINE
  5
67579
  8
0
 62
     0
 10
-7850.1151587620616
 20
399987.71718956711
 30
0.0
 11
-7850.1151587620616
 21
399548.324806082
 31
0.0
  0
LINE
  5
6757A
  8
0
 62
     0
 10
-8018.1151587620616
 20
399987.71718956711
 30
0.0
 11
-8018.1151587620616
 21
399548.324806082
 31
0.0
  0
LINE
  5
6757B
  8
0
 62
     0
 10
-7750.1151587620634
 20
399558.324806082
 30
0.0
 11
-7650.1151587620616
 21
399558.324806082
 31
0.0
  0
LINE
  5
6757C
  8
0
 62
     0
 10
-8118.1151587620643
 20
399558.324806082
 30
0.0
 11
-8649.0675397144441
 21
399558.324806082
 31
0.0
  0
LINE
  5
6757D
  8
0
 62
     0
 10
-7850.1151587620616
 20
399558.324806082
 30
0.0
 11
-8018.1151587620616
 21
399558.324806082
 31
0.0
  0
INSERT
  5
6757E
  8
0
 62
     0
  2
_OPEN
 10
-7850.1151587620616
 20
399558.324806082
 30
0.0
 41
100.0
 42
100.0
 43
100.0
 50
180.0
  0
INSERT
  5
6757F
  8
0
 62
     0
  2
_OPEN
 10
-8018.1151587620616
 20
399558.324806082
 30
0.0
 41
100.0
 42
100.0
 43
100.0
  0
INSERT
  5
67580
  8
0
  6
CONTINUOUS
  2
*U197
 10
0.0
 20
0.0
 30
0.0
  0
POINT
  5
67581
  8
DEFPOINTS
 62
     0
 10
-7850.1151587620616
 20
399990.86718956713
 30
0.0
  0
POINT
  5
67582
  8
DEFPOINTS
 62
     0
 10
-8018.1151587620616
 20
399990.86718956713
 30
0.0
  0
POINT
  5
67583
  8
DEFPOINTS
 62
     0
 10
-8018.1151587620616
 20
399558.324806082
 30
0.0
  0
ENDBLK
  5
6740C
  8
0
  0
BLOCK
  8
0
  2
*D113
 70
     1
 10
0.0
 20
0.0
 30
0.0
  3
*D113
  1

  0
LINE
  5
67584
  8
0
 62
     0
 10
-7967.6151587620616
 20
404633.50750408933
 30
0.0
 11
-7967.6151587620616
 21
405109.3575040893
 31
0.0
  0
LINE
  5
67585
  8
0
 62
     0
 10
-7013.1151587620616
 20
404382.50750408933
 30
0.0
 11
-7013.1151587620616
 21
405109.3575040893
 31
0.0
  0
LINE
  5
67586
  8
0
 62
     0
 10
-7867.6151587620616
 20
405099.35750408942
 30
0.0
 11
-7113.1151587620616
 21
405099.35750408942
 31
0.0
  0
INSERT
  5
67587
  8
0
 62
     0
  2
_OPEN
 10
-7967.6151587620616
 20
405099.35750408942
 30
0.0
 41
100.0
 42
100.0
 43
100.0
 50
180.0
  0
INSERT
  5
67588
  8
0
 62
     0
  2
_OPEN
 10
-7013.1151587620616
 20
405099.35750408942
 30
0.0
 41
100.0
 42
100.0
 43
100.0
  0
INSERT
  5
67589
  8
0
  6
CONTINUOUS
  2
*U198
 10
0.0
 20
0.0
 30
0.0
  0
POINT
  5
6758A
  8
DEFPOINTS
 62
     0
 10
-7967.6151587620616
 20
404630.3575040893
 30
0.0
  0
POINT
  5
6758B
  8
DEFPOINTS
 62
     0
 10
-7013.1151587620616
 20
404379.3575040893
 30
0.0
  0
POINT
  5
6758C
  8
DEFPOINTS
 62
     0
 10
-7013.1151587620616
 20
405099.35750408942
 30
0.0
  0
ENDBLK
  5
67418
  8
0
  0
BLOCK
  8
0
  2
*D114
 70
     1
 10
0.0
 20
0.0
 30
0.0
  3
*D114
  1

  0
LINE
  5
6758D
  8
0
 62
     0
 10
-4825.5607755993278
 20
400854.07925848762
 30
0.0
 11
-4202.2107755993266
 21
400854.07925848762
 31
0.0
  0
LINE
  5
6758E
  8
0
 62
     0
 10
-4778.0607755993269
 20
400036.07925848768
 30
0.0
 11
-4202.2107755993266
 21
400036.07925848768
 31
0.0
  0
LINE
  5
6758F
  8
0
 62
     0
 10
-4212.2107755993266
 20
400754.07925848768
 30
0.0
 11
-4212.2107755993266
 21
400136.07925848762
 31
0.0
  0
INSERT
  5
67590
  8
0
 62
     0
  2
_OPEN
 10
-4212.2107755993266
 20
400854.07925848762
 30
0.0
 41
100.0
 42
100.0
 43
100.0
 50
90.0
  0
INSERT
  5
67591
  8
0
 62
     0
  2
_OPEN
 10
-4212.2107755993266
 20
400036.07925848768
 30
0.0
 41
100.0
 42
100.0
 43
100.0
 50
270.0
  0
INSERT
  5
67592
  8
0
  6
CONTINUOUS
  2
*U199
 10
0.0
 20
0.0
 30
0.0
  0
POINT
  5
67593
  8
DEFPOINTS
 62
     0
 10
-4828.7107755993266
 20
400854.07925848762
 30
0.0
  0
POINT
  5
67594
  8
DEFPOINTS
 62
     0
 10
-4781.2107755993266
 20
400036.07925848768
 30
0.0
  0
POINT
  5
67595
  8
DEFPOINTS
 62
     0
 10
-4212.2107755993266
 20
400036.07925848768
 30
0.0
  0
ENDBLK
  5
67424
  8
0
  0
BLOCK
  8
0
  2
*D115
 70
     1
 10
0.0
 20
0.0
 30
0.0
  3
*D115
  1

  0
LINE
  5
67596
  8
0
 62
     0
 10
-4825.5607755993278
 20
404625.2507188968
 30
0.0
 11
-4196.2107755993266
 21
404625.2507188968
 31
0.0
  0
LINE
  5
67597
  8
0
 62
     0
 10
-4603.0607755993278
 20
403858.2507188968
 30
0.0
 11
-4196.2107755993266
 21
403858.2507188968
 31
0.0
  0
LINE
  5
67598
  8
0
 62
     0
 10
-4206.2107755993266
 20
404525.2507188968
 30
0.0
 11
-4206.2107755993266
 21
403958.2507188968
 31
0.0
  0
INSERT
  5
67599
  8
0
 62
     0
  2
_OPEN
 10
-4206.2107755993266
 20
404625.2507188968
 30
0.0
 41
100.0
 42
100.0
 43
100.0
 50
90.0
  0
INSERT
  5
6759A
  8
0
 62
     0
  2
_OPEN
 10
-4206.2107755993266
 20
403858.2507188968
 30
0.0
 41
100.0
 42
100.0
 43
100.0
 50
270.0
  0
INSERT
  5
6759B
  8
0
  6
CONTINUOUS
  2
*U200
 10
0.0
 20
0.0
 30
0.0
  0
POINT
  5
6759C
  8
DEFPOINTS
 62
     0
 10
-4828.7107755993266
 20
404625.2507188968
 30
0.0
  0
POINT
  5
6759D
  8
DEFPOINTS
 62
     0
 10
-4606.2107755993266
 20
403858.2507188968
 30
0.0
  0
POINT
  5
6759E
  8
DEFPOINTS
 62
     0
 10
-4206.2107755993266
 20
403858.2507188968
 30
0.0
  0
ENDBLK
  5
67430
  8
0
  0
BLOCK
  8
0
  2
*D116
 70
     1
 10
0.0
 20
0.0
 30
0.0
  3
*D116
  1

  0
LINE
  5
6759F
  8
0
 62
     0
 10
-7112.6151587620616
 20
403865.20750408922
 30
0.0
 11
-7112.6151587620616
 21
403249.3575040893
 31
0.0
  0
LINE
  5
675A0
  8
0
 62
     0
 10
-7013.1151587620616
 20
404122.20750408922
 30
0.0
 11
-7013.1151587620616
 21
403249.3575040893
 31
0.0
  0
LINE
  5
675A1
  8
0
 62
     0
 10
-7212.6151587620616
 20
403259.3575040893
 30
0.0
 11
-7312.6151587620634
 21
403259.3575040893
 31
0.0
  0
LINE
  5
675A2
  8
0
 62
     0
 10
-6913.1151587620616
 20
403259.3575040893
 30
0.0
 11
-6696.4484920953946
 21
403259.3575040893
 31
0.0
  0
LINE
  5
675A3
  8
0
 62
     0
 10
-7112.6151587620616
 20
403259.3575040893
 30
0.0
 11
-7013.1151587620616
 21
403259.3575040893
 31
0.0
  0
INSERT
  5
675A4
  8
0
 62
     0
  2
_OPEN
 10
-7112.6151587620616
 20
403259.3575040893
 30
0.0
 41
100.0
 42
100.0
 43
100.0
  0
INSERT
  5
675A5
  8
0
 62
     0
  2
_OPEN
 10
-7013.1151587620616
 20
403259.3575040893
 30
0.0
 41
100.0
 42
100.0
 43
100.0
 50
180.0
  0
INSERT
  5
675A6
  8
0
  6
CONTINUOUS
  2
*U201
 10
0.0
 20
0.0
 30
0.0
  0
POINT
  5
675A7
  8
DEFPOINTS
 62
     0
 10
-7112.6151587620616
 20
403868.3575040893
 30
0.0
  0
POINT
  5
675A8
  8
DEFPOINTS
 62
     0
 10
-7013.1151587620616
 20
404125.3575040893
 30
0.0
  0
POINT
  5
675A9
  8
DEFPOINTS
 62
     0
 10
-7013.1151587620616
 20
403259.3575040893
 30
0.0
  0
ENDBLK
  5
6743E
  8
0
  0
BLOCK
  8
0
  2
*D117
 70
     1
 10
0.0
 20
0.0
 30
0.0
  3
*D117
  1

  0
LINE
  5
675AA
  8
0
 62
     0
 10
-7967.7651587620621
 20
404635.35750408919
 30
0.0
 11
-8382.6151587620625
 21
404635.35750408919
 31
0.0
  0
LINE
  5
675AB
  8
0
 62
     0
 10
-7918.7651587620621
 20
403868.3575040893
 30
0.0
 11
-8382.6151587620625
 21
403868.3575040893
 31
0.0
  0
LINE
  5
675AC
  8
0
 62
     0
 10
-8372.6151587620625
 20
404535.3575040893
 30
0.0
 11
-8372.6151587620625
 21
403968.3575040893
 31
0.0
  0
INSERT
  5
675AD
  8
0
 62
     0
  2
_OPEN
 10
-8372.6151587620625
 20
404635.35750408919
 30
0.0
 41
100.0
 42
100.0
 43
100.0
 50
90.0
  0
INSERT
  5
675AE
  8
0
 62
     0
  2
_OPEN
 10
-8372.6151587620625
 20
403868.3575040893
 30
0.0
 41
100.0
 42
100.0
 43
100.0
 50
270.0
  0
INSERT
  5
675AF
  8
0
  6
CONTINUOUS
  2
*U202
 10
0.0
 20
0.0
 30
0.0
  0
POINT
  5
675B0
  8
DEFPOINTS
 62
     0
 10
-7964.6151587620616
 20
404635.35750408919
 30
0.0
  0
POINT
  5
675B1
  8
DEFPOINTS
 62
     0
 10
-7915.6151587620616
 20
403868.3575040893
 30
0.0
  0
POINT
  5
675B2
  8
DEFPOINTS
 62
     0
 10
-8372.6151587620625
 20
403868.3575040893
 30
0.0
  0
ENDBLK
  5
6744A
  8
0
  0
BLOCK
  8
0
  2
*D118
 70
     1
 10
0.0
 20
0.0
 30
0.0
  3
*D118
  1

  0
LINE
  5
675B3
  8
0
 62
     0
 10
-7852.6151587620634
 20
403865.20750408922
 30
0.0
 11
-7852.6151587620634
 21
403169.35750408919
 31
0.0
  0
LINE
  5
675B4
  8
0
 62
     0
 10
-7112.6151587620616
 20
403865.20750408922
 30
0.0
 11
-7112.6151587620616
 21
403169.35750408919
 31
0.0
  0
LINE
  5
675B5
  8
0
 62
     0
 10
-7752.6151587620634
 20
403179.3575040893
 30
0.0
 11
-7212.6151587620616
 21
403179.3575040893
 31
0.0
  0
INSERT
  5
675B6
  8
0
 62
     0
  2
_OPEN
 10
-7852.6151587620634
 20
403179.3575040893
 30
0.0
 41
100.0
 42
100.0
 43
100.0
 50
180.0
  0
INSERT
  5
675B7
  8
0
 62
     0
  2
_OPEN
 10
-7112.6151587620616
 20
403179.3575040893
 30
0.0
 41
100.0
 42
100.0
 43
100.0
  0
INSERT
  5
675B8
  8
0
  6
CONTINUOUS
  2
*U203
 10
0.0
 20
0.0
 30
0.0
  0
POINT
  5
675B9
  8
DEFPOINTS
 62
     0
 10
-7852.6151587620634
 20
403868.3575040893
 30
0.0
  0
POINT
  5
675BA
  8
DEFPOINTS
 62
     0
 10
-7112.6151587620616
 20
403868.3575040893
 30
0.0
  0
POINT
  5
675BB
  8
DEFPOINTS
 62
     0
 10
-7112.6151587620616
 20
403179.3575040893
 30
0.0
  0
ENDBLK
  5
67456
  8
0
  0
BLOCK
  8
0
  2
*D119
 70
     1
 10
0.0
 20
0.0
 30
0.0
  3
*D119
  1

  0
LINE
  5
675BC
  8
0
 62
     0
 10
-7734.6151587620616
 20
403814.20750408928
 30
0.0
 11
-7734.6151587620616
 21
403489.3575040893
 31
0.0
  0
LINE
  5
675BD
  8
0
 62
     0
 10
-7852.6151587620634
 20
403865.20750408922
 30
0.0
 11
-7852.6151587620634
 21
403489.3575040893
 31
0.0
  0
LINE
  5
675BE
  8
0
 62
     0
 10
-7634.6151587620634
 20
403499.3575040893
 30
0.0
 11
-7534.6151587620616
 21
403499.3575040893
 31
0.0
  0
LINE
  5
675BF
  8
0
 62
     0
 10
-7952.6151587620634
 20
403499.3575040893
 30
0.0
 11
-8345.4723016192056
 21
403499.3575040893
 31
0.0
  0
LINE
  5
675C0
  8
0
 62
     0
 10
-7734.6151587620616
 20
403499.3575040893
 30
0.0
 11
-7852.6151587620634
 21
403499.3575040893
 31
0.0
  0
INSERT
  5
675C1
  8
0
 62
     0
  2
_OPEN
 10
-7734.6151587620616
 20
403499.3575040893
 30
0.0
 41
100.0
 42
100.0
 43
100.0
 50
180.0
  0
INSERT
  5
675C2
  8
0
 62
     0
  2
_OPEN
 10
-7852.6151587620634
 20
403499.3575040893
 30
0.0
 41
100.0
 42
100.0
 43
100.0
  0
INSERT
  5
675C3
  8
0
  6
CONTINUOUS
  2
*U204
 10
0.0
 20
0.0
 30
0.0
  0
POINT
  5
675C4
  8
DEFPOINTS
 62
     0
 10
-7734.6151587620616
 20
403817.3575040893
 30
0.0
  0
POINT
  5
675C5
  8
DEFPOINTS
 62
     0
 10
-7852.6151587620634
 20
403868.3575040893
 30
0.0
  0
POINT
  5
675C6
  8
DEFPOINTS
 62
     0
 10
-7852.6151587620634
 20
403499.3575040893
 30
0.0
  0
ENDBLK
  5
67464
  8
0
  0
BLOCK
  8
0
  2
*D120
 70
     1
 10
0.0
 20
0.0
 30
0.0
  3
*D120
  1

  0
LINE
  5
675C7
  8
0
 62
     0
 10
-7734.6151587620616
 20
403814.20750408928
 30
0.0
 11
-7734.6151587620616
 21
403636.86111921311
 31
0.0
  0
LINE
  5
675C8
  8
0
 62
     0
 10
-7564.6151587620616
 20
403814.20750408928
 30
0.0
 11
-7564.6151587620616
 21
403636.86111921311
 31
0.0
  0
LINE
  5
675C9
  8
0
 62
     0
 10
-7834.6151587620616
 20
403646.86111921311
 30
0.0
 11
-7934.6151587620634
 21
403646.86111921311
 31
0.0
  0
LINE
  5
675CA
  8
0
 62
     0
 10
-7464.6151587620616
 20
403646.86111921311
 30
0.0
 11
-6726.6613597702899
 21
403646.86111921311
 31
0.0
  0
LINE
  5
675CB
  8
0
 62
     0
 10
-7734.6151587620616
 20
403646.86111921311
 30
0.0
 11
-7564.6151587620616
 21
403646.86111921311
 31
0.0
  0
INSERT
  5
675CC
  8
0
 62
     0
  2
_OPEN
 10
-7734.6151587620616
 20
403646.86111921311
 30
0.0
 41
100.0
 42
100.0
 43
100.0
  0
INSERT
  5
675CD
  8
0
 62
     0
  2
_OPEN
 10
-7564.6151587620616
 20
403646.86111921311
 30
0.0
 41
100.0
 42
100.0
 43
100.0
 50
180.0
  0
INSERT
  5
675CE
  8
0
  6
CONTINUOUS
  2
*U205
 10
0.0
 20
0.0
 30
0.0
  0
POINT
  5
675CF
  8
DEFPOINTS
 62
     0
 10
-7734.6151587620616
 20
403817.3575040893
 30
0.0
  0
POINT
  5
675D0
  8
DEFPOINTS
 62
     0
 10
-7564.6151587620616
 20
403817.3575040893
 30
0.0
  0
POINT
  5
675D1
  8
DEFPOINTS
 62
     0
 10
-7564.6151587620616
 20
403646.86111921311
 30
0.0
  0
ENDBLK
  5
67472
  8
0
  0
BLOCK
  8
0
  2
*D121
 70
     1
 10
0.0
 20
0.0
 30
0.0
  3
*D121
  1

  0
LINE
  5
675D2
  8
0
 62
     0
 10
-5134.3607755993271
 20
403807.2507188968
 30
0.0
 11
-5636.2107755993284
 21
403807.2507188968
 31
0.0
  0
LINE
  5
675D3
  8
0
 62
     0
 10
-5409.360775599328
 20
403858.2507188968
 30
0.0
 11
-5636.2107755993284
 21
403858.2507188968
 31
0.0
  0
LINE
  5
675D4
  8
0
 62
     0
 10
-5626.2107755993284
 20
403707.2507188968
 30
0.0
 11
-5626.2107755993284
 21
403607.2507188968
 31
0.0
  0
LINE
  5
675D5
  8
0
 62
     0
 10
-5626.2107755993284
 20
403958.2507188968
 30
0.0
 11
-5626.2107755993284
 21
404393.96500461112
 31
0.0
  0
LINE
  5
675D6
  8
0
 62
     0
 10
-5626.2107755993284
 20
403807.2507188968
 30
0.0
 11
-5626.2107755993284
 21
403858.2507188968
 31
0.0
  0
INSERT
  5
675D7
  8
0
 62
     0
  2
_OPEN
 10
-5626.2107755993284
 20
403807.2507188968
 30
0.0
 41
100.0
 42
100.0
 43
100.0
 50
90.0
  0
INSERT
  5
675D8
  8
0
 62
     0
  2
_OPEN
 10
-5626.2107755993284
 20
403858.2507188968
 30
0.0
 41
100.0
 42
100.0
 43
100.0
 50
270.0
  0
INSERT
  5
675D9
  8
0
  6
CONTINUOUS
  2
*U206
 10
0.0
 20
0.0
 30
0.0
  0
POINT
  5
675DA
  8
DEFPOINTS
 62
     0
 10
-5131.2107755993284
 20
403807.2507188968
 30
0.0
  0
POINT
  5
675DB
  8
DEFPOINTS
 62
     0
 10
-5406.2107755993266
 20
403858.2507188968
 30
0.0
  0
POINT
  5
675DC
  8
DEFPOINTS
 62
     0
 10
-5626.2107755993284
 20
403858.2507188968
 30
0.0
  0
ENDBLK
  5
67480
  8
0
  0
BLOCK
  8
0
  2
*U122
 70
     1
 10
0.0
 20
0.0
 30
0.0
  3
*U122
  1

  0
TEXT
  5
67A90
  8
SILNA
  6
CONTINUOUS
 10
-16.449777305735289
 20
47.447339193138752
 30
0.0
 40
80.0
  1
1b
  7
R
  0
ENDBLK
  5
67A92
  8
0
  0
BLOCK
  8
0
  2
*U123
 70
     1
 10
0.0
 20
0.0
 30
0.0
  3
*U123
  1

  0
TEXT
  5
67A94
  8
SILNA
  6
CONTINUOUS
 10
23.348488544496441
 20
49.591841048852068
 30
0.0
 40
20.0
  1
1a
  7
R
  0
ENDBLK
  5
67A96
  8
0
  0
BLOCK
  8
0
  2
*U124
 70
     1
 10
0.0
 20
0.0
 30
0.0
  3
*U124
  1

  0
TEXT
  5
67A98
  8
SILNA
  6
CONTINUOUS
 10
-3.9222036020662499
 20
557.31871110200882
 30
0.0
 40
100.0
  1
příruba prosévačka
  7
R
  0
ENDBLK
  5
67A9A
  8
0
  0
BLOCK
  8
0
  2
*U125
 70
     1
 10
0.0
 20
0.0
 30
0.0
  3
*U125
  1

  0
SOLID
  5
67C72
  8
0
  6
CONTINUOUS
 10
0.0000000000009095
 20
139.99744886101851
 30
0.0
 11
-18.32564214838867
 21
132.40671934395951
 31
0.0
 12
0.0000000000008972
 22
132.40671934395951
 32
0.0
 13
0.0000000000008972
 23
132.40671934395951
 33
0.0
210
0.0
220
0.0
230
1.0
  0
SOLID
  5
67C73
  8
0
  6
CONTINUOUS
 10
0.0000000000009332
 20
139.99744886101851
 30
0.0
 11
0.0000000000009263
 21
132.40671934395951
 31
0.0
 12
45.472905011396342
 22
132.40671934395951
 32
0.0
 13
45.472905011396342
 23
132.40671934395951
 33
0.0
210
0.0
220
0.0
230
1.0
  0
SOLID
  5
67C74
  8
0
  6
CONTINUOUS
 10
-18.32564214838867
 20
132.40671934395951
 30
0.0
 11
-51.120036686711217
 21
118.82283635637209
 31
0.0
 12
0.0000000000008752
 22
118.82283635637209
 32
0.0
 13
0.0000000000008752
 23
118.82283635637209
 33
0.0
  0
SOLID
  5
67C75
  8
0
  6
CONTINUOUS
 10
18.32564214838867
 20
132.40671934395951
 30
0.0
 11
-0.0000000000008972
 21
132.40671934395951
 31
0.0
 12
-0.0000000000008752
 22
118.82283635637209
 32
0.0
 13
-0.0000000000008752
 23
118.82283635637209
 33
0.0
210
0.0
220
0.0
230
-1.0
  0
SOLID
  5
67C76
  8
0
  6
CONTINUOUS
 10
0.0000000000009263
 20
132.40671934395951
 30
0.0
 11
0.0000000000009141
 21
118.82283635637209
 31
0.0
 12
70.563549776822697
 22
118.82283635637209
 32
0.0
 13
70.563549776822697
 23
118.82283635637209
 33
0.0
  0
SOLID
  5
67C77
  8
0
  6
CONTINUOUS
 10
-0.0000000000009263
 20
132.40671934395951
 30
0.0
 11
-45.472905011396342
 21
132.40671934395951
 31
0.0
 12
-70.563549776822697
 22
118.82283635637209
 32
0.0
 13
-70.563549776822697
 23
118.82283635637209
 33
0.0
210
0.0
220
0.0
230
-1.0
  0
SOLID
  5
67C78
  8
0
  6
CONTINUOUS
 10
-51.120036686711217
 20
118.82283635637209
 30
0.0
 11
-63.634272730830311
 21
113.6392700641597
 31
0.0
 12
0.0000000000008669
 22
113.6392700641597
 32
0.0
 13
0.0000000000008669
 23
113.6392700641597
 33
0.0
210
0.0
220
0.0
230
1.0
  0
SOLID
  5
67C79
  8
0
  6
CONTINUOUS
 10
51.120036686711217
 20
118.82283635637209
 30
0.0
 11
-0.0000000000008752
 21
118.82283635637209
 31
0.0
 12
-0.0000000000008669
 22
113.6392700641597
 32
0.0
 13
-0.0000000000008669
 23
113.6392700641597
 33
0.0
210
0.0
220
0.0
230
-1.0
  0
SOLID
  5
67C7A
  8
0
  6
CONTINUOUS
 10
-0.0000000000009141
 20
118.82283635637209
 30
0.0
 11
-43.257964790378153
 21
118.82283635637209
 31
0.0
 12
-0.0000000000008669
 22
113.6392700641597
 32
0.0
 13
-0.0000000000008669
 23
113.6392700641597
 33
0.0
210
0.0
220
0.0
230
-1.0
  0
SOLID
  5
67C7B
  8
0
  6
CONTINUOUS
 10
43.257964790378153
 20
118.82283635637209
 30
0.0
 11
69.752660745180563
 21
113.6392700641597
 31
0.0
 12
80.138059552472512
 22
113.6392700641597
 32
0.0
 13
80.138059552472512
 23
113.6392700641597
 33
0.0
210
0.0
220
0.0
230
1.0
  0
SOLID
  5
67C7C
  8
0
  6
CONTINUOUS
 10
-43.257964790378153
 20
118.82283635637209
 30
0.0
 11
-70.563549776822697
 21
118.82283635637209
 31
0.0
 12
-80.138059552472512
 22
113.6392700641597
 32
0.0
 13
-80.138059552472512
 23
113.6392700641597
 33
0.0
210
0.0
220
0.0
230
-1.0
  0
SOLID
  5
67C7D
  8
0
  6
CONTINUOUS
 10
-63.634272730830311
 20
113.6392700641597
 30
0.0
 11
-71.315354411059985
 21
110.45766185851311
 31
0.0
 12
-5.0574841518304217
 22
110.45766185851311
 32
0.0
 13
-5.0574841518304217
 23
110.45766185851311
 33
0.0
210
0.0
220
0.0
230
1.0
  0
SOLID
  5
67C7E
  8
0
  6
CONTINUOUS
 10
63.634272730830311
 20
113.6392700641597
 30
0.0
 11
-0.0000000000009095
 21
113.6392700641597
 31
0.0
 12
5.0574841518304217
 22
110.45766185851311
 32
0.0
 13
5.0574841518304217
 23
110.45766185851311
 33
0.0
210
0.0
220
0.0
230
-1.0
  0
SOLID
  5
67C7F
  8
0
  6
CONTINUOUS
 10
-69.752660745180563
 20
113.6392700641597
 30
0.0
 11
-80.138059552472512
 21
113.6392700641597
 31
0.0
 12
-86.014773989985784
 22
110.45766185851311
 32
0.0
 13
-86.014773989985784
 23
110.45766185851311
 33
0.0
210
0.0
220
0.0
230
-1.0
  0
SOLID
  5
67C80
  8
0
  6
CONTINUOUS
 10
-71.315354411059985
 20
110.45766185851311
 30
0.0
 11
-98.994949366115677
 21
98.992398227135112
 31
0.0
 12
-23.282666312648029
 22
98.992398227135112
 32
0.0
 13
-23.282666312648029
 23
98.992398227135112
 33
0.0
210
0.0
220
0.0
230
1.0
  0
SOLID
  5
67C81
  8
0
  6
CONTINUOUS
 10
71.315354411059985
 20
110.45766185851311
 30
0.0
 11
5.0574841518304217
 21
110.45766185851311
 31
0.0
 12
23.282666312648029
 22
98.992398227135112
 32
0.0
 13
23.282666312648029
 23
98.992398227135112
 33
0.0
210
0.0
220
0.0
230
-1.0
  0
SOLID
  5
67C82
  8
0
  6
CONTINUOUS
 10
-98.994949366115677
 20
98.992398227135112
 30
0.0
 11
-110.3533115346694
 21
71.570886233467292
 31
0.0
 12
-66.871899607022399
 22
71.570886233467292
 32
0.0
 13
-66.871899607022399
 23
71.570886233467292
 33
0.0
210
0.0
220
0.0
230
1.0
  0
SOLID
  5
67C83
  8
0
  6
CONTINUOUS
 10
98.994949366115677
 20
98.992398227135112
 30
0.0
 11
23.282666312648029
 21
98.992398227135112
 31
0.0
 12
66.871899607022399
 22
71.570886233467292
 32
0.0
 13
66.871899607022399
 23
71.570886233467292
 33
0.0
210
0.0
220
0.0
230
-1.0
  0
SOLID
  5
67C84
  8
0
  6
CONTINUOUS
 10
-110.3533115346694
 20
71.570886233467292
 30
0.0
 11
-139.99999999999909
 21
-0.0025511389815165
 31
0.0
 12
-100.3210092793351
 22
-0.0025511389815165
 32
0.0
 13
-100.3210092793351
 23
-0.0025511389815165
 33
0.0
210
0.0
220
0.0
230
1.0
  0
SOLID
  5
67C85
  8
0
  6
CONTINUOUS
 10
110.3533115346694
 20
71.570886233467292
 30
0.0
 11
66.871899607022399
 21
71.570886233467292
 31
0.0
 12
100.3210092793351
 22
-0.0025511389815165
 32
0.0
 13
100.3210092793351
 23
-0.0025511389815165
 33
0.0
210
0.0
220
0.0
230
-1.0
  0
SOLID
  5
67C86
  8
0
  6
CONTINUOUS
 10
-139.99999999999909
 20
-0.0025511389815165
 30
0.0
 11
-139.99999999999909
 21
-0.0025511389815165
 31
0.0
 12
-100.3210092793351
 22
-0.0025511389815165
 32
0.0
 13
-100.3210092793351
 23
-0.0025511389815165
 33
0.0
210
0.0
220
0.0
230
1.0
  0
SOLID
  5
67C87
  8
0
  6
CONTINUOUS
 10
-139.99999999999909
 20
-0.0025511389815165
 30
0.0
 11
-139.99999999999909
 21
-0.0025511389815165
 31
0.0
 12
-100.3210092793351
 22
-0.0025511389815165
 32
0.0
 13
-100.3210092793351
 23
-0.0025511389815165
 33
0.0
210
0.0
220
0.0
230
1.0
  0
SOLID
  5
67C88
  8
0
  6
CONTINUOUS
 10
-139.99999999999909
 20
-0.0025511389815165
 30
0.0
 11
-117.02828563153059
 21
-72.883147809960434
 31
0.0
 12
-91.980753483793407
 22
-72.883147809960434
 32
0.0
 13
-91.980753483793407
 23
-72.883147809960434
 33
0.0
210
0.0
220
0.0
230
1.0
  0
SOLID
  5
67C89
  8
0
  6
CONTINUOUS
 10
139.99999999999909
 20
-0.0025511389815165
 30
0.0
 11
100.3210092793351
 21
-0.0025511389815165
 31
0.0
 12
91.980753483793407
 22
-72.883147809960434
 32
0.0
 13
91.980753483793407
 23
-72.883147809960434
 33
0.0
210
0.0
220
0.0
230
-1.0
  0
SOLID
  5
67C8A
  8
0
  6
CONTINUOUS
 10
-117.02828563153059
 20
-72.883147809960434
 30
0.0
 11
-114.69621614817829
 21
-80.281925833171329
 31
0.0
 12
-86.424720604643284
 22
-80.281925833171329
 32
0.0
 13
-86.424720604643284
 23
-80.281925833171329
 33
0.0
  0
SOLID
  5
67C8B
  8
0
  6
CONTINUOUS
 10
117.02828563153059
 20
-72.883147809960434
 30
0.0
 11
91.980753483793407
 21
-72.883147809960434
 31
0.0
 12
86.424720604643284
 22
-80.281925833171329
 32
0.0
 13
86.424720604643284
 23
-80.281925833171329
 33
0.0
210
0.0
220
0.0
230
-1.0
  0
SOLID
  5
67C8C
  8
0
  6
CONTINUOUS
 10
114.69621614817829
 20
-80.281925833171329
 30
0.0
 11
86.424720604643284
 21
-80.281925833171329
 31
0.0
 12
47.931742838711259
 22
-131.54170131277371
 32
0.0
 13
47.931742838711259
 23
-131.54170131277371
 33
0.0
210
0.0
220
0.0
230
-1.0
  0
LINE
  5
67C8D
  8
0
  6
CONTINUOUS
 10
0.0000000000008972
 20
132.40671934395951
 30
0.0
 11
0.0000000000009095
 21
139.99744886101851
 31
0.0
  0
LINE
  5
67C8E
  8
0
  6
CONTINUOUS
 10
0.0000000000009332
 20
139.99744886101851
 30
0.0
 11
0.0000000000009263
 21
132.40671934395951
 31
0.0
  0
LINE
  5
67C8F
  8
0
  6
CONTINUOUS
 10
-18.32564214838867
 20
132.40671934395951
 30
0.0
 11
-51.120036686711217
 21
118.82283635637209
 31
0.0
  0
LINE
  5
67C90
  8
0
  6
CONTINUOUS
 10
0.0000000000008972
 20
132.40671934395951
 30
0.0
 11
0.0000000000008752
 21
118.82283635637209
 31
0.0
  0
LINE
  5
67C91
  8
0
  6
CONTINUOUS
 10
0.0000000000009263
 20
132.40671934395951
 30
0.0
 11
0.0000000000009141
 21
118.82283635637209
 31
0.0
  0
LINE
  5
67C92
  8
0
  6
CONTINUOUS
 10
45.472905011396342
 20
132.40671934395951
 30
0.0
 11
70.563549776822697
 21
118.82283635637209
 31
0.0
  0
LINE
  5
67C93
  8
0
  6
CONTINUOUS
 10
-51.120036686711217
 20
118.82283635637209
 30
0.0
 11
-63.634272730830311
 21
113.6392700641597
 31
0.0
  0
LINE
  5
67C94
  8
0
  6
CONTINUOUS
 10
43.257964790378153
 20
118.82283635637209
 30
0.0
 11
0.0000000000008669
 21
113.6392700641597
 31
0.0
  0
LINE
  5
67C95
  8
0
  6
CONTINUOUS
 10
0.0000000000008669
 20
113.6392700641597
 30
0.0
 11
0.0000000000009141
 21
118.82283635637209
 31
0.0
  0
LINE
  5
67C96
  8
0
  6
CONTINUOUS
 10
70.563549776822697
 20
118.82283635637209
 30
0.0
 11
80.138059552472512
 21
113.6392700641597
 31
0.0
  0
LINE
  5
67C97
  8
0
  6
CONTINUOUS
 10
-63.634272730830311
 20
113.6392700641597
 30
0.0
 11
-71.315354411059985
 21
110.45766185851311
 31
0.0
  0
LINE
  5
67C98
  8
0
  6
CONTINUOUS
 10
0.0000000000009095
 20
113.6392700641597
 30
0.0
 11
-5.0574841518304217
 21
110.45766185851311
 31
0.0
  0
LINE
  5
67C99
  8
0
  6
CONTINUOUS
 10
80.138059552472512
 20
113.6392700641597
 30
0.0
 11
86.014773989985784
 21
110.45766185851311
 31
0.0
  0
LINE
  5
67C9A
  8
0
  6
CONTINUOUS
 10
86.014773989985784
 20
110.45766185851311
 30
0.0
 11
69.752660745180563
 21
113.6392700641597
 31
0.0
  0
LINE
  5
67C9B
  8
0
  6
CONTINUOUS
 10
-71.315354411059985
 20
110.45766185851311
 30
0.0
 11
-98.994949366115677
 21
98.992398227135112
 31
0.0
  0
LINE
  5
67C9C
  8
0
  6
CONTINUOUS
 10
-5.0574841518304217
 20
110.45766185851311
 30
0.0
 11
-23.282666312648029
 21
98.992398227135112
 31
0.0
  0
LINE
  5
67C9D
  8
0
  6
CONTINUOUS
 10
-98.994949366115677
 20
98.992398227135112
 30
0.0
 11
-110.3533115346694
 21
71.570886233467292
 31
0.0
  0
LINE
  5
67C9E
  8
0
  6
CONTINUOUS
 10
-23.282666312648029
 20
98.992398227135112
 30
0.0
 11
-66.871899607022399
 21
71.570886233467292
 31
0.0
  0
LINE
  5
67C9F
  8
0
  6
CONTINUOUS
 10
-110.3533115346694
 20
71.570886233467292
 30
0.0
 11
-139.99999999999909
 21
-0.0025511389815165
 31
0.0
  0
LINE
  5
67CA0
  8
0
  6
CONTINUOUS
 10
-66.871899607022399
 20
71.570886233467292
 30
0.0
 11
-100.3210092793351
 21
-0.0025511389815165
 31
0.0
  0
LINE
  5
67CA1
  8
0
  6
CONTINUOUS
 10
-139.99999999999909
 20
-0.0025511389815165
 30
0.0
 11
-100.3210092793351
 21
-0.0025511389815165
 31
0.0
  0
LINE
  5
67CA2
  8
0
  6
CONTINUOUS
 10
-139.99999999999909
 20
-0.0025511389815165
 30
0.0
 11
-100.3210092793351
 21
-0.0025511389815165
 31
0.0
  0
LINE
  5
67CA3
  8
0
  6
CONTINUOUS
 10
-139.99999999999909
 20
-0.0025511389815165
 30
0.0
 11
-117.02828563153059
 21
-72.883147809960434
 31
0.0
  0
LINE
  5
67CA4
  8
0
  6
CONTINUOUS
 10
-100.3210092793351
 20
-0.0025511389815165
 30
0.0
 11
-91.980753483793407
 21
-72.883147809960434
 31
0.0
  0
LINE
  5
67CA5
  8
0
  6
CONTINUOUS
 10
-117.02828563153059
 20
-72.883147809960434
 30
0.0
 11
-114.69621614817829
 21
-80.281925833171329
 31
0.0
  0
LINE
  5
67CA6
  8
0
  6
CONTINUOUS
 10
-91.980753483793407
 20
-72.883147809960434
 30
0.0
 11
-86.424720604643284
 21
-80.281925833171329
 31
0.0
  0
LINE
  5
67CA7
  8
0
  6
CONTINUOUS
 10
-86.424720604643284
 20
-80.281925833171329
 30
0.0
 11
-47.931742838711259
 21
-131.54170131277371
 31
0.0
  0
LINE
  5
67CA8
  8
0
  6
CONTINUOUS
 10
-47.931742838711259
 20
-131.54170131277371
 30
0.0
 11
-114.69621614817829
 21
-80.281925833171329
 31
0.0
  0
ENDBLK
  5
67CAA
  8
0
  0
BLOCK
  8
0
  2
*U126
 70
     1
 10
0.0
 20
0.0
 30
0.0
  3
*U126
  1

  0
SOLID
  5
67CB5
  8
0
  6
CONTINUOUS
 10
2000.0000000000421
 20
549.9974488602569
 30
0.0
 11
2000.0000000000421
 21
-0.0025511389934536
 31
0.0
 12
2012.2676761359601
 22
-0.0025511389934536
 32
0.0
 13
2012.2676761359601
 23
-0.0025511389934536
 33
0.0
210
0.0
220
0.0
230
1.0
  0
SOLID
  5
67CB6
  8
0
  6
CONTINUOUS
 10
2000.0000000000421
 20
-0.0025511389934536
 30
0.0
 11
2000.0000000000421
 21
-0.0025511389934536
 31
0.0
 12
2012.2676761359601
 22
-0.0025511389934536
 32
0.0
 13
2012.2676761359601
 23
-0.0025511389934536
 33
0.0
210
0.0
220
0.0
230
1.0
  0
SOLID
  5
67CB7
  8
0
  6
CONTINUOUS
 10
2000.0000000000421
 20
-0.0025511389934536
 30
0.0
 11
2000.0000000000421
 21
-0.0025511389934536
 31
0.0
 12
2012.2676761359601
 22
-0.0025511389934536
 32
0.0
 13
2012.2676761359601
 23
-0.0025511389934536
 33
0.0
210
0.0
220
0.0
230
1.0
  0
SOLID
  5
67CB8
  8
0
  6
CONTINUOUS
 10
2000.0000000000421
 20
-0.0025511389934536
 30
0.0
 11
2000.0000000000421
 21
-526.00255113898993
 31
0.0
 12
2024.0000354950589
 22
-526.00255113898993
 32
0.0
 13
2024.0000354950589
 23
-526.00255113898993
 33
0.0
210
0.0
220
0.0
230
1.0
  0
SOLID
  5
67CB9
  8
0
  6
CONTINUOUS
 10
-2000.0000000000421
 20
-0.0025511389934536
 30
0.0
 11
-2012.2676761359601
 21
-0.0025511389934536
 31
0.0
 12
-2024.0000354950589
 22
-526.00255113898993
 32
0.0
 13
-2024.0000354950589
 23
-526.00255113898993
 33
0.0
210
0.0
220
0.0
230
-1.0
  0
SOLID
  5
67CBA
  8
0
  6
CONTINUOUS
 10
2000.0000000000421
 20
-526.00255113898993
 30
0.0
 11
2000.0000000000421
 21
-545.98193239837519
 31
0.0
 12
2670.0000000000268
 22
-545.98193239837519
 32
0.0
 13
2670.0000000000268
 23
-545.98193239837519
 33
0.0
  0
SOLID
  5
67CBB
  8
0
  6
CONTINUOUS
 10
-2000.0000000000421
 20
-526.00255113898993
 30
0.0
 11
-2024.0000354950589
 21
-526.00255113898993
 31
0.0
 12
-2670.0000000000268
 22
-545.98193239837519
 32
0.0
 13
-2670.0000000000268
 23
-545.98193239837519
 33
0.0
210
0.0
220
0.0
230
-1.0
  0
SOLID
  5
67CBC
  8
0
  6
CONTINUOUS
 10
2000.0000000000421
 20
-545.98193239837519
 30
0.0
 11
2000.0000000000421
 21
-550.00255113897902
 31
0.0
 12
2670.0000000000268
 22
-550.00255113897902
 32
0.0
 13
2670.0000000000268
 23
-550.00255113897902
 33
0.0
  0
SOLID
  5
67CBD
  8
0
  6
CONTINUOUS
 10
-2000.0000000000421
 20
-545.98193239837519
 30
0.0
 11
-2669.9999999999241
 21
-545.98193239837519
 31
0.0
 12
-2670.0000000000268
 22
-550.00255113897902
 32
0.0
 13
-2670.0000000000268
 23
-550.00255113897902
 33
0.0
210
0.0
220
0.0
230
-1.0
  0
SOLID
  5
67CBE
  8
0
  6
CONTINUOUS
 10
2670.0000000000268
 20
-545.98193239837519
 30
0.0
 11
2670.0000000000418
 21
-550.00255113897902
 31
0.0
 12
2800.0000000000568
 22
-550.00255113897902
 32
0.0
 13
2800.0000000000568
 23
-550.00255113897902
 33
0.0
  0
SOLID
  5
67CBF
  8
0
  6
CONTINUOUS
 10
2000.0000000000421
 20
-550.00255113897902
 30
0.0
 11
2000.0000000000421
 21
-550.00255113897902
 31
0.0
 12
2670.0000000000268
 22
-550.00255113897902
 32
0.0
 13
2670.0000000000268
 23
-550.00255113897902
 33
0.0
210
0.0
220
0.0
230
1.0
  0
SOLID
  5
67CC0
  8
0
  6
CONTINUOUS
 10
2670.0000000000418
 20
-550.00255113897902
 30
0.0
 11
2670.0000000000418
 21
-550.00255113897902
 31
0.0
 12
2800.0000000000568
 22
-550.00255113897902
 32
0.0
 13
2800.0000000000568
 23
-550.00255113897902
 33
0.0
210
0.0
220
0.0
230
1.0
  0
LINE
  5
67CC1
  8
0
  6
CONTINUOUS
 10
2000.0000000000421
 20
549.9974488602569
 30
0.0
 11
2000.0000000000421
 21
-0.0025511389934536
 31
0.0
  0
LINE
  5
67CC2
  8
0
  6
CONTINUOUS
 10
2012.2676761359601
 20
-0.0025511389934536
 30
0.0
 11
2000.0000000000421
 21
549.9974488602569
 31
0.0
  0
LINE
  5
67CC3
  8
0
  6
CONTINUOUS
 10
2000.0000000000421
 20
-0.0025511389934536
 30
0.0
 11
2012.2676761359601
 21
-0.0025511389934536
 31
0.0
  0
LINE
  5
67CC4
  8
0
  6
CONTINUOUS
 10
2000.0000000000421
 20
-0.0025511389934536
 30
0.0
 11
2012.2676761359601
 21
-0.0025511389934536
 31
0.0
  0
LINE
  5
67CC5
  8
0
  6
CONTINUOUS
 10
2000.0000000000421
 20
-0.0025511389934536
 30
0.0
 11
2000.0000000000421
 21
-526.00255113898993
 31
0.0
  0
LINE
  5
67CC6
  8
0
  6
CONTINUOUS
 10
2012.2676761359601
 20
-0.0025511389934536
 30
0.0
 11
2024.0000354950589
 21
-526.00255113898993
 31
0.0
  0
LINE
  5
67CC7
  8
0
  6
CONTINUOUS
 10
2000.0000000000421
 20
-526.00255113898993
 30
0.0
 11
2000.0000000000421
 21
-545.98193239837519
 31
0.0
  0
LINE
  5
67CC8
  8
0
  6
CONTINUOUS
 10
2024.0000354950589
 20
-526.00255113898993
 30
0.0
 11
2670.0000000000268
 21
-545.98193239837519
 31
0.0
  0
LINE
  5
67CC9
  8
0
  6
CONTINUOUS
 10
2000.0000000000421
 20
-545.98193239837519
 30
0.0
 11
2000.0000000000421
 21
-550.00255113897902
 31
0.0
  0
LINE
  5
67CCA
  8
0
  6
CONTINUOUS
 10
2670.0000000000268
 20
-545.98193239837519
 30
0.0
 11
2670.0000000000418
 21
-550.00255113897902
 31
0.0
  0
LINE
  5
67CCB
  8
0
  6
CONTINUOUS
 10
2000.0000000000421
 20
-550.00255113897902
 30
0.0
 11
2670.0000000000268
 21
-550.00255113897902
 31
0.0
  0
LINE
  5
67CCC
  8
0
  6
CONTINUOUS
 10
2670.0000000000418
 20
-550.00255113897902
 30
0.0
 11
2800.0000000000568
 21
-550.00255113897902
 31
0.0
  0
ENDBLK
  5
67CCE
  8
0
  0
BLOCK
  8
0
  2
*X127
 70
     1
 10
0.0
 20
0.0
 30
0.0
  3
*X127
  1

  0
LINE
  5
67CD5
  8
0
  6
CONTINUOUS
 62
     0
 10
2800.00000000004
 20
654.33382523685566
 30
0.0
 11
2754.3363763758612
 21
699.99744886103508
 31
0.0
  0
LINE
  5
67CD6
  8
0
  6
CONTINUOUS
 62
     0
 10
2740.0000000000368
 20
624.53126402616181
 30
0.0
 11
2670.00000000004
 21
694.53126402615806
 31
0.0
  0
LINE
  5
67CD7
  8
0
  6
CONTINUOUS
 62
     0
 10
2670.00000000004
 20
694.53126402615806
 30
0.0
 11
2664.5338151651781
 21
699.99744886102053
 31
0.0
  0
LINE
  5
67CD8
  8
0
  6
CONTINUOUS
 62
     0
 10
2741.5338151651699
 20
622.99744886102405
 30
0.0
 11
2740.0000000000368
 21
624.53126402616181
 31
0.0
  0
LINE
  5
67CD9
  8
0
  6
CONTINUOUS
 62
     0
 10
2603.2868620971822
 20
671.44184071832569
 30
0.0
 11
2600.0000000000332
 21
674.72870281547512
 31
0.0
  0
LINE
  5
67CDA
  8
0
  6
CONTINUOUS
 62
     0
 10
2600.0000000000332
 20
674.72870281547512
 30
0.0
 11
2574.7312539544769
 21
699.99744886103144
 31
0.0
  0
LINE
  5
67CDB
  8
0
  6
CONTINUOUS
 62
     0
 10
2651.7312539544769
 20
622.99744886103144
 30
0.0
 11
2609.4443918573311
 21
665.28431095817723
 31
0.0
  0
LINE
  5
67CDC
  8
0
  6
CONTINUOUS
 62
     0
 10
2561.9286927437902
 20
622.99744886103497
 30
0.0
 11
2540.0000000000359
 21
644.92614160478468
 31
0.0
  0
LINE
  5
67CDD
  8
0
  6
CONTINUOUS
 62
     0
 10
2740.00000000004
 20
-632.70459292351734
 30
0.0
 11
2730.2979582154881
 21
-623.00255113896492
 31
0.0
  0
LINE
  5
67CDE
  8
0
  6
CONTINUOUS
 62
     0
 10
2800.0000000000441
 20
-692.70459292352098
 30
0.0
 11
2740.00000000004
 21
-632.70459292351734
 31
0.0
  0
LINE
  5
67CDF
  8
0
  6
CONTINUOUS
 62
     0
 10
2670.00000000004
 20
-652.50715413421494
 30
0.0
 11
2640.495397004805
 21
-623.00255113897936
 31
0.0
  0
LINE
  5
67CE0
  8
0
  6
CONTINUOUS
 62
     0
 10
2717.4953970047859
 20
-700.00255113896492
 30
0.0
 11
2670.00000000004
 21
-652.50715413421494
 31
0.0
  0
LINE
  5
67CE1
  8
0
  6
CONTINUOUS
 62
     0
 10
2600.00000000004
 20
-672.30971534490516
 30
0.0
 11
2598.593417944765
 21
-670.9031332896302
 31
0.0
  0
LINE
  5
67CE2
  8
0
  6
CONTINUOUS
 62
     0
 10
2590.0994178493752
 20
-662.40913319423987
 30
0.0
 11
2550.6928357941042
 21
-623.00255113896856
 31
0.0
  0
LINE
  5
67CE3
  8
0
  6
CONTINUOUS
 62
     0
 10
2627.6928357941042
 20
-700.00255113896856
 30
0.0
 11
2600.00000000004
 21
-672.30971534490516
 31
0.0
  0
ENDBLK
  5
67CE5
  8
0
  0
BLOCK
  8
0
  2
*X128
 70
     1
 10
0.0
 20
0.0
 30
0.0
  3
*X128
  1

  0
LINE
  5
67CE7
  8
0
  6
CONTINUOUS
 62
     0
 10
450.00000000003268
 20
-657.76862319080817
 30
0.0
 11
414.23392794820018
 21
-622.00255113897583
 31
0.0
  0
LINE
  5
67CE8
  8
0
  6
CONTINUOUS
 62
     0
 10
388.00000000003638
 20
-685.57118440149861
 30
0.0
 11
324.43136673751718
 21
-622.00255113897947
 31
0.0
  0
LINE
  5
67CE9
  8
0
  6
CONTINUOUS
 62
     0
 10
402.43136673751718
 20
-700.00255113897583
 30
0.0
 11
388.00000000003638
 21
-685.57118440149861
 31
0.0
  0
LINE
  5
67CEA
  8
0
  6
CONTINUOUS
 62
     0
 10
312.62880552682691
 20
-700.00255113897583
 30
0.0
 11
234.62880552682691
 21
-622.00255113897583
 31
0.0
  0
LINE
  5
67CEB
  8
0
  6
CONTINUOUS
 62
     0
 10
222.82624431612561
 20
-700.00255113897583
 30
0.0
 11
144.82624431612561
 21
-622.00255113897583
 31
0.0
  0
LINE
  5
67CEC
  8
0
  6
CONTINUOUS
 62
     0
 10
88.000000000032742
 20
-654.97886803356948
 30
0.0
 11
55.023683105442622
 21
-622.00255113897947
 31
0.0
  0
LINE
  5
67CED
  8
0
  6
CONTINUOUS
 62
     0
 10
133.02368310544259
 20
-700.00255113897583
 30
0.0
 11
88.000000000032742
 21
-654.97886803356948
 31
0.0
  0
LINE
  5
67CEE
  8
0
  6
CONTINUOUS
 62
     0
 10
43.221121894745011
 20
-700.00255113896856
 30
0.0
 11
0.0000000000400178
 21
-656.78142924426345
 31
0.0
  0
ENDBLK
  5
67CF0
  8
0
  0
BLOCK
  8
0
  2
*X129
 70
     1
 10
0.0
 20
0.0
 30
0.0
  3
*X129
  1

  0
LINE
  5
67CF2
  8
0
  6
CONTINUOUS
 62
     0
 10
450.00000000003268
 20
664.2313768091916
 30
0.0
 11
414.23392794820018
 21
699.99744886102405
 31
0.0
  0
LINE
  5
67CF3
  8
0
  6
CONTINUOUS
 62
     0
 10
388.00000000003638
 20
636.42881559850139
 30
0.0
 11
324.43136673751718
 21
699.99744886102053
 31
0.0
  0
LINE
  5
67CF4
  8
0
  6
CONTINUOUS
 62
     0
 10
402.43136673751718
 20
621.99744886102405
 30
0.0
 11
388.00000000003638
 21
636.42881559850139
 31
0.0
  0
LINE
  5
67CF5
  8
0
  6
CONTINUOUS
 62
     0
 10
312.62880552682691
 20
621.99744886102405
 30
0.0
 11
234.62880552682691
 21
699.99744886102405
 31
0.0
  0
LINE
  5
67CF6
  8
0
  6
CONTINUOUS
 62
     0
 10
222.82624431612561
 20
621.99744886102405
 30
0.0
 11
144.82624431612561
 21
699.99744886102405
 31
0.0
  0
LINE
  5
67CF7
  8
0
  6
CONTINUOUS
 62
     0
 10
88.000000000032742
 20
667.0211319664304
 30
0.0
 11
55.023683105442622
 21
699.99744886102053
 31
0.0
  0
LINE
  5
67CF8
  8
0
  6
CONTINUOUS
 62
     0
 10
133.02368310544259
 20
621.99744886102405
 30
0.0
 11
88.000000000032742
 21
667.0211319664304
 31
0.0
  0
LINE
  5
67CF9
  8
0
  6
CONTINUOUS
 62
     0
 10
43.221121894745011
 20
621.99744886103144
 30
0.0
 11
0.0000000000400178
 21
665.21857075573644
 31
0.0
  0
ENDBLK
  5
67CFB
  8
0
  0
BLOCK
  8
0
  2
*U130
 70
     1
 10
0.0
 20
0.0
 30
0.0
  3
*U130
  1

  0
SOLID
  5
67D25
  8
0
  6
CONTINUOUS
 10
44.550954280146847
 20
194.9749064097808
 30
0.0
 11
-58.905193272164617
 21
191.12870947265139
 31
0.0
 12
51.824089074327802
 22
191.12870947265139
 32
0.0
 13
51.824089074327802
 23
191.12870947265139
 33
0.0
210
0.0
220
0.0
230
1.0
  0
SOLID
  5
67D26
  8
0
  6
CONTINUOUS
 10
-58.90519327216461
 20
191.12870947265139
 30
0.0
 11
-117.0139769732118
 21
154.63598606144831
 31
0.0
 12
120.8316049958943
 22
154.63598606144831
 32
0.0
 13
120.8316049958943
 23
154.63598606144831
 33
0.0
210
0.0
220
0.0
230
1.0
  0
SOLID
  5
67D27
  8
0
  6
CONTINUOUS
 10
58.90519327216461
 20
191.12870947265139
 30
0.0
 11
-51.824089074327802
 21
191.12870947265139
 31
0.0
 12
-120.8316049958943
 22
154.63598606144831
 32
0.0
 13
-120.8316049958943
 23
154.63598606144831
 33
0.0
210
0.0
220
0.0
230
-1.0
  0
SOLID
  5
67D28
  8
0
  6
CONTINUOUS
 10
-117.0139769732118
 20
154.63598606144831
 30
0.0
 11
-129.8454407389228
 21
146.5777368891373
 31
0.0
 12
-7.9187739383873028
 22
146.5777368891373
 32
0.0
 13
-7.9187739383873028
 23
146.5777368891373
 33
0.0
210
0.0
220
0.0
230
1.0
  0
SOLID
  5
67D29
  8
0
  6
CONTINUOUS
 10
117.0139769732118
 20
154.63598606144831
 30
0.0
 11
-6.5672195654881156
 21
154.63598606144831
 31
0.0
 12
7.9187739383873028
 22
146.5777368891373
 32
0.0
 13
7.9187739383873028
 23
146.5777368891373
 33
0.0
210
0.0
220
0.0
230
-1.0
  0
SOLID
  5
67D2A
  8
0
  6
CONTINUOUS
 10
6.5672195654881156
 20
154.63598606144831
 30
0.0
 11
72.201549540798865
 21
146.5777368891373
 31
0.0
 12
136.06970470668469
 22
146.5777368891373
 32
0.0
 13
136.06970470668469
 23
146.5777368891373
 33
0.0
210
0.0
220
0.0
230
1.0
  0
SOLID
  5
67D2B
  8
0
  6
CONTINUOUS
 10
-6.5672195654881156
 20
154.63598606144831
 30
0.0
 11
-120.8316049958943
 21
154.63598606144831
 31
0.0
 12
-136.06970470668469
 22
146.5777368891373
 32
0.0
 13
-136.06970470668469
 23
146.5777368891373
 33
0.0
210
0.0
220
0.0
230
-1.0
  0
SOLID
  5
67D2C
  8
0
  6
CONTINUOUS
 10
-129.8454407389228
 20
146.5777368891373
 30
0.0
 11
-141.0541275151094
 21
139.5386030392437
 31
0.0
 12
-20.572744427763961
 22
139.5386030392437
 32
0.0
 13
-20.572744427763961
 23
139.5386030392437
 33
0.0
210
0.0
220
0.0
230
1.0
  0
SOLID
  5
67D2D
  8
0
  6
CONTINUOUS
 10
129.8454407389228
 20
146.5777368891373
 30
0.0
 11
7.9187739383873028
 21
146.5777368891373
 31
0.0
 12
20.572744427763961
 22
139.5386030392437
 32
0.0
 13
20.572744427763961
 23
139.5386030392437
 33
0.0
210
0.0
220
0.0
230
-1.0
  0
SOLID
  5
67D2E
  8
0
  6
CONTINUOUS
 10
-72.201549540798865
 20
146.5777368891373
 30
0.0
 11
-136.0697047066846
 21
146.5777368891373
 31
0.0
 12
-129.53519906752251
 22
139.5386030392437
 32
0.0
 13
-129.53519906752251
 23
139.5386030392437
 33
0.0
210
0.0
220
0.0
230
-1.0
  0
SOLID
  5
67D2F
  8
0
  6
CONTINUOUS
 10
136.0697047066846
 20
146.5777368891373
 30
0.0
 11
129.5351990675228
 21
139.5386030392437
 31
0.0
 12
143.09108860080289
 22
139.5386030392437
 32
0.0
 13
143.09108860080289
 23
139.5386030392437
 33
0.0
210
0.0
220
0.0
230
1.0
  0
SOLID
  5
67D30
  8
0
  6
CONTINUOUS
 10
-141.0541275151094
 20
139.5386030392437
 30
0.0
 11
-146.577746761573
 21
136.06973144098379
 31
0.0
 12
-26.808596703322301
 22
136.06973144098379
 32
0.0
 13
-26.808596703322301
 23
136.06973144098379
 33
0.0
210
0.0
220
0.0
230
1.0
  0
SOLID
  5
67D31
  8
0
  6
CONTINUOUS
 10
141.0541275151094
 20
139.5386030392437
 30
0.0
 11
20.572744427763961
 21
139.5386030392437
 31
0.0
 12
26.808596703322301
 22
136.06973144098379
 32
0.0
 13
26.808596703322301
 23
136.06973144098379
 33
0.0
210
0.0
220
0.0
230
-1.0
  0
SOLID
  5
67D32
  8
0
  6
CONTINUOUS
 10
129.53519906752311
 20
139.5386030392437
 30
0.0
 11
136.25658556636
 21
136.06973144098379
 31
0.0
 12
146.55121305505739
 22
136.06973144098379
 32
0.0
 13
146.55121305505739
 23
136.06973144098379
 33
0.0
210
0.0
220
0.0
230
1.0
  0
SOLID
  5
67D33
  8
0
  6
CONTINUOUS
 10
-129.53519906752311
 20
139.5386030392437
 30
0.0
 11
-143.09108860080289
 21
139.5386030392437
 31
0.0
 12
-146.55121305505739
 22
136.06973144098379
 32
0.0
 13
-146.55121305505739
 23
136.06973144098379
 33
0.0
210
0.0
220
0.0
230
-1.0
  0
SOLID
  5
67D34
  8
0
  6
CONTINUOUS
 10
-146.577746761573
 20
136.06973144098379
 30
0.0
 11
-146.77368165489949
 21
135.69921976065609
 31
0.0
 12
-146.17862225930841
 22
135.69921976065609
 32
0.0
 13
-146.17862225930841
 23
135.69921976065609
 33
0.0
210
0.0
220
0.0
230
1.0
  0
SOLID
  5
67D35
  8
0
  6
CONTINUOUS
 10
-146.577746761573
 20
136.06973144098379
 30
0.0
 11
-146.1786222593083
 21
135.69921976065609
 31
0.0
 12
-27.47465079020499
 22
135.69921976065609
 32
0.0
 13
-27.47465079020499
 23
135.69921976065609
 33
0.0
210
0.0
220
0.0
230
1.0
  0
SOLID
  5
67D36
  8
0
  6
CONTINUOUS
 10
146.577746761573
 20
136.06973144098379
 30
0.0
 11
26.808596703322301
 21
136.06973144098379
 31
0.0
 12
27.47465079020499
 22
135.69921976065609
 32
0.0
 13
27.47465079020499
 23
135.69921976065609
 33
0.0
210
0.0
220
0.0
230
-1.0
  0
SOLID
  5
67D37
  8
0
  6
CONTINUOUS
 10
136.25658556636
 20
136.06973144098379
 30
0.0
 11
136.9744997742728
 21
135.69921976065609
 31
0.0
 12
146.92079044913899
 22
135.69921976065609
 32
0.0
 13
146.92079044913899
 23
135.69921976065609
 33
0.0
  0
SOLID
  5
67D38
  8
0
  6
CONTINUOUS
 10
-136.25658556636
 20
136.06973144098379
 30
0.0
 11
-146.55121305505739
 21
136.06973144098379
 31
0.0
 12
-146.92079044913899
 22
135.69921976065609
 32
0.0
 13
-146.92079044913899
 23
135.69921976065609
 33
0.0
210
0.0
220
0.0
230
-1.0
  0
SOLID
  5
67D39
  8
0
  6
CONTINUOUS
 10
-146.77368165489949
 20
135.69921976065609
 30
0.0
 11
-148.561624258481
 21
132.3182312744525
 31
0.0
 12
-142.53653641325681
 22
132.3182312744525
 32
0.0
 13
-142.53653641325681
 23
132.3182312744525
 33
0.0
210
0.0
220
0.0
230
1.0
  0
SOLID
  5
67D3A
  8
0
  6
CONTINUOUS
 10
146.77368165489949
 20
135.69921976065609
 30
0.0
 11
146.17862225930841
 21
135.69921976065609
 31
0.0
 12
142.53653641325681
 22
132.3182312744525
 32
0.0
 13
142.53653641325681
 23
132.3182312744525
 33
0.0
210
0.0
220
0.0
230
-1.0
  0
SOLID
  5
67D3B
  8
0
  6
CONTINUOUS
 10
-146.1786222593083
 20
135.69921976065609
 30
0.0
 11
-142.5365364132567
 21
132.3182312744525
 31
0.0
 12
-33.552519096401468
 22
132.3182312744525
 32
0.0
 13
-33.552519096401468
 23
132.3182312744525
 33
0.0
  0
SOLID
  5
67D3C
  8
0
  6
CONTINUOUS
 10
146.1786222593083
 20
135.69921976065609
 30
0.0
 11
27.47465079020499
 21
135.69921976065609
 31
0.0
 12
33.552519096401468
 22
132.3182312744525
 32
0.0
 13
33.552519096401468
 23
132.3182312744525
 33
0.0
210
0.0
220
0.0
230
-1.0
  0
SOLID
  5
67D3D
  8
0
  6
CONTINUOUS
 10
136.9744997742728
 20
135.69921976065609
 30
0.0
 11
143.5256013991617
 21
132.3182312744525
 31
0.0
 12
149.81095848922959
 22
132.3182312744525
 32
0.0
 13
149.81095848922959
 23
132.3182312744525
 33
0.0
210
0.0
220
0.0
230
1.0
  0
SOLID
  5
67D3E
  8
0
  6
CONTINUOUS
 10
-136.9744997742728
 20
135.69921976065609
 30
0.0
 11
-146.92079044913899
 21
135.69921976065609
 31
0.0
 12
-149.81095848922959
 22
132.3182312744525
 32
0.0
 13
-149.81095848922959
 23
132.3182312744525
 33
0.0
210
0.0
220
0.0
230
-1.0
  0
SOLID
  5
67D3F
  8
0
  6
CONTINUOUS
 10
-148.561624258481
 20
132.3182312744525
 30
0.0
 11
-152.950032580835
 21
124.0197780797475
 31
0.0
 12
-133.5972338844588
 22
124.0197780797475
 32
0.0
 13
-133.5972338844588
 23
124.0197780797475
 33
0.0
  0
SOLID
  5
67D40
  8
0
  6
CONTINUOUS
 10
148.561624258481
 20
132.3182312744525
 30
0.0
 11
142.53653641325681
 21
132.3182312744525
 31
0.0
 12
133.5972338844588
 22
124.0197780797475
 32
0.0
 13
133.5972338844588
 23
124.0197780797475
 33
0.0
210
0.0
220
0.0
230
-1.0
  0
SOLID
  5
67D41
  8
0
  6
CONTINUOUS
 10
-142.5365364132567
 20
132.3182312744525
 30
0.0
 11
-133.59723388445869
 21
124.0197780797475
 31
0.0
 12
-48.470317801828479
 22
124.0197780797475
 32
0.0
 13
-48.470317801828479
 23
124.0197780797475
 33
0.0
210
0.0
220
0.0
230
1.0
  0
SOLID
  5
67D42
  8
0
  6
CONTINUOUS
 10
142.5365364132567
 20
132.3182312744525
 30
0.0
 11
33.552519096401468
 21
132.3182312744525
 31
0.0
 12
48.470317801828479
 22
124.0197780797475
 32
0.0
 13
48.470317801828479
 23
124.0197780797475
 33
0.0
210
0.0
220
0.0
230
-1.0
  0
SOLID
  5
67D43
  8
0
  6
CONTINUOUS
 10
-143.5256013991617
 20
132.3182312744525
 30
0.0
 11
-149.81095848922959
 21
132.3182312744525
 31
0.0
 12
-156.90471947167379
 22
124.0197780797475
 32
0.0
 13
-156.90471947167379
 23
124.0197780797475
 33
0.0
210
0.0
220
0.0
230
-1.0
  0
SOLID
  5
67D44
  8
0
  6
CONTINUOUS
 10
-152.950032580835
 20
124.0197780797475
 30
0.0
 11
-168.60875252864801
 21
94.409234795978335
 31
0.0
 12
-101.7000118064241
 22
94.409234795978335
 32
0.0
 13
-101.7000118064241
 23
94.409234795978335
 33
0.0
  0
SOLID
  5
67D45
  8
0
  6
CONTINUOUS
 10
152.950032580835
 20
124.0197780797475
 30
0.0
 11
133.5972338844588
 21
124.0197780797475
 31
0.0
 12
101.7000118064241
 22
94.409234795978335
 32
0.0
 13
101.7000118064241
 23
94.409234795978335
 33
0.0
210
0.0
220
0.0
230
-1.0
  0
SOLID
  5
67D46
  8
0
  6
CONTINUOUS
 10
133.59723388445869
 20
124.0197780797475
 30
0.0
 11
48.470317801828479
 21
124.0197780797475
 31
0.0
 12
101.7000118064241
 22
94.409234795978335
 32
0.0
 13
101.7000118064241
 23
94.409234795978335
 33
0.0
210
0.0
220
0.0
230
-1.0
  0
SOLID
  5
67D47
  8
0
  6
CONTINUOUS
 10
-168.60875252864801
 20
94.409234795978335
 30
0.0
 11
-194.97491628221741
 21
44.550981014445448
 31
0.0
 12
-124.767371782472
 22
44.550981014445448
 32
0.0
 13
-124.767371782472
 23
44.550981014445448
 33
0.0
  0
SOLID
  5
67D48
  8
0
  6
CONTINUOUS
 10
168.60875252864801
 20
94.409234795978335
 30
0.0
 11
101.7000118064241
 21
94.409234795978335
 31
0.0
 12
124.767371782472
 22
44.550981014445448
 32
0.0
 13
124.767371782472
 23
44.550981014445448
 33
0.0
210
0.0
220
0.0
230
-1.0
  0
SOLID
  5
67D49
  8
0
  6
CONTINUOUS
 10
-194.97491628221741
 20
44.550981014445448
 30
0.0
 11
-192.6482991404294
 21
-18.031057880888518
 31
0.0
 12
-153.72150293915519
 22
-18.031057880888518
 32
0.0
 13
-153.72150293915519
 23
-18.031057880888518
 33
0.0
210
0.0
220
0.0
230
1.0
  0
SOLID
  5
67D4A
  8
0
  6
CONTINUOUS
 10
194.97491628221741
 20
44.550981014445448
 30
0.0
 11
124.767371782472
 21
44.550981014445448
 31
0.0
 12
153.72150293915519
 22
-18.031057880888518
 32
0.0
 13
153.72150293915519
 23
-18.031057880888518
 33
0.0
210
0.0
220
0.0
230
-1.0
  0
SOLID
  5
67D4B
  8
0
  6
CONTINUOUS
 10
-192.6482991404294
 20
-18.031057880888518
 30
0.0
 11
-191.1287193450878
 21
-58.905166537866897
 31
0.0
 12
-145.58544643259989
 22
-58.905166537866897
 32
0.0
 13
-145.58544643259989
 23
-58.905166537866897
 33
0.0
210
0.0
220
0.0
230
1.0
  0
SOLID
  5
67D4C
  8
0
  6
CONTINUOUS
 10
192.6482991404294
 20
-18.031057880888518
 30
0.0
 11
153.72150293915519
 21
-18.031057880888518
 31
0.0
 12
145.58544643259989
 22
-58.905166537866897
 32
0.0
 13
145.58544643259989
 23
-58.905166537866897
 33
0.0
210
0.0
220
0.0
230
-1.0
  0
SOLID
  5
67D4D
  8
0
  6
CONTINUOUS
 10
-191.1287193450878
 20
-58.905166537866897
 30
0.0
 11
-140.4903667038966
 21
-139.53858617738231
 31
0.0
 12
-129.53523567425751
 22
-139.53858617738231
 32
0.0
 13
-129.53523567425751
 23
-139.53858617738231
 33
0.0
210
0.0
220
0.0
230
1.0
  0
SOLID
  5
67D4E
  8
0
  6
CONTINUOUS
 10
191.1287193450878
 20
-58.905166537866897
 30
0.0
 11
145.58544643259989
 21
-58.905166537866897
 31
0.0
 12
129.53523567425751
 22
-139.53858617738231
 32
0.0
 13
129.53523567425751
 23
-139.53858617738231
 33
0.0
210
0.0
220
0.0
230
-1.0
  0
SOLID
  5
67D4F
  8
0
  6
CONTINUOUS
 10
140.4903667038966
 20
-139.53858617738231
 30
0.0
 11
129.53523567425759
 21
-139.53858617738231
 31
0.0
 12
136.0697413134194
 22
-146.57772002727569
 32
0.0
 13
136.0697413134194
 23
-146.57772002727569
 33
0.0
210
0.0
220
0.0
230
-1.0
  0
SOLID
  5
67D50
  8
0
  6
CONTINUOUS
 10
-129.53523567425751
 20
-139.53858617738231
 30
0.0
 11
-136.0697413134194
 21
-146.57772002727569
 31
0.0
 12
-125.2121400426451
 22
-146.57772002727569
 32
0.0
 13
-125.2121400426451
 23
-146.57772002727569
 33
0.0
210
0.0
220
0.0
230
1.0
  0
SOLID
  5
67D51
  8
0
  6
CONTINUOUS
 10
-136.0697413134194
 20
-146.57772002727569
 30
0.0
 11
-128.64834715820271
 21
-152.9542450331025
 31
0.0
 12
-121.2959867224501
 22
-152.9542450331025
 32
0.0
 13
-121.2959867224501
 23
-152.9542450331025
 33
0.0
210
0.0
220
0.0
230
1.0
  0
SOLID
  5
67D52
  8
0
  6
CONTINUOUS
 10
136.0697413134194
 20
-146.57772002727569
 30
0.0
 11
125.2121400426451
 21
-146.57772002727569
 31
0.0
 12
121.2959867224501
 22
-152.9542450331025
 32
0.0
 13
121.2959867224501
 23
-152.9542450331025
 33
0.0
210
0.0
220
0.0
230
-1.0
  0
SOLID
  5
67D53
  8
0
  6
CONTINUOUS
 10
-128.64834715820271
 20
-152.9542450331025
 30
0.0
 11
-124.4155441826761
 21
-156.5911053660374
 31
0.0
 12
-118.6470868850928
 22
-156.5911053660374
 32
0.0
 13
-118.6470868850928
 23
-156.5911053660374
 33
0.0
210
0.0
220
0.0
230
1.0
  0
SOLID
  5
67D54
  8
0
  6
CONTINUOUS
 10
128.64834715820271
 20
-152.9542450331025
 30
0.0
 11
121.2959867224501
 21
-152.9542450331025
 31
0.0
 12
118.6470868850928
 22
-156.5911053660374
 32
0.0
 13
118.6470868850928
 23
-156.5911053660374
 33
0.0
210
0.0
220
0.0
230
-1.0
  0
SOLID
  5
67D55
  8
0
  6
CONTINUOUS
 10
124.4155441826761
 20
-156.5911053660374
 30
0.0
 11
118.6470868850928
 21
-156.5911053660374
 31
0.0
 12
112.0270211232598
 22
-165.6802578628913
 32
0.0
 13
112.0270211232598
 23
-165.6802578628913
 33
0.0
210
0.0
220
0.0
230
-1.0
  0
LINE
  5
67D56
  8
0
  6
CONTINUOUS
 10
44.550954280146847
 20
194.9749064097808
 30
0.0
 11
-58.905193272164617
 21
191.12870947265139
 31
0.0
  0
LINE
  5
67D57
  8
0
  6
CONTINUOUS
 10
51.824089074327802
 20
191.12870947265139
 30
0.0
 11
44.550954280146847
 21
194.9749064097808
 31
0.0
  0
LINE
  5
67D58
  8
0
  6
CONTINUOUS
 10
-58.90519327216461
 20
191.12870947265139
 30
0.0
 11
-117.0139769732118
 21
154.63598606144831
 31
0.0
  0
LINE
  5
67D59
  8
0
  6
CONTINUOUS
 10
51.824089074327802
 20
191.12870947265139
 30
0.0
 11
120.8316049958943
 21
154.63598606144831
 31
0.0
  0
LINE
  5
67D5A
  8
0
  6
CONTINUOUS
 10
-117.0139769732118
 20
154.63598606144831
 30
0.0
 11
-129.8454407389228
 21
146.5777368891373
 31
0.0
  0
LINE
  5
67D5B
  8
0
  6
CONTINUOUS
 10
120.8316049958943
 20
154.63598606144831
 30
0.0
 11
136.06970470668469
 21
146.5777368891373
 31
0.0
  0
LINE
  5
67D5C
  8
0
  6
CONTINUOUS
 10
-129.8454407389228
 20
146.5777368891373
 30
0.0
 11
-141.0541275151094
 21
139.5386030392437
 31
0.0
  0
LINE
  5
67D5D
  8
0
  6
CONTINUOUS
 10
-7.9187739383873028
 20
146.5777368891373
 30
0.0
 11
-20.572744427763961
 21
139.5386030392437
 31
0.0
  0
LINE
  5
67D5E
  8
0
  6
CONTINUOUS
 10
136.0697047066846
 20
146.5777368891373
 30
0.0
 11
129.53519906752251
 21
139.5386030392437
 31
0.0
  0
LINE
  5
67D5F
  8
0
  6
CONTINUOUS
 10
129.53519906752251
 20
139.5386030392437
 30
0.0
 11
72.201549540798865
 21
146.5777368891373
 31
0.0
  0
LINE
  5
67D60
  8
0
  6
CONTINUOUS
 10
136.0697047066846
 20
146.5777368891373
 30
0.0
 11
129.5351990675228
 21
139.5386030392437
 31
0.0
  0
LINE
  5
67D61
  8
0
  6
CONTINUOUS
 10
143.09108860080289
 20
139.5386030392437
 30
0.0
 11
136.0697047066846
 21
146.5777368891373
 31
0.0
  0
LINE
  5
67D62
  8
0
  6
CONTINUOUS
 10
-141.0541275151094
 20
139.5386030392437
 30
0.0
 11
-146.577746761573
 21
136.06973144098379
 31
0.0
  0
LINE
  5
67D63
  8
0
  6
CONTINUOUS
 10
-20.572744427763961
 20
139.5386030392437
 30
0.0
 11
-26.808596703322301
 21
136.06973144098379
 31
0.0
  0
LINE
  5
67D64
  8
0
  6
CONTINUOUS
 10
129.53519906752311
 20
139.5386030392437
 30
0.0
 11
136.25658556636
 21
136.06973144098379
 31
0.0
  0
LINE
  5
67D65
  8
0
  6
CONTINUOUS
 10
143.09108860080289
 20
139.5386030392437
 30
0.0
 11
146.55121305505739
 21
136.06973144098379
 31
0.0
  0
LINE
  5
67D66
  8
0
  6
CONTINUOUS
 10
-146.577746761573
 20
136.06973144098379
 30
0.0
 11
-146.77368165489949
 21
135.69921976065609
 31
0.0
  0
LINE
  5
67D67
  8
0
  6
CONTINUOUS
 10
-146.17862225930841
 20
135.69921976065609
 30
0.0
 11
-146.577746761573
 21
136.06973144098379
 31
0.0
  0
LINE
  5
67D68
  8
0
  6
CONTINUOUS
 10
-146.577746761573
 20
136.06973144098379
 30
0.0
 11
-146.1786222593083
 21
135.69921976065609
 31
0.0
  0
LINE
  5
67D69
  8
0
  6
CONTINUOUS
 10
-26.808596703322301
 20
136.06973144098379
 30
0.0
 11
-27.47465079020499
 21
135.69921976065609
 31
0.0
  0
LINE
  5
67D6A
  8
0
  6
CONTINUOUS
 10
136.25658556636
 20
136.06973144098379
 30
0.0
 11
136.9744997742728
 21
135.69921976065609
 31
0.0
  0
LINE
  5
67D6B
  8
0
  6
CONTINUOUS
 10
146.55121305505739
 20
136.06973144098379
 30
0.0
 11
146.92079044913899
 21
135.69921976065609
 31
0.0
  0
LINE
  5
67D6C
  8
0
  6
CONTINUOUS
 10
-146.77368165489949
 20
135.69921976065609
 30
0.0
 11
-148.561624258481
 21
132.3182312744525
 31
0.0
  0
LINE
  5
67D6D
  8
0
  6
CONTINUOUS
 10
-146.17862225930841
 20
135.69921976065609
 30
0.0
 11
-142.53653641325681
 21
132.3182312744525
 31
0.0
  0
LINE
  5
67D6E
  8
0
  6
CONTINUOUS
 10
-146.1786222593083
 20
135.69921976065609
 30
0.0
 11
-142.5365364132567
 21
132.3182312744525
 31
0.0
  0
LINE
  5
67D6F
  8
0
  6
CONTINUOUS
 10
-27.47465079020499
 20
135.69921976065609
 30
0.0
 11
-33.552519096401468
 21
132.3182312744525
 31
0.0
  0
LINE
  5
67D70
  8
0
  6
CONTINUOUS
 10
136.9744997742728
 20
135.69921976065609
 30
0.0
 11
143.5256013991617
 21
132.3182312744525
 31
0.0
  0
LINE
  5
67D71
  8
0
  6
CONTINUOUS
 10
146.92079044913899
 20
135.69921976065609
 30
0.0
 11
149.81095848922959
 21
132.3182312744525
 31
0.0
  0
LINE
  5
67D72
  8
0
  6
CONTINUOUS
 10
-148.561624258481
 20
132.3182312744525
 30
0.0
 11
-152.950032580835
 21
124.0197780797475
 31
0.0
  0
LINE
  5
67D73
  8
0
  6
CONTINUOUS
 10
-142.53653641325681
 20
132.3182312744525
 30
0.0
 11
-133.5972338844588
 21
124.0197780797475
 31
0.0
  0
LINE
  5
67D74
  8
0
  6
CONTINUOUS
 10
-142.5365364132567
 20
132.3182312744525
 30
0.0
 11
-133.59723388445869
 21
124.0197780797475
 31
0.0
  0
LINE
  5
67D75
  8
0
  6
CONTINUOUS
 10
-33.552519096401468
 20
132.3182312744525
 30
0.0
 11
-48.470317801828479
 21
124.0197780797475
 31
0.0
  0
LINE
  5
67D76
  8
0
  6
CONTINUOUS
 10
149.81095848922959
 20
132.3182312744525
 30
0.0
 11
156.90471947167379
 21
124.0197780797475
 31
0.0
  0
LINE
  5
67D77
  8
0
  6
CONTINUOUS
 10
156.90471947167379
 20
124.0197780797475
 30
0.0
 11
143.5256013991617
 21
132.3182312744525
 31
0.0
  0
LINE
  5
67D78
  8
0
  6
CONTINUOUS
 10
-152.950032580835
 20
124.0197780797475
 30
0.0
 11
-168.60875252864801
 21
94.409234795978335
 31
0.0
  0
LINE
  5
67D79
  8
0
  6
CONTINUOUS
 10
-48.470317801828479
 20
124.0197780797475
 30
0.0
 11
-101.7000118064241
 21
94.409234795978335
 31
0.0
  0
LINE
  5
67D7A
  8
0
  6
CONTINUOUS
 10
-101.7000118064241
 20
94.409234795978335
 30
0.0
 11
-133.59723388445869
 21
124.0197780797475
 31
0.0
  0
LINE
  5
67D7B
  8
0
  6
CONTINUOUS
 10
-168.60875252864801
 20
94.409234795978335
 30
0.0
 11
-194.97491628221741
 21
44.550981014445448
 31
0.0
  0
LINE
  5
67D7C
  8
0
  6
CONTINUOUS
 10
-101.7000118064241
 20
94.409234795978335
 30
0.0
 11
-124.767371782472
 21
44.550981014445448
 31
0.0
  0
LINE
  5
67D7D
  8
0
  6
CONTINUOUS
 10
-194.97491628221741
 20
44.550981014445448
 30
0.0
 11
-192.6482991404294
 21
-18.031057880888518
 31
0.0
  0
LINE
  5
67D7E
  8
0
  6
CONTINUOUS
 10
-124.767371782472
 20
44.550981014445448
 30
0.0
 11
-153.72150293915519
 21
-18.031057880888518
 31
0.0
  0
LINE
  5
67D7F
  8
0
  6
CONTINUOUS
 10
-192.6482991404294
 20
-18.031057880888518
 30
0.0
 11
-191.1287193450878
 21
-58.905166537866897
 31
0.0
  0
LINE
  5
67D80
  8
0
  6
CONTINUOUS
 10
-153.72150293915519
 20
-18.031057880888518
 30
0.0
 11
-145.58544643259989
 21
-58.905166537866897
 31
0.0
  0
LINE
  5
67D81
  8
0
  6
CONTINUOUS
 10
-191.1287193450878
 20
-58.905166537866897
 30
0.0
 11
-140.4903667038966
 21
-139.53858617738231
 31
0.0
  0
LINE
  5
67D82
  8
0
  6
CONTINUOUS
 10
-145.58544643259989
 20
-58.905166537866897
 30
0.0
 11
-129.53523567425751
 21
-139.53858617738231
 31
0.0
  0
LINE
  5
67D83
  8
0
  6
CONTINUOUS
 10
-129.53523567425759
 20
-139.53858617738231
 30
0.0
 11
-136.0697413134194
 21
-146.57772002727569
 31
0.0
  0
LINE
  5
67D84
  8
0
  6
CONTINUOUS
 10
-125.2121400426451
 20
-146.57772002727569
 30
0.0
 11
-129.53523567425751
 21
-139.53858617738231
 31
0.0
  0
LINE
  5
67D85
  8
0
  6
CONTINUOUS
 10
-136.0697413134194
 20
-146.57772002727569
 30
0.0
 11
-128.64834715820271
 21
-152.9542450331025
 31
0.0
  0
LINE
  5
67D86
  8
0
  6
CONTINUOUS
 10
-125.2121400426451
 20
-146.57772002727569
 30
0.0
 11
-121.2959867224501
 21
-152.9542450331025
 31
0.0
  0
LINE
  5
67D87
  8
0
  6
CONTINUOUS
 10
-128.64834715820271
 20
-152.9542450331025
 30
0.0
 11
-124.4155441826761
 21
-156.5911053660374
 31
0.0
  0
LINE
  5
67D88
  8
0
  6
CONTINUOUS
 10
-121.2959867224501
 20
-152.9542450331025
 30
0.0
 11
-118.6470868850928
 21
-156.5911053660374
 31
0.0
  0
LINE
  5
67D89
  8
0
  6
CONTINUOUS
 10
-118.6470868850928
 20
-156.5911053660374
 30
0.0
 11
-112.0270211232598
 21
-165.6802578628913
 31
0.0
  0
LINE
  5
67D8A
  8
0
  6
CONTINUOUS
 10
-112.0270211232598
 20
-165.6802578628913
 30
0.0
 11
-124.4155441826761
 21
-156.5911053660374
 31
0.0
  0
ENDBLK
  5
67D8C
  8
0
  0
BLOCK
  8
0
  2
*U131
 70
     1
 10
0.0
 20
0.0
 30
0.0
  3
*U131
  1

  0
TEXT
  5
67D8E
  8
0
  6
CONTINUOUS
 62
     7
 10
9757.8349959881471
 20
403134.2930254917
 30
0.0
 40
125.0
  1
126
 41
0.8
  0
ENDBLK
  5
67D90
  8
0
  0
BLOCK
  8
0
  2
*U132
 70
     1
 10
0.0
 20
0.0
 30
0.0
  3
*U132
  1

  0
TEXT
  5
67D92
  8
0
  6
CONTINUOUS
 62
     7
 10
11239.89730949224
 20
403616.24416332901
 30
0.0
 40
125.0
  1
4X2 OTV.\U+220512
 50
296.67663268786208
 41
0.8
  0
ENDBLK
  5
67D94
  8
0
  0
BLOCK
  8
0
  2
*U133
 70
     1
 10
0.0
 20
0.0
 30
0.0
  3
*U133
  1

  0
TEXT
  5
67D96
  8
0
  6
CONTINUOUS
 62
     7
 10
7993.3014434652096
 20
405114.2507188968
 30
0.0
 40
125.0
  1
750
 41
0.8
  0
ENDBLK
  5
67D98
  8
0
  0
BLOCK
  8
0
  2
*U134
 70
     1
 10
0.0
 20
0.0
 30
0.0
  3
*U134
  1

  0
TEXT
  5
67D9A
  8
0
  6
CONTINUOUS
 62
     7
 10
8761.1605289826894
 20
404948.19010792091
 30
0.0
 40
125.0
  1
261
 41
0.8
  0
ENDBLK
  5
67D9C
  8
0
  0
BLOCK
  8
0
  2
*U135
 70
     1
 10
0.0
 20
0.0
 30
0.0
  3
*U135
  1

  0
TEXT
  5
67D9E
  8
0
  6
CONTINUOUS
 62
     7
 10
7993.3014434652096
 20
403574.2507188968
 30
0.0
 40
125.0
  1
350
 41
0.8
  0
ENDBLK
  5
67DA0
  8
0
  0
BLOCK
  8
0
  2
*U136
 70
     1
 10
0.0
 20
0.0
 30
0.0
  3
*U136
  1

  0
TEXT
  5
67DA2
  8
0
  6
CONTINUOUS
 62
     7
 10
7993.3014434652096
 20
403334.2507188968
 30
0.0
 40
125.0
  1
800
 41
0.8
  0
ENDBLK
  5
67DA4
  8
0
  0
BLOCK
  8
0
  2
*U137
 70
     1
 10
0.0
 20
0.0
 30
0.0
  3
*U137
  1

  0
TEXT
  5
67DA6
  8
0
  6
CONTINUOUS
 62
     7
 10
7993.3014434652096
 20
403114.2507188968
 30
0.0
 40
125.0
  1
850
 41
0.8
  0
ENDBLK
  5
67DA8
  8
0
  0
BLOCK
  8
0
  2
*U138
 70
     1
 10
0.0
 20
0.0
 30
0.0
  3
*U138
  1

  0
TEXT
  5
67DAA
  8
0
  6
CONTINUOUS
 62
     7
 10
5504.1827745881883
 20
404864.3575040893
 30
0.0
 40
125.0
  1
183
 41
0.8
  0
ENDBLK
  5
67DAC
  8
0
  0
BLOCK
  8
0
  2
*U139
 70
     1
 10
0.0
 20
0.0
 30
0.0
  3
*U139
  1

  0
TEXT
  5
67DAE
  8
0
  6
CONTINUOUS
 62
     7
 10
5559.1470603024736
 20
405124.3575040893
 30
0.0
 40
125.0
  1
A
 41
0.8
  0
ENDBLK
  5
67DB0
  8
0
  0
BLOCK
  8
0
  2
*U140
 70
     1
 10
0.0
 20
0.0
 30
0.0
  3
*U140
  1

  0
TEXT
  5
67DB2
  8
0
  6
CONTINUOUS
 62
     7
 10
8861.1585863222881
 20
404098.89357603958
 30
0.0
 40
125.0
  1
767
 50
90.0
 41
0.8
  0
ENDBLK
  5
67DB4
  8
0
  0
BLOCK
  8
0
  2
*U141
 70
     1
 10
0.0
 20
0.0
 30
0.0
  3
*U141
  1

  0
TEXT
  5
67DB6
  8
0
  6
CONTINUOUS
 62
     7
 10
6285.2065841119966
 20
403284.3575040893
 30
0.0
 40
125.0
  1
B
 41
0.8
  0
ENDBLK
  5
67DB8
  8
0
  0
BLOCK
  8
0
  2
*U142
 70
     1
 10
0.0
 20
0.0
 30
0.0
  3
*U142
  1

  0
TEXT
  5
67DBA
  8
0
  6
CONTINUOUS
 62
     7
 10
4641.1827745881228
 20
404042.33369456552
 30
0.0
 40
125.0
  1
(767)
 50
90.0
 41
0.8
  0
ENDBLK
  5
67DBC
  8
0
  0
BLOCK
  8
0
  2
*U143
 70
     1
 10
0.0
 20
0.0
 30
0.0
  3
*U143
  1

  0
TEXT
  5
67DBE
  8
0
  6
CONTINUOUS
 62
     7
 10
5559.7542031596158
 20
403204.3575040893
 30
0.0
 40
125.0
  1
C
 41
0.8
  0
ENDBLK
  5
67DC0
  8
0
  0
BLOCK
  8
0
  2
*U144
 70
     1
 10
0.0
 20
0.0
 30
0.0
  3
*U144
  1

  0
TEXT
  5
67DC2
  8
0
  6
CONTINUOUS
 62
     7
 10
4743.3256317310452
 20
403524.3575040893
 30
0.0
 40
125.0
  1
118
 41
0.8
  0
ENDBLK
  5
67DC4
  8
0
  0
BLOCK
  8
0
  2
*U145
 70
     1
 10
0.0
 20
0.0
 30
0.0
  3
*U145
  1

  0
TEXT
  5
67DC6
  8
0
  6
CONTINUOUS
 62
     7
 10
6069.2794307228178
 20
403671.86111921322
 30
0.0
 40
125.0
  1
170
 41
0.8
  0
ENDBLK
  5
67DC8
  8
0
  0
BLOCK
  8
0
  2
*U146
 70
     1
 10
0.0
 20
0.0
 30
0.0
  3
*U146
  1

  0
TEXT
  5
67DCA
  8
0
  6
CONTINUOUS
 62
     7
 10
7387.5871577508569
 20
404064.20309984911
 30
0.0
 40
125.0
  1
(51)
 50
90.0
 41
0.8
  0
ENDBLK
  5
67DCC
  8
0
  0
BLOCK
  8
0
  2
*U147
 70
     1
 10
0.0
 20
0.0
 30
0.0
  3
*U147
  1

  0
TEXT
  5
67DCE
  8
0
  6
CONTINUOUS
 62
     7
 10
11392.831944256681
 20
399605.79263235081
 30
0.0
 40
125.0
  1
6X2 OTV.\U+220512
 50
296.6766326879881
 41
0.8
  0
ENDBLK
  5
67DD0
  8
0
  0
BLOCK
  8
0
  2
*U148
 70
     1
 10
0.0
 20
0.0
 30
0.0
  3
*U148
  1

  0
TEXT
  5
67DD2
  8
0
  6
CONTINUOUS
 62
     7
 10
9592.3349959881489
 20
399439.17401828337
 30
0.0
 40
125.0
  1
126
 41
0.8
  0
ENDBLK
  5
67DD4
  8
0
  0
BLOCK
  8
0
  2
*U149
 70
     1
 10
0.0
 20
0.0
 30
0.0
  3
*U149
  1

  0
TEXT
  5
67DD6
  8
0
  6
CONTINUOUS
 62
     7
 10
8761.6443091024903
 20
401127.75005376851
 30
0.0
 40
125.0
  1
261
 41
0.8
  0
ENDBLK
  5
67DD8
  8
0
  0
BLOCK
  8
0
  2
*U150
 70
     1
 10
0.0
 20
0.0
 30
0.0
  3
*U150
  1

  0
TEXT
  5
67DDA
  8
0
  6
CONTINUOUS
 62
     7
 10
5388.6827745881883
 20
401039.14963077637
 30
0.0
 40
125.0
  1
183
 41
0.8
  0
ENDBLK
  5
67DDC
  8
0
  0
BLOCK
  8
0
  2
*U151
 70
     1
 10
0.0
 20
0.0
 30
0.0
  3
*U151
  1

  0
TEXT
  5
67DDE
  8
0
  6
CONTINUOUS
 62
     7
 10
7993.3014434652096
 20
401343.07925848762
 30
0.0
 40
125.0
  1
750
 41
0.8
  0
ENDBLK
  5
67DE0
  8
0
  0
BLOCK
  8
0
  2
*U152
 70
     1
 10
0.0
 20
0.0
 30
0.0
  3
*U152
  1

  0
TEXT
  5
67DE2
  8
0
  6
CONTINUOUS
 62
     7
 10
7993.3014434652096
 20
399343.07925848768
 30
0.0
 40
125.0
  1
850
 41
0.8
  0
ENDBLK
  5
67DE4
  8
0
  0
BLOCK
  8
0
  2
*U153
 70
     1
 10
0.0
 20
0.0
 30
0.0
  3
*U153
  1

  0
TEXT
  5
67DE6
  8
0
  6
CONTINUOUS
 62
     7
 10
7993.3014434652096
 20
399563.07925848768
 30
0.0
 40
125.0
  1
800
 41
0.8
  0
ENDBLK
  5
67DE8
  8
0
  0
BLOCK
  8
0
  2
*U154
 70
     1
 10
0.0
 20
0.0
 30
0.0
  3
*U154
  1

  0
TEXT
  5
67DEA
  8
0
  6
CONTINUOUS
 62
     7
 10
7993.3014434652096
 20
399803.07925848768
 30
0.0
 40
125.0
  1
350
 41
0.8
  0
ENDBLK
  5
67DEC
  8
0
  0
BLOCK
  8
0
  2
*U155
 70
     1
 10
0.0
 20
0.0
 30
0.0
  3
*U155
  1

  0
TEXT
  5
67DEE
  8
0
  6
CONTINUOUS
 62
     7
 10
7361.5871577508578
 20
399506.31735372572
 30
0.0
 40
125.0
  1
(11)
 50
90.0
 41
0.8
  0
ENDBLK
  5
67DF0
  8
0
  0
BLOCK
  8
0
  2
*U156
 70
     1
 10
0.0
 20
0.0
 30
0.0
  3
*U156
  1

  0
TEXT
  5
67DF2
  8
0
  6
CONTINUOUS
 62
     7
 10
4439.6827745881228
 20
400195.84338004322
 30
0.0
 40
125.0
  1
(807)
 50
90.0
 41
0.8
  0
ENDBLK
  5
67DF4
  8
0
  0
BLOCK
  8
0
  2
*U157
 70
     1
 10
0.0
 20
0.0
 30
0.0
  3
*U157
  1

  0
TEXT
  5
67DF6
  8
0
  6
CONTINUOUS
 62
     7
 10
5346.635155540569
 20
401297.86718956713
 30
0.0
 40
125.0
  1
1070
 41
0.8
  0
ENDBLK
  5
67DF8
  8
0
  0
BLOCK
  8
0
  2
*U158
 70
     1
 10
0.0
 20
0.0
 30
0.0
  3
*U158
  1

  0
TEXT
  5
67DFA
  8
0
  6
CONTINUOUS
 62
     7
 10
6275.6827745881883
 20
399583.324806082
 30
0.0
 40
125.0
  1
105
 41
0.8
  0
ENDBLK
  5
67DFC
  8
0
  0
BLOCK
  8
0
  2
*U159
 70
     1
 10
0.0
 20
0.0
 30
0.0
  3
*U159
  1

  0
TEXT
  5
67DFE
  8
0
  6
CONTINUOUS
 62
     7
 10
5636.3970603024736
 20
399357.86718956713
 30
0.0
 40
125.0
  1
390
 41
0.8
  0
ENDBLK
  5
67E00
  8
0
  0
BLOCK
  8
0
  2
*U160
 70
     1
 10
0.0
 20
0.0
 30
0.0
  3
*U160
  1

  0
TEXT
  5
67E02
  8
0
  6
CONTINUOUS
 62
     7
 10
5186.3970603024736
 20
399357.86718956713
 30
0.0
 40
125.0
  1
510
 41
0.8
  0
ENDBLK
  5
67E04
  8
0
  0
BLOCK
  8
0
  2
*U161
 70
     1
 10
0.0
 20
0.0
 30
0.0
  3
*U161
  1

  0
TEXT
  5
67E06
  8
0
  6
CONTINUOUS
 62
     7
 10
4745.8256317310452
 20
399793.0209978245
 30
0.0
 40
125.0
  1
170
 41
0.8
  0
ENDBLK
  5
67E08
  8
0
  0
BLOCK
  8
0
  2
*U162
 70
     1
 10
0.0
 20
0.0
 30
0.0
  3
*U162
  1

  0
TEXT
  5
67E0A
  8
0
  6
CONTINUOUS
 62
     7
 10
4449.2542031596158
 20
399636.89623465342
 30
0.0
 40
125.0
  1
(168)
 41
0.8
  0
ENDBLK
  5
67E0C
  8
0
  0
BLOCK
  8
0
  2
*U163
 70
     1
 10
0.0
 20
0.0
 30
0.0
  3
*U163
  1

  0
TEXT
  5
67E0E
  8
0
  6
CONTINUOUS
 62
     7
 10
8855.1585863222863
 20
400302.22211563057
 30
0.0
 40
125.0
  1
818
 50
90.0
 41
0.8
  0
ENDBLK
  5
67E10
  8
0
  0
BLOCK
  8
0
  2
*U164
 70
     1
 10
0.0
 20
0.0
 30
0.0
  3
*U164
  1

  0
TEXT
  5
67E12
  8
S-OBRYS
  6
CONTINUOUS
 62
     7
 10
9447.7783979699961
 20
396609.32967766369
 30
0.0
 40
125.0
  1
700
 50
90.0
 41
0.8
  0
ENDBLK
  5
67E14
  8
0
  0
BLOCK
  8
0
  2
*U165
 70
     1
 10
0.0
 20
0.0
 30
0.0
  3
*U165
  1

  0
TEXT
  5
67E16
  8
S-OBRYS
  6
CONTINUOUS
 62
     7
 10
8260.1593503510157
 20
397877.18682052079
 30
0.0
 40
125.0
  1
1000
 41
0.8
  0
ENDBLK
  5
67E18
  8
0
  0
BLOCK
  8
0
  2
*U166
 70
     1
 10
0.0
 20
0.0
 30
0.0
  3
*U166
  1

  0
TEXT
  5
67E1A
  8
S-OBRYS
  6
CONTINUOUS
 62
     7
 10
9448.6252514190492
 20
398059.32967766369
 30
0.0
 40
125.0
  1
700
 50
90.0
 41
0.8
  0
ENDBLK
  5
67E1C
  8
0
  0
BLOCK
  8
0
  2
*U167
 70
     1
 10
0.0
 20
0.0
 30
0.0
  3
*U167
  1

  0
TEXT
  5
67E1E
  8
OBRYS
  6
CONTINUOUS
 10
-6192.8184364934068
 20
406521.49651339953
 30
0.0
 40
400.0
  1
Šrotovník SK 14
  7
R
  0
ENDBLK
  5
67E20
  8
0
  0
BLOCK
  8
0
  2
*U168
 70
     1
 10
0.0
 20
0.0
 30
0.0
  3
*U168
  1

  0
TEXT
  5
67E22
  8
0
  6
CONTINUOUS
 10
-654.18615435160325
 20
402261.69548285642
 30
0.0
 40
100.0
  1
A - 911-  11  kW  
 41
0.8
  0
TEXT
  5
67E23
  8
0
  6
CONTINUOUS
 10
-650.37663054207951
 20
402095.02881618968
 30
0.0
 40
100.0
  1
    955- 18,5 kW
 41
0.8
  0
TEXT
  5
67E24
  8
0
  6
CONTINUOUS
 10
-665.61472578017458
 20
401761.69548285642
 30
0.0
 40
100.0
  1
B -  96- 11  kW
 41
0.8
  0
TEXT
  5
67E25
  8
0
  6
CONTINUOUS
 10
-650.37663054207951
 20
401595.02881618979
 30
0.0
 40
100.0
  1
    100- 18,5 kW
 41
0.8
  0
TEXT
  5
67E26
  8
0
  6
CONTINUOUS
 10
-661.80520197065096
 20
401261.69548285648
 30
0.0
 40
100.0
  1
C - 700- 11  kW
 41
0.8
  0
TEXT
  5
67E27
  8
0
  6
CONTINUOUS
 10
-650.37663054207951
 20
401095.02881618968
 30
0.0
 40
100.0
  1
    740- 18,5 kW  
 41
0.8
  0
ENDBLK
  5
67E29
  8
0
  0
BLOCK
  8
0
  2
*U169
 70
     1
 10
0.0
 20
0.0
 30
0.0
  3
*U169
  1

  0
TEXT
  5
67E2B
  8
0
  6
CONTINUOUS
 10
-4527.4965873319334
 20
402018.82804475952
 30
0.0
 40
175.0
  1
SK 14 - 30 kW
 41
0.8
  0
ENDBLK
  5
67E2D
  8
0
  0
BLOCK
  8
0
  2
*U170
 70
     1
 10
0.0
 20
0.0
 30
0.0
  3
*U170
  1

  0
TEXT
  5
67E2F
  8
0
  6
CONTINUOUS
 10
-4527.4965873319334
 20
405674.17449135531
 30
0.0
 40
175.0
  1
SK 11 - 18,5 kW
 41
0.8
  0
ENDBLK
  5
67E31
  8
0
  0
BLOCK
  8
0
  2
*U171
 70
     1
 10
0.0
 20
0.0
 30
0.0
  3
*U171
  1

  0
TEXT
  5
67E33
  8
S-OBRYS
  6
CONTINUOUS
 62
     7
 10
-3644.5909639516822
 20
396609.32967766369
 30
0.0
 40
125.0
  1
700
 50
90.0
 41
0.8
  0
ENDBLK
  5
67E35
  8
0
  0
BLOCK
  8
0
  2
*U172
 70
     1
 10
0.0
 20
0.0
 30
0.0
  3
*U172
  1

  0
TEXT
  5
67E37
  8
S-OBRYS
  6
CONTINUOUS
 62
     7
 10
-4832.2100115706662
 20
397877.18682052079
 30
0.0
 40
125.0
  1
1000
 41
0.8
  0
ENDBLK
  5
67E39
  8
0
  0
BLOCK
  8
0
  2
*U173
 70
     1
 10
0.0
 20
0.0
 30
0.0
  3
*U173
  1

  0
TEXT
  5
67E3B
  8
S-OBRYS
  6
CONTINUOUS
 62
     7
 10
-3643.7441105026292
 20
398059.32967766369
 30
0.0
 40
125.0
  1
700
 50
90.0
 41
0.8
  0
ENDBLK
  5
67E3D
  8
0
  0
BLOCK
  8
0
  2
*U174
 70
     1
 10
0.0
 20
0.0
 30
0.0
  3
*U174
  1

  0
TEXT
  5
67E3F
  8
0
  6
CONTINUOUS
 62
     7
 10
-3334.534365933534
 20
403134.2930254917
 30
0.0
 40
125.0
  1
126
 41
0.8
  0
ENDBLK
  5
67E41
  8
0
  0
BLOCK
  8
0
  2
*U175
 70
     1
 10
0.0
 20
0.0
 30
0.0
  3
*U175
  1

  0
TEXT
  5
67E43
  8
0
  6
CONTINUOUS
 62
     7
 10
-1852.4720524298241
 20
403616.2441633289
 30
0.0
 40
125.0
  1
4X2 OTV.\U+220512
 50
296.67663268773731
 41
0.8
  0
ENDBLK
  5
67E45
  8
0
  0
BLOCK
  8
0
  2
*U176
 70
     1
 10
0.0
 20
0.0
 30
0.0
  3
*U176
  1

  0
TEXT
  5
67E47
  8
0
  6
CONTINUOUS
 62
     7
 10
-1699.537417668309
 20
399605.79263234889
 30
0.0
 40
125.0
  1
6X2 OTV.\U+220512
 50
296.67663268761561
 41
0.8
  0
ENDBLK
  5
67E49
  8
0
  0
BLOCK
  8
0
  2
*U177
 70
     1
 10
0.0
 20
0.0
 30
0.0
  3
*U177
  1

  0
TEXT
  5
67E4B
  8
0
  6
CONTINUOUS
 62
     7
 10
-3500.0343659335331
 20
399439.17401828337
 30
0.0
 40
125.0
  1
126
 41
0.8
  0
ENDBLK
  5
67E4D
  8
0
  0
BLOCK
  8
0
  2
*U178
 70
     1
 10
0.0
 20
0.0
 30
0.0
  3
*U178
  1

  0
TEXT
  5
67E4F
  8
0
  6
CONTINUOUS
 62
     7
 10
-4330.7250528191889
 20
401127.75005376851
 30
0.0
 40
125.0
  1
261
 41
0.8
  0
ENDBLK
  5
67E51
  8
0
  0
BLOCK
  8
0
  2
*U179
 70
     1
 10
0.0
 20
0.0
 30
0.0
  3
*U179
  1

  0
TEXT
  5
67E53
  8
0
  6
CONTINUOUS
 62
     7
 10
-7703.6865873334918
 20
401039.14963077637
 30
0.0
 40
125.0
  1
183
 41
0.8
  0
ENDBLK
  5
67E55
  8
0
  0
BLOCK
  8
0
  2
*U180
 70
     1
 10
0.0
 20
0.0
 30
0.0
  3
*U180
  1

  0
TEXT
  5
67E57
  8
0
  6
CONTINUOUS
 62
     7
 10
-5099.0679184564697
 20
401343.07925848762
 30
0.0
 40
125.0
  1
750
 41
0.8
  0
ENDBLK
  5
67E59
  8
0
  0
BLOCK
  8
0
  2
*U181
 70
     1
 10
0.0
 20
0.0
 30
0.0
  3
*U181
  1

  0
TEXT
  5
67E5B
  8
0
  6
CONTINUOUS
 62
     7
 10
-5099.0679184564697
 20
399343.07925848768
 30
0.0
 40
125.0
  1
850
 41
0.8
  0
ENDBLK
  5
67E5D
  8
0
  0
BLOCK
  8
0
  2
*U182
 70
     1
 10
0.0
 20
0.0
 30
0.0
  3
*U182
  1

  0
TEXT
  5
67E5F
  8
0
  6
CONTINUOUS
 62
     7
 10
-5099.0679184564697
 20
399563.07925848768
 30
0.0
 40
125.0
  1
800
 41
0.8
  0
ENDBLK
  5
67E61
  8
0
  0
BLOCK
  8
0
  2
*U183
 70
     1
 10
0.0
 20
0.0
 30
0.0
  3
*U183
  1

  0
TEXT
  5
67E63
  8
0
  6
CONTINUOUS
 62
     7
 10
-5099.0679184564697
 20
399803.07925848768
 30
0.0
 40
125.0
  1
350
 41
0.8
  0
ENDBLK
  5
67E65
  8
0
  0
BLOCK
  8
0
  2
*U184
 70
     1
 10
0.0
 20
0.0
 30
0.0
  3
*U184
  1

  0
TEXT
  5
67E67
  8
0
  6
CONTINUOUS
 62
     7
 10
-5099.0679184564697
 20
405114.2507188968
 30
0.0
 40
125.0
  1
750
 41
0.8
  0
ENDBLK
  5
67E69
  8
0
  0
BLOCK
  8
0
  2
*U185
 70
     1
 10
0.0
 20
0.0
 30
0.0
  3
*U185
  1

  0
TEXT
  5
67E6B
  8
0
  6
CONTINUOUS
 62
     7
 10
-4331.208832938989
 20
404948.19010792091
 30
0.0
 40
125.0
  1
261
 41
0.8
  0
ENDBLK
  5
67E6D
  8
0
  0
BLOCK
  8
0
  2
*U186
 70
     1
 10
0.0
 20
0.0
 30
0.0
  3
*U186
  1

  0
TEXT
  5
67E6F
  8
0
  6
CONTINUOUS
 62
     7
 10
-5099.0679184564697
 20
403574.2507188968
 30
0.0
 40
125.0
  1
350
 41
0.8
  0
ENDBLK
  5
67E71
  8
0
  0
BLOCK
  8
0
  2
*U187
 70
     1
 10
0.0
 20
0.0
 30
0.0
  3
*U187
  1

  0
TEXT
  5
67E73
  8
0
  6
CONTINUOUS
 62
     7
 10
-5099.0679184564697
 20
403334.2507188968
 30
0.0
 40
125.0
  1
800
 41
0.8
  0
ENDBLK
  5
67E75
  8
0
  0
BLOCK
  8
0
  2
*U188
 70
     1
 10
0.0
 20
0.0
 30
0.0
  3
*U188
  1

  0
TEXT
  5
67E77
  8
0
  6
CONTINUOUS
 62
     7
 10
-5099.0679184564697
 20
403114.2507188968
 30
0.0
 40
125.0
  1
850
 41
0.8
  0
ENDBLK
  5
67E79
  8
0
  0
BLOCK
  8
0
  2
*U189
 70
     1
 10
0.0
 20
0.0
 30
0.0
  3
*U189
  1

  0
TEXT
  5
67E7B
  8
0
  6
CONTINUOUS
 62
     7
 10
-7588.1865873334918
 20
404864.3575040893
 30
0.0
 40
125.0
  1
183
 41
0.8
  0
ENDBLK
  5
67E7D
  8
0
  0
BLOCK
  8
0
  2
*U190
 70
     1
 10
0.0
 20
0.0
 30
0.0
  3
*U190
  1

  0
TEXT
  5
67E7F
  8
0
  6
CONTINUOUS
 62
     7
 10
-5730.7822041708214
 20
399506.31735372572
 30
0.0
 40
125.0
  1
(11)
 50
90.0
 41
0.8
  0
ENDBLK
  5
67E81
  8
0
  0
BLOCK
  8
0
  2
*U191
 70
     1
 10
0.0
 20
0.0
 30
0.0
  3
*U191
  1

  0
TEXT
  5
67E83
  8
0
  6
CONTINUOUS
 62
     7
 10
-8652.6865873335555
 20
400195.84338004322
 30
0.0
 40
125.0
  1
(807)
 50
90.0
 41
0.8
  0
ENDBLK
  5
67E85
  8
0
  0
BLOCK
  8
0
  2
*U192
 70
     1
 10
0.0
 20
0.0
 30
0.0
  3
*U192
  1

  0
TEXT
  5
67E87
  8
0
  6
CONTINUOUS
 62
     7
 10
-7745.7342063811102
 20
401297.86718956713
 30
0.0
 40
125.0
  1
1070
 41
0.8
  0
ENDBLK
  5
67E89
  8
0
  0
BLOCK
  8
0
  2
*U193
 70
     1
 10
0.0
 20
0.0
 30
0.0
  3
*U193
  1

  0
TEXT
  5
67E8B
  8
0
  6
CONTINUOUS
 62
     7
 10
-6816.6865873334909
 20
399583.324806082
 30
0.0
 40
125.0
  1
105
 41
0.8
  0
ENDBLK
  5
67E8D
  8
0
  0
BLOCK
  8
0
  2
*U194
 70
     1
 10
0.0
 20
0.0
 30
0.0
  3
*U194
  1

  0
TEXT
  5
67E8F
  8
0
  6
CONTINUOUS
 62
     7
 10
-7455.9723016192047
 20
399357.86718956713
 30
0.0
 40
125.0
  1
390
 41
0.8
  0
ENDBLK
  5
67E91
  8
0
  0
BLOCK
  8
0
  2
*U195
 70
     1
 10
0.0
 20
0.0
 30
0.0
  3
*U195
  1

  0
TEXT
  5
67E93
  8
0
  6
CONTINUOUS
 62
     7
 10
-7905.9723016192047
 20
399357.86718956713
 30
0.0
 40
125.0
  1
510
 41
0.8
  0
ENDBLK
  5
67E95
  8
0
  0
BLOCK
  8
0
  2
*U196
 70
     1
 10
0.0
 20
0.0
 30
0.0
  3
*U196
  1

  0
TEXT
  5
67E97
  8
0
  6
CONTINUOUS
 62
     7
 10
-8346.543730190635
 20
399793.0209978245
 30
0.0
 40
125.0
  1
170
 41
0.8
  0
ENDBLK
  5
67E99
  8
0
  0
BLOCK
  8
0
  2
*U197
 70
     1
 10
0.0
 20
0.0
 30
0.0
  3
*U197
  1

  0
TEXT
  5
67E9B
  8
0
  6
CONTINUOUS
 62
     7
 10
-8643.1151587620625
 20
399636.89623465342
 30
0.0
 40
125.0
  1
(168)
 41
0.8
  0
ENDBLK
  5
67E9D
  8
0
  0
BLOCK
  8
0
  2
*U198
 70
     1
 10
0.0
 20
0.0
 30
0.0
  3
*U198
  1

  0
TEXT
  5
67E9F
  8
0
  6
CONTINUOUS
 62
     7
 10
-7533.2223016192056
 20
405124.3575040893
 30
0.0
 40
125.0
  1
A
 41
0.8
  0
ENDBLK
  5
67EA1
  8
0
  0
BLOCK
  8
0
  2
*U199
 70
     1
 10
0.0
 20
0.0
 30
0.0
  3
*U199
  1

  0
TEXT
  5
67EA3
  8
0
  6
CONTINUOUS
 62
     7
 10
-4237.210775599392
 20
400302.22211563057
 30
0.0
 40
125.0
  1
818
 50
90.0
 41
0.8
  0
ENDBLK
  5
67EA5
  8
0
  0
BLOCK
  8
0
  2
*U200
 70
     1
 10
0.0
 20
0.0
 30
0.0
  3
*U200
  1

  0
TEXT
  5
67EA7
  8
0
  6
CONTINUOUS
 62
     7
 10
-4231.210775599392
 20
404098.89357603958
 30
0.0
 40
125.0
  1
767
 50
90.0
 41
0.8
  0
ENDBLK
  5
67EA9
  8
0
  0
BLOCK
  8
0
  2
*U201
 70
     1
 10
0.0
 20
0.0
 30
0.0
  3
*U201
  1

  0
TEXT
  5
67EAB
  8
0
  6
CONTINUOUS
 62
     7
 10
-6807.1627778096827
 20
403284.3575040893
 30
0.0
 40
125.0
  1
B
 41
0.8
  0
ENDBLK
  5
67EAD
  8
0
  0
BLOCK
  8
0
  2
*U202
 70
     1
 10
0.0
 20
0.0
 30
0.0
  3
*U202
  1

  0
TEXT
  5
67EAF
  8
0
  6
CONTINUOUS
 62
     7
 10
-8451.1865873335537
 20
404042.33369456552
 30
0.0
 40
125.0
  1
(767)
 50
90.0
 41
0.8
  0
ENDBLK
  5
67EB1
  8
0
  0
BLOCK
  8
0
  2
*U203
 70
     1
 10
0.0
 20
0.0
 30
0.0
  3
*U203
  1

  0
TEXT
  5
67EB3
  8
0
  6
CONTINUOUS
 62
     7
 10
-7532.6151587620616
 20
403204.3575040893
 30
0.0
 40
125.0
  1
C
 41
0.8
  0
ENDBLK
  5
67EB5
  8
0
  0
BLOCK
  8
0
  2
*U204
 70
     1
 10
0.0
 20
0.0
 30
0.0
  3
*U204
  1

  0
TEXT
  5
67EB7
  8
0
  6
CONTINUOUS
 62
     7
 10
-8349.043730190635
 20
403524.3575040893
 30
0.0
 40
125.0
  1
118
 41
0.8
  0
ENDBLK
  5
67EB9
  8
0
  0
BLOCK
  8
0
  2
*U205
 70
     1
 10
0.0
 20
0.0
 30
0.0
  3
*U205
  1

  0
TEXT
  5
67EBB
  8
0
  6
CONTINUOUS
 62
     7
 10
-7023.0899311988624
 20
403671.86111921322
 30
0.0
 40
125.0
  1
170
 41
0.8
  0
ENDBLK
  5
67EBD
  8
0
  0
BLOCK
  8
0
  2
*U206
 70
     1
 10
0.0
 20
0.0
 30
0.0
  3
*U206
  1

  0
TEXT
  5
67EBF
  8
0
  6
CONTINUOUS
 62
     7
 10
-5704.7822041708223
 20
404064.20309984911
 30
0.0
 40
125.0
  1
(51)
 50
90.0
 41
0.8
  0
ENDBLK
  5
67EC1
  8
0
  0
ENDSEC
  0
SECTION
  2
ENTITIES
  0
TEXT
  5
2F7A5
  8
KOTY
 10
-393803.77638965531
 20
-299016.15321175661
 30
0.0
 40
150.0
  1

 41
0.7
  7
ROMANT
  0
TEXT
  5
3AD8B
  8
KOTY
 10
-14797.18019204357
 20
454294.55370899959
 30
0.0
 40
150.0
  1

 41
0.7
  7
ROMANT
  0
TEXT
  5
404AD
  8
KOTY
 10
44010.2314385153
 20
465617.23741859582
 30
0.0
 40
92.0
  1

 41
0.7
  7
CYRILLIC
  0
TEXT
  5
404B4
  8
KOTY
 10
39575.071591094718
 20
465613.29777162091
 30
0.0
 40
92.0
  1

 41
0.7
  7
CYRILLIC
  0
TEXT
  5
40B14
  8
KOTY
 10
5856.0590664841584
 20
486921.1132385282
 30
0.0
 40
150.0
  1

 41
0.7
  7
ROMANT
  0
TEXT
  5
40BFC
  8
KOTY
 10
8767.7265956277752
 20
466337.2608060218
 30
0.0
 40
150.0
  1

 41
0.7
  7
ROMANS
  0
TEXT
  5
51A7C
  8
KOTY
 10
-47677.341387967608
 20
395133.71812193602
 30
0.0
 40
150.0
  1

 41
0.7
  7
ROMANS
  0
TEXT
  5
51A94
  8
KOTY
 10
-45176.819295693742
 20
395133.7181219359
 30
0.0
 40
150.0
  1

 41
0.7
  7
ROMANS
  0
TEXT
  5
51A9B
  8
KOTY
 10
-48084.423320344351
 20
397411.27855615731
 30
0.0
 40
150.0
  1

 41
0.7
  7
ROMANT
  0
TEXT
  5
51B05
  8
RAZ
 62
     6
 10
-47365.887544580757
 20
392999.37567832542
 30
0.0
 40
193.54103193599991
  1

 41
0.8
  7
R08
  0
TEXT
  5
51B06
  8
RAZ
 62
     1
 10
-47245.037660778231
 20
393401.77274166199
 30
0.0
 40
125.41458869452801
  1

  7
ROMANS
  0
TEXT
  5
58307
  8
KOTY
 10
22966.528519463162
 20
383405.87475258159
 30
0.0
 40
150.0
  1

 41
0.7
  7
ROMANS
  0
TEXT
  5
58308
  8
KOTY
 10
22966.528519463169
 20
383855.87475258159
 30
0.0
 40
150.0
  1

 41
0.7
  7
ROMANS
  0
TEXT
  5
58315
  8
KOTY
 10
25467.050611737021
 20
383855.87475258141
 30
0.0
 40
150.0
  1

 41
0.7
  7
ROMANS
  0
TEXT
  5
58316
  8
KOTY
 10
25467.050611737021
 20
383405.87475258141
 30
0.0
 40
150.0
  1

 41
0.7
  7
ROMANS
  0
TEXT
  5
5833F
  8
KOTY
 10
22966.528519463162
 20
385205.87475258153
 30
0.0
 40
150.0
  1

 41
0.7
  7
ROMANS
  0
TEXT
  5
58340
  8
KOTY
 10
22966.528519463169
 20
385655.87475258159
 30
0.0
 40
150.0
  1

 41
0.7
  7
ROMANS
  0
TEXT
  5
58354
  8
KOTY
 10
25467.050611737021
 20
385655.87475258141
 30
0.0
 40
150.0
  1

 41
0.7
  7
ROMANS
  0
TEXT
  5
58355
  8
KOTY
 10
25467.050611737021
 20
385205.87475258141
 30
0.0
 40
150.0
  1

 41
0.7
  7
ROMANS
  0
TEXT
  5
58397
  8
KOTY
 10
25467.050611737039
 20
390605.87475258129
 30
0.0
 40
150.0
  1

 41
0.7
  7
ROMANS
  0
TEXT
  5
58398
  8
KOTY
 10
25467.050611737039
 20
391055.87475258141
 30
0.0
 40
150.0
  1

 41
0.7
  7
ROMANS
  0
TEXT
  5
583C1
  8
KOTY
 10
25467.050611737031
 20
389255.87475258141
 30
0.0
 40
150.0
  1

 41
0.7
  7
ROMANS
  0
TEXT
  5
58C84
  8
KOTY
 10
22966.52851946322
 20
387905.87475258153
 30
0.0
 40
150.0
  1

 41
0.7
  7
ROMANS
  0
INSERT
  5
5A11D
  8
SILNA
  6
CONTINUOUS
  2
A$C5B1234F8
 10
21045.108802659091
 20
799530.18634617259
 30
0.0
 50
134.99999999999989
  0
LINE
  5
630FB
  8
S-OBRYS
  6
CONTINUOUS
 10
-9317.3245871225408
 20
393402.81400089961
 30
0.0
 11
1182.675412877463
 21
393402.81400089961
 31
0.0
  0
LINE
  5
630FC
  8
S-OBRYS
  6
CONTINUOUS
 10
1182.675412877463
 20
393402.81400089961
 30
0.0
 11
1182.675412877463
 21
408252.81400089961
 31
0.0
  0
LINE
  5
630FD
  8
S-OBRYS
  6
CONTINUOUS
 10
1182.675412877463
 20
408252.81400089961
 30
0.0
 11
-9317.3245871225372
 21
408252.81400089961
 31
0.0
  0
LINE
  5
630FE
  8
S-OBRYS
  6
CONTINUOUS
 10
-9317.3245871225372
 20
408252.81400089961
 30
0.0
 11
-9317.3245871225408
 21
393402.81400089961
 31
0.0
  0
INSERT
  5
66E14
  8
0
  6
CONTINUOUS
  2
*U167
 10
0.0
 20
0.0
 30
0.0
  0
ARC
  5
66E15
  8
0
 10
-2035.1057945049611
 20
403798.66633684322
 30
0.0
 40
35.0
 50
134.4153085981917
 51
225.5846914018083
  0
ARC
  5
66E16
  8
0
 10
-2035.1057945049611
 20
403798.66633684322
 30
0.0
 40
35.0
 50
314.4153085981917
 51
45.5846914018083
  0
ARC
  5
66E17
  8
0
 10
-2035.1057945049611
 20
403798.66633684322
 30
0.0
 40
45.0
 50
323.88065914952477
 51
341.96571443150577
  0
ARC
  5
66E18
  8
0
 10
-2035.1057945049611
 20
403798.66633684322
 30
0.0
 40
45.0
 50
146.6592926527737
 51
216.8698976447705
  0
LINE
  5
66E19
  8
0
 10
-2035.1057945049611
 20
403848.66633684322
 30
0.0
 11
-2035.1057945049611
 21
403748.66633684322
 31
0.0
  0
ARC
  5
66E1A
  8
0
 10
-1972.1057945049611
 20
403798.66633684322
 30
0.0
 40
17.0
 50
300.90314961976281
 51
59.096850380237171
  0
ARC
  5
66E1B
  8
0
 10
-2098.105794504962
 20
403798.66633684322
 30
0.0
 40
17.0
 50
120.90314961980749
 51
239.09685038023721
  0
LINE
  5
66E1C
  8
0
 10
-1983.230650677004
 20
403771.86937183433
 30
0.0
 11
-2008.862012482012
 21
403756.10739060229
 31
0.0
  0
ARC
  5
66E1D
  8
0
 10
-2035.1057945049611
 20
403798.66633684322
 30
0.0
 40
35.0
 50
225.5846914018083
 51
314.4153085981917
  0
ARC
  5
66E1E
  8
0
 10
-2035.1057945049611
 20
403798.66633684322
 30
0.0
 40
45.0
 50
216.8698976447705
 51
323.88065914952477
  0
LINE
  5
66E1F
  8
0
 10
-2085.0835210228911
 20
403770.70255688869
 30
0.0
 11
-2061.3495765279108
 21
403756.10739060229
 31
0.0
  0
ARC
  5
66E20
  8
0
 10
-2035.1057945049611
 20
403798.66633684322
 30
0.0
 40
50.0
 50
238.340128192641
 51
301.65987180735902
  0
LINE
  5
66E21
  8
0
 10
-2107.1836753585571
 20
403784.2930254917
 30
0.0
 11
-2085.0835210228911
 21
403770.70255688869
 31
0.0
  0
LINE
  5
66E22
  8
0
 10
-1963.027913651365
 20
403784.2930254917
 30
0.0
 11
-1983.230650677004
 21
403771.86937183433
 31
0.0
  0
LINE
  5
66E23
  8
0
 10
-2115.105794504962
 20
403798.66633684322
 30
0.0
 11
-1955.105794504962
 21
403798.66633684322
 31
0.0
  0
LINE
  5
66E24
  8
0
 10
-1983.6768601172439
 20
403825.73769791721
 30
0.0
 11
-2008.862012482012
 21
403841.22528308397
 31
0.0
  0
ARC
  5
66E25
  8
0
 10
-2035.1057945049611
 20
403798.66633684322
 30
0.0
 40
35.0
 50
45.5846914018083
 51
134.4153085981917
  0
ARC
  5
66E26
  8
0
 10
-2035.1057945049611
 20
403798.66633684322
 30
0.0
 40
45.0
 50
38.659808254415623
 51
145.61965527664401
  0
LINE
  5
66E27
  8
0
 10
-2085.5297304631331
 20
403826.35572073259
 30
0.0
 11
-2061.3495765279108
 21
403841.22528308397
 31
0.0
  0
ARC
  5
66E28
  8
0
 10
-2035.1057945049611
 20
403798.66633684322
 30
0.0
 40
50.0
 50
58.340128192641011
 51
121.6598718073589
  0
LINE
  5
66E29
  8
0
 10
-2107.1836753585571
 20
403813.03964819468
 30
0.0
 11
-2085.5297304631331
 21
403826.35572073259
 31
0.0
  0
LINE
  5
66E2A
  8
0
 10
-2098.105794504962
 20
403804.66633684322
 30
0.0
 11
-2098.105794504962
 21
403792.66633684322
 31
0.0
  0
CIRCLE
  5
66E2B
  8
0
 10
-2098.105794504962
 20
403798.66633684322
 30
0.0
 40
6.0
  0
LINE
  5
66E2C
  8
0
 10
-1963.027913651365
 20
403813.03964819468
 30
0.0
 11
-1983.6768601172439
 21
403825.73769791721
 31
0.0
  0
LINE
  5
66E2D
  8
0
 10
-1972.1057945049611
 20
403804.66633684322
 30
0.0
 11
-1972.1057945049611
 21
403792.66633684322
 31
0.0
  0
ARC
  5
66E2E
  8
0
 10
-1972.1057945049611
 20
403798.66633684322
 30
0.0
 40
6.0
 50
122.9598554755932
 51
249.5842322584318
  0
LINE
  5
66E2F
  8
0
 10
-7147.6151587620616
 20
403942.3575040893
 30
0.0
 11
-7147.6151587620616
 21
403918.3575040893
 31
0.0
  0
LINE
  5
66E30
  8
0
 10
-7077.6151587620634
 20
403942.3575040893
 30
0.0
 11
-7077.6151587620634
 21
403918.3575040893
 31
0.0
  0
LINE
  5
66E31
  8
0
 10
-7157.6151587620616
 20
403918.3575040893
 30
0.0
 11
-7067.6151587620634
 21
403918.3575040893
 31
0.0
  0
LINE
  5
66E32
  8
0
 10
-7157.6151587620616
 20
403918.3575040893
 30
0.0
 11
-7157.6151587620616
 21
403883.3575040893
 31
0.0
  0
LINE
  5
66E33
  8
0
 10
-7067.6151587620634
 20
403918.3575040893
 30
0.0
 11
-7067.6151587620634
 21
403883.3575040893
 31
0.0
  0
LINE
  5
66E34
  8
0
 10
-7192.6151587620634
 20
403868.3575040893
 30
0.0
 11
-7032.6151587620616
 21
403868.3575040893
 31
0.0
  0
LINE
  5
66E35
  8
0
 10
-7192.6151587620634
 20
403883.3575040893
 30
0.0
 11
-7032.6151587620616
 21
403883.3575040893
 31
0.0
  0
LINE
  5
66E36
  8
0
 10
-7192.6151587620634
 20
403883.3575040893
 30
0.0
 11
-7192.6151587620634
 21
403868.3575040893
 31
0.0
  0
LINE
  5
66E37
  8
0
 10
-7175.6151587620616
 20
403883.3575040893
 30
0.0
 11
-7175.6151587620616
 21
403868.3575040893
 31
0.0
  0
LINE
  5
66E38
  8
0
 10
-7032.6151587620616
 20
403883.3575040893
 30
0.0
 11
-7032.6151587620616
 21
403868.3575040893
 31
0.0
  0
LINE
  5
66E39
  8
0
 10
-7049.6151587620634
 20
403883.3575040893
 30
0.0
 11
-7049.6151587620634
 21
403868.3575040893
 31
0.0
  0
LINE
  5
66E3A
  8
0
 10
-4591.2107755993284
 20
403932.2507188968
 30
0.0
 11
-4591.2107755993284
 21
403908.25071889668
 31
0.0
  0
LINE
  5
66E3B
  8
0
 10
-4591.2107755993284
 20
403932.2507188968
 30
0.0
 11
-4521.2107755993266
 21
403932.2507188968
 31
0.0
  0
LINE
  5
66E3C
  8
0
 10
-4521.2107755993266
 20
403932.2507188968
 30
0.0
 11
-4521.2107755993266
 21
403908.25071889668
 31
0.0
  0
LINE
  5
66E3D
  8
0
 10
-4601.2107755993266
 20
403908.25071889668
 30
0.0
 11
-4511.2107755993284
 21
403908.25071889668
 31
0.0
  0
LINE
  5
66E3E
  8
0
 10
-4601.2107755993266
 20
403908.25071889668
 30
0.0
 11
-4601.2107755993266
 21
403873.2507188968
 31
0.0
  0
LINE
  5
66E3F
  8
0
 10
-4556.2107755993266
 20
403940.75071889668
 30
0.0
 11
-4556.2107755993266
 21
403858.2507188968
 31
0.0
  0
LINE
  5
66E40
  8
0
 10
-4606.2107755993266
 20
403873.2507188968
 30
0.0
 11
-4506.2107755993266
 21
403873.2507188968
 31
0.0
  0
LINE
  5
66E41
  8
0
 10
-4606.2107755993266
 20
403858.2507188968
 30
0.0
 11
-4506.2107755993266
 21
403858.2507188968
 31
0.0
  0
LINE
  5
66E42
  8
0
 10
-4606.2107755993266
 20
403873.2507188968
 30
0.0
 11
-4606.2107755993266
 21
403858.2507188968
 31
0.0
  0
LINE
  5
66E43
  8
0
 10
-4506.2107755993266
 20
403873.2507188968
 30
0.0
 11
-4506.2107755993266
 21
403858.2507188968
 31
0.0
  0
LINE
  5
66E44
  8
0
 10
-4511.2107755993284
 20
403908.25071889668
 30
0.0
 11
-4511.2107755993284
 21
403873.2507188968
 31
0.0
  0
LINE
  5
66E45
  8
0
 10
-7902.6151587620634
 20
403942.3575040893
 30
0.0
 11
-7052.6151587620634
 21
403942.3575040893
 31
0.0
  0
LINE
  5
66E46
  8
0
 10
-7902.6151587620634
 20
403952.3575040893
 30
0.0
 11
-7902.6151587620634
 21
403942.3575040893
 31
0.0
  0
LINE
  5
66E47
  8
0
 10
-7812.6151587620634
 20
404042.35750408919
 30
0.0
 11
-7052.6151587620634
 21
404042.35750408919
 31
0.0
  0
LINE
  5
66E48
  8
0
 10
-7902.6151587620634
 20
403950.8575040893
 30
0.0
 11
-7052.6151587620634
 21
403950.8575040893
 31
0.0
  0
LINE
  5
66E49
  8
0
 10
-7821.1151587620607
 20
404033.8575040893
 30
0.0
 11
-7052.6151587620634
 21
404033.8575040893
 31
0.0
  0
LINE
  5
66E4A
  8
0
 10
-2790.605794504962
 20
404623.66633684322
 30
0.0
 11
-1995.1057945049611
 21
404623.66633684322
 31
0.0
  0
LINE
  5
66E4B
  8
0
 10
-2790.605794504962
 20
403773.66633684322
 30
0.0
 11
-1995.1057945049611
 21
403773.66633684322
 31
0.0
  0
LINE
  5
66E4C
  8
0
 10
-2890.1057945049611
 20
404198.66633684322
 30
0.0
 11
-1820.1057945049611
 21
404198.66633684322
 31
0.0
  0
LINE
  5
66E4D
  8
0
 10
-5381.2107755993284
 20
404082.2507188968
 30
0.0
 11
-5381.2107755993284
 21
404026.7507188968
 31
0.0
  0
LINE
  5
66E4E
  8
0
 10
-4956.2107755993266
 20
404620.2507188968
 30
0.0
 11
-4956.2107755993266
 21
403807.2507188968
 31
0.0
  0
LINE
  5
66E4F
  8
0
 10
-4531.2107755993266
 20
404082.2507188968
 30
0.0
 11
-4531.2107755993266
 21
404026.7507188968
 31
0.0
  0
LINE
  5
66E50
  8
0
 10
-5381.2107755993284
 20
404032.25071889668
 30
0.0
 11
-5296.2107755993266
 21
404032.25071889668
 31
0.0
  0
LINE
  5
66E51
  8
0
 10
-5378.2107755993284
 20
404023.7507188968
 30
0.0
 11
-5345.2107755993266
 21
404023.7507188968
 31
0.0
  0
LINE
  5
66E52
  8
0
 10
-5381.2107755993284
 20
403932.2507188968
 30
0.0
 11
-5331.2107755993266
 21
403932.2507188968
 31
0.0
  0
LINE
  5
66E53
  8
0
 10
-5378.2107755993284
 20
403940.75071889668
 30
0.0
 11
-5345.2107755993266
 21
403940.75071889668
 31
0.0
  0
LINE
  5
66E54
  8
0
 10
-2825.105794504962
 20
404603.66633684322
 30
0.0
 11
-2825.105794504962
 21
404573.66633684322
 31
0.0
  0
LINE
  5
66E55
  8
0
 10
-1975.105794504962
 20
404603.66633684322
 30
0.0
 11
-1975.105794504962
 21
404573.66633684322
 31
0.0
  0
LINE
  5
66E56
  8
0
 10
-2825.105794504962
 20
404573.66633684322
 30
0.0
 11
-2429.105794504962
 21
404573.66633684322
 31
0.0
  0
LINE
  5
66E57
  8
0
 10
-2825.105794504962
 20
403823.66633684322
 30
0.0
 11
-2684.105794504962
 21
403823.66633684322
 31
0.0
  0
LINE
  5
66E58
  8
0
 10
-5331.2107755993266
 20
404032.25071889668
 30
0.0
 11
-5331.2107755993266
 21
403932.2507188968
 31
0.0
  0
LINE
  5
66E59
  8
0
 10
-4581.2107755993266
 20
404032.25071889668
 30
0.0
 11
-4581.2107755993266
 21
403932.2507188968
 31
0.0
  0
LINE
  5
66E5A
  8
0
 10
-5381.2107755993284
 20
404082.2507188968
 30
0.0
 11
-5361.2107755993284
 21
404082.2507188968
 31
0.0
  0
LINE
  5
66E5B
  8
0
 10
-5337.2107755993266
 20
404015.75071889668
 30
0.0
 11
-5337.2107755993266
 21
403948.7507188968
 31
0.0
  0
LINE
  5
66E5C
  8
0
 10
-4575.2107755993266
 20
404015.75071889668
 30
0.0
 11
-4575.2107755993266
 21
403948.7507188968
 31
0.0
  0
LINE
  5
66E5D
  8
0
 10
-7490.1151587620634
 20
404086.3575040893
 30
0.0
 11
-7423.1151587620634
 21
404086.3575040893
 31
0.0
  0
LINE
  5
66E5E
  8
0
 10
-7456.6151587620616
 20
404114.3575040893
 30
0.0
 11
-7456.6151587620616
 21
404086.3575040893
 31
0.0
  0
LINE
  5
66E5F
  8
0
 10
-7202.6151587620634
 20
404114.3575040893
 30
0.0
 11
-7202.6151587620634
 21
404086.3575040893
 31
0.0
  0
LINE
  5
66E60
  8
0
 10
-7406.6151587620616
 20
404092.3575040893
 30
0.0
 11
-7406.6151587620616
 21
404042.35750408919
 31
0.0
  0
LINE
  5
66E61
  8
0
 10
-7506.6151587620634
 20
404092.3575040893
 30
0.0
 11
-7506.6151587620634
 21
404042.35750408919
 31
0.0
  0
LINE
  5
66E62
  8
0
 10
-7152.6151587620634
 20
404092.3575040893
 30
0.0
 11
-7152.6151587620634
 21
404042.35750408919
 31
0.0
  0
LINE
  5
66E63
  8
0
 10
-7252.6151587620634
 20
404092.3575040893
 30
0.0
 11
-7252.6151587620634
 21
404042.35750408919
 31
0.0
  0
LINE
  5
66E64
  8
0
 10
-7161.1151587620616
 20
404078.3575040893
 30
0.0
 11
-7161.1151587620616
 21
404042.35750408919
 31
0.0
  0
LINE
  5
66E65
  8
0
 10
-7244.1151587620616
 20
404078.3575040893
 30
0.0
 11
-7244.1151587620616
 21
404042.35750408919
 31
0.0
  0
LINE
  5
66E66
  8
0
 10
-7415.1151587620634
 20
404078.3575040893
 30
0.0
 11
-7415.1151587620634
 21
404042.35750408919
 31
0.0
  0
LINE
  5
66E67
  8
0
 10
-7498.1151587620634
 20
404078.3575040893
 30
0.0
 11
-7498.1151587620634
 21
404042.35750408919
 31
0.0
  0
LINE
  5
66E68
  8
0
 10
-7236.1151587620616
 20
404086.3575040893
 30
0.0
 11
-7169.1151587620616
 21
404086.3575040893
 31
0.0
  0
LINE
  5
66E69
  8
0
 10
-7249.6151587620634
 20
404092.3575040893
 30
0.0
 11
-7149.6151587620634
 21
404092.3575040893
 31
0.0
  0
ARC
  5
66E6A
  8
0
 10
-7490.1151587620634
 20
404078.3575040893
 30
0.0
 40
8.0
 50
90.0
 51
180.0
  0
ARC
  5
66E6B
  8
0
 10
-7423.1151587620634
 20
404078.3575040893
 30
0.0
 40
8.0
 50
0.0
 51
90.0
  0
ARC
  5
66E6C
  8
0
 10
-7236.1151587620616
 20
404078.3575040893
 30
0.0
 40
8.0
 50
90.0
 51
180.0
  0
ARC
  5
66E6D
  8
0
 10
-7169.1151587620616
 20
404078.3575040893
 30
0.0
 40
8.0
 50
0.0
 51
90.0
  0
LINE
  5
66E6E
  8
0
 10
-4567.2107755993266
 20
403940.75071889668
 30
0.0
 11
-4534.2107755993266
 21
403940.75071889668
 31
0.0
  0
LINE
  5
66E6F
  8
0
 10
-4581.2107755993266
 20
403932.2507188968
 30
0.0
 11
-4531.2107755993266
 21
403932.2507188968
 31
0.0
  0
LINE
  5
66E70
  8
0
 10
-4567.2107755993266
 20
404023.7507188968
 30
0.0
 11
-4534.2107755993266
 21
404023.7507188968
 31
0.0
  0
LINE
  5
66E71
  8
0
 10
-5381.2107755993284
 20
403937.75071889692
 30
0.0
 11
-5381.2107755993284
 21
403932.2507188968
 31
0.0
  0
LINE
  5
66E72
  8
0
 10
-4531.2107755993266
 20
403937.75071889692
 30
0.0
 11
-4531.2107755993266
 21
403932.2507188968
 31
0.0
  0
ARC
  5
66E73
  8
0
 10
-4534.2107755993266
 20
403937.75071889692
 30
0.0
 40
3.0
 50
0.0
 51
90.0
  0
ARC
  5
66E74
  8
0
 10
-4534.2107755993266
 20
404026.7507188968
 30
0.0
 40
3.0
 50
270.0
 51
0.0
  0
ARC
  5
66E75
  8
0
 10
-5378.2107755993284
 20
404026.7507188968
 30
0.0
 40
3.0
 50
180.0
 51
270.0
  0
ARC
  5
66E76
  8
0
 10
-5378.2107755993284
 20
403937.75071889692
 30
0.0
 40
3.0
 50
90.0
 51
180.0
  0
ARC
  5
66E77
  8
0
 10
-5345.2107755993266
 20
404015.75071889668
 30
0.0
 40
8.0
 50
0.0
 51
90.0
  0
ARC
  5
66E78
  8
0
 10
-5345.2107755993266
 20
403948.7507188968
 30
0.0
 40
8.0
 50
270.0
 51
0.0
  0
ARC
  5
66E79
  8
0
 10
-4567.2107755993266
 20
404015.75071889668
 30
0.0
 40
8.0
 50
90.0
 51
180.0
  0
ARC
  5
66E7A
  8
0
 10
-4567.2107755993266
 20
403948.7507188968
 30
0.0
 40
8.0
 50
180.0
 51
270.0
  0
LINE
  5
66E7B
  8
0
 10
-2075.105794504962
 20
404573.66633684322
 30
0.0
 11
-1975.105794504962
 21
404573.66633684322
 31
0.0
  0
LINE
  5
66E7C
  8
0
 10
-2329.105794504962
 20
404573.66633684322
 30
0.0
 11
-2175.105794504962
 21
404573.66633684322
 31
0.0
  0
LINE
  5
66E7D
  8
0
 10
-2329.105794504962
 20
403823.66633684322
 30
0.0
 11
-2175.105794504962
 21
403823.66633684322
 31
0.0
  0
LINE
  5
66E7E
  8
0
 10
-2075.105794504962
 20
403823.66633684322
 30
0.0
 11
-1975.105794504962
 21
403823.66633684322
 31
0.0
  0
LINE
  5
66E7F
  8
0
 10
-1975.105794504962
 20
403823.66633684322
 30
0.0
 11
-1975.105794504962
 21
403793.66633684328
 31
0.0
  0
LINE
  5
66E80
  8
0
 10
-2825.105794504962
 20
403823.66633684322
 30
0.0
 11
-2825.105794504962
 21
403793.66633684328
 31
0.0
  0
LINE
  5
66E81
  8
0
 10
-2825.105794504962
 20
403793.66633684328
 30
0.0
 11
-2805.105794504962
 21
403773.66633684322
 31
0.0
  0
LINE
  5
66E82
  8
0
 10
-2825.105794504962
 20
404603.66633684322
 30
0.0
 11
-2805.105794504962
 21
404623.66633684322
 31
0.0
  0
LINE
  5
66E83
  8
0
 10
-1995.1057945049611
 20
404623.66633684322
 30
0.0
 11
-1975.105794504962
 21
404603.66633684322
 31
0.0
  0
LINE
  5
66E84
  8
0
 10
-1975.105794504962
 20
403793.66633684328
 30
0.0
 11
-1995.1057945049611
 21
403773.66633684322
 31
0.0
  0
LINE
  5
66E85
  8
0
 10
-2735.105794504962
 20
404623.66633684322
 30
0.0
 11
-2735.105794504962
 21
404573.66633684322
 31
0.0
  0
LINE
  5
66E86
  8
0
 10
-2735.105794504962
 20
403823.66633684322
 30
0.0
 11
-2735.105794504962
 21
403773.66633684322
 31
0.0
  0
LINE
  5
66E87
  8
0
 10
-2825.105794504962
 20
404579.66633684322
 30
0.0
 11
-2751.605794504962
 21
404579.66633684322
 31
0.0
  0
LINE
  5
66E88
  8
0
 10
-2825.105794504962
 20
403817.66633684322
 30
0.0
 11
-2751.605794504962
 21
403817.66633684322
 31
0.0
  0
LINE
  5
66E89
  8
0
 10
-2743.605794504962
 20
403809.66633684322
 30
0.0
 11
-2743.605794504962
 21
403776.66633684322
 31
0.0
  0
LINE
  5
66E8A
  8
0
 10
-2743.605794504962
 20
404620.66633684322
 30
0.0
 11
-2743.605794504962
 21
404587.66633684322
 31
0.0
  0
ARC
  5
66E8B
  8
0
 10
-2740.605794504962
 20
403776.66633684322
 30
0.0
 40
3.0
 50
180.0
 51
270.0
  0
ARC
  5
66E8C
  8
0
 10
-2740.605794504962
 20
404620.66633684322
 30
0.0
 40
3.0
 50
90.0
 51
180.0
  0
ARC
  5
66E8D
  8
0
 10
-2751.605794504962
 20
403809.66633684322
 30
0.0
 40
8.0
 50
0.0
 51
90.0
  0
ARC
  5
66E8E
  8
0
 10
-2751.605794504962
 20
404587.66633684322
 30
0.0
 40
8.0
 50
270.0
 51
0.0
  0
LINE
  5
66E8F
  8
0
 10
-2805.105794504962
 20
404623.66633684322
 30
0.0
 11
-2735.105794504962
 21
404623.66633684322
 31
0.0
  0
LINE
  5
66E90
  8
0
 10
-2805.105794504962
 20
403773.66633684322
 30
0.0
 11
-2735.105794504962
 21
403773.66633684322
 31
0.0
  0
LINE
  5
66E91
  8
0
 10
-7812.6151587620634
 20
404042.35750408919
 30
0.0
 11
-7902.6151587620634
 21
403952.3575040893
 31
0.0
  0
ARC
  5
66E92
  8
0
 10
-2838.105794504962
 20
404598.66633684322
 30
0.0
 40
17.0
 50
120.90314961980749
 51
239.09685038023721
  0
ARC
  5
66E93
  8
0
 10
-2712.105794504962
 20
404598.66633684322
 30
0.0
 40
17.0
 50
300.90314961976281
 51
59.096850380237171
  0
LINE
  5
66E94
  8
0
 10
-2775.105794504962
 20
404648.66633684322
 30
0.0
 11
-2775.105794504962
 21
404548.66633684322
 31
0.0
  0
ARC
  5
66E95
  8
0
 10
-2775.105794504962
 20
404598.66633684322
 30
0.0
 40
45.0
 50
146.6592926527737
 51
161.96571443150569
  0
ARC
  5
66E96
  8
0
 10
-2775.105794504962
 20
404598.66633684322
 30
0.0
 40
45.0
 50
323.88065914952477
 51
38.659808254415623
  0
ARC
  5
66E97
  8
0
 10
-2775.105794504962
 20
404598.66633684322
 30
0.0
 40
35.0
 50
314.4153085981917
 51
45.5846914018083
  0
ARC
  5
66E98
  8
0
 10
-2775.105794504962
 20
404598.66633684322
 30
0.0
 40
35.0
 50
134.4153085981917
 51
225.5846914018083
  0
LINE
  5
66E99
  8
0
 10
-2855.105794504962
 20
404598.66633684322
 30
0.0
 11
-2695.105794504962
 21
404598.66633684322
 31
0.0
  0
ARC
  5
66E9A
  8
0
 10
-2775.105794504962
 20
404598.66633684322
 30
0.0
 40
50.0
 50
238.340128192641
 51
301.65987180735902
  0
ARC
  5
66E9B
  8
0
 10
-2775.105794504962
 20
404598.66633684322
 30
0.0
 40
45.0
 50
216.8698976447705
 51
323.88065914952477
  0
ARC
  5
66E9C
  8
0
 10
-2775.105794504962
 20
404598.66633684322
 30
0.0
 40
35.0
 50
225.5846914018083
 51
314.4153085981917
  0
LINE
  5
66E9D
  8
0
 10
-2847.183675358558
 20
404584.29302549158
 30
0.0
 11
-2825.0835210228911
 21
404570.70255688857
 31
0.0
  0
CIRCLE
  5
66E9E
  8
0
 10
-2838.105794504962
 20
404598.66633684322
 30
0.0
 40
6.0
  0
LINE
  5
66E9F
  8
0
 10
-2838.105794504962
 20
404604.66633684322
 30
0.0
 11
-2838.105794504962
 21
404592.66633684322
 31
0.0
  0
LINE
  5
66EA0
  8
0
 10
-2825.0835210228911
 20
404570.70255688857
 30
0.0
 11
-2801.3495765279122
 21
404556.10739060241
 31
0.0
  0
CIRCLE
  5
66EA1
  8
0
 10
-2712.105794504962
 20
404598.66633684322
 30
0.0
 40
6.0
  0
LINE
  5
66EA2
  8
0
 10
-2703.0279136513659
 20
404584.29302549158
 30
0.0
 11
-2723.2306506770042
 21
404571.86937183439
 31
0.0
  0
LINE
  5
66EA3
  8
0
 10
-2723.2306506770042
 20
404571.86937183439
 30
0.0
 11
-2748.8620124820118
 21
404556.10739060241
 31
0.0
  0
LINE
  5
66EA4
  8
0
 10
-2712.105794504962
 20
404604.66633684322
 30
0.0
 11
-2712.105794504962
 21
404592.66633684322
 31
0.0
  0
ARC
  5
66EA5
  8
0
 10
-2775.105794504962
 20
404598.66633684322
 30
0.0
 40
50.0
 50
58.340128192641011
 51
121.6598718073589
  0
ARC
  5
66EA6
  8
0
 10
-2775.105794504962
 20
404598.66633684322
 30
0.0
 40
45.0
 50
38.659808254415623
 51
145.61965527664401
  0
ARC
  5
66EA7
  8
0
 10
-2775.105794504962
 20
404598.66633684322
 30
0.0
 40
35.0
 50
45.5846914018083
 51
134.4153085981917
  0
LINE
  5
66EA8
  8
0
 10
-2847.183675358558
 20
404613.0396481948
 30
0.0
 11
-2825.5297304631331
 21
404626.35572073259
 31
0.0
  0
LINE
  5
66EA9
  8
0
 10
-2825.5297304631331
 20
404626.35572073259
 30
0.0
 11
-2801.3495765279122
 21
404641.22528308397
 31
0.0
  0
LINE
  5
66EAA
  8
0
 10
-2703.0279136513659
 20
404613.0396481948
 30
0.0
 11
-2723.6768601172439
 21
404625.73769791721
 31
0.0
  0
LINE
  5
66EAB
  8
0
 10
-2723.6768601172439
 20
404625.73769791721
 30
0.0
 11
-2748.8620124820118
 21
404641.22528308397
 31
0.0
  0
ARC
  5
66EAC
  8
0
 10
-2098.105794504962
 20
404598.66633684322
 30
0.0
 40
17.0
 50
120.90314961980749
 51
239.09685038023721
  0
ARC
  5
66EAD
  8
0
 10
-1972.1057945049611
 20
404598.66633684322
 30
0.0
 40
17.0
 50
300.90314961976281
 51
59.096850380237171
  0
LINE
  5
66EAE
  8
0
 10
-2035.1057945049611
 20
404648.66633684322
 30
0.0
 11
-2035.1057945049611
 21
404548.66633684322
 31
0.0
  0
ARC
  5
66EAF
  8
0
 10
-2035.1057945049611
 20
404598.66633684322
 30
0.0
 40
45.0
 50
146.6592926527737
 51
216.8698976447705
  0
ARC
  5
66EB0
  8
0
 10
-2035.1057945049611
 20
404598.66633684322
 30
0.0
 40
45.0
 50
323.88065914952477
 51
18.034285568494209
  0
ARC
  5
66EB1
  8
0
 10
-2035.1057945049611
 20
404598.66633684322
 30
0.0
 40
35.0
 50
314.4153085981917
 51
45.5846914018083
  0
ARC
  5
66EB2
  8
0
 10
-2035.1057945049611
 20
404598.66633684322
 30
0.0
 40
35.0
 50
134.4153085981917
 51
225.5846914018083
  0
LINE
  5
66EB3
  8
0
 10
-2115.105794504962
 20
404598.66633684322
 30
0.0
 11
-1955.105794504962
 21
404598.66633684322
 31
0.0
  0
ARC
  5
66EB4
  8
0
 10
-2035.1057945049611
 20
404598.66633684322
 30
0.0
 40
50.0
 50
238.340128192641
 51
301.65987180735902
  0
ARC
  5
66EB5
  8
0
 10
-2035.1057945049611
 20
404598.66633684322
 30
0.0
 40
45.0
 50
216.8698976447705
 51
323.88065914952477
  0
ARC
  5
66EB6
  8
0
 10
-2035.1057945049611
 20
404598.66633684322
 30
0.0
 40
35.0
 50
225.5846914018083
 51
314.4153085981917
  0
LINE
  5
66EB7
  8
0
 10
-2107.1836753585571
 20
404584.29302549158
 30
0.0
 11
-2085.0835210228911
 21
404570.70255688857
 31
0.0
  0
CIRCLE
  5
66EB8
  8
0
 10
-2098.105794504962
 20
404598.66633684322
 30
0.0
 40
6.0
  0
LINE
  5
66EB9
  8
0
 10
-2098.105794504962
 20
404604.66633684322
 30
0.0
 11
-2098.105794504962
 21
404592.66633684322
 31
0.0
  0
LINE
  5
66EBA
  8
0
 10
-2085.0835210228911
 20
404570.70255688857
 30
0.0
 11
-2061.3495765279108
 21
404556.10739060241
 31
0.0
  0
ARC
  5
66EBB
  8
0
 10
-1972.1057945049611
 20
404598.66633684322
 30
0.0
 40
6.0
 50
118.2056678340977
 51
252.57769343663551
  0
LINE
  5
66EBC
  8
0
 10
-1963.027913651365
 20
404584.29302549158
 30
0.0
 11
-1983.230650677004
 21
404571.86937183439
 31
0.0
  0
LINE
  5
66EBD
  8
0
 10
-1983.230650677004
 20
404571.86937183439
 30
0.0
 11
-2008.862012482012
 21
404556.10739060241
 31
0.0
  0
LINE
  5
66EBE
  8
0
 10
-1972.1057945049611
 20
404604.66633684322
 30
0.0
 11
-1972.1057945049611
 21
404592.66633684322
 31
0.0
  0
ARC
  5
66EBF
  8
0
 10
-2035.1057945049611
 20
404598.66633684322
 30
0.0
 40
50.0
 50
58.340128192641011
 51
121.6598718073589
  0
ARC
  5
66EC0
  8
0
 10
-2035.1057945049611
 20
404598.66633684322
 30
0.0
 40
45.0
 50
38.659808254415623
 51
145.61965527664401
  0
ARC
  5
66EC1
  8
0
 10
-2035.1057945049611
 20
404598.66633684322
 30
0.0
 40
35.0
 50
45.5846914018083
 51
134.4153085981917
  0
LINE
  5
66EC2
  8
0
 10
-2107.1836753585571
 20
404613.0396481948
 30
0.0
 11
-2085.5297304631331
 21
404626.35572073259
 31
0.0
  0
LINE
  5
66EC3
  8
0
 10
-2085.5297304631331
 20
404626.35572073259
 30
0.0
 11
-2061.3495765279108
 21
404641.22528308397
 31
0.0
  0
LINE
  5
66EC4
  8
0
 10
-1963.027913651365
 20
404613.0396481948
 30
0.0
 11
-1983.6768601172439
 21
404625.73769791721
 31
0.0
  0
LINE
  5
66EC5
  8
0
 10
-1983.6768601172439
 20
404625.73769791721
 30
0.0
 11
-2008.862012482012
 21
404641.22528308397
 31
0.0
  0
ARC
  5
66EC6
  8
0
 10
-2838.105794504962
 20
403798.66633684322
 30
0.0
 40
17.0
 50
120.90314961980749
 51
239.09685038023721
  0
ARC
  5
66EC7
  8
0
 10
-2712.105794504962
 20
403798.66633684322
 30
0.0
 40
17.0
 50
300.90314961976281
 51
59.096850380237171
  0
LINE
  5
66EC8
  8
0
 10
-2775.105794504962
 20
403848.66633684322
 30
0.0
 11
-2775.105794504962
 21
403748.66633684322
 31
0.0
  0
ARC
  5
66EC9
  8
0
 10
-2775.105794504962
 20
403798.66633684322
 30
0.0
 40
45.0
 50
146.6592926527737
 51
198.0342855684942
  0
ARC
  5
66ECA
  8
0
 10
-2775.105794504962
 20
403798.66633684322
 30
0.0
 40
45.0
 50
323.88065914952477
 51
38.659808254415623
  0
ARC
  5
66ECB
  8
0
 10
-2775.105794504962
 20
403798.66633684322
 30
0.0
 40
35.0
 50
314.4153085981917
 51
45.5846914018083
  0
ARC
  5
66ECC
  8
0
 10
-2775.105794504962
 20
403798.66633684322
 30
0.0
 40
35.0
 50
134.4153085981917
 51
225.5846914018083
  0
LINE
  5
66ECD
  8
0
 10
-2855.105794504962
 20
403798.66633684322
 30
0.0
 11
-2695.105794504962
 21
403798.66633684322
 31
0.0
  0
ARC
  5
66ECE
  8
0
 10
-2775.105794504962
 20
403798.66633684322
 30
0.0
 40
50.0
 50
238.340128192641
 51
301.65987180735902
  0
ARC
  5
66ECF
  8
0
 10
-2775.105794504962
 20
403798.66633684322
 30
0.0
 40
45.0
 50
216.8698976447705
 51
323.88065914952477
  0
ARC
  5
66ED0
  8
0
 10
-2775.105794504962
 20
403798.66633684322
 30
0.0
 40
35.0
 50
225.5846914018083
 51
314.4153085981917
  0
LINE
  5
66ED1
  8
0
 10
-2847.183675358558
 20
403784.2930254917
 30
0.0
 11
-2825.0835210228911
 21
403770.70255688869
 31
0.0
  0
CIRCLE
  5
66ED2
  8
0
 10
-2838.105794504962
 20
403798.66633684322
 30
0.0
 40
6.0
  0
LINE
  5
66ED3
  8
0
 10
-2838.105794504962
 20
403804.66633684322
 30
0.0
 11
-2838.105794504962
 21
403792.66633684322
 31
0.0
  0
LINE
  5
66ED4
  8
0
 10
-2825.0835210228911
 20
403770.70255688869
 30
0.0
 11
-2801.3495765279122
 21
403756.10739060229
 31
0.0
  0
CIRCLE
  5
66ED5
  8
0
 10
-2712.105794504962
 20
403798.66633684322
 30
0.0
 40
6.0
  0
LINE
  5
66ED6
  8
0
 10
-2703.0279136513659
 20
403784.2930254917
 30
0.0
 11
-2723.2306506770042
 21
403771.86937183433
 31
0.0
  0
LINE
  5
66ED7
  8
0
 10
-2723.2306506770042
 20
403771.86937183433
 30
0.0
 11
-2748.8620124820118
 21
403756.10739060229
 31
0.0
  0
LINE
  5
66ED8
  8
0
 10
-2712.105794504962
 20
403804.66633684322
 30
0.0
 11
-2712.105794504962
 21
403792.66633684322
 31
0.0
  0
ARC
  5
66ED9
  8
0
 10
-2775.105794504962
 20
403798.66633684322
 30
0.0
 40
50.0
 50
58.340128192641011
 51
121.6598718073589
  0
ARC
  5
66EDA
  8
0
 10
-2775.105794504962
 20
403798.66633684322
 30
0.0
 40
45.0
 50
38.659808254415623
 51
145.61965527664401
  0
ARC
  5
66EDB
  8
0
 10
-2775.105794504962
 20
403798.66633684322
 30
0.0
 40
35.0
 50
45.5846914018083
 51
134.4153085981917
  0
LINE
  5
66EDC
  8
0
 10
-2847.183675358558
 20
403813.03964819468
 30
0.0
 11
-2825.5297304631331
 21
403826.35572073259
 31
0.0
  0
LINE
  5
66EDD
  8
0
 10
-2825.5297304631331
 20
403826.35572073259
 30
0.0
 11
-2801.3495765279122
 21
403841.22528308397
 31
0.0
  0
LINE
  5
66EDE
  8
0
 10
-2703.0279136513659
 20
403813.03964819468
 30
0.0
 11
-2723.6768601172439
 21
403825.73769791721
 31
0.0
  0
LINE
  5
66EDF
  8
0
 10
-2723.6768601172439
 20
403825.73769791721
 30
0.0
 11
-2748.8620124820118
 21
403841.22528308397
 31
0.0
  0
LINE
  5
66EE0
  8
0
 10
-7852.6151587620634
 20
403950.8575040893
 30
0.0
 11
-7852.6151587620634
 21
403868.3575040893
 31
0.0
  0
LINE
  5
66EE1
  8
0
 10
-7807.6151587620634
 20
403918.3575040893
 30
0.0
 11
-7807.6151587620634
 21
403883.3575040893
 31
0.0
  0
LINE
  5
66EE2
  8
0
 10
-7897.6151587620616
 20
403918.3575040893
 30
0.0
 11
-7897.6151587620616
 21
403883.3575040893
 31
0.0
  0
LINE
  5
66EE3
  8
0
 10
-7932.6151587620634
 20
403883.3575040893
 30
0.0
 11
-7772.6151587620616
 21
403883.3575040893
 31
0.0
  0
LINE
  5
66EE4
  8
0
 10
-7932.6151587620634
 20
403868.3575040893
 30
0.0
 11
-7772.6151587620616
 21
403868.3575040893
 31
0.0
  0
LINE
  5
66EE5
  8
0
 10
-7915.6151587620616
 20
403883.3575040893
 30
0.0
 11
-7915.6151587620616
 21
403868.3575040893
 31
0.0
  0
LINE
  5
66EE6
  8
0
 10
-7932.6151587620634
 20
403883.3575040893
 30
0.0
 11
-7932.6151587620634
 21
403868.3575040893
 31
0.0
  0
LINE
  5
66EE7
  8
0
 10
-7789.6151587620616
 20
403883.3575040893
 30
0.0
 11
-7789.6151587620616
 21
403868.3575040893
 31
0.0
  0
LINE
  5
66EE8
  8
0
 10
-7772.6151587620616
 20
403883.3575040893
 30
0.0
 11
-7772.6151587620616
 21
403868.3575040893
 31
0.0
  0
LINE
  5
66EE9
  8
0
 10
-7817.6151587620634
 20
403942.3575040893
 30
0.0
 11
-7887.6151587620634
 21
403942.3575040893
 31
0.0
  0
LINE
  5
66EEA
  8
0
 10
-7897.6151587620616
 20
403918.3575040893
 30
0.0
 11
-7807.6151587620634
 21
403918.3575040893
 31
0.0
  0
LINE
  5
66EEB
  8
0
 10
-7887.6151587620634
 20
403942.3575040893
 30
0.0
 11
-7887.6151587620634
 21
403918.3575040893
 31
0.0
  0
LINE
  5
66EEC
  8
0
 10
-7817.6151587620634
 20
403942.3575040893
 30
0.0
 11
-7817.6151587620634
 21
403918.3575040893
 31
0.0
  0
LINE
  5
66EED
  8
0
 10
-7307.6151587620634
 20
403942.3575040893
 30
0.0
 11
-7377.6151587620634
 21
403942.3575040893
 31
0.0
  0
LINE
  5
66EEE
  8
0
 10
-5406.2107755993266
 20
403858.2507188968
 30
0.0
 11
-5306.2107755993266
 21
403858.2507188968
 31
0.0
  0
LINE
  5
66EEF
  8
0
 10
-5406.2107755993266
 20
403873.2507188968
 30
0.0
 11
-5306.2107755993266
 21
403873.2507188968
 31
0.0
  0
LINE
  5
66EF0
  8
0
 10
-5401.2107755993266
 20
403908.25071889668
 30
0.0
 11
-5311.2107755993266
 21
403908.25071889668
 31
0.0
  0
LINE
  5
66EF1
  8
0
 10
-5391.2107755993266
 20
403932.2507188968
 30
0.0
 11
-5321.2107755993266
 21
403932.2507188968
 31
0.0
  0
LINE
  5
66EF2
  8
0
 10
-5356.2107755993266
 20
403940.75071889668
 30
0.0
 11
-5356.2107755993266
 21
403858.2507188968
 31
0.0
  0
LINE
  5
66EF3
  8
0
 10
-5401.2107755993266
 20
403908.25071889668
 30
0.0
 11
-5401.2107755993266
 21
403873.2507188968
 31
0.0
  0
LINE
  5
66EF4
  8
0
 10
-5406.2107755993266
 20
403873.2507188968
 30
0.0
 11
-5406.2107755993266
 21
403858.2507188968
 31
0.0
  0
LINE
  5
66EF5
  8
0
 10
-5391.2107755993266
 20
403932.2507188968
 30
0.0
 11
-5391.2107755993266
 21
403908.25071889668
 31
0.0
  0
LINE
  5
66EF6
  8
0
 10
-5311.2107755993266
 20
403908.25071889668
 30
0.0
 11
-5311.2107755993266
 21
403873.2507188968
 31
0.0
  0
LINE
  5
66EF7
  8
0
 10
-5306.2107755993266
 20
403873.2507188968
 30
0.0
 11
-5306.2107755993266
 21
403858.2507188968
 31
0.0
  0
LINE
  5
66EF8
  8
0
 10
-5321.2107755993266
 20
403932.2507188968
 30
0.0
 11
-5321.2107755993266
 21
403908.25071889668
 31
0.0
  0
ARC
  5
66EF9
  8
0
 10
-2775.105794504962
 20
404598.66633684322
 30
0.0
 40
45.0
 50
161.96571443150569
 51
216.8698976447705
  0
ARC
  5
66EFA
  8
0
 10
-2775.105794504962
 20
403798.66633684322
 30
0.0
 40
45.0
 50
198.0342855684942
 51
216.8698976447705
  0
ARC
  5
66EFB
  8
0
 10
-2035.1057945049611
 20
404598.66633684322
 30
0.0
 40
45.0
 50
18.034285568494209
 51
38.659808254415623
  0
ARC
  5
66EFC
  8
0
 10
-2035.1057945049611
 20
403798.66633684322
 30
0.0
 40
45.0
 50
341.96571443150577
 51
38.659808254415623
  0
LINE
  5
66EFD
  8
0
 10
-7834.880981546873
 20
404252.3575040893
 30
0.0
 11
-7013.1151587620616
 21
404252.3575040893
 31
0.0
  0
LINE
  5
66EFE
  8
0
 10
-5331.2107755993266
 20
404242.2507188968
 30
0.0
 11
-4518.7107755993266
 21
404242.2507188968
 31
0.0
  0
LINE
  5
66EFF
  8
0
 10
-7564.6151587620616
 20
404252.3575040893
 30
0.0
 11
-7564.6151587620616
 21
404042.35750408919
 31
0.0
  0
LINE
  5
66F00
  8
0
 10
-7519.6151587620634
 20
404092.3575040893
 30
0.0
 11
-7046.1151587620616
 21
404092.3575040893
 31
0.0
  0
LINE
  5
66F01
  8
0
 10
-7564.6151587620616
 20
404252.3575040893
 30
0.0
 11
-7564.6151587620616
 21
404627.3575040893
 31
0.0
  0
LINE
  5
66F02
  8
0
 10
-2487.1057945049611
 20
404198.66633684322
 30
0.0
 11
-2487.1057945049611
 21
404573.66633684322
 31
0.0
  0
LINE
  5
66F03
  8
0
 10
-2487.1057945049611
 20
404198.66633684322
 30
0.0
 11
-2487.1057945049611
 21
403823.66633684322
 31
0.0
  0
LINE
  5
66F04
  8
0
 10
-7734.6151587620616
 20
404627.3575040893
 30
0.0
 11
-7564.6151587620616
 21
404627.3575040893
 31
0.0
  0
LINE
  5
66F05
  8
0
 10
-7734.6151587620616
 20
403877.3575040893
 30
0.0
 11
-7564.6151587620616
 21
403877.3575040893
 31
0.0
  0
LINE
  5
66F06
  8
0
 10
-5131.2107755993284
 20
404617.2507188968
 30
0.0
 11
-5086.7107755993266
 21
404617.2507188968
 31
0.0
  0
LINE
  5
66F07
  8
0
 10
-4581.2107755993266
 20
404417.2507188968
 30
0.0
 11
-4581.2107755993266
 21
404383.2507188968
 31
0.0
  0
LINE
  5
66F08
  8
0
 10
-5331.2107755993266
 20
404417.2507188968
 30
0.0
 11
-5331.2107755993266
 21
404383.2507188968
 31
0.0
  0
LINE
  5
66F09
  8
0
 10
-5131.2107755993284
 20
403867.25071889692
 30
0.0
 11
-4781.2107755993266
 21
403867.25071889692
 31
0.0
  0
LINE
  5
66F0A
  8
0
 10
-7734.6151587620616
 20
403817.3575040893
 30
0.0
 11
-7564.6151587620616
 21
403817.3575040893
 31
0.0
  0
LINE
  5
66F0B
  8
0
 10
-7734.6151587620616
 20
404427.3575040893
 30
0.0
 11
-7564.6151587620616
 21
404427.3575040893
 31
0.0
  0
LINE
  5
66F0C
  8
0
 10
-7734.6151587620616
 20
404077.3575040893
 30
0.0
 11
-7564.6151587620616
 21
404077.3575040893
 31
0.0
  0
LINE
  5
66F0D
  8
0
 10
-2657.105794504962
 20
404373.66633684328
 30
0.0
 11
-2487.1057945049611
 21
404373.66633684328
 31
0.0
  0
LINE
  5
66F0E
  8
0
 10
-2657.105794504962
 20
404023.66633684322
 30
0.0
 11
-2487.1057945049611
 21
404023.66633684322
 31
0.0
  0
LINE
  5
66F0F
  8
0
 10
-5131.2107755993284
 20
404617.2507188968
 30
0.0
 11
-5331.2107755993266
 21
404417.2507188968
 31
0.0
  0
LINE
  5
66F10
  8
0
 10
-5331.2107755993266
 20
404067.25071889668
 30
0.0
 11
-5131.2107755993284
 21
403867.25071889692
 31
0.0
  0
LINE
  5
66F11
  8
0
 10
-4581.2107755993266
 20
404067.25071889668
 30
0.0
 11
-4781.2107755993266
 21
403867.25071889692
 31
0.0
  0
LINE
  5
66F12
  8
0
 10
-4581.2107755993266
 20
404417.2507188968
 30
0.0
 11
-4781.2107755993266
 21
404617.2507188968
 31
0.0
  0
LINE
  5
66F13
  8
0
 10
-7734.6151587620616
 20
404252.3575040893
 30
0.0
 11
-7734.6151587620616
 21
404627.3575040893
 31
0.0
  0
LINE
  5
66F14
  8
0
 10
-7734.6151587620616
 20
404252.3575040893
 30
0.0
 11
-7734.6151587620616
 21
404042.35750408919
 31
0.0
  0
LINE
  5
66F15
  8
0
 10
-2657.105794504962
 20
404198.66633684322
 30
0.0
 11
-2657.105794504962
 21
404573.66633684322
 31
0.0
  0
LINE
  5
66F16
  8
0
 10
-2657.105794504962
 20
404198.66633684322
 30
0.0
 11
-2657.105794504962
 21
403793.66633684328
 31
0.0
  0
LINE
  5
66F17
  8
0
 10
-5131.2107755993284
 20
403867.25071889692
 30
0.0
 11
-5131.2107755993284
 21
403807.2507188968
 31
0.0
  0
LINE
  5
66F18
  8
0
 10
-4781.2107755993266
 20
403867.25071889692
 30
0.0
 11
-4781.2107755993266
 21
403807.2507188968
 31
0.0
  0
LINE
  5
66F19
  8
0
 10
-4616.2107755993266
 20
404032.25071889668
 30
0.0
 11
-4531.2107755993266
 21
404032.25071889668
 31
0.0
  0
LINE
  5
66F1A
  8
0
 10
-4581.2107755993266
 20
404082.2507188968
 30
0.0
 11
-4531.2107755993266
 21
404082.2507188968
 31
0.0
  0
LINE
  5
66F1B
  8
0
 10
-7734.6151587620616
 20
403942.3575040893
 30
0.0
 11
-7734.6151587620616
 21
403817.3575040893
 31
0.0
  0
LINE
  5
66F1C
  8
0
 10
-7564.6151587620616
 20
403942.3575040893
 30
0.0
 11
-7564.6151587620616
 21
403817.3575040893
 31
0.0
  0
LINE
  5
66F1D
  8
0
 10
-5122.9265043518644
 20
404597.2507188968
 30
0.0
 11
-5086.7107755993266
 21
404597.2507188968
 31
0.0
  0
LINE
  5
66F1E
  8
0
 10
-5122.9265043518644
 20
404597.2507188968
 30
0.0
 11
-5311.2107755993266
 21
404408.96644764929
 31
0.0
  0
LINE
  5
66F1F
  8
0
 10
-4601.2107755993266
 20
404408.96644764929
 30
0.0
 11
-4789.4950468467896
 21
404597.2507188968
 31
0.0
  0
LINE
  5
66F20
  8
0
 10
-4601.2107755993266
 20
404408.96644764929
 30
0.0
 11
-4601.2107755993266
 21
404383.2507188968
 31
0.0
  0
LINE
  5
66F21
  8
0
 10
-4601.2107755993266
 20
404075.5349901442
 30
0.0
 11
-4789.4950468467896
 21
403887.2507188968
 31
0.0
  0
LINE
  5
66F22
  8
0
 10
-5122.9265043518644
 20
403887.2507188968
 30
0.0
 11
-4789.4950468467896
 21
403887.2507188968
 31
0.0
  0
LINE
  5
66F23
  8
0
 10
-5311.2107755993266
 20
404075.5349901442
 30
0.0
 11
-5122.9265043518662
 21
403887.2507188968
 31
0.0
  0
LINE
  5
66F24
  8
0
 10
-5311.2107755993266
 20
404408.96644764929
 30
0.0
 11
-5311.2107755993266
 21
404383.2507188968
 31
0.0
  0
LINE
  5
66F25
  8
0
 10
-7741.6151587620634
 20
404607.35750408919
 30
0.0
 11
-7734.6151587620616
 21
404607.35750408919
 31
0.0
  0
LINE
  5
66F26
  8
0
 10
-7741.6151587620634
 20
403897.3575040893
 30
0.0
 11
-7734.6151587620616
 21
403897.3575040893
 31
0.0
  0
LINE
  5
66F27
  8
0
 10
-2664.105794504962
 20
403843.66633684322
 30
0.0
 11
-2657.105794504962
 21
403843.66633684322
 31
0.0
  0
LINE
  5
66F28
  8
0
 10
-2664.105794504962
 20
404553.66633684322
 30
0.0
 11
-2657.105794504962
 21
404553.66633684322
 31
0.0
  0
LINE
  5
66F29
  8
0
 10
-2664.105794504962
 20
404198.66633684322
 30
0.0
 11
-2664.105794504962
 21
404573.66633684322
 31
0.0
  0
LINE
  5
66F2A
  8
0
 10
-2664.105794504962
 20
404198.66633684322
 30
0.0
 11
-2664.105794504962
 21
403793.66633684328
 31
0.0
  0
LINE
  5
66F2B
  8
0
 10
-7741.6151587620634
 20
404252.3575040893
 30
0.0
 11
-7741.6151587620634
 21
404607.35750408919
 31
0.0
  0
LINE
  5
66F2C
  8
0
 10
-7741.6151587620634
 20
404252.3575040893
 30
0.0
 11
-7741.6151587620634
 21
404042.35750408919
 31
0.0
  0
LINE
  5
66F2D
  8
0
 10
-7741.6151587620634
 20
403942.3575040893
 30
0.0
 11
-7741.6151587620634
 21
403897.3575040893
 31
0.0
  0
ARC
  5
66F2E
  8
0
 10
-4956.2107755993266
 20
404242.2507188968
 30
0.0
 40
120.0
 50
202.0574715583806
 51
337.9425284416194
  0
LINE
  5
66F2F
  8
0
 10
-5102.6300397955838
 20
404548.25071889668
 30
0.0
 11
-5086.7107755993266
 21
404548.25071889668
 31
0.0
  0
LINE
  5
66F30
  8
0
 10
-5102.6300397955838
 20
403936.25071889668
 30
0.0
 11
-4809.7915114030711
 21
403936.25071889668
 31
0.0
  0
LINE
  5
66F31
  8
0
 10
-4650.2107755993266
 20
404095.8314547005
 30
0.0
 11
-4809.7915114030711
 21
403936.25071889668
 31
0.0
  0
LINE
  5
66F32
  8
0
 10
-4650.2107755993266
 20
404388.66998309299
 30
0.0
 11
-4650.2107755993266
 21
404383.2507188968
 31
0.0
  0
LINE
  5
66F33
  8
0
 10
-5262.2107755993284
 20
404095.8314547005
 30
0.0
 11
-5102.6300397955838
 21
403936.25071889668
 31
0.0
  0
LINE
  5
66F34
  8
0
 10
-5262.2107755993284
 20
404388.66998309299
 30
0.0
 11
-5262.2107755993284
 21
404383.2507188968
 31
0.0
  0
LINE
  5
66F35
  8
0
 10
-5102.6300397955838
 20
404548.25071889668
 30
0.0
 11
-5262.2107755993284
 21
404388.66998309299
 31
0.0
  0
LINE
  5
66F36
  8
0
 10
-4650.2107755993266
 20
404388.66998309299
 30
0.0
 11
-4809.7915114030711
 21
404548.25071889668
 31
0.0
  0
LINE
  5
66F37
  8
0
 10
-7761.6151587620616
 20
404558.35750408919
 30
0.0
 11
-7741.6151587620634
 21
404558.35750408919
 31
0.0
  0
LINE
  5
66F38
  8
0
 10
-7761.6151587620616
 20
404252.3575040893
 30
0.0
 11
-7761.6151587620616
 21
404042.35750408919
 31
0.0
  0
LINE
  5
66F39
  8
0
 10
-7761.6151587620616
 20
404252.3575040893
 30
0.0
 11
-7761.6151587620616
 21
404558.35750408919
 31
0.0
  0
LINE
  5
66F3A
  8
0
 10
-2684.105794504962
 20
404198.66633684322
 30
0.0
 11
-2684.105794504962
 21
403793.66633684328
 31
0.0
  0
LINE
  5
66F3B
  8
0
 10
-2684.105794504962
 20
404198.66633684322
 30
0.0
 11
-2684.105794504962
 21
404573.66633684322
 31
0.0
  0
LINE
  5
66F3C
  8
0
 10
-5098.4879041718523
 20
404538.2507188968
 30
0.0
 11
-5252.2107755993266
 21
404384.52784746938
 31
0.0
  0
LINE
  5
66F3D
  8
0
 10
-5098.4879041718523
 20
404538.2507188968
 30
0.0
 11
-5086.7107755993266
 21
404538.2507188968
 31
0.0
  0
LINE
  5
66F3E
  8
0
 10
-4660.2107755993266
 20
404384.52784746938
 30
0.0
 11
-4813.9336470268026
 21
404538.2507188968
 31
0.0
  0
LINE
  5
66F3F
  8
0
 10
-4660.2107755993266
 20
404384.52784746938
 30
0.0
 11
-4660.2107755993266
 21
404383.2507188968
 31
0.0
  0
LINE
  5
66F40
  8
0
 10
-4660.2107755993266
 20
404099.97359032423
 30
0.0
 11
-4813.9336470268026
 21
403946.2507188968
 31
0.0
  0
LINE
  5
66F41
  8
0
 10
-5098.4879041718523
 20
403946.2507188968
 30
0.0
 11
-4961.2107755993284
 21
403946.2507188968
 31
0.0
  0
LINE
  5
66F42
  8
0
 10
-5252.2107755993266
 20
404099.97359032423
 30
0.0
 11
-5098.4879041718523
 21
403946.2507188968
 31
0.0
  0
LINE
  5
66F43
  8
0
 10
-5252.2107755993266
 20
404384.52784746938
 30
0.0
 11
-5252.2107755993266
 21
404383.2507188968
 31
0.0
  0
LINE
  5
66F44
  8
0
 10
-5252.2107755993266
 20
404111.25071889692
 30
0.0
 11
-5106.2107755993266
 21
404111.25071889692
 31
0.0
  0
LINE
  5
66F45
  8
0
 10
-5252.2107755993266
 20
404373.2507188968
 30
0.0
 11
-5106.2107755993266
 21
404373.2507188968
 31
0.0
  0
LINE
  5
66F46
  8
0
 10
-5361.2107755993284
 20
404383.2507188968
 30
0.0
 11
-5262.2107755993284
 21
404383.2507188968
 31
0.0
  0
LINE
  5
66F47
  8
0
 10
-5361.2107755993284
 20
404101.2507188968
 30
0.0
 11
-5262.2107755993284
 21
404101.2507188968
 31
0.0
  0
LINE
  5
66F48
  8
0
 10
-4518.7107755993266
 20
404383.2507188968
 30
0.0
 11
-4518.7107755993266
 21
404101.2507188968
 31
0.0
  0
LINE
  5
66F49
  8
0
 10
-4558.7107755993266
 20
404373.2507188968
 30
0.0
 11
-4558.7107755993266
 21
404111.25071889692
 31
0.0
  0
LINE
  5
66F4A
  8
0
 10
-4816.2107755993266
 20
404373.2507188968
 30
0.0
 11
-4816.2107755993266
 21
404111.25071889692
 31
0.0
  0
LINE
  5
66F4B
  8
0
 10
-5096.2107755993284
 20
404373.2507188968
 30
0.0
 11
-5096.2107755993284
 21
404111.25071889692
 31
0.0
  0
LINE
  5
66F4C
  8
0
 10
-5106.2107755993266
 20
404373.2507188968
 30
0.0
 11
-5106.2107755993266
 21
404111.25071889692
 31
0.0
  0
LINE
  5
66F4D
  8
0
 10
-4806.2107755993266
 20
404373.2507188968
 30
0.0
 11
-4806.2107755993266
 21
404111.25071889692
 31
0.0
  0
LINE
  5
66F4E
  8
0
 10
-5361.2107755993284
 20
404131.2507188968
 30
0.0
 11
-5262.2107755993284
 21
404131.2507188968
 31
0.0
  0
LINE
  5
66F4F
  8
0
 10
-5361.2107755993284
 20
404353.2507188968
 30
0.0
 11
-5262.2107755993284
 21
404353.2507188968
 31
0.0
  0
LINE
  5
66F50
  8
0
 10
-4961.2107755993284
 20
404101.2507188968
 30
0.0
 11
-4961.2107755993284
 21
403946.2507188968
 31
0.0
  0
LINE
  5
66F51
  8
0
 10
-4951.2107755993284
 20
404101.2507188968
 30
0.0
 11
-4951.2107755993284
 21
403946.2507188968
 31
0.0
  0
LINE
  5
66F52
  8
0
 10
-5331.2107755993266
 20
404101.2507188968
 30
0.0
 11
-5331.2107755993266
 21
404067.25071889668
 31
0.0
  0
LINE
  5
66F53
  8
0
 10
-5311.2107755993266
 20
404101.2507188968
 30
0.0
 11
-5311.2107755993266
 21
404075.5349901442
 31
0.0
  0
LINE
  5
66F54
  8
0
 10
-5331.2107755993266
 20
404353.2507188968
 30
0.0
 11
-5331.2107755993266
 21
404131.2507188968
 31
0.0
  0
LINE
  5
66F55
  8
0
 10
-5311.2107755993266
 20
404353.2507188968
 30
0.0
 11
-5311.2107755993266
 21
404131.2507188968
 31
0.0
  0
LINE
  5
66F56
  8
0
 10
-4581.2107755993266
 20
404373.2507188968
 30
0.0
 11
-4581.2107755993266
 21
404111.25071889692
 31
0.0
  0
LINE
  5
66F57
  8
0
 10
-4601.2107755993266
 20
404373.2507188968
 30
0.0
 11
-4601.2107755993266
 21
404111.25071889692
 31
0.0
  0
LINE
  5
66F58
  8
0
 10
-4650.2107755993266
 20
404373.2507188968
 30
0.0
 11
-4650.2107755993266
 21
404111.25071889692
 31
0.0
  0
LINE
  5
66F59
  8
0
 10
-4660.2107755993266
 20
404373.2507188968
 30
0.0
 11
-4660.2107755993266
 21
404111.25071889692
 31
0.0
  0
LINE
  5
66F5A
  8
0
 10
-5252.2107755993266
 20
404373.2507188968
 30
0.0
 11
-5252.2107755993266
 21
404111.25071889692
 31
0.0
  0
LINE
  5
66F5B
  8
0
 10
-5252.2107755993266
 20
404101.2507188968
 30
0.0
 11
-5252.2107755993266
 21
404099.97359032423
 31
0.0
  0
LINE
  5
66F5C
  8
0
 10
-4581.2107755993266
 20
404101.2507188968
 30
0.0
 11
-4581.2107755993266
 21
404067.25071889668
 31
0.0
  0
LINE
  5
66F5D
  8
0
 10
-4601.2107755993266
 20
404101.2507188968
 30
0.0
 11
-4601.2107755993266
 21
404075.5349901442
 31
0.0
  0
LINE
  5
66F5E
  8
0
 10
-4650.2107755993266
 20
404101.2507188968
 30
0.0
 11
-4650.2107755993266
 21
404095.8314547005
 31
0.0
  0
LINE
  5
66F5F
  8
0
 10
-4660.2107755993266
 20
404101.2507188968
 30
0.0
 11
-4660.2107755993266
 21
404099.97359032428
 31
0.0
  0
LINE
  5
66F60
  8
0
 10
-5262.2107755993284
 20
404101.2507188968
 30
0.0
 11
-5262.2107755993284
 21
404095.8314547005
 31
0.0
  0
LINE
  5
66F61
  8
0
 10
-5262.2107755993284
 20
404353.2507188968
 30
0.0
 11
-5262.2107755993284
 21
404131.2507188968
 31
0.0
  0
LINE
  5
66F62
  8
0
 10
-4825.7107755993266
 20
404538.2507188968
 30
0.0
 11
-4813.9336470267999
 21
404538.2507188968
 31
0.0
  0
LINE
  5
66F63
  8
0
 10
-4825.7107755993266
 20
404383.2507188968
 30
0.0
 11
-4660.2107755993266
 21
404383.2507188968
 31
0.0
  0
LINE
  5
66F64
  8
0
 10
-4951.2107755993284
 20
404101.2507188968
 30
0.0
 11
-4660.2107755993266
 21
404101.2507188968
 31
0.0
  0
LINE
  5
66F65
  8
0
 10
-4951.2107755993284
 20
403946.2507188968
 30
0.0
 11
-4813.9336470268026
 21
403946.2507188968
 31
0.0
  0
LINE
  5
66F66
  8
0
 10
-4650.2107755993266
 20
404383.2507188968
 30
0.0
 11
-4518.7107755993266
 21
404383.2507188968
 31
0.0
  0
LINE
  5
66F67
  8
0
 10
-4650.2107755993266
 20
404373.2507188968
 30
0.0
 11
-4558.7107755993266
 21
404373.2507188968
 31
0.0
  0
LINE
  5
66F68
  8
0
 10
-4650.2107755993266
 20
404111.25071889692
 30
0.0
 11
-4558.7107755993266
 21
404111.25071889692
 31
0.0
  0
LINE
  5
66F69
  8
0
 10
-4650.2107755993266
 20
404101.2507188968
 30
0.0
 11
-4518.7107755993266
 21
404101.2507188968
 31
0.0
  0
LINE
  5
66F6A
  8
0
 10
-5252.2107755993266
 20
404383.2507188968
 30
0.0
 11
-5086.7107755993266
 21
404383.2507188968
 31
0.0
  0
LINE
  5
66F6B
  8
0
 10
-5252.2107755993266
 20
404101.2507188968
 30
0.0
 11
-4961.2107755993284
 21
404101.2507188968
 31
0.0
  0
LINE
  5
66F6C
  8
0
 10
-4806.2107755993266
 20
404373.2507188968
 30
0.0
 11
-4660.2107755993266
 21
404373.2507188968
 31
0.0
  0
LINE
  5
66F6D
  8
0
 10
-5096.2107755993284
 20
404373.2507188968
 30
0.0
 11
-5086.7107755993266
 21
404373.2507188968
 31
0.0
  0
LINE
  5
66F6E
  8
0
 10
-5096.2107755993284
 20
404111.25071889692
 30
0.0
 11
-4816.2107755993266
 21
404111.25071889692
 31
0.0
  0
LINE
  5
66F6F
  8
0
 10
-4806.2107755993266
 20
404111.25071889692
 30
0.0
 11
-4660.2107755993266
 21
404111.25071889692
 31
0.0
  0
LINE
  5
66F70
  8
0
 10
-5361.2107755993284
 20
404413.2507188968
 30
0.0
 11
-5361.2107755993284
 21
404353.2507188968
 31
0.0
  0
LINE
  5
66F71
  8
0
 10
-5361.2107755993284
 20
404131.2507188968
 30
0.0
 11
-5361.2107755993284
 21
404071.2507188968
 31
0.0
  0
LINE
  5
66F72
  8
0
 10
-5361.2107755993284
 20
404071.2507188968
 30
0.0
 11
-5331.2107755993266
 21
404071.2507188968
 31
0.0
  0
LINE
  5
66F73
  8
0
 10
-5361.2107755993284
 20
404413.2507188968
 30
0.0
 11
-5331.2107755993266
 21
404413.2507188968
 31
0.0
  0
LINE
  5
66F74
  8
0
 10
-4581.2107755993266
 20
404257.25071889668
 30
0.0
 11
-4558.7107755993266
 21
404257.25071889668
 31
0.0
  0
LINE
  5
66F75
  8
0
 10
-4581.2107755993266
 20
404227.25071889668
 30
0.0
 11
-4558.7107755993266
 21
404227.25071889668
 31
0.0
  0
LINE
  5
66F76
  8
0
 10
-7771.6151587620634
 20
404393.3575040893
 30
0.0
 11
-7741.6151587620634
 21
404393.3575040893
 31
0.0
  0
LINE
  5
66F77
  8
0
 10
-7771.6151587620634
 20
404111.3575040893
 30
0.0
 11
-7741.6151587620634
 21
404111.3575040893
 31
0.0
  0
LINE
  5
66F78
  8
0
 10
-7734.6151587620616
 20
404267.35750408919
 30
0.0
 11
-7579.6151587620634
 21
404267.35750408919
 31
0.0
  0
LINE
  5
66F79
  8
0
 10
-7734.6151587620616
 20
404237.3575040893
 30
0.0
 11
-7579.6151587620634
 21
404237.3575040893
 31
0.0
  0
LINE
  5
66F7A
  8
0
 10
-7579.6151587620634
 20
404252.3575040893
 30
0.0
 11
-7579.6151587620634
 21
404237.3575040893
 31
0.0
  0
LINE
  5
66F7B
  8
0
 10
-7579.6151587620634
 20
404252.3575040893
 30
0.0
 11
-7579.6151587620634
 21
404267.35750408919
 31
0.0
  0
LINE
  5
66F7C
  8
0
 10
-7771.6151587620634
 20
404423.3575040893
 30
0.0
 11
-7761.6151587620616
 21
404423.3575040893
 31
0.0
  0
LINE
  5
66F7D
  8
0
 10
-7771.6151587620634
 20
404363.35750408919
 30
0.0
 11
-7761.6151587620616
 21
404363.35750408919
 31
0.0
  0
LINE
  5
66F7E
  8
0
 10
-7771.6151587620634
 20
404141.3575040893
 30
0.0
 11
-7761.6151587620616
 21
404141.3575040893
 31
0.0
  0
LINE
  5
66F7F
  8
0
 10
-7771.6151587620634
 20
404081.3575040893
 30
0.0
 11
-7761.6151587620616
 21
404081.3575040893
 31
0.0
  0
LINE
  5
66F80
  8
0
 10
-7771.6151587620634
 20
404363.35750408919
 30
0.0
 11
-7771.6151587620634
 21
404423.3575040893
 31
0.0
  0
LINE
  5
66F81
  8
0
 10
-7771.6151587620634
 20
404141.3575040893
 30
0.0
 11
-7771.6151587620634
 21
404081.3575040893
 31
0.0
  0
LINE
  5
66F82
  8
0
 10
-2684.105794504962
 20
403793.66633684328
 30
0.0
 11
-2664.105794504962
 21
403793.66633684328
 31
0.0
  0
LINE
  5
66F83
  8
0
 10
-2502.105794504962
 20
403823.66633684322
 30
0.0
 11
-2502.105794504962
 21
403803.66633684328
 31
0.0
  0
LINE
  5
66F84
  8
0
 10
-2502.105794504962
 20
403803.66633684328
 30
0.0
 11
-2627.105794504962
 21
403793.66633684328
 31
0.0
  0
LINE
  5
66F85
  8
0
 10
-2694.105794504962
 20
404603.66633684322
 30
0.0
 11
-2627.105794504962
 21
404603.66633684322
 31
0.0
  0
LINE
  5
66F86
  8
0
 10
-2502.105794504962
 20
404593.66633684322
 30
0.0
 11
-2627.105794504962
 21
404603.66633684322
 31
0.0
  0
LINE
  5
66F87
  8
0
 10
-2502.105794504962
 20
404573.66633684322
 30
0.0
 11
-2502.105794504962
 21
404593.66633684322
 31
0.0
  0
LINE
  5
66F88
  8
0
 10
-2664.105794504962
 20
403823.66633684322
 30
0.0
 11
-2429.105794504962
 21
403823.66633684322
 31
0.0
  0
LINE
  5
66F89
  8
0
 10
-2657.105794504962
 20
403793.66633684328
 30
0.0
 11
-2627.105794504962
 21
403793.66633684328
 31
0.0
  0
LINE
  5
66F8A
  8
0
 10
-2694.105794504962
 20
404573.66633684322
 30
0.0
 11
-2694.105794504962
 21
404603.66633684322
 31
0.0
  0
LINE
  5
66F8B
  8
0
 10
-2684.105794504962
 20
404345.08560103952
 30
0.0
 11
-2664.105794504962
 21
404345.08560103952
 31
0.0
  0
LINE
  5
66F8C
  8
0
 10
-2684.105794504962
 20
404052.24707264692
 30
0.0
 11
-2664.105794504962
 21
404052.24707264692
 31
0.0
  0
LINE
  5
66F8D
  8
0
 10
-2684.105794504962
 20
403892.66633684322
 30
0.0
 11
-2664.105794504962
 21
403892.66633684322
 31
0.0
  0
LINE
  5
66F8E
  8
0
 10
-2684.105794504962
 20
404504.66633684322
 30
0.0
 11
-2664.105794504962
 21
404504.66633684322
 31
0.0
  0
LINE
  5
66F8F
  8
0
 10
-4713.2107755993266
 20
404303.2507188968
 30
0.0
 11
-4713.2107755993266
 21
404181.2507188968
 31
0.0
  0
LINE
  5
66F90
  8
0
 10
-4701.2107755993266
 20
404303.2507188968
 30
0.0
 11
-4701.2107755993266
 21
404181.2507188968
 31
0.0
  0
ARC
  5
66F91
  8
0
 10
-4707.2107755993266
 20
404181.2507188968
 30
0.0
 40
6.0
 50
180.0
 51
0.0
  0
ARC
  5
66F92
  8
0
 10
-4707.2107755993266
 20
404303.2507188968
 30
0.0
 40
6.0
 50
0.0
 51
180.0
  0
LINE
  5
66F93
  8
0
 10
-7803.6151587620616
 20
404299.3575040893
 30
0.0
 11
-7803.6151587620616
 21
404205.3575040893
 31
0.0
  0
LINE
  5
66F94
  8
0
 10
-7791.6151587620634
 20
404299.3575040893
 30
0.0
 11
-7791.6151587620634
 21
404205.3575040893
 31
0.0
  0
ARC
  5
66F95
  8
0
 10
-7783.6151587620616
 20
404205.3575040893
 30
0.0
 40
20.0
 50
180.0
 51
270.0
  0
ARC
  5
66F96
  8
0
 10
-7783.6151587620616
 20
404205.3575040893
 30
0.0
 40
8.0
 50
180.0
 51
270.0
  0
LINE
  5
66F97
  8
0
 10
-7783.6151587620616
 20
404185.3575040893
 30
0.0
 11
-7761.6151587620616
 21
404185.3575040893
 31
0.0
  0
LINE
  5
66F98
  8
0
 10
-7783.6151587620616
 20
404197.3575040893
 30
0.0
 11
-7761.6151587620616
 21
404197.3575040893
 31
0.0
  0
ARC
  5
66F99
  8
0
 10
-7783.6151587620616
 20
404299.3575040893
 30
0.0
 40
20.0
 50
90.0
 51
180.0
  0
ARC
  5
66F9A
  8
0
 10
-7783.6151587620616
 20
404299.3575040893
 30
0.0
 40
8.0
 50
90.0
 51
180.0
  0
LINE
  5
66F9B
  8
0
 10
-7783.6151587620616
 20
404319.3575040893
 30
0.0
 11
-7761.6151587620616
 21
404319.3575040893
 31
0.0
  0
LINE
  5
66F9C
  8
0
 10
-7783.6151587620616
 20
404307.3575040893
 30
0.0
 11
-7761.6151587620616
 21
404307.3575040893
 31
0.0
  0
ARC
  5
66F9D
  8
0
 10
-2720.105794504962
 20
403949.66633684322
 30
0.0
 40
6.0
 50
90.0
 51
270.0
  0
LINE
  5
66F9E
  8
0
 10
-2720.105794504962
 20
403955.66633684322
 30
0.0
 11
-2684.105794504962
 21
403955.66633684322
 31
0.0
  0
LINE
  5
66F9F
  8
0
 10
-2720.105794504962
 20
403943.66633684322
 30
0.0
 11
-2684.105794504962
 21
403943.66633684322
 31
0.0
  0
LINE
  5
66FA0
  8
0
 10
-2657.105794504962
 20
404373.66633684328
 30
0.0
 11
-2657.105794504962
 21
404023.66633684322
 31
0.0
  0
LINE
  5
66FA1
  8
0
 10
-2657.105794504962
 20
404023.66633684322
 30
0.0
 11
-2487.1057945049611
 21
404023.66633684322
 31
0.0
  0
LINE
  5
66FA2
  8
0
 10
-2487.1057945049611
 20
404023.66633684322
 30
0.0
 11
-2487.1057945049611
 21
404373.66633684328
 31
0.0
  0
LINE
  5
66FA3
  8
0
 10
-2487.1057945049611
 20
404373.66633684328
 30
0.0
 11
-2657.105794504962
 21
404373.66633684328
 31
0.0
  0
LINE
  5
66FA4
  8
0
 10
-7967.6151587620616
 20
404350.3575040893
 30
0.0
 11
-7967.6151587620616
 21
404630.3575040893
 31
0.0
  0
LINE
  5
66FA5
  8
0
 10
-2890.1057945049611
 20
404068.16633684322
 30
0.0
 11
-2890.1057945049611
 21
404329.16633684322
 31
0.0
  0
LINE
  5
66FA6
  8
0
 10
-2890.1057945049611
 20
404068.16633684322
 30
0.0
 11
-2707.105794504962
 21
404068.16633684322
 31
0.0
  0
LINE
  5
66FA7
  8
0
 10
-2890.1057945049611
 20
404329.16633684322
 30
0.0
 11
-2707.105794504962
 21
404329.16633684322
 31
0.0
  0
LINE
  5
66FA8
  8
0
 10
-4825.7107755993266
 20
404622.2507188968
 30
0.0
 11
-4825.7107755993266
 21
404205.13856936409
 31
0.0
  0
LINE
  5
66FA9
  8
0
 10
-5086.7107755993266
 20
404622.2507188968
 30
0.0
 11
-5086.7107755993266
 21
404205.13856936409
 31
0.0
  0
LINE
  5
66FAA
  8
0
 10
-5086.7107755993266
 20
404620.2507188968
 30
0.0
 11
-4825.7107755993266
 21
404620.2507188968
 31
0.0
  0
LINE
  5
66FAB
  8
0
 10
-7967.6151587620616
 20
404630.3575040893
 30
0.0
 11
-7784.6151587620616
 21
404630.3575040893
 31
0.0
  0
LINE
  5
66FAC
  8
0
 10
-4825.7107755993266
 20
404548.25071889668
 30
0.0
 11
-4809.7915114030711
 21
404548.25071889668
 31
0.0
  0
LINE
  5
66FAD
  8
0
 10
-4825.7107755993266
 20
404597.2507188968
 30
0.0
 11
-4789.4950468467887
 21
404597.2507188968
 31
0.0
  0
LINE
  5
66FAE
  8
0
 10
-4825.7107755993266
 20
404617.2507188968
 30
0.0
 11
-4781.2107755993266
 21
404617.2507188968
 31
0.0
  0
LINE
  5
66FAF
  8
0
 10
-4825.7107755993266
 20
404373.2507188968
 30
0.0
 11
-4816.2107755993266
 21
404373.2507188968
 31
0.0
  0
LINE
  5
66FB0
  8
0
 10
-7784.6151587620616
 20
404342.35750408919
 30
0.0
 11
-7784.6151587620616
 21
404630.3575040893
 31
0.0
  0
LINE
  5
66FB1
  8
0
 10
-2707.105794504962
 20
404068.16633684322
 30
0.0
 11
-2707.105794504962
 21
404329.16633684322
 31
0.0
  0
LINE
  5
66FB2
  8
0
 10
-7967.6151587620616
 20
404350.3575040893
 30
0.0
 11
-7803.6151587620616
 21
404229.2733919397
 31
0.0
  0
LINE
  5
66FB3
  8
0
 10
-7784.6151587620616
 20
404342.35750408919
 30
0.0
 11
-7761.6151587620616
 21
404320.09943957312
 31
0.0
  0
LINE
  5
66FB4
  8
0
 10
-7791.6151587620634
 20
404220.41357885569
 30
0.0
 11
-7761.6151587620616
 21
404198.26404614543
 31
0.0
  0
LINE
  5
66FB5
  8
0
 10
-7784.6151587620616
 20
404342.35750408919
 30
0.0
 11
-7784.6151587620616
 21
404319.33248844469
 31
0.0
  0
LINE
  5
66FB6
  8
0
 10
-7784.6151587620616
 20
404307.29475802247
 30
0.0
 11
-7784.6151587620616
 21
404215.24535455659
 31
0.0
  0
LINE
  5
66FB7
  8
0
 10
-2707.105794504962
 20
404329.16633684322
 30
0.0
 11
-2684.105794504962
 21
404287.98891748837
 31
0.0
  0
LINE
  5
66FB8
  8
0
 10
-2707.105794504962
 20
404068.16633684322
 30
0.0
 11
-2684.105794504962
 21
404109.34375619801
 31
0.0
  0
LINE
  5
66FB9
  8
0
 10
-2885.105794504962
 20
404324.16633684328
 30
0.0
 11
-2712.105794504962
 21
404324.16633684328
 31
0.0
  0
LINE
  5
66FBA
  8
0
 10
-2885.105794504962
 20
404073.16633684322
 30
0.0
 11
-2885.105794504962
 21
404324.16633684328
 31
0.0
  0
LINE
  5
66FBB
  8
0
 10
-2712.105794504962
 20
404073.16633684322
 30
0.0
 11
-2712.105794504962
 21
404324.16633684328
 31
0.0
  0
LINE
  5
66FBC
  8
0
 10
-2885.105794504962
 20
404073.16633684322
 30
0.0
 11
-2712.105794504962
 21
404073.16633684322
 31
0.0
  0
LINE
  5
66FBD
  8
0
 10
-5031.2107755993266
 20
404182.25071889668
 30
0.0
 11
-4881.2107755993284
 21
404182.25071889668
 31
0.0
  0
LINE
  5
66FBE
  8
0
 10
-4825.7107755993266
 20
404205.13856936409
 30
0.0
 11
-4881.2107755993284
 21
404182.25071889668
 31
0.0
  0
LINE
  5
66FBF
  8
0
 10
-5086.7107755993266
 20
404205.13856936409
 30
0.0
 11
-5031.2107755993266
 21
404182.25071889668
 31
0.0
  0
LINE
  5
66FC0
  8
0
 10
-5086.7107755993266
 20
404340.2507188968
 30
0.0
 11
-4825.7107755993266
 21
404340.2507188968
 31
0.0
  0
LINE
  5
66FC1
  8
0
 10
-5083.7107755993266
 20
404625.2507188968
 30
0.0
 11
-4828.7107755993266
 21
404625.2507188968
 31
0.0
  0
LINE
  5
66FC2
  8
0
 10
-7964.6151587620616
 20
404635.35750408919
 30
0.0
 11
-7787.6151587620616
 21
404635.35750408919
 31
0.0
  0
LINE
  5
66FC3
  8
0
 10
-7787.6151587620616
 20
404630.3575040893
 30
0.0
 11
-7787.6151587620616
 21
404635.35750408919
 31
0.0
  0
LINE
  5
66FC4
  8
0
 10
-7964.6151587620616
 20
404630.3575040893
 30
0.0
 11
-7964.6151587620616
 21
404635.35750408919
 31
0.0
  0
ARC
  5
66FC5
  8
0
 10
-5083.7107755993266
 20
404622.2507188968
 30
0.0
 40
3.0
 50
90.0
 51
180.0
  0
ARC
  5
66FC6
  8
0
 10
-4828.7107755993266
 20
404622.2507188968
 30
0.0
 40
3.0
 50
0.0
 51
90.0
  0
LINE
  5
66FC7
  8
0
 10
-1935.605794504962
 20
400503.54732963489
 30
0.0
 11
-1935.605794504962
 21
400665.54732963489
 31
0.0
  0
LINE
  5
66FC8
  8
0
 10
-1975.6057945049611
 20
400503.54732963489
 30
0.0
 11
-1975.6057945049611
 21
400705.54732963489
 31
0.0
  0
LINE
  5
66FC9
  8
0
 10
-2094.605794504962
 20
400503.54732963489
 30
0.0
 11
-2094.605794504962
 21
400705.54732963489
 31
0.0
  0
LINE
  5
66FCA
  8
0
 10
-2587.605794504962
 20
400503.54732963489
 30
0.0
 11
-2587.605794504962
 21
400703.54732963489
 31
0.0
  0
LINE
  5
66FCB
  8
0
 10
-2555.605794504962
 20
400503.54732963489
 30
0.0
 11
-2555.605794504962
 21
400705.54732963489
 31
0.0
  0
LINE
  5
66FCC
  8
0
 10
-2535.605794504962
 20
400503.54732963489
 30
0.0
 11
-2535.605794504962
 21
400705.54732963489
 31
0.0
  0
LINE
  5
66FCD
  8
0
 10
-2602.605794504962
 20
400503.54732963489
 30
0.0
 11
-2602.605794504962
 21
400878.54732963489
 31
0.0
  0
LINE
  5
66FCE
  8
0
 10
-2822.605794504962
 20
400634.04732963489
 30
0.0
 11
-2799.6057945049611
 21
400592.86991027999
 31
0.0
  0
LINE
  5
66FCF
  8
0
 10
-2772.605794504962
 20
400503.54732963489
 30
0.0
 11
-2772.605794504962
 21
400878.54732963489
 31
0.0
  0
LINE
  5
66FD0
  8
0
 10
-2799.6057945049611
 20
400503.54732963489
 30
0.0
 11
-2799.6057945049611
 21
400878.54732963489
 31
0.0
  0
LINE
  5
66FD1
  8
0
 10
-2779.6057945049611
 20
400503.54732963489
 30
0.0
 11
-2779.6057945049611
 21
400878.54732963489
 31
0.0
  0
LINE
  5
66FD2
  8
0
 10
-2602.605794504962
 20
400328.54732963489
 30
0.0
 11
-2602.605794504962
 21
400678.54732963489
 31
0.0
  0
LINE
  5
66FD3
  8
0
 10
-2772.605794504962
 20
400678.54732963489
 30
0.0
 11
-2772.605794504962
 21
400328.54732963489
 31
0.0
  0
LINE
  5
66FD4
  8
0
 10
-3005.605794504962
 20
400373.04732963489
 30
0.0
 11
-3005.605794504962
 21
400634.04732963489
 31
0.0
  0
LINE
  5
66FD5
  8
0
 10
-2822.605794504962
 20
400373.04732963489
 30
0.0
 11
-2822.605794504962
 21
400634.04732963489
 31
0.0
  0
LINE
  5
66FD6
  8
0
 10
-2827.6057945049611
 20
400378.04732963489
 30
0.0
 11
-2827.6057945049611
 21
400629.04732963478
 31
0.0
  0
LINE
  5
66FD7
  8
0
 10
-3000.605794504962
 20
400378.04732963489
 30
0.0
 11
-3000.605794504962
 21
400629.04732963478
 31
0.0
  0
LINE
  5
66FD8
  8
0
 10
-3005.605794504962
 20
400503.54732963489
 30
0.0
 11
-1935.605794504962
 21
400503.54732963489
 31
0.0
  0
LINE
  5
66FD9
  8
0
 10
-2906.1057945049611
 20
400078.54732963489
 30
0.0
 11
-2010.605794504962
 21
400078.54732963489
 31
0.0
  0
LINE
  5
66FDA
  8
0
 10
-2617.605794504962
 20
400108.54732963489
 30
0.0
 11
-2742.605794504962
 21
400098.54732963478
 31
0.0
  0
LINE
  5
66FDB
  8
0
 10
-2779.6057945049611
 20
400128.54732963478
 30
0.0
 11
-2519.605794504962
 21
400128.54732963478
 31
0.0
  0
LINE
  5
66FDC
  8
0
 10
-2772.605794504962
 20
400328.54732963489
 30
0.0
 11
-2602.605794504962
 21
400328.54732963489
 31
0.0
  0
LINE
  5
66FDD
  8
0
 10
-2772.605794504962
 20
400328.54732963489
 30
0.0
 11
-2602.605794504962
 21
400328.54732963489
 31
0.0
  0
ARC
  5
66FDE
  8
0
 10
-2917.105794504962
 20
400114.54732963489
 30
0.0
 40
8.0
 50
0.0
 51
90.0
  0
LINE
  5
66FDF
  8
0
 10
-2868.5279136513641
 20
400117.92064098641
 30
0.0
 11
-2889.1768601172439
 21
400130.61869070888
 31
0.0
  0
LINE
  5
66FE0
  8
0
 10
-2900.605794504962
 20
400128.54732963478
 30
0.0
 11
-2900.605794504962
 21
400078.54732963489
 31
0.0
  0
ARC
  5
66FE1
  8
0
 10
-2940.6057945049611
 20
400103.54732963489
 30
0.0
 40
45.0
 50
323.88065914952477
 51
38.659808254415623
  0
ARC
  5
66FE2
  8
0
 10
-2940.6057945049611
 20
400103.54732963489
 30
0.0
 40
35.0
 50
314.4153085981917
 51
45.5846914018083
  0
LINE
  5
66FE3
  8
0
 10
-2990.605794504962
 20
400128.54732963478
 30
0.0
 11
-2990.605794504962
 21
400098.54732963478
 31
0.0
  0
LINE
  5
66FE4
  8
0
 10
-3012.683675358559
 20
400117.92064098641
 30
0.0
 11
-2991.0297304631308
 21
400131.23671352433
 31
0.0
  0
LINE
  5
66FE5
  8
0
 10
-2940.6057945049611
 20
400153.54732963489
 30
0.0
 11
-2940.6057945049611
 21
400053.54732963478
 31
0.0
  0
ARC
  5
66FE6
  8
0
 10
-2940.6057945049611
 20
400103.54732963489
 30
0.0
 40
35.0
 50
134.4153085981917
 51
225.5846914018083
  0
ARC
  5
66FE7
  8
0
 10
-2940.6057945049611
 20
400103.54732963489
 30
0.0
 40
45.0
 50
146.6592926527737
 51
198.0342855684942
  0
LINE
  5
66FE8
  8
0
 10
-2772.605794504962
 20
400503.54732963489
 30
0.0
 11
-2772.605794504962
 21
400098.54732963478
 31
0.0
  0
LINE
  5
66FE9
  8
0
 10
-2799.6057945049611
 20
400503.54732963489
 30
0.0
 11
-2799.6057945049611
 21
400098.54732963478
 31
0.0
  0
LINE
  5
66FEA
  8
0
 10
-2779.6057945049611
 20
400503.54732963489
 30
0.0
 11
-2779.6057945049611
 21
400098.54732963478
 31
0.0
  0
LINE
  5
66FEB
  8
0
 10
-2970.605794504962
 20
400078.54732963489
 30
0.0
 11
-2900.605794504962
 21
400078.54732963489
 31
0.0
  0
LINE
  5
66FEC
  8
0
 10
-3020.605794504962
 20
400103.54732963489
 30
0.0
 11
-2860.605794504962
 21
400103.54732963489
 31
0.0
  0
ARC
  5
66FED
  8
0
 10
-2940.6057945049611
 20
400103.54732963489
 30
0.0
 40
50.0
 50
238.340128192641
 51
301.65987180735902
  0
ARC
  5
66FEE
  8
0
 10
-2940.6057945049611
 20
400103.54732963489
 30
0.0
 40
45.0
 50
216.8698976447705
 51
323.88065914952477
  0
ARC
  5
66FEF
  8
0
 10
-2940.6057945049611
 20
400103.54732963489
 30
0.0
 40
35.0
 50
225.5846914018083
 51
314.4153085981917
  0
LINE
  5
66FF0
  8
0
 10
-3012.683675358559
 20
400089.17401828332
 30
0.0
 11
-2990.5835210228911
 21
400075.58354968042
 31
0.0
  0
LINE
  5
66FF1
  8
0
 10
-3003.605794504962
 20
400109.54732963489
 30
0.0
 11
-3003.605794504962
 21
400097.54732963489
 31
0.0
  0
CIRCLE
  5
66FF2
  8
0
 10
-3003.605794504962
 20
400103.54732963489
 30
0.0
 40
6.0
  0
ARC
  5
66FF3
  8
0
 10
-3003.605794504962
 20
400103.54732963489
 30
0.0
 40
17.0
 50
120.90314961980749
 51
239.09685038023721
  0
LINE
  5
66FF4
  8
0
 10
-2990.5835210228911
 20
400075.58354968042
 30
0.0
 11
-2966.8495765279108
 21
400060.98838339408
 31
0.0
  0
ARC
  5
66FF5
  8
0
 10
-2940.6057945049611
 20
400103.54732963489
 30
0.0
 40
45.0
 50
198.0342855684942
 51
216.8698976447705
  0
LINE
  5
66FF6
  8
0
 10
-2990.605794504962
 20
400098.54732963478
 30
0.0
 11
-2970.605794504962
 21
400078.54732963489
 31
0.0
  0
LINE
  5
66FF7
  8
0
 10
-2868.5279136513641
 20
400089.17401828332
 30
0.0
 11
-2888.7306506770042
 21
400076.750364626
 31
0.0
  0
ARC
  5
66FF8
  8
0
 10
-2906.1057945049611
 20
400081.54732963489
 30
0.0
 40
3.0
 50
180.0
 51
270.0
  0
LINE
  5
66FF9
  8
0
 10
-2888.7306506770042
 20
400076.750364626
 30
0.0
 11
-2914.3620124820118
 21
400060.98838339408
 31
0.0
  0
LINE
  5
66FFA
  8
0
 10
-2909.105794504962
 20
400114.54732963489
 30
0.0
 11
-2909.105794504962
 21
400081.54732963489
 31
0.0
  0
CIRCLE
  5
66FFB
  8
0
 10
-2877.605794504962
 20
400103.54732963489
 30
0.0
 40
6.0
  0
LINE
  5
66FFC
  8
0
 10
-2877.605794504962
 20
400109.54732963489
 30
0.0
 11
-2877.605794504962
 21
400097.54732963489
 31
0.0
  0
ARC
  5
66FFD
  8
0
 10
-2877.605794504962
 20
400103.54732963489
 30
0.0
 40
17.0
 50
300.90314961976281
 51
59.096850380237171
  0
LINE
  5
66FFE
  8
0
 10
-2772.605794504962
 20
400098.54732963478
 30
0.0
 11
-2742.605794504962
 21
400098.54732963478
 31
0.0
  0
LINE
  5
66FFF
  8
0
 10
-2799.6057945049611
 20
400098.54732963478
 30
0.0
 11
-2779.6057945049611
 21
400098.54732963478
 31
0.0
  0
LINE
  5
67000
  8
0
 10
-2822.605794504962
 20
400373.04732963489
 30
0.0
 11
-2799.6057945049611
 21
400414.22474898968
 31
0.0
  0
LINE
  5
67001
  8
0
 10
-3005.605794504962
 20
400373.04732963489
 30
0.0
 11
-2822.605794504962
 21
400373.04732963489
 31
0.0
  0
LINE
  5
67002
  8
0
 10
-2990.605794504962
 20
400122.54732963489
 30
0.0
 11
-2917.105794504962
 21
400122.54732963489
 31
0.0
  0
ARC
  5
67003
  8
0
 10
-2940.6057945049611
 20
400103.54732963489
 30
0.0
 40
50.0
 50
58.340128192641011
 51
121.6598718073589
  0
ARC
  5
67004
  8
0
 10
-2940.6057945049611
 20
400103.54732963489
 30
0.0
 40
45.0
 50
38.659808254415623
 51
145.61965527664401
  0
ARC
  5
67005
  8
0
 10
-2940.6057945049611
 20
400103.54732963489
 30
0.0
 40
35.0
 50
45.5846914018083
 51
134.4153085981917
  0
LINE
  5
67006
  8
0
 10
-2990.605794504962
 20
400128.54732963478
 30
0.0
 11
-2799.6057945049611
 21
400128.54732963478
 31
0.0
  0
LINE
  5
67007
  8
0
 10
-2991.0297304631308
 20
400131.23671352433
 30
0.0
 11
-2966.8495765279108
 21
400146.1062758757
 31
0.0
  0
LINE
  5
67008
  8
0
 10
-2889.1768601172439
 20
400130.61869070888
 30
0.0
 11
-2914.3620124820118
 21
400146.1062758757
 31
0.0
  0
LINE
  5
67009
  8
0
 10
-2779.6057945049611
 20
400148.54732963489
 30
0.0
 11
-2772.605794504962
 21
400148.54732963489
 31
0.0
  0
LINE
  5
6700A
  8
0
 10
-2799.6057945049611
 20
400197.54732963489
 30
0.0
 11
-2779.6057945049611
 21
400197.54732963489
 31
0.0
  0
LINE
  5
6700B
  8
0
 10
-2835.605794504962
 20
400248.54732963478
 30
0.0
 11
-2799.6057945049611
 21
400248.54732963478
 31
0.0
  0
LINE
  5
6700C
  8
0
 10
-2835.605794504962
 20
400260.54732963489
 30
0.0
 11
-2799.6057945049611
 21
400260.54732963489
 31
0.0
  0
ARC
  5
6700D
  8
0
 10
-2835.605794504962
 20
400254.54732963489
 30
0.0
 40
6.0
 50
90.0
 51
270.0
  0
LINE
  5
6700E
  8
0
 10
-2799.6057945049611
 20
400357.12806543859
 30
0.0
 11
-2779.6057945049611
 21
400357.12806543859
 31
0.0
  0
LINE
  5
6700F
  8
0
 10
-3000.605794504962
 20
400378.04732963489
 30
0.0
 11
-2827.6057945049611
 21
400378.04732963489
 31
0.0
  0
LINE
  5
67010
  8
0
 10
-1990.6057945049611
 20
400128.54732963478
 30
0.0
 11
-1990.6057945049611
 21
400098.54732963478
 31
0.0
  0
LINE
  5
67011
  8
0
 10
-1968.527913651363
 20
400117.92064098641
 30
0.0
 11
-1989.1768601172439
 21
400130.61869070888
 31
0.0
  0
ARC
  5
67012
  8
0
 10
-2040.605794504962
 20
400103.54732963489
 30
0.0
 40
35.0
 50
314.4153085981917
 51
45.5846914018083
  0
ARC
  5
67013
  8
0
 10
-2040.605794504962
 20
400103.54732963489
 30
0.0
 40
45.0
 50
341.96571443150577
 51
38.659808254415623
  0
LINE
  5
67014
  8
0
 10
-2112.683675358559
 20
400117.92064098641
 30
0.0
 11
-2091.0297304631322
 21
400131.23671352433
 31
0.0
  0
LINE
  5
67015
  8
0
 10
-2040.605794504962
 20
400153.54732963489
 30
0.0
 11
-2040.605794504962
 21
400053.54732963478
 31
0.0
  0
ARC
  5
67016
  8
0
 10
-2040.605794504962
 20
400103.54732963489
 30
0.0
 40
45.0
 50
146.6592926527737
 51
216.8698976447705
  0
ARC
  5
67017
  8
0
 10
-2040.605794504962
 20
400103.54732963489
 30
0.0
 40
35.0
 50
134.4153085981917
 51
225.5846914018083
  0
LINE
  5
67018
  8
0
 10
-2114.605794504962
 20
400301.54732963489
 30
0.0
 11
-2114.605794504962
 21
400078.54732963489
 31
0.0
  0
LINE
  5
67019
  8
0
 10
-2214.6057945049611
 20
400301.54732963489
 30
0.0
 11
-2214.6057945049611
 21
400078.54732963489
 31
0.0
  0
LINE
  5
6701A
  8
0
 10
-2358.5279136513641
 20
400117.92064098641
 30
0.0
 11
-2379.1768601172439
 21
400130.61869070888
 31
0.0
  0
LINE
  5
6701B
  8
0
 10
-2430.605794504962
 20
400153.54732963489
 30
0.0
 11
-2430.605794504962
 21
400053.54732963478
 31
0.0
  0
ARC
  5
6701C
  8
0
 10
-2430.605794504962
 20
400103.54732963489
 30
0.0
 40
45.0
 50
146.6592926527737
 51
216.8698976447705
  0
ARC
  5
6701D
  8
0
 10
-2430.605794504962
 20
400103.54732963489
 30
0.0
 40
45.0
 50
323.88065914952477
 51
38.659808254415623
  0
ARC
  5
6701E
  8
0
 10
-2430.605794504962
 20
400103.54732963489
 30
0.0
 40
35.0
 50
314.4153085981917
 51
45.5846914018083
  0
ARC
  5
6701F
  8
0
 10
-2430.605794504962
 20
400103.54732963489
 30
0.0
 40
35.0
 50
134.4153085981917
 51
225.5846914018083
  0
LINE
  5
67020
  8
0
 10
-2617.605794504962
 20
400128.54732963478
 30
0.0
 11
-2617.605794504962
 21
400108.54732963489
 31
0.0
  0
LINE
  5
67021
  8
0
 10
-2502.683675358559
 20
400117.92064098641
 30
0.0
 11
-2481.0297304631308
 21
400131.23671352433
 31
0.0
  0
LINE
  5
67022
  8
0
 10
-2419.605794504962
 20
400301.54732963489
 30
0.0
 11
-2419.605794504962
 21
400078.54732963489
 31
0.0
  0
LINE
  5
67023
  8
0
 10
-2519.605794504962
 20
400301.54732963489
 30
0.0
 11
-2519.605794504962
 21
400078.54732963489
 31
0.0
  0
LINE
  5
67024
  8
0
 10
-2510.605794504962
 20
400103.54732963489
 30
0.0
 11
-2350.605794504962
 21
400103.54732963489
 31
0.0
  0
LINE
  5
67025
  8
0
 10
-2502.683675358559
 20
400089.17401828332
 30
0.0
 11
-2480.5835210228911
 21
400075.58354968042
 31
0.0
  0
CIRCLE
  5
67026
  8
0
 10
-2493.605794504962
 20
400103.54732963489
 30
0.0
 40
6.0
  0
LINE
  5
67027
  8
0
 10
-2493.605794504962
 20
400109.54732963489
 30
0.0
 11
-2493.605794504962
 21
400097.54732963489
 31
0.0
  0
ARC
  5
67028
  8
0
 10
-2493.605794504962
 20
400103.54732963489
 30
0.0
 40
17.0
 50
120.90314961980749
 51
239.09685038023721
  0
LINE
  5
67029
  8
0
 10
-2358.5279136513641
 20
400089.17401828332
 30
0.0
 11
-2378.7306506770042
 21
400076.750364626
 31
0.0
  0
ARC
  5
6702A
  8
0
 10
-2430.605794504962
 20
400103.54732963489
 30
0.0
 40
50.0
 50
238.340128192641
 51
301.65987180735902
  0
ARC
  5
6702B
  8
0
 10
-2430.605794504962
 20
400103.54732963489
 30
0.0
 40
45.0
 50
216.8698976447705
 51
323.88065914952477
  0
ARC
  5
6702C
  8
0
 10
-2430.605794504962
 20
400103.54732963489
 30
0.0
 40
35.0
 50
225.5846914018083
 51
314.4153085981917
  0
LINE
  5
6702D
  8
0
 10
-2480.5835210228911
 20
400075.58354968042
 30
0.0
 11
-2456.8495765279122
 21
400060.98838339408
 31
0.0
  0
LINE
  5
6702E
  8
0
 10
-2378.7306506770042
 20
400076.750364626
 30
0.0
 11
-2404.3620124820118
 21
400060.98838339408
 31
0.0
  0
CIRCLE
  5
6702F
  8
0
 10
-2367.605794504962
 20
400103.54732963489
 30
0.0
 40
6.0
  0
LINE
  5
67030
  8
0
 10
-2367.605794504962
 20
400109.54732963489
 30
0.0
 11
-2367.605794504962
 21
400097.54732963489
 31
0.0
  0
ARC
  5
67031
  8
0
 10
-2367.605794504962
 20
400103.54732963489
 30
0.0
 40
17.0
 50
300.90314961976281
 51
59.096850380237171
  0
LINE
  5
67032
  8
0
 10
-2120.605794504962
 20
400103.54732963489
 30
0.0
 11
-1960.605794504962
 21
400103.54732963489
 31
0.0
  0
ARC
  5
67033
  8
0
 10
-2040.605794504962
 20
400103.54732963489
 30
0.0
 40
50.0
 50
238.340128192641
 51
301.65987180735902
  0
ARC
  5
67034
  8
0
 10
-2040.605794504962
 20
400103.54732963489
 30
0.0
 40
45.0
 50
216.8698976447705
 51
323.88065914952477
  0
ARC
  5
67035
  8
0
 10
-2040.605794504962
 20
400103.54732963489
 30
0.0
 40
35.0
 50
225.5846914018083
 51
314.4153085981917
  0
LINE
  5
67036
  8
0
 10
-2112.683675358559
 20
400089.17401828332
 30
0.0
 11
-2090.5835210228911
 21
400075.58354968042
 31
0.0
  0
CIRCLE
  5
67037
  8
0
 10
-2103.605794504962
 20
400103.54732963489
 30
0.0
 40
6.0
  0
LINE
  5
67038
  8
0
 10
-2103.605794504962
 20
400109.54732963489
 30
0.0
 11
-2103.605794504962
 21
400097.54732963489
 31
0.0
  0
ARC
  5
67039
  8
0
 10
-2103.605794504962
 20
400103.54732963489
 30
0.0
 40
17.0
 50
120.90314961980749
 51
239.09685038023721
  0
LINE
  5
6703A
  8
0
 10
-2090.5835210228911
 20
400075.58354968042
 30
0.0
 11
-2066.8495765279122
 21
400060.98838339408
 31
0.0
  0
CIRCLE
  5
6703B
  8
0
 10
-1977.6057945049611
 20
400103.54732963489
 30
0.0
 40
6.0
  0
LINE
  5
6703C
  8
0
 10
-1968.527913651363
 20
400089.17401828332
 30
0.0
 11
-1988.730650677004
 21
400076.750364626
 31
0.0
  0
LINE
  5
6703D
  8
0
 10
-1988.730650677004
 20
400076.750364626
 30
0.0
 11
-2014.362012482012
 21
400060.98838339408
 31
0.0
  0
ARC
  5
6703E
  8
0
 10
-2040.605794504962
 20
400103.54732963489
 30
0.0
 40
45.0
 50
323.88065914952477
 51
341.96571443150577
  0
LINE
  5
6703F
  8
0
 10
-1990.6057945049611
 20
400098.54732963478
 30
0.0
 11
-2010.605794504962
 21
400078.54732963489
 31
0.0
  0
LINE
  5
67040
  8
0
 10
-1977.6057945049611
 20
400109.54732963489
 30
0.0
 11
-1977.6057945049611
 21
400097.54732963489
 31
0.0
  0
ARC
  5
67041
  8
0
 10
-1977.6057945049611
 20
400103.54732963489
 30
0.0
 40
17.0
 50
300.90314961976281
 51
59.096850380237171
  0
LINE
  5
67042
  8
0
 10
-2419.605794504962
 20
400128.54732963478
 30
0.0
 11
-2214.6057945049611
 21
400128.54732963478
 31
0.0
  0
LINE
  5
67043
  8
0
 10
-2555.605794504962
 20
400301.54732963489
 30
0.0
 11
-1975.6057945049611
 21
400301.54732963489
 31
0.0
  0
LINE
  5
67044
  8
0
 10
-2535.605794504962
 20
400503.54732963489
 30
0.0
 11
-2535.605794504962
 21
400301.54732963489
 31
0.0
  0
LINE
  5
67045
  8
0
 10
-2555.605794504962
 20
400503.54732963489
 30
0.0
 11
-2555.605794504962
 21
400301.54732963489
 31
0.0
  0
LINE
  5
67046
  8
0
 10
-2587.605794504962
 20
400503.54732963489
 30
0.0
 11
-2587.605794504962
 21
400303.54732963489
 31
0.0
  0
LINE
  5
67047
  8
0
 10
-2602.605794504962
 20
400503.54732963489
 30
0.0
 11
-2602.605794504962
 21
400128.54732963478
 31
0.0
  0
LINE
  5
67048
  8
0
 10
-2602.605794504962
 20
400303.54732963489
 30
0.0
 11
-2587.605794504962
 21
400303.54732963489
 31
0.0
  0
LINE
  5
67049
  8
0
 10
-2587.605794504962
 20
400333.54732963478
 30
0.0
 11
-2555.605794504962
 21
400333.54732963478
 31
0.0
  0
ARC
  5
6704A
  8
0
 10
-2430.605794504962
 20
400103.54732963489
 30
0.0
 40
50.0
 50
58.340128192641011
 51
75.032415859871065
  0
ARC
  5
6704B
  8
0
 10
-2430.605794504962
 20
400103.54732963489
 30
0.0
 40
45.0
 50
38.659808254415623
 51
70.613426336996383
  0
ARC
  5
6704C
  8
0
 10
-2430.605794504962
 20
400103.54732963489
 30
0.0
 40
35.0
 50
45.5846914018083
 51
68.275348176613605
  0
LINE
  5
6704D
  8
0
 10
-2481.0297304631308
 20
400131.23671352433
 30
0.0
 11
-2456.8495765279122
 21
400146.1062758757
 31
0.0
  0
LINE
  5
6704E
  8
0
 10
-2379.1768601172439
 20
400130.61869070888
 30
0.0
 11
-2404.3620124820118
 21
400146.1062758757
 31
0.0
  0
LINE
  5
6704F
  8
0
 10
-2518.605794504962
 20
400612.54732963489
 30
0.0
 11
-2320.6057945049611
 21
400612.54732963489
 31
0.0
  0
LINE
  5
67050
  8
0
 10
-2518.605794504962
 20
400374.54732963489
 30
0.0
 11
-2320.6057945049611
 21
400374.54732963489
 31
0.0
  0
LINE
  5
67051
  8
0
 10
-2518.605794504962
 20
400612.54732963489
 30
0.0
 11
-2518.605794504962
 21
400374.54732963489
 31
0.0
  0
LINE
  5
67052
  8
0
 10
-2320.6057945049611
 20
400612.54732963489
 30
0.0
 11
-2320.6057945049611
 21
400374.54732963489
 31
0.0
  0
LINE
  5
67053
  8
0
 10
-2094.605794504962
 20
400503.54732963489
 30
0.0
 11
-2094.605794504962
 21
400301.54732963489
 31
0.0
  0
LINE
  5
67054
  8
0
 10
-1975.6057945049611
 20
400503.54732963489
 30
0.0
 11
-1975.6057945049611
 21
400301.54732963489
 31
0.0
  0
LINE
  5
67055
  8
0
 10
-1935.605794504962
 20
400503.54732963489
 30
0.0
 11
-1935.605794504962
 21
400341.54732963489
 31
0.0
  0
LINE
  5
67056
  8
0
 10
-2114.605794504962
 20
400128.54732963478
 30
0.0
 11
-1990.6057945049611
 21
400128.54732963478
 31
0.0
  0
ARC
  5
67057
  8
0
 10
-2040.605794504962
 20
400103.54732963489
 30
0.0
 40
50.0
 50
58.340128192641011
 51
121.6598718073589
  0
ARC
  5
67058
  8
0
 10
-2040.605794504962
 20
400103.54732963489
 30
0.0
 40
45.0
 50
38.659808254415623
 51
145.61965527664401
  0
ARC
  5
67059
  8
0
 10
-2040.605794504962
 20
400103.54732963489
 30
0.0
 40
35.0
 50
45.5846914018083
 51
134.4153085981917
  0
LINE
  5
6705A
  8
0
 10
-2091.0297304631322
 20
400131.23671352433
 30
0.0
 11
-2066.8495765279122
 21
400146.1062758757
 31
0.0
  0
LINE
  5
6705B
  8
0
 10
-1989.1768601172439
 20
400130.61869070888
 30
0.0
 11
-2014.362012482012
 21
400146.1062758757
 31
0.0
  0
LINE
  5
6705C
  8
0
 10
-1935.605794504962
 20
400341.54732963489
 30
0.0
 11
-1975.6057945049611
 21
400301.54732963489
 31
0.0
  0
LINE
  5
6705D
  8
0
 10
-2990.605794504962
 20
400878.54732963489
 30
0.0
 11
-2519.605794504962
 21
400878.54732963489
 31
0.0
  0
LINE
  5
6705E
  8
0
 10
-2906.1057945049611
 20
400928.54732963478
 30
0.0
 11
-2010.605794504962
 21
400928.54732963478
 31
0.0
  0
LINE
  5
6705F
  8
0
 10
-2617.605794504962
 20
400898.54732963478
 30
0.0
 11
-2742.605794504962
 21
400908.54732963489
 31
0.0
  0
LINE
  5
67060
  8
0
 10
-2772.605794504962
 20
400678.54732963489
 30
0.0
 11
-2602.605794504962
 21
400678.54732963489
 31
0.0
  0
LINE
  5
67061
  8
0
 10
-2602.605794504962
 20
400678.54732963489
 30
0.0
 11
-2772.605794504962
 21
400678.54732963489
 31
0.0
  0
LINE
  5
67062
  8
0
 10
-2809.605794504962
 20
400878.54732963489
 30
0.0
 11
-2809.605794504962
 21
400908.54732963489
 31
0.0
  0
LINE
  5
67063
  8
0
 10
-2868.5279136513641
 20
400889.17401828332
 30
0.0
 11
-2888.7306506770042
 21
400876.750364626
 31
0.0
  0
LINE
  5
67064
  8
0
 10
-2900.605794504962
 20
400928.54732963478
 30
0.0
 11
-2900.605794504962
 21
400878.54732963489
 31
0.0
  0
ARC
  5
67065
  8
0
 10
-2940.6057945049611
 20
400903.54732963489
 30
0.0
 40
45.0
 50
323.88065914952477
 51
38.659808254415623
  0
ARC
  5
67066
  8
0
 10
-2940.6057945049611
 20
400903.54732963489
 30
0.0
 40
35.0
 50
314.4153085981917
 51
45.5846914018083
  0
LINE
  5
67067
  8
0
 10
-2990.605794504962
 20
400908.54732963489
 30
0.0
 11
-2990.605794504962
 21
400878.54732963489
 31
0.0
  0
ARC
  5
67068
  8
0
 10
-2940.6057945049611
 20
400903.54732963489
 30
0.0
 40
45.0
 50
161.96571443150569
 51
216.8698976447705
  0
LINE
  5
67069
  8
0
 10
-3012.683675358559
 20
400889.17401828332
 30
0.0
 11
-2990.5835210228911
 21
400875.58354968042
 31
0.0
  0
ARC
  5
6706A
  8
0
 10
-2940.6057945049611
 20
400903.54732963489
 30
0.0
 40
35.0
 50
134.4153085981917
 51
225.5846914018083
  0
LINE
  5
6706B
  8
0
 10
-2940.6057945049611
 20
400953.54732963489
 30
0.0
 11
-2940.6057945049611
 21
400853.54732963478
 31
0.0
  0
ARC
  5
6706C
  8
0
 10
-2940.6057945049611
 20
400903.54732963489
 30
0.0
 40
50.0
 50
238.340128192641
 51
301.65987180735902
  0
ARC
  5
6706D
  8
0
 10
-2940.6057945049611
 20
400903.54732963489
 30
0.0
 40
45.0
 50
216.8698976447705
 51
323.88065914952477
  0
ARC
  5
6706E
  8
0
 10
-2940.6057945049611
 20
400903.54732963489
 30
0.0
 40
35.0
 50
225.5846914018083
 51
314.4153085981917
  0
LINE
  5
6706F
  8
0
 10
-3005.605794504962
 20
400634.04732963489
 30
0.0
 11
-2822.605794504962
 21
400634.04732963489
 31
0.0
  0
LINE
  5
67070
  8
0
 10
-3000.605794504962
 20
400629.04732963478
 30
0.0
 11
-2827.6057945049611
 21
400629.04732963478
 31
0.0
  0
LINE
  5
67071
  8
0
 10
-2990.5835210228911
 20
400875.58354968042
 30
0.0
 11
-2966.8495765279108
 21
400860.98838339403
 31
0.0
  0
LINE
  5
67072
  8
0
 10
-2799.6057945049611
 20
400649.96659383108
 30
0.0
 11
-2779.6057945049611
 21
400649.96659383108
 31
0.0
  0
LINE
  5
67073
  8
0
 10
-2888.7306506770042
 20
400876.750364626
 30
0.0
 11
-2914.3620124820118
 21
400860.98838339403
 31
0.0
  0
LINE
  5
67074
  8
0
 10
-2799.6057945049611
 20
400809.54732963489
 30
0.0
 11
-2779.6057945049611
 21
400809.54732963489
 31
0.0
  0
LINE
  5
67075
  8
0
 10
-2779.6057945049611
 20
400858.54732963478
 30
0.0
 11
-2772.605794504962
 21
400858.54732963478
 31
0.0
  0
LINE
  5
67076
  8
0
 10
-2990.605794504962
 20
400884.54732963489
 30
0.0
 11
-2917.105794504962
 21
400884.54732963489
 31
0.0
  0
LINE
  5
67077
  8
0
 10
-2970.605794504962
 20
400928.54732963478
 30
0.0
 11
-2900.605794504962
 21
400928.54732963478
 31
0.0
  0
LINE
  5
67078
  8
0
 10
-3020.605794504962
 20
400903.54732963489
 30
0.0
 11
-2860.605794504962
 21
400903.54732963489
 31
0.0
  0
ARC
  5
67079
  8
0
 10
-2940.6057945049611
 20
400903.54732963489
 30
0.0
 40
50.0
 50
58.340128192641011
 51
121.6598718073589
  0
ARC
  5
6707A
  8
0
 10
-2940.6057945049611
 20
400903.54732963489
 30
0.0
 40
45.0
 50
38.659808254415623
 51
145.61965527664401
  0
ARC
  5
6707B
  8
0
 10
-2940.6057945049611
 20
400903.54732963489
 30
0.0
 40
35.0
 50
45.5846914018083
 51
134.4153085981917
  0
LINE
  5
6707C
  8
0
 10
-2991.0297304631308
 20
400931.23671352433
 30
0.0
 11
-2966.8495765279108
 21
400946.1062758757
 31
0.0
  0
LINE
  5
6707D
  8
0
 10
-3012.683675358559
 20
400917.9206409863
 30
0.0
 11
-2991.0297304631308
 21
400931.23671352433
 31
0.0
  0
LINE
  5
6707E
  8
0
 10
-3003.605794504962
 20
400909.54732963489
 30
0.0
 11
-3003.605794504962
 21
400897.54732963489
 31
0.0
  0
ARC
  5
6707F
  8
0
 10
-3003.605794504962
 20
400903.54732963489
 30
0.0
 40
17.0
 50
120.90314961980749
 51
239.09685038023721
  0
CIRCLE
  5
67080
  8
0
 10
-3003.605794504962
 20
400903.54732963489
 30
0.0
 40
6.0
  0
LINE
  5
67081
  8
0
 10
-2990.605794504962
 20
400908.54732963489
 30
0.0
 11
-2970.605794504962
 21
400928.54732963478
 31
0.0
  0
ARC
  5
67082
  8
0
 10
-2940.6057945049611
 20
400903.54732963489
 30
0.0
 40
45.0
 50
146.6592926527737
 51
161.96571443150569
  0
LINE
  5
67083
  8
0
 10
-2889.1768601172439
 20
400930.61869070883
 30
0.0
 11
-2914.3620124820118
 21
400946.1062758757
 31
0.0
  0
LINE
  5
67084
  8
0
 10
-2868.5279136513641
 20
400917.9206409863
 30
0.0
 11
-2889.1768601172439
 21
400930.61869070883
 31
0.0
  0
ARC
  5
67085
  8
0
 10
-2906.1057945049611
 20
400925.54732963489
 30
0.0
 40
3.0
 50
90.0
 51
180.0
  0
ARC
  5
67086
  8
0
 10
-2917.105794504962
 20
400892.54732963489
 30
0.0
 40
8.0
 50
270.0
 51
0.0
  0
LINE
  5
67087
  8
0
 10
-2909.105794504962
 20
400925.54732963489
 30
0.0
 11
-2909.105794504962
 21
400892.54732963489
 31
0.0
  0
ARC
  5
67088
  8
0
 10
-2877.605794504962
 20
400903.54732963489
 30
0.0
 40
17.0
 50
300.90314961976281
 51
59.096850380237171
  0
CIRCLE
  5
67089
  8
0
 10
-2877.605794504962
 20
400903.54732963489
 30
0.0
 40
6.0
  0
LINE
  5
6708A
  8
0
 10
-2877.605794504962
 20
400909.54732963489
 30
0.0
 11
-2877.605794504962
 21
400897.54732963489
 31
0.0
  0
LINE
  5
6708B
  8
0
 10
-2809.605794504962
 20
400908.54732963489
 30
0.0
 11
-2742.605794504962
 21
400908.54732963489
 31
0.0
  0
LINE
  5
6708C
  8
0
 10
-2419.605794504962
 20
400878.54732963489
 30
0.0
 11
-2214.6057945049611
 21
400878.54732963489
 31
0.0
  0
LINE
  5
6708D
  8
0
 10
-2555.605794504962
 20
400705.54732963489
 30
0.0
 11
-1975.6057945049611
 21
400705.54732963489
 31
0.0
  0
ARC
  5
6708E
  8
0
 10
-2430.605794504962
 20
400903.54732963489
 30
0.0
 40
45.0
 50
146.6592926527737
 51
216.8698976447705
  0
ARC
  5
6708F
  8
0
 10
-2430.605794504962
 20
400903.54732963489
 30
0.0
 40
45.0
 50
323.88065914952477
 51
38.659808254415623
  0
ARC
  5
67090
  8
0
 10
-2430.605794504962
 20
400903.54732963489
 30
0.0
 40
35.0
 50
314.4153085981917
 51
45.5846914018083
  0
ARC
  5
67091
  8
0
 10
-2430.605794504962
 20
400903.54732963489
 30
0.0
 40
35.0
 50
134.4153085981917
 51
225.5846914018083
  0
LINE
  5
67092
  8
0
 10
-2358.5279136513641
 20
400889.17401828332
 30
0.0
 11
-2378.7306506770042
 21
400876.750364626
 31
0.0
  0
LINE
  5
67093
  8
0
 10
-2430.605794504962
 20
400953.54732963489
 30
0.0
 11
-2430.605794504962
 21
400853.54732963478
 31
0.0
  0
LINE
  5
67094
  8
0
 10
-2617.605794504962
 20
400878.54732963489
 30
0.0
 11
-2617.605794504962
 21
400898.54732963478
 31
0.0
  0
LINE
  5
67095
  8
0
 10
-2502.683675358559
 20
400889.17401828332
 30
0.0
 11
-2480.5835210228911
 21
400875.58354968042
 31
0.0
  0
LINE
  5
67096
  8
0
 10
-2419.605794504962
 20
400928.54732963478
 30
0.0
 11
-2419.605794504962
 21
400705.54732963489
 31
0.0
  0
LINE
  5
67097
  8
0
 10
-2519.605794504962
 20
400928.54732963478
 30
0.0
 11
-2519.605794504962
 21
400705.54732963489
 31
0.0
  0
LINE
  5
67098
  8
0
 10
-2602.605794504962
 20
400703.54732963489
 30
0.0
 11
-2587.605794504962
 21
400703.54732963489
 31
0.0
  0
LINE
  5
67099
  8
0
 10
-2587.605794504962
 20
400673.54732963489
 30
0.0
 11
-2555.605794504962
 21
400673.54732963489
 31
0.0
  0
ARC
  5
6709A
  8
0
 10
-2430.605794504962
 20
400903.54732963489
 30
0.0
 40
45.0
 50
216.8698976447705
 51
287.0558504242394
  0
ARC
  5
6709B
  8
0
 10
-2430.605794504962
 20
400903.54732963489
 30
0.0
 40
35.0
 50
225.5846914018083
 51
291.87868476773951
  0
ARC
  5
6709C
  8
0
 10
-2430.605794504962
 20
400903.54732963489
 30
0.0
 40
50.0
 50
238.340128192641
 51
285.34514449195058
  0
LINE
  5
6709D
  8
0
 10
-2480.5835210228911
 20
400875.58354968042
 30
0.0
 11
-2456.8495765279122
 21
400860.98838339403
 31
0.0
  0
LINE
  5
6709E
  8
0
 10
-2378.7306506770042
 20
400876.750364626
 30
0.0
 11
-2404.3620124820118
 21
400860.98838339403
 31
0.0
  0
LINE
  5
6709F
  8
0
 10
-2510.605794504962
 20
400903.54732963489
 30
0.0
 11
-2350.605794504962
 21
400903.54732963489
 31
0.0
  0
CIRCLE
  5
670A0
  8
0
 10
-2493.605794504962
 20
400903.54732963489
 30
0.0
 40
6.0
  0
LINE
  5
670A1
  8
0
 10
-2502.683675358559
 20
400917.9206409863
 30
0.0
 11
-2481.0297304631308
 21
400931.23671352433
 31
0.0
  0
ARC
  5
670A2
  8
0
 10
-2493.605794504962
 20
400903.54732963489
 30
0.0
 40
17.0
 50
120.90314961980749
 51
239.09685038023721
  0
LINE
  5
670A3
  8
0
 10
-2493.605794504962
 20
400909.54732963489
 30
0.0
 11
-2493.605794504962
 21
400897.54732963489
 31
0.0
  0
LINE
  5
670A4
  8
0
 10
-2358.5279136513641
 20
400917.9206409863
 30
0.0
 11
-2379.1768601172439
 21
400930.61869070883
 31
0.0
  0
LINE
  5
670A5
  8
0
 10
-2379.1768601172439
 20
400930.61869070883
 30
0.0
 11
-2404.3620124820118
 21
400946.1062758757
 31
0.0
  0
LINE
  5
670A6
  8
0
 10
-2481.0297304631308
 20
400931.23671352433
 30
0.0
 11
-2456.8495765279122
 21
400946.1062758757
 31
0.0
  0
ARC
  5
670A7
  8
0
 10
-2430.605794504962
 20
400903.54732963489
 30
0.0
 40
45.0
 50
38.659808254415623
 51
145.61965527664401
  0
ARC
  5
670A8
  8
0
 10
-2430.605794504962
 20
400903.54732963489
 30
0.0
 40
35.0
 50
45.5846914018083
 51
134.4153085981917
  0
ARC
  5
670A9
  8
0
 10
-2430.605794504962
 20
400903.54732963489
 30
0.0
 40
50.0
 50
58.340128192641011
 51
121.6598718073589
  0
ARC
  5
670AA
  8
0
 10
-2367.605794504962
 20
400903.54732963489
 30
0.0
 40
17.0
 50
300.90314961976281
 51
59.096850380237171
  0
CIRCLE
  5
670AB
  8
0
 10
-2367.605794504962
 20
400903.54732963489
 30
0.0
 40
6.0
  0
LINE
  5
670AC
  8
0
 10
-2367.605794504962
 20
400909.54732963489
 30
0.0
 11
-2367.605794504962
 21
400897.54732963489
 31
0.0
  0
LINE
  5
670AD
  8
0
 10
-1990.6057945049611
 20
400908.54732963489
 30
0.0
 11
-1990.6057945049611
 21
400878.54732963489
 31
0.0
  0
ARC
  5
670AE
  8
0
 10
-2040.605794504962
 20
400903.54732963489
 30
0.0
 40
45.0
 50
323.88065914952477
 51
18.034285568494209
  0
LINE
  5
670AF
  8
0
 10
-1968.527913651363
 20
400889.17401828332
 30
0.0
 11
-1988.730650677004
 21
400876.750364626
 31
0.0
  0
ARC
  5
670B0
  8
0
 10
-2040.605794504962
 20
400903.54732963489
 30
0.0
 40
35.0
 50
314.4153085981917
 51
45.5846914018083
  0
LINE
  5
670B1
  8
0
 10
-2112.683675358559
 20
400889.17401828332
 30
0.0
 11
-2090.5835210228911
 21
400875.58354968042
 31
0.0
  0
ARC
  5
670B2
  8
0
 10
-2040.605794504962
 20
400903.54732963489
 30
0.0
 40
45.0
 50
146.6592926527737
 51
216.8698976447705
  0
ARC
  5
670B3
  8
0
 10
-2040.605794504962
 20
400903.54732963489
 30
0.0
 40
35.0
 50
134.4153085981917
 51
225.5846914018083
  0
LINE
  5
670B4
  8
0
 10
-2040.605794504962
 20
400953.54732963489
 30
0.0
 11
-2040.605794504962
 21
400853.54732963478
 31
0.0
  0
LINE
  5
670B5
  8
0
 10
-2114.605794504962
 20
400928.54732963478
 30
0.0
 11
-2114.605794504962
 21
400705.54732963489
 31
0.0
  0
LINE
  5
670B6
  8
0
 10
-2214.6057945049611
 20
400928.54732963478
 30
0.0
 11
-2214.6057945049611
 21
400705.54732963489
 31
0.0
  0
LINE
  5
670B7
  8
0
 10
-2114.605794504962
 20
400878.54732963489
 30
0.0
 11
-1990.6057945049611
 21
400878.54732963489
 31
0.0
  0
ARC
  5
670B8
  8
0
 10
-2040.605794504962
 20
400903.54732963489
 30
0.0
 40
50.0
 50
238.340128192641
 51
301.65987180735902
  0
ARC
  5
670B9
  8
0
 10
-2040.605794504962
 20
400903.54732963489
 30
0.0
 40
45.0
 50
216.8698976447705
 51
323.88065914952477
  0
ARC
  5
670BA
  8
0
 10
-2040.605794504962
 20
400903.54732963489
 30
0.0
 40
35.0
 50
225.5846914018083
 51
314.4153085981917
  0
LINE
  5
670BB
  8
0
 10
-2090.5835210228911
 20
400875.58354968042
 30
0.0
 11
-2066.8495765279122
 21
400860.98838339403
 31
0.0
  0
LINE
  5
670BC
  8
0
 10
-1935.605794504962
 20
400665.54732963489
 30
0.0
 11
-1975.6057945049611
 21
400705.54732963489
 31
0.0
  0
LINE
  5
670BD
  8
0
 10
-1988.730650677004
 20
400876.750364626
 30
0.0
 11
-2014.362012482012
 21
400860.98838339403
 31
0.0
  0
LINE
  5
670BE
  8
0
 10
-2120.605794504962
 20
400903.54732963489
 30
0.0
 11
-1960.605794504962
 21
400903.54732963489
 31
0.0
  0
ARC
  5
670BF
  8
0
 10
-2040.605794504962
 20
400903.54732963489
 30
0.0
 40
50.0
 50
58.340128192641011
 51
121.6598718073589
  0
ARC
  5
670C0
  8
0
 10
-2040.605794504962
 20
400903.54732963489
 30
0.0
 40
45.0
 50
38.659808254415623
 51
145.61965527664401
  0
ARC
  5
670C1
  8
0
 10
-2040.605794504962
 20
400903.54732963489
 30
0.0
 40
35.0
 50
45.5846914018083
 51
134.4153085981917
  0
LINE
  5
670C2
  8
0
 10
-2091.0297304631322
 20
400931.23671352433
 30
0.0
 11
-2066.8495765279122
 21
400946.1062758757
 31
0.0
  0
LINE
  5
670C3
  8
0
 10
-2112.683675358559
 20
400917.9206409863
 30
0.0
 11
-2091.0297304631322
 21
400931.23671352433
 31
0.0
  0
ARC
  5
670C4
  8
0
 10
-2103.605794504962
 20
400903.54732963489
 30
0.0
 40
17.0
 50
120.90314961980749
 51
239.09685038023721
  0
CIRCLE
  5
670C5
  8
0
 10
-2103.605794504962
 20
400903.54732963489
 30
0.0
 40
6.0
  0
LINE
  5
670C6
  8
0
 10
-2103.605794504962
 20
400909.54732963489
 30
0.0
 11
-2103.605794504962
 21
400897.54732963489
 31
0.0
  0
LINE
  5
670C7
  8
0
 10
-1989.1768601172439
 20
400930.61869070883
 30
0.0
 11
-2014.362012482012
 21
400946.1062758757
 31
0.0
  0
CIRCLE
  5
670C8
  8
0
 10
-1977.6057945049611
 20
400903.54732963489
 30
0.0
 40
6.0
  0
LINE
  5
670C9
  8
0
 10
-1968.527913651363
 20
400917.9206409863
 30
0.0
 11
-1989.1768601172439
 21
400930.61869070883
 31
0.0
  0
LINE
  5
670CA
  8
0
 10
-2010.605794504962
 20
400928.54732963478
 30
0.0
 11
-1990.6057945049611
 21
400908.54732963489
 31
0.0
  0
ARC
  5
670CB
  8
0
 10
-2040.605794504962
 20
400903.54732963489
 30
0.0
 40
45.0
 50
18.034285568494209
 51
38.659808254415623
  0
LINE
  5
670CC
  8
0
 10
-1977.6057945049611
 20
400909.54732963489
 30
0.0
 11
-1977.6057945049611
 21
400897.54732963489
 31
0.0
  0
ARC
  5
670CD
  8
0
 10
-1977.6057945049611
 20
400903.54732963489
 30
0.0
 40
17.0
 50
300.90314961976281
 51
59.096850380237171
  0
LINE
  5
670CE
  8
0
 10
-7850.1151587620616
 20
400800.86718956701
 30
0.0
 11
-7680.1151587620616
 21
400800.86718956701
 31
0.0
  0
LINE
  5
670CF
  8
0
 10
-8068.1151587620634
 20
400075.86718956701
 30
0.0
 11
-7068.1151587620634
 21
400075.86718956701
 31
0.0
  0
LINE
  5
670D0
  8
0
 10
-8068.1151587620634
 20
400084.36718956713
 30
0.0
 11
-7068.1151587620634
 21
400084.36718956713
 31
0.0
  0
LINE
  5
670D1
  8
0
 10
-7978.1151587620616
 20
400175.86718956713
 30
0.0
 11
-7068.1151587620634
 21
400175.86718956713
 31
0.0
  0
LINE
  5
670D2
  8
0
 10
-7986.6151587620616
 20
400167.36718956701
 30
0.0
 11
-7068.1151587620634
 21
400167.36718956701
 31
0.0
  0
LINE
  5
670D3
  8
0
 10
-7850.1151587620616
 20
399990.86718956713
 30
0.0
 11
-7680.1151587620616
 21
399990.86718956713
 31
0.0
  0
LINE
  5
670D4
  8
0
 10
-7850.1151587620616
 20
400250.86718956713
 30
0.0
 11
-7680.1151587620616
 21
400250.86718956713
 31
0.0
  0
LINE
  5
670D5
  8
0
 10
-7850.1151587620616
 20
400600.86718956713
 30
0.0
 11
-7680.1151587620616
 21
400600.86718956713
 31
0.0
  0
LINE
  5
670D6
  8
0
 10
-7850.1151587620616
 20
400050.86718956713
 30
0.0
 11
-7680.1151587620616
 21
400050.86718956713
 31
0.0
  0
LINE
  5
670D7
  8
0
 10
-7850.1151587620616
 20
400440.86718956701
 30
0.0
 11
-7695.1151587620634
 21
400440.86718956701
 31
0.0
  0
LINE
  5
670D8
  8
0
 10
-7850.1151587620616
 20
400410.86718956713
 30
0.0
 11
-7695.1151587620634
 21
400410.86718956713
 31
0.0
  0
LINE
  5
670D9
  8
0
 10
-7950.3809815468703
 20
400425.86718956701
 30
0.0
 11
-7013.1151587620616
 21
400425.86718956701
 31
0.0
  0
LINE
  5
670DA
  8
0
 10
-7850.1151587620616
 20
400425.86718956701
 30
0.0
 11
-7850.1151587620616
 21
400800.86718956701
 31
0.0
  0
LINE
  5
670DB
  8
0
 10
-7857.1151587620634
 20
400425.86718956701
 30
0.0
 11
-7857.1151587620634
 21
400780.86718956713
 31
0.0
  0
LINE
  5
670DC
  8
0
 10
-7900.1151587620616
 20
400515.86718956701
 30
0.0
 11
-7900.1151587620616
 21
400803.86718956713
 31
0.0
  0
LINE
  5
670DD
  8
0
 10
-8083.1151587620616
 20
400523.86718956701
 30
0.0
 11
-8083.1151587620616
 21
400803.86718956713
 31
0.0
  0
LINE
  5
670DE
  8
0
 10
-7850.1151587620616
 20
400425.86718956701
 30
0.0
 11
-7850.1151587620616
 21
400175.86718956713
 31
0.0
  0
LINE
  5
670DF
  8
0
 10
-7857.1151587620634
 20
400425.86718956701
 30
0.0
 11
-7857.1151587620634
 21
400175.86718956713
 31
0.0
  0
LINE
  5
670E0
  8
0
 10
-7877.1151587620616
 20
400425.86718956701
 30
0.0
 11
-7877.1151587620616
 21
400175.86718956713
 31
0.0
  0
LINE
  5
670E1
  8
0
 10
-8098.1151587620634
 20
400016.86718956713
 30
0.0
 11
-7938.1151587620616
 21
400016.86718956713
 31
0.0
  0
LINE
  5
670E2
  8
0
 10
-8098.1151587620634
 20
400001.86718956713
 30
0.0
 11
-7938.1151587620616
 21
400001.86718956713
 31
0.0
  0
LINE
  5
670E3
  8
0
 10
-7983.1151587620616
 20
400075.86718956701
 30
0.0
 11
-8053.1151587620634
 21
400075.86718956701
 31
0.0
  0
LINE
  5
670E4
  8
0
 10
-8063.1151587620616
 20
400051.86718956713
 30
0.0
 11
-7973.1151587620634
 21
400051.86718956713
 31
0.0
  0
LINE
  5
670E5
  8
0
 10
-7978.1151587620616
 20
400175.86718956713
 30
0.0
 11
-8068.1151587620634
 21
400085.86718956701
 31
0.0
  0
LINE
  5
670E6
  8
0
 10
-8018.1151587620616
 20
400084.36718956713
 30
0.0
 11
-8018.1151587620616
 21
400001.86718956713
 31
0.0
  0
LINE
  5
670E7
  8
0
 10
-8063.1151587620616
 20
400051.86718956713
 30
0.0
 11
-8063.1151587620616
 21
400016.86718956713
 31
0.0
  0
LINE
  5
670E8
  8
0
 10
-8081.1151587620634
 20
400016.86718956713
 30
0.0
 11
-8081.1151587620634
 21
400001.86718956713
 31
0.0
  0
LINE
  5
670E9
  8
0
 10
-8098.1151587620634
 20
400016.86718956713
 30
0.0
 11
-8098.1151587620634
 21
400001.86718956713
 31
0.0
  0
LINE
  5
670EA
  8
0
 10
-8053.1151587620634
 20
400075.86718956701
 30
0.0
 11
-8053.1151587620634
 21
400051.86718956713
 31
0.0
  0
LINE
  5
670EB
  8
0
 10
-8068.1151587620634
 20
400085.86718956701
 30
0.0
 11
-8068.1151587620634
 21
400075.86718956701
 31
0.0
  0
LINE
  5
670EC
  8
0
 10
-7973.1151587620634
 20
400051.86718956713
 30
0.0
 11
-7973.1151587620634
 21
400016.86718956713
 31
0.0
  0
LINE
  5
670ED
  8
0
 10
-7955.1151587620616
 20
400016.86718956713
 30
0.0
 11
-7955.1151587620616
 21
400001.86718956713
 31
0.0
  0
LINE
  5
670EE
  8
0
 10
-7938.1151587620616
 20
400016.86718956713
 30
0.0
 11
-7938.1151587620616
 21
400001.86718956713
 31
0.0
  0
LINE
  5
670EF
  8
0
 10
-7983.1151587620616
 20
400075.86718956701
 30
0.0
 11
-7983.1151587620616
 21
400051.86718956713
 31
0.0
  0
LINE
  5
670F0
  8
0
 10
-7850.1151587620616
 20
400075.86718956701
 30
0.0
 11
-7850.1151587620616
 21
399990.86718956713
 31
0.0
  0
LINE
  5
670F1
  8
0
 10
-7857.1151587620634
 20
400075.86718956701
 30
0.0
 11
-7857.1151587620634
 21
400070.86718956713
 31
0.0
  0
LINE
  5
670F2
  8
0
 10
-7857.1151587620634
 20
400070.86718956713
 30
0.0
 11
-7850.1151587620616
 21
400070.86718956713
 31
0.0
  0
ARC
  5
670F3
  8
0
 10
-7899.1151587620616
 20
400472.86718956701
 30
0.0
 40
8.0
 50
90.0
 51
180.0
  0
ARC
  5
670F4
  8
0
 10
-7899.1151587620616
 20
400472.86718956701
 30
0.0
 40
20.0
 50
90.0
 51
180.0
  0
LINE
  5
670F5
  8
0
 10
-8083.1151587620616
 20
400523.86718956701
 30
0.0
 11
-7919.1151587620616
 21
400402.78307741752
 31
0.0
  0
LINE
  5
670F6
  8
0
 10
-7900.1151587620616
 20
400480.80444350018
 30
0.0
 11
-7900.1151587620616
 21
400388.7550400343
 31
0.0
  0
LINE
  5
670F7
  8
0
 10
-7877.1151587620616
 20
400425.86718956701
 30
0.0
 11
-7877.1151587620616
 21
400731.86718956701
 31
0.0
  0
LINE
  5
670F8
  8
0
 10
-7887.1151587620634
 20
400314.86718956713
 30
0.0
 11
-7887.1151587620634
 21
400254.86718956701
 31
0.0
  0
LINE
  5
670F9
  8
0
 10
-7887.1151587620634
 20
400284.86718956701
 30
0.0
 11
-7857.1151587620634
 21
400284.86718956701
 31
0.0
  0
LINE
  5
670FA
  8
0
 10
-7887.1151587620634
 20
400254.86718956701
 30
0.0
 11
-7877.1151587620616
 21
400254.86718956701
 31
0.0
  0
LINE
  5
670FB
  8
0
 10
-7887.1151587620634
 20
400314.86718956713
 30
0.0
 11
-7877.1151587620616
 21
400314.86718956713
 31
0.0
  0
ARC
  5
670FC
  8
0
 10
-7899.1151587620616
 20
400378.86718956701
 30
0.0
 40
20.0
 50
180.0
 51
270.0
  0
ARC
  5
670FD
  8
0
 10
-7899.1151587620616
 20
400378.86718956701
 30
0.0
 40
8.0
 50
180.0
 51
270.0
  0
LINE
  5
670FE
  8
0
 10
-7907.1151587620643
 20
400393.9232643334
 30
0.0
 11
-7877.1151587620616
 21
400371.77373162319
 31
0.0
  0
LINE
  5
670FF
  8
0
 10
-7907.1151587620643
 20
400472.86718956701
 30
0.0
 11
-7907.1151587620643
 21
400378.86718956701
 31
0.0
  0
LINE
  5
67100
  8
0
 10
-7919.1151587620616
 20
400472.86718956701
 30
0.0
 11
-7919.1151587620616
 21
400378.86718956701
 31
0.0
  0
LINE
  5
67101
  8
0
 10
-7899.1151587620616
 20
400370.86718956713
 30
0.0
 11
-7877.1151587620616
 21
400370.86718956713
 31
0.0
  0
LINE
  5
67102
  8
0
 10
-7899.1151587620616
 20
400358.86718956713
 30
0.0
 11
-7877.1151587620616
 21
400358.86718956713
 31
0.0
  0
LINE
  5
67103
  8
0
 10
-7887.1151587620634
 20
400536.86718956713
 30
0.0
 11
-7887.1151587620634
 21
400596.86718956713
 31
0.0
  0
LINE
  5
67104
  8
0
 10
-7887.1151587620634
 20
400536.86718956713
 30
0.0
 11
-7877.1151587620616
 21
400536.86718956713
 31
0.0
  0
LINE
  5
67105
  8
0
 10
-7899.1151587620616
 20
400492.86718956713
 30
0.0
 11
-7877.1151587620616
 21
400492.86718956713
 31
0.0
  0
LINE
  5
67106
  8
0
 10
-7899.1151587620616
 20
400480.86718956713
 30
0.0
 11
-7877.1151587620616
 21
400480.86718956713
 31
0.0
  0
LINE
  5
67107
  8
0
 10
-7900.1151587620616
 20
400515.86718956701
 30
0.0
 11
-7877.1151587620616
 21
400493.60912505089
 31
0.0
  0
LINE
  5
67108
  8
0
 10
-7900.1151587620616
 20
400515.86718956701
 30
0.0
 11
-7900.1151587620616
 21
400492.84217392252
 31
0.0
  0
LINE
  5
67109
  8
0
 10
-7887.1151587620634
 20
400596.86718956713
 30
0.0
 11
-7877.1151587620616
 21
400596.86718956713
 31
0.0
  0
LINE
  5
6710A
  8
0
 10
-7887.1151587620634
 20
400566.86718956713
 30
0.0
 11
-7857.1151587620634
 21
400566.86718956713
 31
0.0
  0
LINE
  5
6710B
  8
0
 10
-7877.1151587620616
 20
400731.86718956701
 30
0.0
 11
-7857.1151587620634
 21
400731.86718956701
 31
0.0
  0
LINE
  5
6710C
  8
0
 10
-8083.1151587620616
 20
400803.86718956713
 30
0.0
 11
-7900.1151587620616
 21
400803.86718956713
 31
0.0
  0
LINE
  5
6710D
  8
0
 10
-8080.1151587620616
 20
400808.86718956713
 30
0.0
 11
-7903.1151587620616
 21
400808.86718956713
 31
0.0
  0
LINE
  5
6710E
  8
0
 10
-8080.1151587620616
 20
400803.86718956713
 30
0.0
 11
-8080.1151587620616
 21
400808.86718956713
 31
0.0
  0
LINE
  5
6710F
  8
0
 10
-7857.1151587620634
 20
400780.86718956713
 30
0.0
 11
-7850.1151587620616
 21
400780.86718956713
 31
0.0
  0
LINE
  5
67110
  8
0
 10
-7903.1151587620616
 20
400803.86718956713
 30
0.0
 11
-7903.1151587620616
 21
400808.86718956713
 31
0.0
  0
LINE
  5
67111
  8
0
 10
-7680.1151587620616
 20
400425.86718956701
 30
0.0
 11
-7680.1151587620616
 21
400800.86718956701
 31
0.0
  0
LINE
  5
67112
  8
0
 10
-7013.1151587620616
 20
400263.86718956701
 30
0.0
 11
-7053.1151587620634
 21
400223.86718956701
 31
0.0
  0
LINE
  5
67113
  8
0
 10
-7192.1151587620634
 20
400225.86718956701
 30
0.0
 11
-7192.1151587620634
 21
400175.86718956713
 31
0.0
  0
LINE
  5
67114
  8
0
 10
-7242.1151587620634
 20
400253.86718956713
 30
0.0
 11
-7242.1151587620634
 21
400219.86718956713
 31
0.0
  0
LINE
  5
67115
  8
0
 10
-7292.1151587620616
 20
400225.86718956701
 30
0.0
 11
-7292.1151587620616
 21
400175.86718956713
 31
0.0
  0
LINE
  5
67116
  8
0
 10
-7172.1151587620616
 20
400425.86718956701
 30
0.0
 11
-7172.1151587620616
 21
400223.86718956701
 31
0.0
  0
LINE
  5
67117
  8
0
 10
-7053.1151587620634
 20
400425.86718956701
 30
0.0
 11
-7053.1151587620634
 21
400223.86718956701
 31
0.0
  0
LINE
  5
67118
  8
0
 10
-7547.1151587620616
 20
400253.86718956713
 30
0.0
 11
-7547.1151587620616
 21
400219.86718956713
 31
0.0
  0
LINE
  5
67119
  8
0
 10
-7497.1151587620634
 20
400225.86718956701
 30
0.0
 11
-7497.1151587620634
 21
400175.86718956713
 31
0.0
  0
LINE
  5
6711A
  8
0
 10
-7597.1151587620616
 20
400225.86718956701
 30
0.0
 11
-7597.1151587620616
 21
400175.86718956713
 31
0.0
  0
LINE
  5
6711B
  8
0
 10
-7633.1151587620634
 20
400425.86718956701
 30
0.0
 11
-7633.1151587620634
 21
400223.86718956701
 31
0.0
  0
LINE
  5
6711C
  8
0
 10
-7613.1151587620616
 20
400425.86718956701
 30
0.0
 11
-7613.1151587620616
 21
400223.86718956701
 31
0.0
  0
LINE
  5
6711D
  8
0
 10
-7680.1151587620616
 20
400425.86718956701
 30
0.0
 11
-7680.1151587620616
 21
400175.86718956713
 31
0.0
  0
LINE
  5
6711E
  8
0
 10
-7580.6151587620634
 20
400219.86718956713
 30
0.0
 11
-7513.6151587620634
 21
400219.86718956713
 31
0.0
  0
LINE
  5
6711F
  8
0
 10
-7588.1151587620616
 20
400016.86718956713
 30
0.0
 11
-7428.1151587620634
 21
400016.86718956713
 31
0.0
  0
LINE
  5
67120
  8
0
 10
-7588.1151587620616
 20
400001.86718956713
 30
0.0
 11
-7428.1151587620634
 21
400001.86718956713
 31
0.0
  0
LINE
  5
67121
  8
0
 10
-7680.1151587620616
 20
400075.86718956701
 30
0.0
 11
-7680.1151587620616
 21
399990.86718956713
 31
0.0
  0
LINE
  5
67122
  8
0
 10
-7571.1151587620607
 20
400016.86718956713
 30
0.0
 11
-7571.1151587620607
 21
400001.86718956713
 31
0.0
  0
LINE
  5
67123
  8
0
 10
-7588.1151587620616
 20
400016.86718956713
 30
0.0
 11
-7588.1151587620616
 21
400001.86718956713
 31
0.0
  0
LINE
  5
67124
  8
0
 10
-7633.1151587620634
 20
400223.86718956701
 30
0.0
 11
-7597.1151587620616
 21
400223.86718956701
 31
0.0
  0
ARC
  5
67125
  8
0
 10
-7580.6151587620634
 20
400211.86718956701
 30
0.0
 40
8.0
 50
90.0
 51
180.0
  0
LINE
  5
67126
  8
0
 10
-7588.6151587620634
 20
400211.86718956701
 30
0.0
 11
-7588.6151587620634
 21
400175.86718956713
 31
0.0
  0
LINE
  5
67127
  8
0
 10
-7508.1151587620634
 20
400084.36718956713
 30
0.0
 11
-7508.1151587620634
 21
400001.86718956713
 31
0.0
  0
LINE
  5
67128
  8
0
 10
-7463.1151587620616
 20
400051.86718956713
 30
0.0
 11
-7463.1151587620616
 21
400016.86718956713
 31
0.0
  0
LINE
  5
67129
  8
0
 10
-7553.1151587620634
 20
400051.86718956713
 30
0.0
 11
-7553.1151587620634
 21
400016.86718956713
 31
0.0
  0
LINE
  5
6712A
  8
0
 10
-7473.1151587620634
 20
400075.86718956701
 30
0.0
 11
-7543.1151587620634
 21
400075.86718956701
 31
0.0
  0
LINE
  5
6712B
  8
0
 10
-7553.1151587620634
 20
400051.86718956713
 30
0.0
 11
-7463.1151587620616
 21
400051.86718956713
 31
0.0
  0
LINE
  5
6712C
  8
0
 10
-7543.1151587620634
 20
400075.86718956701
 30
0.0
 11
-7543.1151587620634
 21
400051.86718956713
 31
0.0
  0
LINE
  5
6712D
  8
0
 10
-7473.1151587620634
 20
400075.86718956701
 30
0.0
 11
-7473.1151587620634
 21
400051.86718956713
 31
0.0
  0
LINE
  5
6712E
  8
0
 10
-7445.1151587620634
 20
400016.86718956713
 30
0.0
 11
-7445.1151587620634
 21
400001.86718956713
 31
0.0
  0
LINE
  5
6712F
  8
0
 10
-7428.1151587620634
 20
400016.86718956713
 30
0.0
 11
-7428.1151587620634
 21
400001.86718956713
 31
0.0
  0
ARC
  5
67130
  8
0
 10
-7513.6151587620634
 20
400211.86718956701
 30
0.0
 40
8.0
 50
0.0
 51
90.0
  0
LINE
  5
67131
  8
0
 10
-7505.6151587620634
 20
400211.86718956701
 30
0.0
 11
-7505.6151587620634
 21
400175.86718956713
 31
0.0
  0
LINE
  5
67132
  8
0
 10
-7192.1151587620634
 20
400223.86718956701
 30
0.0
 11
-7053.1151587620634
 21
400223.86718956701
 31
0.0
  0
LINE
  5
67133
  8
0
 10
-7198.1151587620634
 20
400016.86718956713
 30
0.0
 11
-7038.1151587620616
 21
400016.86718956713
 31
0.0
  0
LINE
  5
67134
  8
0
 10
-7198.1151587620634
 20
400001.86718956713
 30
0.0
 11
-7038.1151587620616
 21
400001.86718956713
 31
0.0
  0
LINE
  5
67135
  8
0
 10
-7083.1151587620616
 20
400075.86718956701
 30
0.0
 11
-7153.1151587620616
 21
400075.86718956701
 31
0.0
  0
LINE
  5
67136
  8
0
 10
-7163.1151587620616
 20
400051.86718956713
 30
0.0
 11
-7073.1151587620634
 21
400051.86718956713
 31
0.0
  0
LINE
  5
67137
  8
0
 10
-7118.1151587620634
 20
400084.36718956713
 30
0.0
 11
-7118.1151587620634
 21
400001.86718956713
 31
0.0
  0
LINE
  5
67138
  8
0
 10
-7163.1151587620616
 20
400051.86718956713
 30
0.0
 11
-7163.1151587620616
 21
400016.86718956713
 31
0.0
  0
LINE
  5
67139
  8
0
 10
-7181.1151587620634
 20
400016.86718956713
 30
0.0
 11
-7181.1151587620634
 21
400001.86718956713
 31
0.0
  0
LINE
  5
6713A
  8
0
 10
-7198.1151587620634
 20
400016.86718956713
 30
0.0
 11
-7198.1151587620634
 21
400001.86718956713
 31
0.0
  0
LINE
  5
6713B
  8
0
 10
-7153.1151587620616
 20
400075.86718956701
 30
0.0
 11
-7153.1151587620616
 21
400051.86718956713
 31
0.0
  0
LINE
  5
6713C
  8
0
 10
-7275.6151587620616
 20
400219.86718956713
 30
0.0
 11
-7208.6151587620616
 21
400219.86718956713
 31
0.0
  0
ARC
  5
6713D
  8
0
 10
-7275.6151587620616
 20
400211.86718956701
 30
0.0
 40
8.0
 50
90.0
 51
180.0
  0
LINE
  5
6713E
  8
0
 10
-7283.6151587620616
 20
400211.86718956701
 30
0.0
 11
-7283.6151587620616
 21
400175.86718956713
 31
0.0
  0
ARC
  5
6713F
  8
0
 10
-7208.6151587620616
 20
400211.86718956701
 30
0.0
 40
8.0
 50
0.0
 51
90.0
  0
LINE
  5
67140
  8
0
 10
-7200.6151587620616
 20
400211.86718956701
 30
0.0
 11
-7200.6151587620616
 21
400175.86718956713
 31
0.0
  0
LINE
  5
67141
  8
0
 10
-7068.1151587620634
 20
400175.86718956713
 30
0.0
 11
-7068.1151587620634
 21
400075.86718956701
 31
0.0
  0
LINE
  5
67142
  8
0
 10
-7073.1151587620634
 20
400051.86718956713
 30
0.0
 11
-7073.1151587620634
 21
400016.86718956713
 31
0.0
  0
LINE
  5
67143
  8
0
 10
-7055.1151587620616
 20
400016.86718956713
 30
0.0
 11
-7055.1151587620616
 21
400001.86718956713
 31
0.0
  0
LINE
  5
67144
  8
0
 10
-7038.1151587620616
 20
400016.86718956713
 30
0.0
 11
-7038.1151587620616
 21
400001.86718956713
 31
0.0
  0
LINE
  5
67145
  8
0
 10
-7083.1151587620616
 20
400075.86718956701
 30
0.0
 11
-7083.1151587620616
 21
400051.86718956713
 31
0.0
  0
LINE
  5
67146
  8
0
 10
-7633.1151587620634
 20
400627.86718956701
 30
0.0
 11
-7053.1151587620634
 21
400627.86718956701
 31
0.0
  0
LINE
  5
67147
  8
0
 10
-7597.1151587620616
 20
400225.86718956701
 30
0.0
 11
-7292.1151587620616
 21
400225.86718956701
 31
0.0
  0
LINE
  5
67148
  8
0
 10
-7587.1151587620634
 20
400253.86718956713
 30
0.0
 11
-7292.1151587620616
 21
400253.86718956713
 31
0.0
  0
LINE
  5
67149
  8
0
 10
-7613.1151587620616
 20
400425.86718956701
 30
0.0
 11
-7613.1151587620616
 21
400627.86718956701
 31
0.0
  0
LINE
  5
6714A
  8
0
 10
-7633.1151587620634
 20
400425.86718956701
 30
0.0
 11
-7633.1151587620634
 21
400627.86718956701
 31
0.0
  0
LINE
  5
6714B
  8
0
 10
-7665.1151587620634
 20
400425.86718956701
 30
0.0
 11
-7665.1151587620634
 21
400625.86718956713
 31
0.0
  0
LINE
  5
6714C
  8
0
 10
-7665.1151587620634
 20
400425.86718956701
 30
0.0
 11
-7665.1151587620634
 21
400225.86718956701
 31
0.0
  0
LINE
  5
6714D
  8
0
 10
-7680.1151587620616
 20
400225.86718956701
 30
0.0
 11
-7665.1151587620634
 21
400225.86718956701
 31
0.0
  0
LINE
  5
6714E
  8
0
 10
-7665.1151587620634
 20
400255.86718956713
 30
0.0
 11
-7633.1151587620634
 21
400255.86718956713
 31
0.0
  0
LINE
  5
6714F
  8
0
 10
-7587.1151587620634
 20
400253.86718956713
 30
0.0
 11
-7587.1151587620634
 21
400225.86718956701
 31
0.0
  0
LINE
  5
67150
  8
0
 10
-7695.1151587620634
 20
400425.86718956701
 30
0.0
 11
-7695.1151587620634
 21
400410.86718956713
 31
0.0
  0
LINE
  5
67151
  8
0
 10
-7695.1151587620634
 20
400425.86718956701
 30
0.0
 11
-7695.1151587620634
 21
400440.86718956701
 31
0.0
  0
LINE
  5
67152
  8
0
 10
-7596.1151587620616
 20
400731.36718956713
 30
0.0
 11
-7398.1151587620634
 21
400731.36718956713
 31
0.0
  0
LINE
  5
67153
  8
0
 10
-7665.1151587620634
 20
400595.86718956713
 30
0.0
 11
-7633.1151587620634
 21
400595.86718956713
 31
0.0
  0
LINE
  5
67154
  8
0
 10
-7680.1151587620616
 20
400625.86718956713
 30
0.0
 11
-7665.1151587620634
 21
400625.86718956713
 31
0.0
  0
LINE
  5
67155
  8
0
 10
-7596.1151587620616
 20
400731.36718956713
 30
0.0
 11
-7596.1151587620616
 21
400627.86718956701
 31
0.0
  0
LINE
  5
67156
  8
0
 10
-7398.1151587620634
 20
400731.36718956713
 30
0.0
 11
-7398.1151587620634
 21
400627.86718956701
 31
0.0
  0
LINE
  5
67157
  8
0
 10
-7053.1151587620634
 20
400425.86718956701
 30
0.0
 11
-7053.1151587620634
 21
400627.86718956701
 31
0.0
  0
LINE
  5
67158
  8
0
 10
-7013.1151587620616
 20
400425.86718956701
 30
0.0
 11
-7013.1151587620616
 21
400587.86718956713
 31
0.0
  0
LINE
  5
67159
  8
0
 10
-7172.1151587620616
 20
400425.86718956701
 30
0.0
 11
-7172.1151587620616
 21
400627.86718956701
 31
0.0
  0
LINE
  5
6715A
  8
0
 10
-7292.1151587620616
 20
400225.86718956701
 30
0.0
 11
-7192.1151587620634
 21
400225.86718956701
 31
0.0
  0
LINE
  5
6715B
  8
0
 10
-7292.1151587620616
 20
400253.86718956713
 30
0.0
 11
-7202.1151587620616
 21
400253.86718956713
 31
0.0
  0
LINE
  5
6715C
  8
0
 10
-7202.1151587620616
 20
400253.86718956713
 30
0.0
 11
-7202.1151587620616
 21
400225.86718956701
 31
0.0
  0
LINE
  5
6715D
  8
0
 10
-7013.1151587620616
 20
400425.86718956701
 30
0.0
 11
-7013.1151587620616
 21
400263.86718956701
 31
0.0
  0
LINE
  5
6715E
  8
0
 10
-7013.1151587620616
 20
400587.86718956713
 30
0.0
 11
-7053.1151587620634
 21
400627.86718956701
 31
0.0
  0
LINE
  5
6715F
  8
0
 10
-4825.7107755993266
 20
400851.07925848768
 30
0.0
 11
-4825.7107755993266
 21
400433.96710895502
 31
0.0
  0
LINE
  5
67160
  8
0
 10
-5086.7107755993266
 20
400851.07925848768
 30
0.0
 11
-5086.7107755993266
 21
400433.96710895502
 31
0.0
  0
LINE
  5
67161
  8
0
 10
-4956.2107755993266
 20
400849.07925848762
 30
0.0
 11
-4956.2107755993266
 21
400036.07925848768
 31
0.0
  0
LINE
  5
67162
  8
0
 10
-4601.2107755993266
 20
400637.79498724011
 30
0.0
 11
-4789.4950468467896
 21
400826.07925848762
 31
0.0
  0
LINE
  5
67163
  8
0
 10
-4581.2107755993266
 20
400646.07925848768
 30
0.0
 11
-4781.2107755993266
 21
400846.07925848768
 31
0.0
  0
LINE
  5
67164
  8
0
 10
-5122.9265043518644
 20
400826.07925848762
 30
0.0
 11
-5311.2107755993266
 21
400637.79498724011
 31
0.0
  0
LINE
  5
67165
  8
0
 10
-5131.2107755993284
 20
400846.07925848768
 30
0.0
 11
-5331.2107755993266
 21
400646.07925848768
 31
0.0
  0
LINE
  5
67166
  8
0
 10
-5252.2107755993266
 20
400612.07925848762
 30
0.0
 11
-5086.7107755993266
 21
400612.07925848762
 31
0.0
  0
LINE
  5
67167
  8
0
 10
-5252.2107755993266
 20
400602.07925848768
 30
0.0
 11
-5106.2107755993266
 21
400602.07925848768
 31
0.0
  0
LINE
  5
67168
  8
0
 10
-5102.6300397955847
 20
400777.07925848768
 30
0.0
 11
-5262.2107755993284
 21
400617.49852268392
 31
0.0
  0
LINE
  5
67169
  8
0
 10
-5098.4879041718523
 20
400767.07925848768
 30
0.0
 11
-5252.2107755993266
 21
400613.35638706008
 31
0.0
  0
LINE
  5
6716A
  8
0
 10
-5252.2107755993266
 20
400340.07925848762
 30
0.0
 11
-5106.2107755993266
 21
400340.07925848762
 31
0.0
  0
LINE
  5
6716B
  8
0
 10
-5252.2107755993266
 20
400330.07925848768
 30
0.0
 11
-4961.2107755993284
 21
400330.07925848768
 31
0.0
  0
LINE
  5
6716C
  8
0
 10
-5262.2107755993284
 20
400324.65999429137
 30
0.0
 11
-5102.6300397955847
 21
400165.07925848768
 31
0.0
  0
LINE
  5
6716D
  8
0
 10
-5252.2107755993266
 20
400328.8021299151
 30
0.0
 11
-5098.4879041718523
 21
400175.07925848768
 31
0.0
  0
LINE
  5
6716E
  8
0
 10
-5331.2107755993266
 20
400471.07925848768
 30
0.0
 11
-4518.7107755993266
 21
400471.07925848768
 31
0.0
  0
LINE
  5
6716F
  8
0
 10
-5311.2107755993266
 20
400304.36352973513
 30
0.0
 11
-5122.9265043518681
 21
400116.07925848768
 31
0.0
  0
LINE
  5
67170
  8
0
 10
-5331.2107755993266
 20
400296.07925848768
 30
0.0
 11
-5131.2107755993284
 21
400096.07925848762
 31
0.0
  0
LINE
  5
67171
  8
0
 10
-5381.2107755993284
 20
400271.07925848768
 30
0.0
 11
-5381.2107755993284
 21
400215.57925848762
 31
0.0
  0
LINE
  5
67172
  8
0
 10
-5391.2107755993266
 20
400121.07925848768
 30
0.0
 11
-5321.2107755993266
 21
400121.07925848768
 31
0.0
  0
LINE
  5
67173
  8
0
 10
-5401.2107755993266
 20
400097.07925848768
 30
0.0
 11
-5311.2107755993266
 21
400097.07925848768
 31
0.0
  0
LINE
  5
67174
  8
0
 10
-5406.2107755993266
 20
400062.07925848768
 30
0.0
 11
-5306.2107755993266
 21
400062.07925848768
 31
0.0
  0
LINE
  5
67175
  8
0
 10
-5406.2107755993266
 20
400047.07925848762
 30
0.0
 11
-5306.2107755993266
 21
400047.07925848762
 31
0.0
  0
LINE
  5
67176
  8
0
 10
-5401.2107755993266
 20
400097.07925848768
 30
0.0
 11
-5401.2107755993266
 21
400062.07925848768
 31
0.0
  0
LINE
  5
67177
  8
0
 10
-5406.2107755993266
 20
400062.07925848768
 30
0.0
 11
-5406.2107755993266
 21
400047.07925848762
 31
0.0
  0
LINE
  5
67178
  8
0
 10
-5391.2107755993266
 20
400121.07925848768
 30
0.0
 11
-5391.2107755993266
 21
400097.07925848768
 31
0.0
  0
LINE
  5
67179
  8
0
 10
-5337.2107755993266
 20
400204.57925848762
 30
0.0
 11
-5337.2107755993266
 21
400137.57925848768
 31
0.0
  0
LINE
  5
6717A
  8
0
 10
-5331.2107755993266
 20
400221.07925848768
 30
0.0
 11
-5331.2107755993266
 21
400121.07925848768
 31
0.0
  0
LINE
  5
6717B
  8
0
 10
-5311.2107755993266
 20
400097.07925848768
 30
0.0
 11
-5311.2107755993266
 21
400062.07925848768
 31
0.0
  0
LINE
  5
6717C
  8
0
 10
-5356.2107755993266
 20
400129.57925848762
 30
0.0
 11
-5356.2107755993266
 21
400047.07925848762
 31
0.0
  0
LINE
  5
6717D
  8
0
 10
-5306.2107755993266
 20
400062.07925848768
 30
0.0
 11
-5306.2107755993266
 21
400047.07925848762
 31
0.0
  0
LINE
  5
6717E
  8
0
 10
-5381.2107755993284
 20
400121.07925848768
 30
0.0
 11
-5331.2107755993266
 21
400121.07925848768
 31
0.0
  0
ARC
  5
6717F
  8
0
 10
-5345.2107755993266
 20
400137.57925848768
 30
0.0
 40
8.0
 50
270.0
 51
0.0
  0
ARC
  5
67180
  8
0
 10
-5378.2107755993284
 20
400126.57925848762
 30
0.0
 40
3.0
 50
90.0
 51
180.0
  0
LINE
  5
67181
  8
0
 10
-5381.2107755993284
 20
400126.57925848762
 30
0.0
 11
-5381.2107755993284
 21
400121.07925848768
 31
0.0
  0
LINE
  5
67182
  8
0
 10
-5378.2107755993284
 20
400129.57925848762
 30
0.0
 11
-5345.2107755993266
 21
400129.57925848762
 31
0.0
  0
LINE
  5
67183
  8
0
 10
-5321.2107755993266
 20
400121.07925848768
 30
0.0
 11
-5321.2107755993266
 21
400097.07925848768
 31
0.0
  0
LINE
  5
67184
  8
0
 10
-5381.2107755993284
 20
400221.07925848768
 30
0.0
 11
-5256.2107755993284
 21
400221.07925848768
 31
0.0
  0
ARC
  5
67185
  8
0
 10
-5345.2107755993266
 20
400204.57925848762
 30
0.0
 40
8.0
 50
0.0
 51
90.0
  0
ARC
  5
67186
  8
0
 10
-5378.2107755993284
 20
400215.57925848762
 30
0.0
 40
3.0
 50
180.0
 51
270.0
  0
LINE
  5
67187
  8
0
 10
-5378.2107755993284
 20
400212.57925848768
 30
0.0
 11
-5345.2107755993266
 21
400212.57925848768
 31
0.0
  0
LINE
  5
67188
  8
0
 10
-5262.2107755993284
 20
400582.07925848762
 30
0.0
 11
-5262.2107755993284
 21
400360.07925848768
 31
0.0
  0
LINE
  5
67189
  8
0
 10
-5252.2107755993266
 20
400602.07925848768
 30
0.0
 11
-5252.2107755993266
 21
400340.07925848762
 31
0.0
  0
LINE
  5
6718A
  8
0
 10
-5311.2107755993266
 20
400582.07925848762
 30
0.0
 11
-5311.2107755993266
 21
400360.07925848768
 31
0.0
  0
LINE
  5
6718B
  8
0
 10
-5331.2107755993266
 20
400582.07925848762
 30
0.0
 11
-5331.2107755993266
 21
400360.07925848768
 31
0.0
  0
LINE
  5
6718C
  8
0
 10
-5361.2107755993284
 20
400330.07925848768
 30
0.0
 11
-5262.2107755993284
 21
400330.07925848768
 31
0.0
  0
LINE
  5
6718D
  8
0
 10
-5361.2107755993284
 20
400360.07925848768
 30
0.0
 11
-5262.2107755993284
 21
400360.07925848768
 31
0.0
  0
LINE
  5
6718E
  8
0
 10
-5361.2107755993284
 20
400360.07925848768
 30
0.0
 11
-5361.2107755993284
 21
400300.07925848762
 31
0.0
  0
LINE
  5
6718F
  8
0
 10
-5361.2107755993284
 20
400300.07925848762
 30
0.0
 11
-5331.2107755993266
 21
400300.07925848762
 31
0.0
  0
LINE
  5
67190
  8
0
 10
-5381.2107755993284
 20
400271.07925848768
 30
0.0
 11
-5306.2107755993266
 21
400271.07925848768
 31
0.0
  0
LINE
  5
67191
  8
0
 10
-5311.2107755993266
 20
400330.07925848768
 30
0.0
 11
-5311.2107755993266
 21
400304.36352973513
 31
0.0
  0
LINE
  5
67192
  8
0
 10
-5331.2107755993266
 20
400330.07925848768
 30
0.0
 11
-5331.2107755993266
 21
400296.07925848768
 31
0.0
  0
LINE
  5
67193
  8
0
 10
-5262.2107755993284
 20
400330.07925848768
 30
0.0
 11
-5262.2107755993284
 21
400324.65999429137
 31
0.0
  0
LINE
  5
67194
  8
0
 10
-5252.2107755993266
 20
400330.07925848768
 30
0.0
 11
-5252.2107755993266
 21
400328.8021299151
 31
0.0
  0
LINE
  5
67195
  8
0
 10
-5361.2107755993284
 20
400582.07925848762
 30
0.0
 11
-5262.2107755993284
 21
400582.07925848762
 31
0.0
  0
LINE
  5
67196
  8
0
 10
-5361.2107755993284
 20
400612.07925848762
 30
0.0
 11
-5262.2107755993284
 21
400612.07925848762
 31
0.0
  0
LINE
  5
67197
  8
0
 10
-5361.2107755993284
 20
400642.07925848768
 30
0.0
 11
-5361.2107755993284
 21
400582.07925848762
 31
0.0
  0
LINE
  5
67198
  8
0
 10
-5361.2107755993284
 20
400642.07925848768
 30
0.0
 11
-5331.2107755993266
 21
400642.07925848768
 31
0.0
  0
LINE
  5
67199
  8
0
 10
-5311.2107755993266
 20
400637.79498724011
 30
0.0
 11
-5311.2107755993266
 21
400612.07925848762
 31
0.0
  0
LINE
  5
6719A
  8
0
 10
-5331.2107755993266
 20
400646.07925848768
 30
0.0
 11
-5331.2107755993266
 21
400612.07925848762
 31
0.0
  0
LINE
  5
6719B
  8
0
 10
-5262.2107755993284
 20
400617.49852268392
 30
0.0
 11
-5262.2107755993284
 21
400612.07925848762
 31
0.0
  0
LINE
  5
6719C
  8
0
 10
-5252.2107755993266
 20
400613.35638706008
 30
0.0
 11
-5252.2107755993266
 21
400612.07925848762
 31
0.0
  0
LINE
  5
6719D
  8
0
 10
-4951.2107755993284
 20
400330.07925848768
 30
0.0
 11
-4951.2107755993284
 21
400175.07925848768
 31
0.0
  0
LINE
  5
6719E
  8
0
 10
-4961.2107755993284
 20
400330.07925848768
 30
0.0
 11
-4961.2107755993284
 21
400175.07925848768
 31
0.0
  0
LINE
  5
6719F
  8
0
 10
-4650.2107755993266
 20
400324.65999429137
 30
0.0
 11
-4809.7915114030693
 21
400165.07925848768
 31
0.0
  0
LINE
  5
671A0
  8
0
 10
-4660.2107755993266
 20
400328.8021299151
 30
0.0
 11
-4813.9336470268026
 21
400175.07925848768
 31
0.0
  0
LINE
  5
671A1
  8
0
 10
-4601.2107755993266
 20
400304.36352973513
 30
0.0
 11
-4789.4950468467896
 21
400116.07925848768
 31
0.0
  0
LINE
  5
671A2
  8
0
 10
-4581.2107755993266
 20
400296.07925848768
 30
0.0
 11
-4781.2107755993266
 21
400096.07925848762
 31
0.0
  0
LINE
  5
671A3
  8
0
 10
-4531.2107755993266
 20
400271.07925848768
 30
0.0
 11
-4531.2107755993266
 21
400215.57925848762
 31
0.0
  0
LINE
  5
671A4
  8
0
 10
-4951.2107755993284
 20
400175.07925848768
 30
0.0
 11
-4813.9336470268026
 21
400175.07925848768
 31
0.0
  0
LINE
  5
671A5
  8
0
 10
-5102.6300397955847
 20
400165.07925848768
 30
0.0
 11
-4809.7915114030693
 21
400165.07925848768
 31
0.0
  0
LINE
  5
671A6
  8
0
 10
-5122.9265043518644
 20
400116.07925848768
 30
0.0
 11
-4789.4950468467896
 21
400116.07925848768
 31
0.0
  0
LINE
  5
671A7
  8
0
 10
-5131.2107755993284
 20
400036.07925848768
 30
0.0
 11
-4781.2107755993266
 21
400036.07925848768
 31
0.0
  0
LINE
  5
671A8
  8
0
 10
-5131.2107755993284
 20
400096.07925848762
 30
0.0
 11
-5131.2107755993284
 21
400036.07925848768
 31
0.0
  0
LINE
  5
671A9
  8
0
 10
-5098.4879041718523
 20
400175.07925848768
 30
0.0
 11
-4961.2107755993284
 21
400175.07925848768
 31
0.0
  0
LINE
  5
671AA
  8
0
 10
-4781.2107755993266
 20
400096.07925848762
 30
0.0
 11
-4781.2107755993266
 21
400036.07925848768
 31
0.0
  0
LINE
  5
671AB
  8
0
 10
-4575.2107755993266
 20
400204.57925848762
 30
0.0
 11
-4575.2107755993266
 21
400137.57925848768
 31
0.0
  0
LINE
  5
671AC
  8
0
 10
-4581.2107755993266
 20
400221.07925848768
 30
0.0
 11
-4581.2107755993266
 21
400121.07925848768
 31
0.0
  0
LINE
  5
671AD
  8
0
 10
-4601.2107755993266
 20
400097.07925848768
 30
0.0
 11
-4511.2107755993284
 21
400097.07925848768
 31
0.0
  0
LINE
  5
671AE
  8
0
 10
-4606.2107755993266
 20
400062.07925848768
 30
0.0
 11
-4506.2107755993266
 21
400062.07925848768
 31
0.0
  0
LINE
  5
671AF
  8
0
 10
-4606.2107755993266
 20
400047.07925848762
 30
0.0
 11
-4506.2107755993266
 21
400047.07925848762
 31
0.0
  0
LINE
  5
671B0
  8
0
 10
-4601.2107755993266
 20
400097.07925848768
 30
0.0
 11
-4601.2107755993266
 21
400062.07925848768
 31
0.0
  0
LINE
  5
671B1
  8
0
 10
-4606.2107755993266
 20
400062.07925848768
 30
0.0
 11
-4606.2107755993266
 21
400047.07925848762
 31
0.0
  0
LINE
  5
671B2
  8
0
 10
-4511.2107755993284
 20
400097.07925848768
 30
0.0
 11
-4511.2107755993284
 21
400062.07925848768
 31
0.0
  0
LINE
  5
671B3
  8
0
 10
-4556.2107755993266
 20
400129.57925848762
 30
0.0
 11
-4556.2107755993266
 21
400047.07925848762
 31
0.0
  0
LINE
  5
671B4
  8
0
 10
-4506.2107755993266
 20
400062.07925848768
 30
0.0
 11
-4506.2107755993266
 21
400047.07925848762
 31
0.0
  0
LINE
  5
671B5
  8
0
 10
-4567.2107755993266
 20
400129.57925848762
 30
0.0
 11
-4534.2107755993266
 21
400129.57925848762
 31
0.0
  0
LINE
  5
671B6
  8
0
 10
-4591.2107755993284
 20
400121.07925848768
 30
0.0
 11
-4521.2107755993266
 21
400121.07925848768
 31
0.0
  0
LINE
  5
671B7
  8
0
 10
-4581.2107755993266
 20
400121.07925848768
 30
0.0
 11
-4531.2107755993266
 21
400121.07925848768
 31
0.0
  0
LINE
  5
671B8
  8
0
 10
-4591.2107755993284
 20
400121.07925848768
 30
0.0
 11
-4591.2107755993284
 21
400097.07925848768
 31
0.0
  0
ARC
  5
671B9
  8
0
 10
-4567.2107755993266
 20
400137.57925848768
 30
0.0
 40
8.0
 50
180.0
 51
270.0
  0
ARC
  5
671BA
  8
0
 10
-4534.2107755993266
 20
400126.57925848762
 30
0.0
 40
3.0
 50
0.0
 51
90.0
  0
LINE
  5
671BB
  8
0
 10
-4521.2107755993266
 20
400121.07925848768
 30
0.0
 11
-4521.2107755993266
 21
400097.07925848768
 31
0.0
  0
LINE
  5
671BC
  8
0
 10
-4531.2107755993266
 20
400126.57925848762
 30
0.0
 11
-4531.2107755993266
 21
400121.07925848768
 31
0.0
  0
LINE
  5
671BD
  8
0
 10
-4656.2107755993266
 20
400221.07925848768
 30
0.0
 11
-4531.2107755993266
 21
400221.07925848768
 31
0.0
  0
ARC
  5
671BE
  8
0
 10
-4567.2107755993266
 20
400204.57925848762
 30
0.0
 40
8.0
 50
90.0
 51
180.0
  0
LINE
  5
671BF
  8
0
 10
-4567.2107755993266
 20
400212.57925848768
 30
0.0
 11
-4534.2107755993266
 21
400212.57925848768
 31
0.0
  0
ARC
  5
671C0
  8
0
 10
-4534.2107755993266
 20
400215.57925848762
 30
0.0
 40
3.0
 50
270.0
 51
0.0
  0
ARC
  5
671C1
  8
0
 10
-4707.2107755993266
 20
400532.07925848768
 30
0.0
 40
6.0
 50
0.0
 51
180.0
  0
LINE
  5
671C2
  8
0
 10
-4825.7107755993266
 20
400612.07925848762
 30
0.0
 11
-4660.2107755993266
 21
400612.07925848762
 31
0.0
  0
LINE
  5
671C3
  8
0
 10
-4806.2107755993266
 20
400602.07925848768
 30
0.0
 11
-4660.2107755993266
 21
400602.07925848768
 31
0.0
  0
LINE
  5
671C4
  8
0
 10
-4650.2107755993266
 20
400617.49852268392
 30
0.0
 11
-4809.7915114030693
 21
400777.07925848768
 31
0.0
  0
LINE
  5
671C5
  8
0
 10
-4660.2107755993266
 20
400613.35638706008
 30
0.0
 11
-4813.9336470268026
 21
400767.07925848768
 31
0.0
  0
ARC
  5
671C6
  8
0
 10
-4707.2107755993266
 20
400410.07925848768
 30
0.0
 40
6.0
 50
180.0
 51
0.0
  0
LINE
  5
671C7
  8
0
 10
-4806.2107755993266
 20
400340.07925848762
 30
0.0
 11
-4660.2107755993266
 21
400340.07925848762
 31
0.0
  0
LINE
  5
671C8
  8
0
 10
-4951.2107755993284
 20
400330.07925848768
 30
0.0
 11
-4660.2107755993266
 21
400330.07925848768
 31
0.0
  0
LINE
  5
671C9
  8
0
 10
-4713.2107755993266
 20
400532.07925848768
 30
0.0
 11
-4713.2107755993266
 21
400410.07925848768
 31
0.0
  0
LINE
  5
671CA
  8
0
 10
-4806.2107755993266
 20
400602.07925848768
 30
0.0
 11
-4806.2107755993266
 21
400340.07925848762
 31
0.0
  0
LINE
  5
671CB
  8
0
 10
-4816.2107755993266
 20
400602.07925848768
 30
0.0
 11
-4816.2107755993266
 21
400340.07925848762
 31
0.0
  0
LINE
  5
671CC
  8
0
 10
-5106.2107755993266
 20
400602.07925848768
 30
0.0
 11
-5106.2107755993266
 21
400340.07925848762
 31
0.0
  0
LINE
  5
671CD
  8
0
 10
-5096.2107755993284
 20
400602.07925848768
 30
0.0
 11
-5096.2107755993284
 21
400340.07925848762
 31
0.0
  0
LINE
  5
671CE
  8
0
 10
-5031.2107755993266
 20
400411.07925848768
 30
0.0
 11
-4881.2107755993284
 21
400411.07925848768
 31
0.0
  0
ARC
  5
671CF
  8
0
 10
-4956.2107755993266
 20
400471.07925848768
 30
0.0
 40
120.0
 50
202.0574715583806
 51
337.9425284416194
  0
LINE
  5
671D0
  8
0
 10
-5096.2107755993284
 20
400340.07925848762
 30
0.0
 11
-4816.2107755993266
 21
400340.07925848762
 31
0.0
  0
LINE
  5
671D1
  8
0
 10
-5086.7107755993266
 20
400433.96710895502
 30
0.0
 11
-5031.2107755993266
 21
400411.07925848768
 31
0.0
  0
LINE
  5
671D2
  8
0
 10
-4825.7107755993266
 20
400433.96710895502
 30
0.0
 11
-4881.2107755993284
 21
400411.07925848768
 31
0.0
  0
LINE
  5
671D3
  8
0
 10
-5086.7107755993266
 20
400569.07925848768
 30
0.0
 11
-4825.7107755993266
 21
400569.07925848768
 31
0.0
  0
LINE
  5
671D4
  8
0
 10
-5096.2107755993284
 20
400602.07925848768
 30
0.0
 11
-5086.7107755993266
 21
400602.07925848768
 31
0.0
  0
LINE
  5
671D5
  8
0
 10
-5098.4879041718523
 20
400767.07925848768
 30
0.0
 11
-5086.7107755993266
 21
400767.07925848768
 31
0.0
  0
LINE
  5
671D6
  8
0
 10
-5102.6300397955847
 20
400777.07925848768
 30
0.0
 11
-5086.7107755993266
 21
400777.07925848768
 31
0.0
  0
LINE
  5
671D7
  8
0
 10
-4825.7107755993266
 20
400602.07925848768
 30
0.0
 11
-4816.2107755993266
 21
400602.07925848768
 31
0.0
  0
LINE
  5
671D8
  8
0
 10
-4825.7107755993266
 20
400767.07925848768
 30
0.0
 11
-4813.9336470268026
 21
400767.07925848768
 31
0.0
  0
LINE
  5
671D9
  8
0
 10
-4825.7107755993266
 20
400777.07925848768
 30
0.0
 11
-4809.7915114030693
 21
400777.07925848768
 31
0.0
  0
LINE
  5
671DA
  8
0
 10
-4701.2107755993266
 20
400532.07925848768
 30
0.0
 11
-4701.2107755993266
 21
400410.07925848768
 31
0.0
  0
LINE
  5
671DB
  8
0
 10
-4660.2107755993266
 20
400602.07925848768
 30
0.0
 11
-4660.2107755993266
 21
400340.07925848762
 31
0.0
  0
LINE
  5
671DC
  8
0
 10
-4650.2107755993266
 20
400602.07925848768
 30
0.0
 11
-4650.2107755993266
 21
400340.07925848762
 31
0.0
  0
LINE
  5
671DD
  8
0
 10
-4601.2107755993266
 20
400602.07925848768
 30
0.0
 11
-4601.2107755993266
 21
400340.07925848762
 31
0.0
  0
LINE
  5
671DE
  8
0
 10
-4581.2107755993266
 20
400602.07925848768
 30
0.0
 11
-4581.2107755993266
 21
400340.07925848762
 31
0.0
  0
LINE
  5
671DF
  8
0
 10
-4558.7107755993266
 20
400602.07925848768
 30
0.0
 11
-4558.7107755993266
 21
400340.07925848762
 31
0.0
  0
LINE
  5
671E0
  8
0
 10
-4518.7107755993266
 20
400612.07925848762
 30
0.0
 11
-4518.7107755993266
 21
400330.07925848768
 31
0.0
  0
LINE
  5
671E1
  8
0
 10
-4606.2107755993266
 20
400271.07925848768
 30
0.0
 11
-4531.2107755993266
 21
400271.07925848768
 31
0.0
  0
LINE
  5
671E2
  8
0
 10
-4650.2107755993266
 20
400330.07925848768
 30
0.0
 11
-4518.7107755993266
 21
400330.07925848768
 31
0.0
  0
LINE
  5
671E3
  8
0
 10
-4650.2107755993266
 20
400340.07925848762
 30
0.0
 11
-4558.7107755993266
 21
400340.07925848762
 31
0.0
  0
LINE
  5
671E4
  8
0
 10
-4660.2107755993266
 20
400330.07925848768
 30
0.0
 11
-4660.2107755993266
 21
400328.8021299151
 31
0.0
  0
LINE
  5
671E5
  8
0
 10
-4601.2107755993266
 20
400330.07925848768
 30
0.0
 11
-4601.2107755993266
 21
400304.36352973513
 31
0.0
  0
LINE
  5
671E6
  8
0
 10
-4650.2107755993266
 20
400330.07925848768
 30
0.0
 11
-4650.2107755993266
 21
400324.65999429137
 31
0.0
  0
LINE
  5
671E7
  8
0
 10
-4581.2107755993266
 20
400330.07925848768
 30
0.0
 11
-4581.2107755993266
 21
400296.07925848768
 31
0.0
  0
LINE
  5
671E8
  8
0
 10
-4581.2107755993266
 20
400456.07925848768
 30
0.0
 11
-4558.7107755993266
 21
400456.07925848768
 31
0.0
  0
LINE
  5
671E9
  8
0
 10
-4581.2107755993266
 20
400486.07925848768
 30
0.0
 11
-4558.7107755993266
 21
400486.07925848768
 31
0.0
  0
LINE
  5
671EA
  8
0
 10
-4650.2107755993266
 20
400602.07925848768
 30
0.0
 11
-4558.7107755993266
 21
400602.07925848768
 31
0.0
  0
LINE
  5
671EB
  8
0
 10
-4650.2107755993266
 20
400612.07925848762
 30
0.0
 11
-4518.7107755993266
 21
400612.07925848762
 31
0.0
  0
LINE
  5
671EC
  8
0
 10
-4660.2107755993266
 20
400613.35638706008
 30
0.0
 11
-4660.2107755993266
 21
400612.07925848762
 31
0.0
  0
LINE
  5
671ED
  8
0
 10
-4601.2107755993266
 20
400637.79498724011
 30
0.0
 11
-4601.2107755993266
 21
400612.07925848762
 31
0.0
  0
LINE
  5
671EE
  8
0
 10
-4650.2107755993266
 20
400617.49852268392
 30
0.0
 11
-4650.2107755993266
 21
400612.07925848762
 31
0.0
  0
LINE
  5
671EF
  8
0
 10
-4581.2107755993266
 20
400646.07925848768
 30
0.0
 11
-4581.2107755993266
 21
400612.07925848762
 31
0.0
  0
LINE
  5
671F0
  8
0
 10
-5083.7107755993266
 20
400854.07925848762
 30
0.0
 11
-4828.7107755993266
 21
400854.07925848762
 31
0.0
  0
LINE
  5
671F1
  8
0
 10
-5086.7107755993266
 20
400849.07925848762
 30
0.0
 11
-4825.7107755993266
 21
400849.07925848762
 31
0.0
  0
LINE
  5
671F2
  8
0
 10
-5122.9265043518644
 20
400826.07925848762
 30
0.0
 11
-5086.7107755993266
 21
400826.07925848762
 31
0.0
  0
LINE
  5
671F3
  8
0
 10
-5131.2107755993284
 20
400846.07925848768
 30
0.0
 11
-5086.7107755993266
 21
400846.07925848768
 31
0.0
  0
ARC
  5
671F4
  8
0
 10
-5083.7107755993266
 20
400851.07925848768
 30
0.0
 40
3.0
 50
90.0
 51
180.0
  0
LINE
  5
671F5
  8
0
 10
-4825.7107755993266
 20
400846.07925848768
 30
0.0
 11
-4781.2107755993266
 21
400846.07925848768
 31
0.0
  0
LINE
  5
671F6
  8
0
 10
-4825.7107755993266
 20
400826.07925848762
 30
0.0
 11
-4789.4950468467869
 21
400826.07925848762
 31
0.0
  0
ARC
  5
671F7
  8
0
 10
-4828.7107755993266
 20
400851.07925848768
 30
0.0
 40
3.0
 50
0.0
 51
90.0
  0
LINE
  5
671F8
  8
0
 10
-2487.1057945049611
 20
404373.66633684328
 30
0.0
 11
-2474.105794504962
 21
404373.66633684328
 31
0.0
  0
LINE
  5
671F9
  8
0
 10
-2487.1057945049611
 20
404023.66633684322
 30
0.0
 11
-2474.105794504962
 21
404023.66633684322
 31
0.0
  0
LINE
  5
671FA
  8
0
 10
-2474.105794504962
 20
404023.66633684322
 30
0.0
 11
-2474.105794504962
 21
404373.66633684328
 31
0.0
  0
LINE
  5
671FB
  8
0
 10
-2442.105794504962
 20
404360.66633684322
 30
0.0
 11
-1970.6057945049611
 21
404360.66633684322
 31
0.0
  0
LINE
  5
671FC
  8
0
 10
-2442.105794504962
 20
404036.66633684322
 30
0.0
 11
-1970.6057945049611
 21
404036.66633684322
 31
0.0
  0
LINE
  5
671FD
  8
0
 10
-2442.105794504962
 20
404036.66633684322
 30
0.0
 11
-2442.105794504962
 21
404360.66633684322
 31
0.0
  0
LINE
  5
671FE
  8
0
 10
-2474.105794504962
 20
404330.66633684322
 30
0.0
 11
-2442.105794504962
 21
404330.66633684322
 31
0.0
  0
LINE
  5
671FF
  8
0
 10
-2474.105794504962
 20
404066.66633684322
 30
0.0
 11
-2442.105794504962
 21
404066.66633684322
 31
0.0
  0
LINE
  5
67200
  8
0
 10
-2432.105794504962
 20
404036.66633684322
 30
0.0
 11
-2432.105794504962
 21
404360.66633684322
 31
0.0
  0
LINE
  5
67201
  8
0
 10
-1935.605794504962
 20
404071.66633684322
 30
0.0
 11
-1935.605794504962
 21
404325.66633684322
 31
0.0
  0
LINE
  5
67202
  8
0
 10
-2414.105794504962
 20
404102.1663368431
 30
0.0
 11
-2414.105794504962
 21
404290.16633684322
 31
0.0
  0
LINE
  5
67203
  8
0
 10
-2253.1057945049611
 20
404102.1663368431
 30
0.0
 11
-2253.1057945049611
 21
404290.16633684322
 31
0.0
  0
LINE
  5
67204
  8
0
 10
-2414.105794504962
 20
404290.16633684322
 30
0.0
 11
-2253.1057945049611
 21
404290.16633684322
 31
0.0
  0
LINE
  5
67205
  8
0
 10
-2414.105794504962
 20
404102.1663368431
 30
0.0
 11
-2253.1057945049611
 21
404102.1663368431
 31
0.0
  0
LINE
  5
67206
  8
0
 10
-1970.6057945049611
 20
404036.66633684322
 30
0.0
 11
-1970.6057945049611
 21
404360.66633684322
 31
0.0
  0
LINE
  5
67207
  8
0
 10
-1935.605794504962
 20
404071.66633684322
 30
0.0
 11
-1970.6057945049611
 21
404036.66633684322
 31
0.0
  0
LINE
  5
67208
  8
0
 10
-1970.6057945049611
 20
404360.66633684322
 30
0.0
 11
-1935.605794504962
 21
404325.66633684322
 31
0.0
  0
LINE
  5
67209
  8
0
 10
-2087.105794504962
 20
404036.66633684322
 30
0.0
 11
-2087.105794504962
 21
404360.66633684322
 31
0.0
  0
LINE
  5
6720A
  8
0
 10
-7164.6151587620616
 20
404092.3575040893
 30
0.0
 11
-7164.6151587620616
 21
404414.35750408942
 31
0.0
  0
LINE
  5
6720B
  8
0
 10
-7048.1151587620634
 20
404092.3575040893
 30
0.0
 11
-7048.1151587620634
 21
404414.35750408942
 31
0.0
  0
LINE
  5
6720C
  8
0
 10
-7013.1151587620616
 20
404125.3575040893
 30
0.0
 11
-7013.1151587620616
 21
404379.3575040893
 31
0.0
  0
LINE
  5
6720D
  8
0
 10
-7509.6151587620634
 20
404092.3575040893
 30
0.0
 11
-7509.6151587620634
 21
404414.35750408942
 31
0.0
  0
LINE
  5
6720E
  8
0
 10
-7519.6151587620634
 20
404092.3575040893
 30
0.0
 11
-7519.6151587620634
 21
404414.35750408942
 31
0.0
  0
LINE
  5
6720F
  8
0
 10
-7491.6151587620634
 20
404414.35750408942
 30
0.0
 11
-7491.6151587620634
 21
404490.8575040893
 31
0.0
  0
LINE
  5
67210
  8
0
 10
-7330.6151587620634
 20
404414.35750408942
 30
0.0
 11
-7330.6151587620634
 21
404490.8575040893
 31
0.0
  0
LINE
  5
67211
  8
0
 10
-7013.1151587620616
 20
404125.3575040893
 30
0.0
 11
-7046.1151587620616
 21
404092.3575040893
 31
0.0
  0
LINE
  5
67212
  8
0
 10
-7519.6151587620634
 20
404414.35750408942
 30
0.0
 11
-7048.1151587620634
 21
404414.35750408942
 31
0.0
  0
LINE
  5
67213
  8
0
 10
-7048.1151587620634
 20
404414.35750408942
 30
0.0
 11
-7013.1151587620616
 21
404379.3575040893
 31
0.0
  0
LINE
  5
67214
  8
0
 10
-7551.6151587620634
 20
404384.3575040893
 30
0.0
 11
-7519.6151587620634
 21
404384.3575040893
 31
0.0
  0
LINE
  5
67215
  8
0
 10
-7551.6151587620634
 20
404120.3575040893
 30
0.0
 11
-7519.6151587620634
 21
404120.3575040893
 31
0.0
  0
LINE
  5
67216
  8
0
 10
-7551.6151587620634
 20
404077.3575040893
 30
0.0
 11
-7551.6151587620634
 21
404427.3575040893
 31
0.0
  0
LINE
  5
67217
  8
0
 10
-7564.6151587620616
 20
404427.3575040893
 30
0.0
 11
-7551.6151587620634
 21
404427.3575040893
 31
0.0
  0
LINE
  5
67218
  8
0
 10
-7564.6151587620616
 20
404077.3575040893
 30
0.0
 11
-7551.6151587620634
 21
404077.3575040893
 31
0.0
  0
LINE
  5
67219
  8
0
 10
-7491.6151587620634
 20
404490.8575040893
 30
0.0
 11
-7330.6151587620634
 21
404490.8575040893
 31
0.0
  0
LINE
  5
6721A
  8
0
 10
-7478.6151587620616
 20
404114.3575040893
 30
0.0
 11
-7180.6151587620634
 21
404114.3575040893
 31
0.0
  0
LINE
  5
6721B
  8
0
 10
-7478.6151587620616
 20
404114.3575040893
 30
0.0
 11
-7478.6151587620616
 21
404092.3575040893
 31
0.0
  0
LINE
  5
6721C
  8
0
 10
-7180.6151587620634
 20
404114.3575040893
 30
0.0
 11
-7180.6151587620634
 21
404092.3575040893
 31
0.0
  0
LINE
  5
6721D
  8
0
 10
-2429.105794504962
 20
404036.66633684322
 30
0.0
 11
-2429.105794504962
 21
403773.66633684322
 31
0.0
  0
LINE
  5
6721E
  8
0
 10
-2329.105794504962
 20
404036.66633684322
 30
0.0
 11
-2329.105794504962
 21
403773.66633684322
 31
0.0
  0
LINE
  5
6721F
  8
0
 10
-2175.105794504962
 20
404036.66633684322
 30
0.0
 11
-2175.105794504962
 21
403773.66633684322
 31
0.0
  0
LINE
  5
67220
  8
0
 10
-2075.105794504962
 20
404036.66633684322
 30
0.0
 11
-2075.105794504962
 21
403773.66633684322
 31
0.0
  0
LINE
  5
67221
  8
0
 10
-2175.105794504962
 20
404623.66633684322
 30
0.0
 11
-2175.105794504962
 21
404360.66633684322
 31
0.0
  0
LINE
  5
67222
  8
0
 10
-2075.105794504962
 20
404623.66633684322
 30
0.0
 11
-2075.105794504962
 21
404360.66633684322
 31
0.0
  0
LINE
  5
67223
  8
0
 10
-2329.105794504962
 20
404623.66633684322
 30
0.0
 11
-2329.105794504962
 21
404360.66633684322
 31
0.0
  0
LINE
  5
67224
  8
0
 10
-2429.105794504962
 20
404623.66633684322
 30
0.0
 11
-2429.105794504962
 21
404360.66633684322
 31
0.0
  0
LINE
  5
67225
  8
0
 10
-7052.6151587620634
 20
404042.35750408919
 30
0.0
 11
-7052.6151587620634
 21
403942.3575040893
 31
0.0
  0
LINE
  5
67226
  8
0
 10
-7112.6151587620616
 20
403950.8575040893
 30
0.0
 11
-7112.6151587620616
 21
403868.3575040893
 31
0.0
  0
ARC
  5
67227
  8
0
 10
-1972.1057945049611
 20
403798.66633684322
 30
0.0
 40
6.0
 50
249.5842322584318
 51
113.3776022857906
  0
ARC
  5
67228
  8
0
 10
-1972.1057945049611
 20
404598.66633684322
 30
0.0
 40
6.0
 50
252.57769343663551
 51
113.3776022857906
  0
ARC
  5
67229
  8
0
 10
-2430.605794504962
 20
400103.54732963489
 30
0.0
 40
50.0
 50
75.032415859871065
 51
121.6598718073589
  0
ARC
  5
6722A
  8
0
 10
-2430.605794504962
 20
400103.54732963489
 30
0.0
 40
45.0
 50
70.613426336996383
 51
145.61965527664401
  0
ARC
  5
6722B
  8
0
 10
-2430.605794504962
 20
400103.54732963489
 30
0.0
 40
35.0
 50
68.275348176613605
 51
134.4153085981917
  0
ARC
  5
6722C
  8
0
 10
-2430.605794504962
 20
400903.54732963489
 30
0.0
 40
35.0
 50
291.87868476773951
 51
314.4153085981917
  0
ARC
  5
6722D
  8
0
 10
-2430.605794504962
 20
400903.54732963489
 30
0.0
 40
45.0
 50
287.0558504242394
 51
323.88065914952477
  0
ARC
  5
6722E
  8
0
 10
-2430.605794504962
 20
400903.54732963489
 30
0.0
 40
50.0
 50
285.34514449195058
 51
301.65987180735902
  0
DIMENSION
  5
6722F
  8
0
  2
*D89
 10
-2712.105794504962
 20
403109.29302549158
 30
0.0
 11
-3184.5343659335331
 21
403109.29302549158
 31
0.0
 70
   128
 13
-2838.105794504962
 23
403792.66633684322
 33
0.0
 14
-2712.105794504962
 24
403792.66633684322
 34
0.0
  0
DIMENSION
  5
67230
  8
0
  2
*D90
 10
-1974.799522175628
 20
403804.02766421979
 30
0.0
 11
-1576.4233445837449
 21
403206.0365886541
 31
0.0
 70
     3
  1
4X2 OTV.%%c12
 15
-1969.4120668343969
 25
403793.305009467
 35
0.0
 40
0.0
  0
DIMENSION
  5
67231
  8
0
  2
*D91
 10
-1980.299522175628
 20
400108.90865701111
 30
0.0
 11
-1500.6057945101929
 21
399154.17401828058
 31
0.0
 70
   131
  1
6X2 OTV.%%c12
 15
-1974.9120668345131
 25
400098.1860022585
 35
0.0
 40
0.0
  0
DIMENSION
  5
67232
  8
0
  2
*D92
 10
-2877.605794504962
 20
399414.17401828337
 30
0.0
 11
-3350.0343659335331
 21
399414.17401828337
 31
0.0
 70
   128
 13
-3003.605794504962
 23
400097.54732963489
 33
0.0
 14
-2877.605794504962
 24
400097.54732963489
 34
0.0
  0
DIMENSION
  5
67233
  8
0
  2
*D93
 10
-4825.7107755993266
 20
401102.75005376851
 30
0.0
 11
-4202.1536242477587
 21
401102.75005376851
 31
0.0
 70
   128
 13
-5086.7107755993266
 23
400846.07925848768
 33
0.0
 14
-4825.7107755993266
 24
400846.07925848768
 34
0.0
  0
DIMENSION
  5
67234
  8
0
  2
*D94
 10
-7900.1151587620616
 20
401014.14963077632
 30
0.0
 11
-7553.6865873334909
 21
401014.14963077632
 31
0.0
 70
   128
 13
-8083.1151587620616
 23
400803.86718956713
 33
0.0
 14
-7900.1151587620616
 24
400803.86718956713
 34
0.0
  0
DIMENSION
  5
67235
  8
0
  2
*D95
 10
-4581.2107755993266
 20
401318.07925848768
 30
0.0
 11
-4956.2107755993266
 21
401405.57925848762
 31
0.0
 70
     0
 13
-5331.2107755993266
 23
400646.07925848768
 33
0.0
 14
-4581.2107755993266
 24
400646.07925848768
 34
0.0
  0
DIMENSION
  5
67236
  8
0
  2
*D96
 10
-4531.2107755993266
 20
399318.07925848768
 30
0.0
 11
-4956.2107755993266
 21
399405.57925848768
 31
0.0
 70
     0
 13
-5381.2107755993284
 23
400271.07925848768
 33
0.0
 14
-4531.2107755993266
 24
400271.07925848768
 34
0.0
  0
DIMENSION
  5
67237
  8
0
  2
*D97
 10
-4556.2107755993266
 20
399538.07925848768
 30
0.0
 11
-4956.2107755993266
 21
399625.57925848768
 31
0.0
 70
     0
 13
-5356.2107755993266
 23
400047.07925848762
 33
0.0
 14
-4556.2107755993266
 24
400047.07925848762
 34
0.0
  0
DIMENSION
  5
67238
  8
0
  2
*D98
 10
-4781.2107755993266
 20
399778.07925848768
 30
0.0
 11
-4956.2107755993266
 21
399865.57925848768
 31
0.0
 70
     0
 13
-5131.2107755993284
 23
400036.07925848768
 33
0.0
 14
-4781.2107755993266
 24
400036.07925848768
 34
0.0
  0
DIMENSION
  5
67239
  8
0
  2
*D99
 10
-4581.2107755993266
 20
405089.2507188968
 30
0.0
 11
-4956.2107755993266
 21
405176.7507188968
 31
0.0
 70
     0
 13
-5331.2107755993266
 23
404417.2507188968
 33
0.0
 14
-4581.2107755993266
 24
404417.2507188968
 34
0.0
  0
DIMENSION
  5
6723A
  8
0
  2
*D100
 10
-4825.7107755993266
 20
404923.19010792091
 30
0.0
 11
-4202.6374043675596
 21
404923.19010792091
 31
0.0
 70
   128
 13
-5086.7107755993266
 23
404617.2507188968
 33
0.0
 14
-4825.7107755993266
 24
404617.2507188968
 34
0.0
  0
DIMENSION
  5
6723B
  8
0
  2
*D101
 10
-4781.2107755993266
 20
403549.2507188968
 30
0.0
 11
-4956.2107755993266
 21
403636.7507188968
 31
0.0
 70
     0
 13
-5131.2107755993284
 23
403807.2507188968
 33
0.0
 14
-4781.2107755993266
 24
403807.2507188968
 34
0.0
  0
DIMENSION
  5
6723C
  8
0
  2
*D102
 10
-4556.2107755993266
 20
403309.2507188968
 30
0.0
 11
-4956.2107755993266
 21
403396.75071889668
 31
0.0
 70
     0
 13
-5356.2107755993266
 23
403858.2507188968
 33
0.0
 14
-4556.2107755993266
 24
403858.2507188968
 34
0.0
  0
DIMENSION
  5
6723D
  8
0
  2
*D103
 10
-4531.2107755993266
 20
403089.2507188968
 30
0.0
 11
-4956.2107755993266
 21
403176.7507188968
 31
0.0
 70
     0
 13
-5381.2107755993284
 23
404042.2507188968
 33
0.0
 14
-4531.2107755993266
 24
404042.2507188968
 34
0.0
  0
DIMENSION
  5
6723E
  8
0
  2
*D104
 10
-7784.6151587620616
 20
404839.3575040893
 30
0.0
 11
-7438.1865873334918
 21
404926.8575040893
 31
0.0
 70
     0
 13
-7967.6151587620616
 23
404630.3575040893
 33
0.0
 14
-7784.6151587620616
 24
404630.3575040893
 34
0.0
  0
DIMENSION
  5
6723F
  8
0
  2
*D105
 10
-5652.2107755993284
 20
400036.07925848768
 30
0.0
 11
-5772.4488708374884
 21
399668.22211563052
 31
0.0
 70
     0
  1
(<>)
 13
-5356.2107755993266
 23
400047.07925848762
 33
0.0
 14
-5131.2107755993284
 24
400036.07925848768
 34
0.0
 50
90.0
  0
DIMENSION
  5
67240
  8
0
  2
*D106
 10
-8574.1151587620625
 20
400001.86718956713
 30
0.0
 11
-8694.3532540002234
 21
400405.36718956713
 31
0.0
 70
     0
  1
(<>)
 13
-8080.1151587620616
 23
400808.86718956713
 33
0.0
 14
-8098.1151587620634
 24
400001.86718956713
 34
0.0
 50
90.0
  0
DIMENSION
  5
67241
  8
0
  2
*D107
 10
-7013.1151587620616
 20
401272.86718956713
 30
0.0
 11
-7548.1151587620634
 21
401360.36718956713
 31
0.0
 70
     0
 13
-8083.1151587620616
 23
400803.86718956713
 33
0.0
 14
-7013.1151587620616
 24
400587.86718956713
 34
0.0
  0
DIMENSION
  5
67242
  8
0
  2
*D108
 10
-7118.1151587620634
 20
399558.324806082
 30
0.0
 11
-6666.6865873334909
 21
399558.324806082
 31
0.0
 70
   128
 13
-7013.1151587620616
 23
400263.86718956701
 33
0.0
 14
-7118.1151587620634
 24
400001.86718956713
 34
0.0
  0
DIMENSION
  5
67243
  8
0
  2
*D109
 10
-7508.1151587620634
 20
399332.86718956713
 30
0.0
 11
-7313.1151587620616
 21
399420.36718956713
 31
0.0
 70
     0
 13
-7118.1151587620634
 23
400001.86718956713
 33
0.0
 14
-7508.1151587620634
 24
400001.86718956713
 34
0.0
  0
DIMENSION
  5
67244
  8
0
  2
*D110
 10
-8018.1151587620616
 20
399332.86718956713
 30
0.0
 11
-7763.1151587620616
 21
399420.36718956713
 31
0.0
 70
     0
 13
-7508.1151587620634
 23
400001.86718956713
 33
0.0
 14
-8018.1151587620616
 24
400001.86718956713
 34
0.0
  0
DIMENSION
  5
67245
  8
0
  2
*D111
 10
-7850.1151587620616
 20
399768.0209978245
 30
0.0
 11
-8196.543730190635
 21
399768.0209978245
 31
0.0
 70
   128
 13
-7680.1151587620616
 23
399990.86718956713
 33
0.0
 14
-7850.1151587620616
 24
399990.86718956713
 34
0.0
  0
DIMENSION
  5
67246
  8
0
  2
*D112
 10
-8018.1151587620616
 20
399558.324806082
 30
0.0
 11
-8433.5913492382533
 21
399558.324806082
 31
0.0
 70
   128
  1
(<>)
 13
-7850.1151587620616
 23
399990.86718956713
 33
0.0
 14
-8018.1151587620616
 24
399990.86718956713
 34
0.0
  0
DIMENSION
  5
67247
  8
0
  2
*D113
 10
-7013.1151587620616
 20
405099.35750408942
 30
0.0
 11
-7490.3651587620634
 21
405186.8575040893
 31
0.0
 70
     0
  1
A
 13
-7967.6151587620616
 23
404630.3575040893
 33
0.0
 14
-7013.1151587620616
 24
404379.3575040893
 34
0.0
  0
DIMENSION
  5
67248
  8
0
  2
*D114
 10
-4212.2107755993266
 20
400036.07925848768
 30
0.0
 11
-4299.710775599392
 21
400445.07925848768
 31
0.0
 70
     0
 13
-4828.7107755993266
 23
400854.07925848762
 33
0.0
 14
-4781.2107755993266
 24
400036.07925848768
 34
0.0
 50
90.0
  0
DIMENSION
  5
67249
  8
0
  2
*D115
 10
-4206.2107755993266
 20
403858.2507188968
 30
0.0
 11
-4293.710775599392
 21
404241.7507188968
 31
0.0
 70
     0
 13
-4828.7107755993266
 23
404625.2507188968
 33
0.0
 14
-4606.2107755993266
 24
403858.2507188968
 34
0.0
 50
90.0
  0
DIMENSION
  5
6724A
  8
0
  2
*D116
 10
-7013.1151587620616
 20
403259.3575040893
 30
0.0
 11
-6754.7818254287286
 21
403259.3575040893
 31
0.0
 70
   128
  1
B
 13
-7112.6151587620616
 23
403868.3575040893
 33
0.0
 14
-7013.1151587620616
 24
404125.3575040893
 34
0.0
  0
DIMENSION
  5
6724B
  8
0
  2
*D117
 10
-8372.6151587620625
 20
403868.3575040893
 30
0.0
 11
-8492.8532540002216
 21
404251.8575040893
 31
0.0
 70
     0
  1
(<>)
 13
-7964.6151587620616
 23
404635.35750408919
 33
0.0
 14
-7915.6151587620616
 24
403868.3575040893
 34
0.0
 50
90.0
  0
DIMENSION
  5
6724C
  8
0
  2
*D118
 10
-7112.6151587620616
 20
403179.3575040893
 30
0.0
 11
-7482.6151587620634
 21
403266.8575040893
 31
0.0
 70
     0
  1
C
 13
-7852.6151587620634
 23
403868.3575040893
 33
0.0
 14
-7112.6151587620616
 24
403868.3575040893
 34
0.0
  0
DIMENSION
  5
6724D
  8
0
  2
*D119
 10
-7852.6151587620634
 20
403499.3575040893
 30
0.0
 11
-8199.0437301906368
 21
403499.3575040893
 31
0.0
 70
   128
 13
-7734.6151587620616
 23
403817.3575040893
 33
0.0
 14
-7852.6151587620634
 24
403868.3575040893
 34
0.0
  0
DIMENSION
  5
6724E
  8
0
  2
*D120
 10
-7564.6151587620616
 20
403646.86111921311
 30
0.0
 11
-6873.0899311988624
 21
403646.86111921311
 31
0.0
 70
   128
 13
-7734.6151587620616
 23
403817.3575040893
 33
0.0
 14
-7564.6151587620616
 24
403817.3575040893
 34
0.0
  0
DIMENSION
  5
6724F
  8
0
  2
*D121
 10
-5626.2107755993284
 20
403858.2507188968
 30
0.0
 11
-5746.4488708374893
 21
404226.1078617539
 31
0.0
 70
     0
  1
(<>)
 13
-5131.2107755993284
 23
403807.2507188968
 33
0.0
 14
-5406.2107755993266
 24
403858.2507188968
 34
0.0
 50
90.0
  0
INSERT
  5
67250
  8
0
  6
CONTINUOUS
  2
*U168
 10
0.0
 20
0.0
 30
0.0
  0
INSERT
  5
67251
  8
0
  6
CONTINUOUS
  2
*U169
 10
0.0
 20
0.0
 30
0.0
  0
INSERT
  5
67252
  8
0
  6
CONTINUOUS
  2
*U170
 10
0.0
 20
0.0
 30
0.0
  0
LINE
  5
67253
  8
S-OBRYS
  6
CONTINUOUS
 10
-4134.5909639516176
 20
397102.1868205209
 30
0.0
 11
-3454.5909639516181
 21
397102.1868205209
 31
0.0
  0
LINE
  5
67254
  8
S-OBRYS
  6
CONTINUOUS
 10
-3454.5909639516181
 20
397102.1868205209
 30
0.0
 11
-3454.5909639516181
 21
397852.1868205209
 31
0.0
  0
LINE
  5
67255
  8
S-OBRYS
  6
CONTINUOUS
 10
-3454.5909639516181
 20
397852.1868205209
 30
0.0
 11
-4134.5909639516176
 21
397852.1868205209
 31
0.0
  0
LINE
  5
67256
  8
S-OBRYS
  6
CONTINUOUS
 10
-4134.5909639516176
 20
397852.1868205209
 30
0.0
 11
-4134.5909639516176
 21
397102.1868205209
 31
0.0
  0
LINE
  5
67257
  8
S-OBRYS
  6
CONTINUOUS
 10
-4072.319048125602
 20
397852.1868205209
 30
0.0
 11
-4072.319048125602
 21
397102.1868205209
 31
0.0
  0
LINE
  5
67258
  8
S-OBRYS
  6
CONTINUOUS
 10
-3529.5909639516181
 20
397852.1868205209
 30
0.0
 11
-3529.5909639516181
 21
397102.1868205209
 31
0.0
  0
LINE
  5
67259
  8
S-OBRYS
  6
CONTINUOUS
 10
-4134.5909639516176
 20
397477.1868205209
 30
0.0
 11
-3454.5909639516181
 21
397477.1868205209
 31
0.0
  0
LINE
  5
6725A
  8
S-OBRYS
  6
CONTINUOUS
 10
-4039.5909639516171
 20
397227.18682052079
 30
0.0
 11
-3969.5909639516171
 21
397227.18682052079
 31
0.0
  0
LINE
  5
6725B
  8
S-OBRYS
  6
CONTINUOUS
 10
-4039.5909639516171
 20
397727.18682052079
 30
0.0
 11
-3969.5909639516171
 21
397727.1868205209
 31
0.0
  0
LINE
  5
6725C
  8
S-OBRYS
  6
CONTINUOUS
 10
-4134.5909639516176
 20
397168.1868205209
 30
0.0
 11
-3454.5909639516181
 21
397168.1868205209
 31
0.0
  0
LINE
  5
6725D
  8
S-OBRYS
  6
CONTINUOUS
 10
-4134.5909639516176
 20
397786.18682052079
 30
0.0
 11
-3454.5909639516181
 21
397786.18682052079
 31
0.0
  0
LINE
  5
6725E
  8
S-OBRYS
  6
CONTINUOUS
 10
-3794.5909639516171
 20
397852.1868205209
 30
0.0
 11
-3794.5909639516171
 21
397102.1868205209
 31
0.0
  0
LINE
  5
6725F
  8
S-OBRYS
  6
CONTINUOUS
 10
-3942.2198662985029
 20
397852.1868205209
 30
0.0
 11
-3942.2198662985029
 21
397102.1868205209
 31
0.0
  0
LINE
  5
67260
  8
S-OBRYS
  6
CONTINUOUS
 10
-3619.5909639516181
 20
397852.1868205209
 30
0.0
 11
-3619.5909639516181
 21
397102.1868205209
 31
0.0
  0
LINE
  5
67261
  8
S-OBRYS
  6
CONTINUOUS
 10
-2777.588484810396
 20
398552.1868205209
 30
0.0
 11
-5247.0079302508393
 21
398552.1868205209
 31
0.0
  0
LINE
  5
67262
  8
S-OBRYS
  6
CONTINUOUS
 10
-5247.0079302508393
 20
398661.17253606149
 30
0.0
 11
-5247.0079302508393
 21
396753.9354193777
 31
0.0
  0
LINE
  5
67263
  8
S-OBRYS
  6
CONTINUOUS
 10
-5134.5909639516176
 20
396402.1868205209
 30
0.0
 11
-5134.5909639516176
 21
398552.1868205209
 31
0.0
  0
LINE
  5
67264
  8
S-OBRYS
  6
CONTINUOUS
 10
-5134.5909639516176
 20
398552.1868205209
 30
0.0
 11
-2689.0249921281938
 21
398552.1868205209
 31
0.0
  0
LINE
  5
67265
  8
S-OBRYS
  6
CONTINUOUS
 10
-2689.0249921281938
 20
398552.1868205209
 30
0.0
 11
-2777.5884848104429
 21
398661.17253606149
 31
0.0
  0
LINE
  5
67266
  8
S-OBRYS
  6
CONTINUOUS
 10
-5247.0079302508393
 20
396753.9354193777
 30
0.0
 11
-5247.0079302508393
 21
396402.1868205209
 31
0.0
  0
LINE
  5
67267
  8
S-OBRYS
  6
CONTINUOUS
 10
-5247.0079302508393
 20
396402.1868205209
 30
0.0
 11
-5247.0079302508393
 21
396272.08270776202
 31
0.0
  0
LINE
  5
67268
  8
S-OBRYS
  6
CONTINUOUS
 10
-5247.0079302508393
 20
396272.08270776202
 30
0.0
 11
-3230.9278166754962
 21
396272.08270776202
 31
0.0
  0
LINE
  5
67269
  8
S-OBRYS
  6
CONTINUOUS
 10
-3230.9278166754962
 20
396272.08270776202
 30
0.0
 11
-3351.1966174361301
 21
396402.1868205209
 31
0.0
  0
LINE
  5
6726A
  8
S-OBRYS
  6
CONTINUOUS
 10
-3351.1966174361301
 20
396402.1868205209
 30
0.0
 11
-5134.5909639516176
 21
396402.1868205209
 31
0.0
  0
LINE
  5
6726B
  8
S-OBRYS
  6
CONTINUOUS
 10
-5134.5909639516176
 20
398552.1868205209
 30
0.0
 11
-5056.6520739475072
 21
398661.17253606138
 31
0.0
  0
LINE
  5
6726C
  8
S-OBRYS
  6
CONTINUOUS
 10
-5069.4090158916806
 20
398552.1868205209
 30
0.0
 11
-4991.4701258875702
 21
398661.17253606138
 31
0.0
  0
LINE
  5
6726D
  8
S-OBRYS
  6
CONTINUOUS
 10
-5000.7037488823553
 20
398552.1868205209
 30
0.0
 11
-4922.7648588782449
 21
398661.17253606138
 31
0.0
  0
LINE
  5
6726E
  8
S-OBRYS
  6
CONTINUOUS
 10
-4926.7134121995923
 20
398552.1868205209
 30
0.0
 11
-4848.774522195481
 21
398661.17253606138
 31
0.0
  0
LINE
  5
6726F
  8
S-OBRYS
  6
CONTINUOUS
 10
-4856.2464857155583
 20
398552.1868205209
 30
0.0
 11
-4778.307595711447
 21
398661.17253606138
 31
0.0
  0
LINE
  5
67270
  8
S-OBRYS
  6
CONTINUOUS
 10
-4784.0178085075022
 20
398552.1868205209
 30
0.0
 11
-4706.0789185033918
 21
398661.17253606138
 31
0.0
  0
LINE
  5
67271
  8
S-OBRYS
  6
CONTINUOUS
 10
-4708.2659035993574
 20
398552.1868205209
 30
0.0
 11
-4630.3270135952462
 21
398661.17253606138
 31
0.0
  0
LINE
  5
67272
  8
S-OBRYS
  6
CONTINUOUS
 10
-4632.5139074418976
 20
398552.1868205209
 30
0.0
 11
-4554.5750174377872
 21
398661.17253606138
 31
0.0
  0
LINE
  5
67273
  8
S-OBRYS
  6
CONTINUOUS
 10
-4560.2852302338433
 20
398552.1868205209
 30
0.0
 11
-4482.346340229732
 21
398661.17253606138
 31
0.0
  0
LINE
  5
67274
  8
S-OBRYS
  6
CONTINUOUS
 10
-4489.8183037498093
 20
398552.1868205209
 30
0.0
 11
-4411.879413745698
 21
398661.17253606138
 31
0.0
  0
LINE
  5
67275
  8
S-OBRYS
  6
CONTINUOUS
 10
-4415.8279670670454
 20
398552.1868205209
 30
0.0
 11
-4337.889077062935
 21
398661.17253606138
 31
0.0
  0
LINE
  5
67276
  8
S-OBRYS
  6
CONTINUOUS
 10
-4341.8376303842806
 20
398552.1868205209
 30
0.0
 11
-4263.8987403801711
 21
398661.17253606138
 31
0.0
  0
LINE
  5
67277
  8
S-OBRYS
  6
CONTINUOUS
 10
-4276.6557735736706
 20
398552.1868205209
 30
0.0
 11
-4198.7168835695611
 21
398661.17253606138
 31
0.0
  0
LINE
  5
67278
  8
S-OBRYS
  6
CONTINUOUS
 10
-4209.712074789727
 20
398552.1868205209
 30
0.0
 11
-4131.7731847856166
 21
398661.17253606138
 31
0.0
  0
LINE
  5
67279
  8
S-OBRYS
  6
CONTINUOUS
 10
-4137.4834888309852
 20
398552.1868205209
 30
0.0
 11
-4059.5445988268748
 21
398661.17253606138
 31
0.0
  0
LINE
  5
6727A
  8
S-OBRYS
  6
CONTINUOUS
 10
-4061.7314926735262
 20
398552.1868205209
 30
0.0
 11
-3983.7926026694172
 21
398661.17253606138
 31
0.0
  0
LINE
  5
6727B
  8
S-OBRYS
  6
CONTINUOUS
 10
-3982.4561775666521
 20
398552.1868205209
 30
0.0
 11
-3904.5172875625408
 21
398661.17253606138
 31
0.0
  0
LINE
  5
6727C
  8
S-OBRYS
  6
CONTINUOUS
 10
-3897.4134488526911
 20
398552.1868205209
 30
0.0
 11
-3819.4745588485798
 21
398661.17253606138
 31
0.0
  0
LINE
  5
6727D
  8
S-OBRYS
  6
CONTINUOUS
 10
-3811.091404597697
 20
398552.1868205209
 30
0.0
 11
-3733.1525145935861
 21
398661.17253606138
 31
0.0
  0
LINE
  5
6727E
  8
S-OBRYS
  6
CONTINUOUS
 10
-3728.292770541419
 20
398552.1868205209
 30
0.0
 11
-3650.3538805373082
 21
398661.17253606138
 31
0.0
  0
LINE
  5
6727F
  8
S-OBRYS
  6
CONTINUOUS
 10
-3654.3024338586551
 20
398552.1868205209
 30
0.0
 11
-3576.3635438545439
 21
398661.17253606138
 31
0.0
  0
LINE
  5
67280
  8
S-OBRYS
  6
CONTINUOUS
 10
-3580.3120971758908
 20
398552.1868205209
 30
0.0
 11
-3502.3732071717809
 21
398661.17253606138
 31
0.0
  0
LINE
  5
67281
  8
S-OBRYS
  6
CONTINUOUS
 10
-3501.0367820690299
 20
398552.1868205209
 30
0.0
 11
-3423.0978920649191
 21
398661.17253606138
 31
0.0
  0
LINE
  5
67282
  8
S-OBRYS
  6
CONTINUOUS
 10
-3419.9998074874602
 20
398552.1868205209
 30
0.0
 11
-3342.0609174833498
 21
398661.17253606138
 31
0.0
  0
LINE
  5
67283
  8
S-OBRYS
  6
CONTINUOUS
 10
-3342.4861518552939
 20
398552.1868205209
 30
0.0
 11
-3264.5472618511831
 21
398661.17253606138
 31
0.0
  0
LINE
  5
67284
  8
S-OBRYS
  6
CONTINUOUS
 10
-3266.7341556978358
 20
398552.1868205209
 30
0.0
 11
-3188.795265693725
 21
398661.17253606138
 31
0.0
  0
LINE
  5
67285
  8
S-OBRYS
  6
CONTINUOUS
 10
-3190.9821595403632
 20
398552.1868205209
 30
0.0
 11
-3113.0432695362529
 21
398661.17253606138
 31
0.0
  0
LINE
  5
67286
  8
S-OBRYS
  6
CONTINUOUS
 10
-3109.9451849587931
 20
398552.1868205209
 30
0.0
 11
-3032.0062949546832
 21
398661.17253606138
 31
0.0
  0
LINE
  5
67287
  8
S-OBRYS
  6
CONTINUOUS
 10
-3039.4781672254321
 20
398552.1868205209
 30
0.0
 11
-2961.5392772213222
 21
398661.17253606138
 31
0.0
  0
LINE
  5
67288
  8
S-OBRYS
  6
CONTINUOUS
 10
-2967.2495812667039
 20
398552.1868205209
 30
0.0
 11
-2889.310691262594
 21
398661.17253606138
 31
0.0
  0
LINE
  5
67289
  8
S-OBRYS
  6
CONTINUOUS
 10
-2898.5442230080521
 20
398552.1868205209
 30
0.0
 11
-2820.6053330039408
 21
398661.17253606138
 31
0.0
  0
LINE
  5
6728A
  8
S-OBRYS
  6
CONTINUOUS
 10
-2828.077296524018
 20
398552.1868205209
 30
0.0
 11
-2762.987643857954
 21
398643.2048266757
 31
0.0
  0
LINE
  5
6728B
  8
S-OBRYS
  6
CONTINUOUS
 10
-2771.703737086922
 20
398552.1868205209
 30
0.0
 11
-2732.7342920848678
 21
398606.6796782912
 31
0.0
  0
LINE
  5
6728C
  8
S-OBRYS
  6
CONTINUOUS
 10
-5247.0079302508393
 20
398506.79549496598
 30
0.0
 11
-5123.3981266928149
 21
398661.17253606138
 31
0.0
  0
LINE
  5
6728D
  8
S-OBRYS
  6
CONTINUOUS
 10
-5247.0079302508393
 20
398585.9983566411
 30
0.0
 11
-5193.2486639842809
 21
398661.17253606138
 31
0.0
  0
LINE
  5
6728E
  8
S-OBRYS
  6
CONTINUOUS
 10
-5247.0079302508393
 20
398304.26450448658
 30
0.0
 11
-5134.5909639516176
 21
398444.6627425442
 31
0.0
  0
LINE
  5
6728F
  8
S-OBRYS
  6
CONTINUOUS
 10
-5247.0079302508393
 20
398203.42751742108
 30
0.0
 11
-5134.5909639516176
 21
398355.17230171291
 31
0.0
  0
LINE
  5
67290
  8
S-OBRYS
  6
CONTINUOUS
 10
-5247.0079302508393
 20
398102.7727311526
 30
0.0
 11
-5134.5909639516176
 21
398254.51751544437
 31
0.0
  0
LINE
  5
67291
  8
S-OBRYS
  6
CONTINUOUS
 10
-5247.0079302508393
 20
397991.4424389652
 30
0.0
 11
-5134.5909639516176
 21
398143.18722325697
 31
0.0
  0
LINE
  5
67292
  8
S-OBRYS
  6
CONTINUOUS
 10
-5247.0079302508393
 20
397880.58786184789
 30
0.0
 11
-5134.5909639516176
 21
398032.33264613972
 31
0.0
  0
LINE
  5
67293
  8
S-OBRYS
  6
CONTINUOUS
 10
-5247.0079302508393
 20
397758.64100439718
 30
0.0
 11
-5134.5909639516176
 21
397910.38578868908
 31
0.0
  0
LINE
  5
67294
  8
S-OBRYS
  6
CONTINUOUS
 10
-5247.0079302508393
 20
397640.35260079661
 30
0.0
 11
-5134.5909639516176
 21
397792.09738508839
 31
0.0
  0
LINE
  5
67295
  8
S-OBRYS
  6
CONTINUOUS
 10
-5247.0079302508393
 20
397515.9667552397
 30
0.0
 11
-5134.5909639516176
 21
397667.71153953148
 31
0.0
  0
LINE
  5
67296
  8
S-OBRYS
  6
CONTINUOUS
 10
-5247.0079302508393
 20
397391.5809663019
 30
0.0
 11
-5134.5909639516176
 21
397543.32575059368
 31
0.0
  0
LINE
  5
67297
  8
S-OBRYS
  6
CONTINUOUS
 10
-5247.0079302508393
 20
397266.3921463195
 30
0.0
 11
-5134.5909639516176
 21
397418.13693061128
 31
0.0
  0
LINE
  5
67298
  8
S-OBRYS
  6
CONTINUOUS
 10
-5247.0079302508393
 20
397137.67849395418
 30
0.0
 11
-5134.5909639516176
 21
397289.42327824607
 31
0.0
  0
LINE
  5
67299
  8
S-OBRYS
  6
CONTINUOUS
 10
-5247.0079302508393
 20
397005.06439699762
 30
0.0
 11
-5134.5909639516176
 21
397156.8091812894
 31
0.0
  0
LINE
  5
6729A
  8
S-OBRYS
  6
CONTINUOUS
 10
-5247.0079302508393
 20
396864.64952409698
 30
0.0
 11
-5134.5909639516176
 21
397016.39430838882
 31
0.0
  0
LINE
  5
6729B
  8
S-OBRYS
  6
CONTINUOUS
 10
-5247.0079302508393
 20
396745.68689828092
 30
0.0
 11
-5134.5909639516176
 21
396897.43168257282
 31
0.0
  0
LINE
  5
6729C
  8
S-OBRYS
  6
CONTINUOUS
 10
-5247.0079302508393
 20
396600.17906581587
 30
0.0
 11
-5134.5909639516176
 21
396751.92385010771
 31
0.0
  0
LINE
  5
6729D
  8
S-OBRYS
  6
CONTINUOUS
 10
-5247.0079302508393
 20
396459.83202279551
 30
0.0
 11
-5134.5909639516176
 21
396611.57680708729
 31
0.0
  0
LINE
  5
6729E
  8
S-OBRYS
  6
CONTINUOUS
 10
-5247.0079302508393
 20
396322.60379540402
 30
0.0
 11
-5134.5909639516176
 21
396474.3485796958
 31
0.0
  0
LINE
  5
6729F
  8
S-OBRYS
  6
CONTINUOUS
 10
-5171.3706344953098
 20
396272.08270776208
 30
0.0
 11
-5076.4908482686151
 21
396402.1868205209
 31
0.0
  0
LINE
  5
672A0
  8
S-OBRYS
  6
CONTINUOUS
 10
-5070.098209529926
 20
396272.08270776208
 30
0.0
 11
-4975.2184233032322
 21
396402.1868205209
 31
0.0
  0
LINE
  5
672A1
  8
S-OBRYS
  6
CONTINUOUS
 10
-4971.1947995485971
 20
396272.08270776208
 30
0.0
 11
-4876.3150133219033
 21
396402.1868205209
 31
0.0
  0
LINE
  5
672A2
  8
S-OBRYS
  6
CONTINUOUS
 10
-4874.0681051806459
 20
396272.08270776208
 30
0.0
 11
-4779.1883189539512
 21
396402.1868205209
 31
0.0
  0
LINE
  5
672A3
  8
S-OBRYS
  6
CONTINUOUS
 10
-4767.3062120531104
 20
396272.08270776208
 30
0.0
 11
-4672.4264258264147
 21
396402.1868205209
 31
0.0
  0
LINE
  5
672A4
  8
S-OBRYS
  6
CONTINUOUS
 10
-4664.8493708450114
 20
396272.08270776208
 30
0.0
 11
-4569.9695846183158
 21
396402.1868205209
 31
0.0
  0
LINE
  5
672A5
  8
S-OBRYS
  6
CONTINUOUS
 10
-4544.0331653817702
 20
396272.08270776208
 30
0.0
 11
-4449.1533791550764
 21
396402.1868205209
 31
0.0
  0
LINE
  5
672A6
  8
S-OBRYS
  6
CONTINUOUS
 10
-4415.2875760465404
 20
396272.08270776208
 30
0.0
 11
-4320.4077898198448
 21
396402.1868205209
 31
0.0
  0
LINE
  5
672A7
  8
S-OBRYS
  6
CONTINUOUS
 10
-4290.9180306058552
 20
396272.08270776208
 30
0.0
 11
-4196.0382443791614
 21
396402.1868205209
 31
0.0
  0
LINE
  5
672A8
  8
S-OBRYS
  6
CONTINUOUS
 10
-4164.7716783024798
 20
396272.08270776208
 30
0.0
 11
-4069.891892075786
 21
396402.1868205209
 31
0.0
  0
LINE
  5
672A9
  8
S-OBRYS
  6
CONTINUOUS
 10
-4033.7028811444911
 20
396272.08270776208
 30
0.0
 11
-3938.823094917796
 21
396402.1868205209
 31
0.0
  0
LINE
  5
672AA
  8
S-OBRYS
  6
CONTINUOUS
 10
-3905.7799044770509
 20
396272.08270776208
 30
0.0
 11
-3810.9001182503562
 21
396402.1868205209
 31
0.0
  0
LINE
  5
672AB
  8
S-OBRYS
  6
CONTINUOUS
 10
-3776.9749118310292
 20
396272.08270776208
 30
0.0
 11
-3682.095125604334
 21
396402.1868205209
 31
0.0
  0
LINE
  5
672AC
  8
S-OBRYS
  6
CONTINUOUS
 10
-3652.9022004456342
 20
396272.08270776208
 30
0.0
 11
-3558.02241421894
 21
396402.1868205209
 31
0.0
  0
LINE
  5
672AD
  8
S-OBRYS
  6
CONTINUOUS
 10
-3535.4593912902792
 20
396272.08270776208
 30
0.0
 11
-3440.579605063584
 21
396402.1868205209
 31
0.0
  0
LINE
  5
672AE
  8
S-OBRYS
  6
CONTINUOUS
 10
-3427.4877146076042
 20
396272.08270776208
 30
0.0
 11
-3340.8054762639372
 21
396390.94591519702
 31
0.0
  0
LINE
  5
672AF
  8
S-OBRYS
  6
CONTINUOUS
 10
-3320.4632059217702
 20
396272.08270776208
 30
0.0
 11
-3280.9784074838062
 21
396326.22632330481
 31
0.0
  0
DIMENSION
  5
672B0
  8
S-OBRYS
  6
CONTINUOUS
  2
*D86
 10
-3619.5909639516181
 20
396402.1868205209
 30
0.0
 11
-3707.0909639516822
 21
396752.1868205209
 31
0.0
 70
     0
 13
-3619.5909639516181
 23
397102.1868205209
 33
0.0
 14
-3619.5909639516181
 24
396402.1868205209
 34
0.0
 50
90.0
  0
DIMENSION
  5
672B1
  8
S-OBRYS
  6
CONTINUOUS
  2
*D87
 10
-5134.5909639516176
 20
397852.18682052079
 30
0.0
 11
-4634.5909639516176
 21
397939.68682052079
 31
0.0
 70
     0
 13
-4134.5909639516176
 23
397852.1868205209
 33
0.0
 14
-5134.5909639516176
 24
397852.18682052079
 34
0.0
  0
LINE
  5
672B2
  8
S-OBRYS
  6
CONTINUOUS
 10
-2777.5884848104429
 20
398661.17253606149
 30
0.0
 11
-5247.0079302508393
 21
398661.17253606149
 31
0.0
  0
LINE
  5
672B3
  8
S-OBRYS
  6
CONTINUOUS
 10
-5247.0079302508393
 20
398411.089771564
 30
0.0
 11
-5134.5909639516176
 21
398552.1868205209
 31
0.0
  0
DIMENSION
  5
672B4
  8
S-OBRYS
  6
CONTINUOUS
  2
*D88
 10
-3618.744110502565
 20
398552.1868205209
 30
0.0
 11
-3706.2441105026292
 21
398202.1868205209
 31
0.0
 70
     0
 13
-3619.5909639516181
 23
397852.1868205209
 33
0.0
 14
-3619.5909639516158
 24
398552.1868205209
 34
0.0
 50
90.0
  0
LINE
  5
672B5
  8
S-OBRYS
  6
CONTINUOUS
 10
-4039.5909639516171
 20
397227.18682052079
 30
0.0
 11
-3839.5909639516181
 21
397227.18682052079
 31
0.0
  0
LINE
  5
672B6
  8
S-OBRYS
  6
CONTINUOUS
 10
-3839.5909639516181
 20
397227.18682052079
 30
0.0
 11
-3839.5909639516158
 21
397727.18682052079
 31
0.0
  0
LINE
  5
672B7
  8
S-OBRYS
  6
CONTINUOUS
 10
-4039.5909639516171
 20
397727.18682052079
 30
0.0
 11
-3839.5909639516181
 21
397727.18682052079
 31
0.0
  0
LINE
  5
672B8
  8
S-OBRYS
  6
CONTINUOUS
 10
-4039.5909639516171
 20
397227.18682052079
 30
0.0
 11
-4039.5909639520319
 21
397727.18682052079
 31
0.0
  0
VIEWPORT
  5
1FAB5
 67
     1
  8
0
  6
ČERCHOVANÁ
 10
12.669026204836801
 20
9.4585013259736659
 30
0.0
 40
41.707206501782828
 41
24.2248555085413
 68
     1
 69
     1
1001
ACAD
1000
MVIEW
1002
{
1070
    16
1010
0.0
1020
0.0
1030
0.0
1010
0.0
1020
0.0
1030
1.0
1040
0.0
1040
24.2248555085413
1040
12.669026204836801
1040
9.4585013259736659
1040
50.0
1040
0.0
1040
0.0
1070
     0
1070
   100
1070
     1
1070
     1
1070
     0
1070
     0
1070
     0
1070
     0
1040
0.0
1040
0.0
1040
0.0
1040
10.0
1040
10.0
1040
10.0
1040
10.0
1070
     0
1002
{
1002
}
1002
}
  0
VIEWPORT
  5
1FAB7
 67
     1
  8
2-VZT
  6
ČERCHOVANÁ
 10
5.24999976158142
 20
3.99999976158142
 30
0.0
 40
8.3999996185302717
 41
6.3999996185302717
 68
     2
 69
     2
1001
ACAD
1000
MVIEW
1002
{
1070
    16
1010
0.0
1020
0.0
1030
0.0
1010
0.0
1020
0.0
1030
1.0
1040
0.0
1040
517776.44812413253
1040
-335493.7046016907
1040
-205251.99203018961
1040
50.0
1040
0.0
1040
0.0
1070
     0
1070
   100
1070
     1
1070
     0
1070
     0
1070
     0
1070
     0
1070
     0
1040
0.0
1040
0.0
1040
0.0
1040
1.0
1040
1.0
1040
1.0
1040
1.0
1070
     0
1002
{
1002
}
1002
}
  0
ENDSEC
  0
EOF
