  0
SECTION
  2
HEADER
  9
$ACADVER
  1
AC1009
  9
$INSBASE
 10
0.0
 20
0.0
 30
0.0
  9
$EXTMIN
 10
17309.31774476992
 20
393788.58852907608
 30
0.0
  9
$EXTMAX
 10
42893.928374259129
 20
408638.58852907602
 30
0.0
  9
$LIMMIN
 10
-127022.6804658414
 20
-67144.462473645661
  9
$LIMMAX
 10
-873.19720690528334
 20
6755.1563308572058
  9
$ORTHOMODE
 70
     1
  9
$REGENMODE
 70
     1
  9
$FILLMODE
 70
     1
  9
$QTEXTMODE
 70
     0
  9
$MIRRTEXT
 70
     0
  9
$DRAGMODE
 70
     2
  9
$LTSCALE
 40
50.0
  9
$OSMODE
 70
   679
  9
$ATTMODE
 70
     1
  9
$TEXTSIZE
 40
200.0
  9
$TRACEWID
 40
10.0
  9
$TEXTSTYLE
  7
R
  9
$CLAYER
  8
S-OBRYS
  9
$CELTYPE
  6
CONTINUOUS
  9
$CECOLOR
 62
   256
  9
$DIMSCALE
 40
50.0
  9
$DIMASZ
 40
2.0
  9
$DIMEXO
 40
0.063
  9
$DIMDLI
 40
5.0
  9
$DIMRND
 40
0.0
  9
$DIMDLE
 40
0.0
  9
$DIMEXE
 40
0.2
  9
$DIMTP
 40
0.0
  9
$DIMTM
 40
0.0
  9
$DIMTXT
 40
2.0
  9
$DIMCEN
 40
2.0
  9
$DIMTSZ
 40
0.0
  9
$DIMTOL
 70
     0
  9
$DIMLIM
 70
     0
  9
$DIMTIH
 70
     0
  9
$DIMTOH
 70
     0
  9
$DIMSE1
 70
     0
  9
$DIMSE2
 70
     0
  9
$DIMTAD
 70
     1
  9
$DIMZIN
 70
    12
  9
$DIMBLK
  1

  9
$DIMASO
 70
     1
  9
$DIMSHO
 70
     0
  9
$DIMPOST
  1

  9
$DIMAPOST
  1

  9
$DIMALT
 70
     0
  9
$DIMALTD
 70
     2
  9
$DIMALTF
 40
25.399999999999999
  9
$DIMLFAC
 40
1.0
  9
$DIMTOFL
 70
     1
  9
$DIMTVP
 40
0.0
  9
$DIMTIX
 70
     0
  9
$DIMSOXD
 70
     0
  9
$DIMSAH
 70
     1
  9
$DIMBLK1
  1
OPEN
  9
$DIMBLK2
  1
OPEN
  9
$DIMSTYLE
  2
EMBABA
  9
$DIMCLRD
 70
     0
  9
$DIMCLRE
 70
     0
  9
$DIMCLRT
 70
     7
  9
$DIMTFAC
 40
1.0
  9
$DIMGAP
 40
0.5
  9
$LUNITS
 70
     2
  9
$LUPREC
 70
     0
  9
$SKETCHINC
 40
10.0
  9
$FILLETRAD
 40
400.0
  9
$AUNITS
 70
     0
  9
$AUPREC
 70
     4
  9
$MENU
  1
ACAD
  9
$ELEVATION
 40
0.0
  9
$PELEVATION
 40
0.0
  9
$THICKNESS
 40
0.0
  9
$LIMCHECK
 70
     0
  9
$BLIPMODE
 70
     0
  9
$CHAMFERA
 40
0.0
  9
$CHAMFERB
 40
0.0
  9
$SKPOLY
 70
     0
  9
$TDCREATE
 40
2450205.720229167
  9
$TDUPDATE
 40
2453528.5080794222
  9
$TDINDWG
 40
42.422195162000001
  9
$TDUSRTIMER
 40
42.422195162000001
  9
$USRTIMER
 70
     1
  9
$ANGBASE
 50
0.0
  9
$ANGDIR
 70
     0
  9
$PDMODE
 70
     2
  9
$PDSIZE
 40
-5.0
  9
$PLINEWID
 40
0.0
  9
$COORDS
 70
     0
  9
$SPLFRAME
 70
     0
  9
$SPLINETYPE
 70
     6
  9
$SPLINESEGS
 70
     8
  9
$ATTDIA
 70
     0
  9
$ATTREQ
 70
     1
  9
$HANDLING
 70
     1
  9
$HANDSEED
  5
67AC1
  9
$SURFTAB1
 70
    18
  9
$SURFTAB2
 70
    18
  9
$SURFTYPE
 70
     6
  9
$SURFU
 70
    18
  9
$SURFV
 70
    18
  9
$UCSNAME
  2

  9
$UCSORG
 10
0.0
 20
0.0
 30
0.0
  9
$UCSXDIR
 10
1.0
 20
0.0
 30
0.0
  9
$UCSYDIR
 10
0.0
 20
1.0
 30
0.0
  9
$PUCSNAME
  2

  9
$PUCSORG
 10
0.0
 20
0.0
 30
0.0
  9
$PUCSXDIR
 10
1.0
 20
0.0
 30
0.0
  9
$PUCSYDIR
 10
0.0
 20
1.0
 30
0.0
  9
$USERI1
 70
     0
  9
$USERI2
 70
     0
  9
$USERI3
 70
     0
  9
$USERI4
 70
     0
  9
$USERI5
 70
     0
  9
$USERR1
 40
0.0
  9
$USERR2
 40
50.0
  9
$USERR3
 40
0.0
  9
$USERR4
 40
0.0
  9
$USERR5
 40
0.0
  9
$WORLDVIEW
 70
     1
  9
$SHADEDGE
 70
     3
  9
$SHADEDIF
 70
    70
  9
$TILEMODE
 70
     1
  9
$MAXACTVP
 70
    16
  9
$PLIMCHECK
 70
     0
  9
$PEXTMIN
 10
1.049999952316284
 20
0.7999999523162842
 30
0.0
  9
$PEXTMAX
 10
9.4499995708465558
 20
7.1999995708465558
 30
0.0
  9
$PLIMMIN
 10
-0.2500002402958907
 20
-0.2499999962453767
  9
$PLIMMAX
 10
10.74999951940821
 20
8.2499997634587316
  9
$UNITMODE
 70
     0
  9
$VISRETAIN
 70
     0
  9
$PLINEGEN
 70
     0
  9
$PSLTSCALE
 70
     1
  0
ENDSEC
  0
SECTION
  2
TABLES
  0
TABLE
  2
VPORT
 70
     4
  0
VPORT
  2
*ACTIVE
 70
     0
 10
0.0
 20
0.0
 11
1.0
 21
1.0
 12
29941.649459360891
 22
401025.79304527899
 13
0.0
 23
0.0
 14
1.0
 24
1.0
 15
1.0
 25
1.0
 16
0.0
 26
0.0
 36
1.0
 17
0.0
 27
0.0
 37
0.0
 40
30784.549731636071
 41
1.6116303219106951
 42
50.0
 43
0.0
 44
0.0
 50
0.0
 51
0.0
 71
     0
 72
   100
 73
     1
 74
     0
 75
     0
 76
     1
 77
     0
 78
     0
  0
ENDTAB
  0
TABLE
  2
LTYPE
 70
     2
  0
LTYPE
  2
CONTINUOUS
 70
     0
  3
Solid line
 72
    65
 73
     0
 40
0.0
  0
LTYPE
  2
ČERCHOVANÁ
 70
     0
  3
Čerchovaná __ . __ . __ . __ . __ . __ . __ . _
 72
    65
 73
     4
 40
1.0
 49
0.5
 49
-0.25
 49
0.0
 49
-0.25
  0
ENDTAB
  0
TABLE
  2
LAYER
 70
    11
  0
LAYER
  2
0
 70
     0
 62
     7
  6
CONTINUOUS
  0
LAYER
  2
RAZ
 70
     0
 62
     7
  6
CONTINUOUS
  0
LAYER
  2
KOTY
 70
     0
 62
     2
  6
CONTINUOUS
  0
LAYER
  2
DEFPOINTS
 70
     0
 62
     7
  6
CONTINUOUS
  0
LAYER
  2
2-VZT
 70
     0
 62
     4
  6
CONTINUOUS
  0
LAYER
  2
OBRYS
 70
     0
 62
     7
  6
CONTINUOUS
  0
LAYER
  2
S-OBRYS
 70
     0
 62
     7
  6
CONTINUOUS
  0
ENDTAB
  0
TABLE
  2
STYLE
 70
     7
  0
STYLE
  2
STANDARD
 70
     0
 40
0.0
 41
0.8
 50
0.0
 71
     0
 42
200.0
  3
ROMANS.SHX
  4

  0
STYLE
  2
R
 70
     0
 40
0.0
 41
1.0
 50
0.0
 71
     0
 42
200.0
  3
romans.shx
  4

  0
STYLE
  2
ROMANS
 70
     0
 40
0.0
 41
0.8
 50
0.0
 71
     0
 42
300.0
  3
ROMANS.shx
  4

  0
STYLE
  2
R08
 70
     0
 40
0.0
 41
0.8
 50
0.0
 71
     0
 42
800.0
  3
ROMANS.shx
  4

  0
STYLE
  2
ROMANT
 70
     0
 40
0.0
 41
0.7
 50
0.0
 71
     0
 42
3.0
  3
romant
  4

  0
STYLE
  2
CYRILLIC
 70
     0
 40
2.2999999999999989
 41
0.7
 50
0.0
 71
     0
 42
2.2999999999999989
  3
cyrillic
  4

  0
ENDTAB
  0
TABLE
  2
VIEW
 70
     0
  0
ENDTAB
  0
TABLE
  2
UCS
 70
     0
  0
ENDTAB
  0
TABLE
  2
APPID
 70
     6
  0
APPID
  2
ACAD
 70
     0
  0
APPID
  2
PHOENIX7010
 70
     0
  0
APPID
  2
CONTENTBLOCKICON
 70
     0
  0
APPID
  2
CONTENTLONGBLOCKNAME
 70
     0
  0
APPID
  2
ACAD_DSTYLE_DIMTEXT_FILL
 70
     0
  0
APPID
  2
DCO15
 70
     0
  0
ENDTAB
  0
TABLE
  2
DIMSTYLE
 70
     4
  0
DIMSTYLE
  2
STANDARD
 70
     0
  3

  4

  5

  6
OPEN
  7
OPEN
 40
1.0
 41
80.0
 42
1.0
 43
0.0
 44
1.0
 45
0.0
 46
0.8
 47
0.0
 48
0.0
140
70.0
141
-3.0
142
0.0
143
0.0394
144
1.0
145
1.0
146
0.5
147
1.0
 71
     0
 72
     0
 73
     0
 74
     0
 75
     0
 76
     0
 77
     0
 78
     8
170
     0
171
     2
172
     1
173
     1
174
     0
175
     0
176
     7
177
     7
178
     2
  0
DIMSTYLE
  2
EMBABA
 70
     0
  3

  4

  5

  6
OPEN
  7
OPEN
 40
50.0
 41
2.0
 42
0.063
 43
5.0
 44
0.2
 45
0.0
 46
0.0
 47
0.0
 48
0.0
140
2.0
141
2.0
142
0.0
143
25.399999999999999
144
1.0
145
0.0
146
1.0
147
0.5
 71
     0
 72
     0
 73
     0
 74
     0
 75
     0
 76
     0
 77
     1
 78
    12
170
     0
171
     2
172
     1
173
     1
174
     0
175
     0
176
     0
177
     0
178
     7
  0
ENDTAB
  0
ENDSEC
  0
SECTION
  2
BLOCKS
  0
BLOCK
  8
0
  2
$MODEL_SPACE
 70
     0
 10
0.0
 20
0.0
 30
0.0
  3
$MODEL_SPACE
  1

  0
ENDBLK
  5
9
  8
0
  0
BLOCK
 67
     1
  8
0
  2
$PAPER_SPACE
 70
     0
 10
0.0
 20
0.0
 30
0.0
  3
$PAPER_SPACE
  1

  0
ENDBLK
  5
E
 67
     1
  8
0
  0
BLOCK
  8
0
  2
_OPEN
 70
     0
 10
0.0
 20
0.0
 30
0.0
  3
_OPEN
  1

  0
LINE
  5
28
  8
0
  6
BYBLOCK
 62
     0
 10
-1.0
 20
0.1666666666666666
 30
0.0
 11
0.0
 21
0.0
 31
0.0
  0
LINE
  5
29
  8
0
  6
BYBLOCK
 62
     0
 10
0.0
 20
0.0
 30
0.0
 11
-1.0
 21
-0.1666666666666666
 31
0.0
  0
LINE
  5
2A
  8
0
  6
BYBLOCK
 62
     0
 10
0.0
 20
0.0
 30
0.0
 11
-1.0
 21
0.0
 31
0.0
  0
ENDBLK
  5
2C
  8
0
  0
BLOCK
  8
0
  2
*D48
 70
     1
 10
0.0
 20
0.0
 30
0.0
  3
*D48
  1

  0
LINE
  5
66D1D
  8
S-OBRYS
  6
CONTINUOUS
 62
     0
 10
24448.705062844168
 20
398887.301959112
 30
0.0
 11
24828.88541625996
 21
398887.301959112
 31
0.0
  0
LINE
  5
66D1E
  8
S-OBRYS
  6
CONTINUOUS
 62
     0
 10
24103.705062844168
 20
400387.30185471202
 30
0.0
 11
24828.88541625996
 21
400387.30185471202
 31
0.0
  0
LINE
  5
66D1F
  8
S-OBRYS
  6
CONTINUOUS
 62
     0
 10
24818.885416259949
 20
398987.301959112
 30
0.0
 11
24818.885416259949
 21
400287.30185471202
 31
0.0
  0
INSERT
  5
66D20
  8
S-OBRYS
  6
CONTINUOUS
 62
     0
  2
_OPEN
 10
24818.885416259949
 20
398887.301959112
 30
0.0
 41
100.0
 42
100.0
 43
100.0
 50
270.0
  0
INSERT
  5
66D21
  8
S-OBRYS
  6
CONTINUOUS
 62
     0
  2
_OPEN
 10
24818.885416259949
 20
400387.30185471202
 30
0.0
 41
100.0
 42
100.0
 43
100.0
 50
90.0
  0
INSERT
  5
66D22
  8
S-OBRYS
  6
CONTINUOUS
  2
*U143
 10
0.0
 20
0.0
 30
0.0
  0
POINT
  5
66D23
  8
DEFPOINTS
  6
CONTINUOUS
 62
     0
 10
24445.555062844171
 20
398887.301959112
 30
0.0
  0
POINT
  5
66D24
  8
DEFPOINTS
  6
CONTINUOUS
 62
     0
 10
24100.555062844171
 20
400387.30185471202
 30
0.0
  0
POINT
  5
66D25
  8
DEFPOINTS
  6
CONTINUOUS
 62
     0
 10
24818.885416259949
 20
400387.30185471202
 30
0.0
  0
ENDBLK
  5
66ADF
  8
0
  0
BLOCK
  8
0
  2
*D49
 70
     1
 10
0.0
 20
0.0
 30
0.0
  3
*D49
  1

  0
LINE
  5
66D26
  8
S-OBRYS
  6
CONTINUOUS
 62
     0
 10
23993.705062844168
 20
400172.30179251201
 30
0.0
 11
24621.637388678591
 21
400172.30179251201
 31
0.0
  0
LINE
  5
66D27
  8
S-OBRYS
  6
CONTINUOUS
 62
     0
 10
23993.705062844168
 20
400272.30179251201
 30
0.0
 11
24621.637388678591
 21
400272.30179251201
 31
0.0
  0
LINE
  5
66D28
  8
S-OBRYS
  6
CONTINUOUS
 62
     0
 10
24611.637388678591
 20
400372.30179251201
 30
0.0
 11
24611.637388678591
 21
400472.30179251201
 31
0.0
  0
LINE
  5
66D29
  8
S-OBRYS
  6
CONTINUOUS
 62
     0
 10
24611.637388678591
 20
400072.30179251201
 30
0.0
 11
24611.637388678591
 21
399728.01607822633
 31
0.0
  0
LINE
  5
66D2A
  8
S-OBRYS
  6
CONTINUOUS
 62
     0
 10
24611.637388678591
 20
400272.30179251201
 30
0.0
 11
24611.637388678591
 21
400172.30179251201
 31
0.0
  0
INSERT
  5
66D2B
  8
S-OBRYS
  6
CONTINUOUS
 62
     0
  2
_OPEN
 10
24611.637388678591
 20
400272.30179251201
 30
0.0
 41
100.0
 42
100.0
 43
100.0
 50
270.0
  0
INSERT
  5
66D2C
  8
S-OBRYS
  6
CONTINUOUS
 62
     0
  2
_OPEN
 10
24611.637388678591
 20
400172.30179251201
 30
0.0
 41
100.0
 42
100.0
 43
100.0
 50
90.0
  0
INSERT
  5
66D2D
  8
S-OBRYS
  6
CONTINUOUS
  2
*U144
 10
0.0
 20
0.0
 30
0.0
  0
POINT
  5
66D2E
  8
DEFPOINTS
  6
CONTINUOUS
 62
     0
 10
23990.555062844171
 20
400172.30179251201
 30
0.0
  0
POINT
  5
66D2F
  8
DEFPOINTS
  6
CONTINUOUS
 62
     0
 10
23990.555062844171
 20
400272.30179251201
 30
0.0
  0
POINT
  5
66D30
  8
DEFPOINTS
  6
CONTINUOUS
 62
     0
 10
24611.637388678591
 20
400272.30179251201
 30
0.0
  0
ENDBLK
  5
66AED
  8
0
  0
BLOCK
  8
0
  2
*D50
 70
     1
 10
0.0
 20
0.0
 30
0.0
  3
*D50
  1

  0
LINE
  5
66D31
  8
S-OBRYS
  6
CONTINUOUS
 62
     0
 10
23930.555062844171
 20
400275.45179251197
 30
0.0
 11
23930.555062844171
 21
400518.3698255698
 31
0.0
  0
LINE
  5
66D32
  8
S-OBRYS
  6
CONTINUOUS
 62
     0
 10
23990.555062844171
 20
400275.45179251197
 30
0.0
 11
23990.555062844171
 21
400518.3698255698
 31
0.0
  0
LINE
  5
66D33
  8
S-OBRYS
  6
CONTINUOUS
 62
     0
 10
23830.555062844171
 20
400508.3698255698
 30
0.0
 11
23730.555062844171
 21
400508.3698255698
 31
0.0
  0
LINE
  5
66D34
  8
S-OBRYS
  6
CONTINUOUS
 62
     0
 10
24090.555062844171
 20
400508.3698255698
 30
0.0
 11
24366.26934855846
 21
400508.3698255698
 31
0.0
  0
LINE
  5
66D35
  8
S-OBRYS
  6
CONTINUOUS
 62
     0
 10
23930.555062844171
 20
400508.3698255698
 30
0.0
 11
23990.555062844171
 21
400508.3698255698
 31
0.0
  0
INSERT
  5
66D36
  8
S-OBRYS
  6
CONTINUOUS
 62
     0
  2
_OPEN
 10
23930.555062844171
 20
400508.3698255698
 30
0.0
 41
100.0
 42
100.0
 43
100.0
  0
INSERT
  5
66D37
  8
S-OBRYS
  6
CONTINUOUS
 62
     0
  2
_OPEN
 10
23990.555062844171
 20
400508.3698255698
 30
0.0
 41
100.0
 42
100.0
 43
100.0
 50
180.0
  0
INSERT
  5
66D38
  8
S-OBRYS
  6
CONTINUOUS
  2
*U145
 10
0.0
 20
0.0
 30
0.0
  0
POINT
  5
66D39
  8
DEFPOINTS
  6
CONTINUOUS
 62
     0
 10
23930.555062844171
 20
400272.30179251201
 30
0.0
  0
POINT
  5
66D3A
  8
DEFPOINTS
  6
CONTINUOUS
 62
     0
 10
23990.555062844171
 20
400272.30179251201
 30
0.0
  0
POINT
  5
66D3B
  8
DEFPOINTS
  6
CONTINUOUS
 62
     0
 10
23990.555062844171
 20
400508.3698255698
 30
0.0
  0
ENDBLK
  5
66AFB
  8
0
  0
BLOCK
  8
0
  2
*D51
 70
     1
 10
0.0
 20
0.0
 30
0.0
  3
*D51
  1

  0
LINE
  5
66D3C
  8
S-OBRYS
  6
CONTINUOUS
 62
     0
 10
24680.322787551449
 20
398917.301959112
 30
0.0
 11
24932.705184998798
 21
398917.301959112
 31
0.0
  0
LINE
  5
66D3D
  8
S-OBRYS
  6
CONTINUOUS
 62
     0
 10
24271.619572811858
 20
398856.30195911211
 30
0.0
 11
24932.705184998798
 21
398856.30195911211
 31
0.0
  0
LINE
  5
66D3E
  8
S-OBRYS
  6
CONTINUOUS
 62
     0
 10
24922.705184998798
 20
399017.301959112
 30
0.0
 11
24922.705184998798
 21
399117.30195911211
 31
0.0
  0
LINE
  5
66D3F
  8
S-OBRYS
  6
CONTINUOUS
 62
     0
 10
24922.705184998798
 20
398756.301959112
 30
0.0
 11
24922.705184998798
 21
398503.44481625489
 31
0.0
  0
LINE
  5
66D40
  8
S-OBRYS
  6
CONTINUOUS
 62
     0
 10
24922.705184998798
 20
398917.301959112
 30
0.0
 11
24922.705184998798
 21
398856.30195911211
 31
0.0
  0
INSERT
  5
66D41
  8
S-OBRYS
  6
CONTINUOUS
 62
     0
  2
_OPEN
 10
24922.705184998798
 20
398917.301959112
 30
0.0
 41
100.0
 42
100.0
 43
100.0
 50
270.0
  0
INSERT
  5
66D42
  8
S-OBRYS
  6
CONTINUOUS
 62
     0
  2
_OPEN
 10
24922.705184998798
 20
398856.30195911211
 30
0.0
 41
100.0
 42
100.0
 43
100.0
 50
90.0
  0
INSERT
  5
66D43
  8
S-OBRYS
  6
CONTINUOUS
  2
*U146
 10
0.0
 20
0.0
 30
0.0
  0
POINT
  5
66D44
  8
DEFPOINTS
  6
CONTINUOUS
 62
     0
 10
24677.172787551452
 20
398917.301959112
 30
0.0
  0
POINT
  5
66D45
  8
DEFPOINTS
  6
CONTINUOUS
 62
     0
 10
24268.46957281185
 20
398856.30195911211
 30
0.0
  0
POINT
  5
66D46
  8
DEFPOINTS
  6
CONTINUOUS
 62
     0
 10
24922.705184998798
 20
398856.30195911211
 30
0.0
  0
ENDBLK
  5
66B09
  8
0
  0
BLOCK
  8
0
  2
*D52
 70
     1
 10
0.0
 20
0.0
 30
0.0
  3
*D52
  1

  0
LINE
  5
66D47
  8
S-OBRYS
  6
CONTINUOUS
 62
     0
 10
22919.081429873189
 20
398591.6676311029
 30
0.0
 11
23383.426571045042
 21
398787.81581345422
 31
0.0
  0
LINE
  5
66D48
  8
S-OBRYS
  6
CONTINUOUS
 62
     0
 10
23707.68355464295
 20
398924.7881047696
 30
0.0
 11
23799.802015892288
 21
398963.70068752958
 31
0.0
  0
INSERT
  5
66D49
  8
S-OBRYS
  6
CONTINUOUS
  2
*U147
 10
0.0
 20
0.0
 30
0.0
  0
LINE
  5
66D4A
  8
S-OBRYS
  6
CONTINUOUS
 62
     0
 10
23615.565093393609
 20
398885.87552200962
 30
0.0
 11
23475.54503229438
 21
398826.7283962142
 31
0.0
  0
INSERT
  5
66D4B
  8
S-OBRYS
  6
CONTINUOUS
 62
     0
  2
_OPEN
 10
23615.565093393609
 20
398885.87552200962
 30
0.0
 41
100.0
 42
100.0
 43
100.0
 50
202.90011677407719
  0
INSERT
  5
66D4C
  8
S-OBRYS
  6
CONTINUOUS
 62
     0
  2
_OPEN
 10
23475.54503229438
 20
398826.7283962142
 30
0.0
 41
100.0
 42
100.0
 43
100.0
 50
22.90011677407719
  0
POINT
  5
66D4D
  8
DEFPOINTS
  6
CONTINUOUS
 62
     0
 10
23475.54503229438
 20
398826.7283962142
 30
0.0
  0
POINT
  5
66D4E
  8
DEFPOINTS
  6
CONTINUOUS
 62
     0
 10
23615.565093393609
 20
398885.87552200962
 30
0.0
  0
ENDBLK
  5
66B14
  8
0
  0
BLOCK
  8
0
  2
*D53
 70
     1
 10
0.0
 20
0.0
 30
0.0
  3
*D53
  1

  0
LINE
  5
66D4F
  8
S-OBRYS
  6
CONTINUOUS
 62
     0
 10
24701.85506284417
 20
398887.301959112
 30
0.0
 11
25106.743201425648
 21
398887.301959112
 31
0.0
  0
LINE
  5
66D50
  8
S-OBRYS
  6
CONTINUOUS
 62
     0
 10
24701.85506284417
 20
399232.30179251212
 30
0.0
 11
25106.743201425648
 21
399232.30179251212
 31
0.0
  0
LINE
  5
66D51
  8
S-OBRYS
  6
CONTINUOUS
 62
     0
 10
25096.743201425648
 20
398987.301959112
 30
0.0
 11
25096.743201425648
 21
399132.30179251201
 31
0.0
  0
INSERT
  5
66D52
  8
S-OBRYS
  6
CONTINUOUS
 62
     0
  2
_OPEN
 10
25096.743201425648
 20
398887.301959112
 30
0.0
 41
100.0
 42
100.0
 43
100.0
 50
270.0
  0
INSERT
  5
66D53
  8
S-OBRYS
  6
CONTINUOUS
 62
     0
  2
_OPEN
 10
25096.743201425648
 20
399232.30179251212
 30
0.0
 41
100.0
 42
100.0
 43
100.0
 50
90.0
  0
INSERT
  5
66D54
  8
S-OBRYS
  6
CONTINUOUS
  2
*U148
 10
0.0
 20
0.0
 30
0.0
  0
POINT
  5
66D55
  8
DEFPOINTS
  6
CONTINUOUS
 62
     0
 10
24698.705062844161
 20
398887.301959112
 30
0.0
  0
POINT
  5
66D56
  8
DEFPOINTS
  6
CONTINUOUS
 62
     0
 10
24698.705062844161
 20
399232.30179251212
 30
0.0
  0
POINT
  5
66D57
  8
DEFPOINTS
  6
CONTINUOUS
 62
     0
 10
25096.743201425648
 20
399232.30179251212
 30
0.0
  0
ENDBLK
  5
66B20
  8
0
  0
BLOCK
  8
0
  2
*D54
 70
     1
 10
0.0
 20
0.0
 30
0.0
  3
*D54
  1

  0
LINE
  5
66D58
  8
S-OBRYS
  6
CONTINUOUS
 62
     0
 10
23219.856856100279
 20
400361.70364515192
 30
0.0
 11
23853.43566530196
 21
400242.46201746602
 31
0.0
  0
LINE
  5
66D59
  8
S-OBRYS
  6
CONTINUOUS
 62
     0
 10
24067.674460386301
 20
400202.1415675577
 30
0.0
 11
24165.9491370305
 21
400183.64594833372
 31
0.0
  0
INSERT
  5
66D5A
  8
S-OBRYS
  6
CONTINUOUS
  2
*U149
 10
0.0
 20
0.0
 30
0.0
  0
LINE
  5
66D5B
  8
S-OBRYS
  6
CONTINUOUS
 62
     0
 10
23969.399783742108
 20
400220.63718678162
 30
0.0
 11
23951.710341946171
 21
400223.96639824199
 31
0.0
  0
INSERT
  5
66D5C
  8
S-OBRYS
  6
CONTINUOUS
 62
     0
  2
_OPEN
 10
23969.399783742108
 20
400220.63718678162
 30
0.0
 41
100.0
 42
100.0
 43
100.0
 50
169.34142167868549
  0
INSERT
  5
66D5D
  8
S-OBRYS
  6
CONTINUOUS
 62
     0
  2
_OPEN
 10
23951.710341946171
 20
400223.96639824199
 30
0.0
 41
100.0
 42
100.0
 43
100.0
 50
349.34142167868561
  0
POINT
  5
66D5E
  8
DEFPOINTS
  6
CONTINUOUS
 62
     0
 10
23951.710341946171
 20
400223.96639824199
 30
0.0
  0
POINT
  5
66D5F
  8
DEFPOINTS
  6
CONTINUOUS
 62
     0
 10
23969.399783742108
 20
400220.63718678162
 30
0.0
  0
ENDBLK
  5
66B2B
  8
0
  0
BLOCK
  8
0
  2
*D55
 70
     1
 10
0.0
 20
0.0
 30
0.0
  3
*D55
  1

  0
LINE
  5
66D60
  8
S-OBRYS
  6
CONTINUOUS
 62
     0
 10
23545.555062844171
 20
398848.85618262028
 30
0.0
 11
23545.555062844171
 21
398418.5123789963
 31
0.0
  0
LINE
  5
66D61
  8
S-OBRYS
  6
CONTINUOUS
 62
     0
 10
24375.555062844171
 20
398848.85618262028
 30
0.0
 11
24375.555062844171
 21
398418.5123789963
 31
0.0
  0
LINE
  5
66D62
  8
S-OBRYS
  6
CONTINUOUS
 62
     0
 10
23645.555062844171
 20
398428.5123789963
 30
0.0
 11
24275.555062844171
 21
398428.5123789963
 31
0.0
  0
INSERT
  5
66D63
  8
S-OBRYS
  6
CONTINUOUS
 62
     0
  2
_OPEN
 10
23545.555062844171
 20
398428.5123789963
 30
0.0
 41
100.0
 42
100.0
 43
100.0
 50
180.0
  0
INSERT
  5
66D64
  8
S-OBRYS
  6
CONTINUOUS
 62
     0
  2
_OPEN
 10
24375.555062844171
 20
398428.5123789963
 30
0.0
 41
100.0
 42
100.0
 43
100.0
  0
INSERT
  5
66D65
  8
S-OBRYS
  6
CONTINUOUS
  2
*U150
 10
0.0
 20
0.0
 30
0.0
  0
POINT
  5
66D66
  8
DEFPOINTS
  6
CONTINUOUS
 62
     0
 10
23545.555062844171
 20
398852.00618262042
 30
0.0
  0
POINT
  5
66D67
  8
DEFPOINTS
  6
CONTINUOUS
 62
     0
 10
24375.555062844171
 20
398852.00618262042
 30
0.0
  0
POINT
  5
66D68
  8
DEFPOINTS
  6
CONTINUOUS
 62
     0
 10
24375.555062844171
 20
398428.5123789963
 30
0.0
  0
ENDBLK
  5
66B37
  8
0
  0
BLOCK
  8
0
  2
*D56
 70
     1
 10
0.0
 20
0.0
 30
0.0
  3
*D56
  1

  0
LINE
  5
66D69
  8
S-OBRYS
  6
CONTINUOUS
 62
     0
 10
23265.555062844171
 20
398884.15195911197
 30
0.0
 11
23265.555062844171
 21
398240.14944655233
 31
0.0
  0
LINE
  5
66D6A
  8
S-OBRYS
  6
CONTINUOUS
 62
     0
 10
24655.55506284416
 20
398884.15195911197
 30
0.0
 11
24655.55506284416
 21
398240.14944655233
 31
0.0
  0
LINE
  5
66D6B
  8
S-OBRYS
  6
CONTINUOUS
 62
     0
 10
23365.555062844171
 20
398250.14944655221
 30
0.0
 11
24555.55506284416
 21
398250.14944655221
 31
0.0
  0
INSERT
  5
66D6C
  8
S-OBRYS
  6
CONTINUOUS
 62
     0
  2
_OPEN
 10
23265.555062844171
 20
398250.14944655221
 30
0.0
 41
100.0
 42
100.0
 43
100.0
 50
180.0
  0
INSERT
  5
66D6D
  8
S-OBRYS
  6
CONTINUOUS
 62
     0
  2
_OPEN
 10
24655.55506284416
 20
398250.14944655221
 30
0.0
 41
100.0
 42
100.0
 43
100.0
  0
INSERT
  5
66D6E
  8
S-OBRYS
  6
CONTINUOUS
  2
*U151
 10
0.0
 20
0.0
 30
0.0
  0
POINT
  5
66D6F
  8
DEFPOINTS
  6
CONTINUOUS
 62
     0
 10
23265.555062844171
 20
398887.301959112
 30
0.0
  0
POINT
  5
66D70
  8
DEFPOINTS
  6
CONTINUOUS
 62
     0
 10
24655.55506284416
 20
398887.301959112
 30
0.0
  0
POINT
  5
66D71
  8
DEFPOINTS
  6
CONTINUOUS
 62
     0
 10
24655.55506284416
 20
398250.14944655221
 30
0.0
  0
ENDBLK
  5
66B43
  8
0
  0
BLOCK
  8
0
  2
*D57
 70
     1
 10
0.0
 20
0.0
 30
0.0
  3
*D57
  1

  0
LINE
  5
66D72
  8
S-OBRYS
  6
CONTINUOUS
 62
     0
 10
23944.46973558424
 20
400222.30179251201
 30
0.0
 11
23126.171673290381
 21
400222.30179251201
 31
0.0
  0
LINE
  5
66D73
  8
S-OBRYS
  6
CONTINUOUS
 62
     0
 10
23249.46973558424
 20
399167.301959112
 30
0.0
 11
23126.171673290381
 21
399167.301959112
 31
0.0
  0
LINE
  5
66D74
  8
S-OBRYS
  6
CONTINUOUS
 62
     0
 10
23136.17167329037
 20
400122.30179251201
 30
0.0
 11
23136.17167329037
 21
399267.30195911211
 31
0.0
  0
INSERT
  5
66D75
  8
S-OBRYS
  6
CONTINUOUS
 62
     0
  2
_OPEN
 10
23136.17167329037
 20
400222.30179251201
 30
0.0
 41
100.0
 42
100.0
 43
100.0
 50
90.0
  0
INSERT
  5
66D76
  8
S-OBRYS
  6
CONTINUOUS
 62
     0
  2
_OPEN
 10
23136.17167329037
 20
399167.301959112
 30
0.0
 41
100.0
 42
100.0
 43
100.0
 50
270.0
  0
INSERT
  5
66D77
  8
S-OBRYS
  6
CONTINUOUS
  2
*U152
 10
0.0
 20
0.0
 30
0.0
  0
POINT
  5
66D78
  8
DEFPOINTS
  6
CONTINUOUS
 62
     0
 10
23947.619735584241
 20
400222.30179251201
 30
0.0
  0
POINT
  5
66D79
  8
DEFPOINTS
  6
CONTINUOUS
 62
     0
 10
23252.619735584249
 20
399167.301959112
 30
0.0
  0
POINT
  5
66D7A
  8
DEFPOINTS
  6
CONTINUOUS
 62
     0
 10
23136.17167329037
 20
399167.301959112
 30
0.0
  0
ENDBLK
  5
66B4F
  8
0
  0
BLOCK
  8
0
  2
*D58
 70
     1
 10
0.0
 20
0.0
 30
0.0
  3
*D58
  1

  0
LINE
  5
66D7B
  8
S-OBRYS
  6
CONTINUOUS
 62
     0
 10
23166.890986223141
 20
399167.301959112
 30
0.0
 11
23126.313237315338
 21
399167.301959112
 31
0.0
  0
LINE
  5
66D7C
  8
S-OBRYS
  6
CONTINUOUS
 62
     0
 10
23249.46973558424
 20
398917.301959112
 30
0.0
 11
23126.313237315338
 21
398917.301959112
 31
0.0
  0
LINE
  5
66D7D
  8
S-OBRYS
  6
CONTINUOUS
 62
     0
 10
23136.313237315338
 20
399067.301959112
 30
0.0
 11
23136.313237315338
 21
399017.301959112
 31
0.0
  0
INSERT
  5
66D7E
  8
S-OBRYS
  6
CONTINUOUS
 62
     0
  2
_OPEN
 10
23136.313237315338
 20
399167.301959112
 30
0.0
 41
100.0
 42
100.0
 43
100.0
 50
90.0
  0
INSERT
  5
66D7F
  8
S-OBRYS
  6
CONTINUOUS
 62
     0
  2
_OPEN
 10
23136.313237315338
 20
398917.301959112
 30
0.0
 41
100.0
 42
100.0
 43
100.0
 50
270.0
  0
INSERT
  5
66D80
  8
S-OBRYS
  6
CONTINUOUS
  2
*U153
 10
0.0
 20
0.0
 30
0.0
  0
POINT
  5
66D81
  8
DEFPOINTS
  6
CONTINUOUS
 62
     0
 10
23170.04098622315
 20
399167.301959112
 30
0.0
  0
POINT
  5
66D82
  8
DEFPOINTS
  6
CONTINUOUS
 62
     0
 10
23252.619735584249
 20
398917.301959112
 30
0.0
  0
POINT
  5
66D83
  8
DEFPOINTS
  6
CONTINUOUS
 62
     0
 10
23136.313237315338
 20
398917.301959112
 30
0.0
  0
ENDBLK
  5
66B5B
  8
0
  0
BLOCK
  8
0
  2
*D59
 70
     1
 10
0.0
 20
0.0
 30
0.0
  3
*D59
  1

  0
LINE
  5
66D84
  8
S-OBRYS
  6
CONTINUOUS
 62
     0
 10
24174.026807990311
 20
399548.33421218209
 30
0.0
 11
24289.065794374452
 21
399548.33421218209
 31
0.0
  0
LINE
  5
66D85
  8
S-OBRYS
  6
CONTINUOUS
 62
     0
 10
24174.026807990311
 20
399137.33421218197
 30
0.0
 11
24289.065794374452
 21
399137.33421218197
 31
0.0
  0
LINE
  5
66D86
  8
S-OBRYS
  6
CONTINUOUS
 62
     0
 10
24279.065794374441
 20
399448.33421218209
 30
0.0
 11
24279.065794374441
 21
399237.33421218197
 31
0.0
  0
INSERT
  5
66D87
  8
S-OBRYS
  6
CONTINUOUS
 62
     0
  2
_OPEN
 10
24279.065794374441
 20
399548.33421218209
 30
0.0
 41
100.0
 42
100.0
 43
100.0
 50
90.0
  0
INSERT
  5
66D88
  8
S-OBRYS
  6
CONTINUOUS
 62
     0
  2
_OPEN
 10
24279.065794374441
 20
399137.33421218197
 30
0.0
 41
100.0
 42
100.0
 43
100.0
 50
270.0
  0
INSERT
  5
66D89
  8
S-OBRYS
  6
CONTINUOUS
  2
*U154
 10
0.0
 20
0.0
 30
0.0
  0
POINT
  5
66D8A
  8
DEFPOINTS
  6
CONTINUOUS
 62
     0
 10
24170.876807990309
 20
399548.33421218209
 30
0.0
  0
POINT
  5
66D8B
  8
DEFPOINTS
  6
CONTINUOUS
 62
     0
 10
24170.876807990309
 20
399137.33421218197
 30
0.0
  0
POINT
  5
66D8C
  8
DEFPOINTS
  6
CONTINUOUS
 62
     0
 10
24279.065794374441
 20
399137.33421218197
 30
0.0
  0
ENDBLK
  5
66B67
  8
0
  0
BLOCK
  8
0
  2
*D60
 70
     1
 10
0.0
 20
0.0
 30
0.0
  3
*D60
  1

  0
LINE
  5
66D8D
  8
S-OBRYS
  6
CONTINUOUS
 62
     0
 10
23225.555062844171
 20
399235.45179251209
 30
0.0
 11
23225.555062844171
 21
399407.35784028878
 31
0.0
  0
LINE
  5
66D8E
  8
S-OBRYS
  6
CONTINUOUS
 62
     0
 10
23305.555062844171
 20
399235.45179251209
 30
0.0
 11
23305.555062844171
 21
399407.35784028878
 31
0.0
  0
LINE
  5
66D8F
  8
S-OBRYS
  6
CONTINUOUS
 62
     0
 10
23125.555062844171
 20
399397.3578402889
 30
0.0
 11
23025.555062844171
 21
399397.3578402889
 31
0.0
  0
LINE
  5
66D90
  8
S-OBRYS
  6
CONTINUOUS
 62
     0
 10
23405.555062844171
 20
399397.3578402889
 30
0.0
 11
23685.07887236798
 21
399397.3578402889
 31
0.0
  0
LINE
  5
66D91
  8
S-OBRYS
  6
CONTINUOUS
 62
     0
 10
23225.555062844171
 20
399397.3578402889
 30
0.0
 11
23305.555062844171
 21
399397.3578402889
 31
0.0
  0
INSERT
  5
66D92
  8
S-OBRYS
  6
CONTINUOUS
 62
     0
  2
_OPEN
 10
23225.555062844171
 20
399397.3578402889
 30
0.0
 41
100.0
 42
100.0
 43
100.0
  0
INSERT
  5
66D93
  8
S-OBRYS
  6
CONTINUOUS
 62
     0
  2
_OPEN
 10
23305.555062844171
 20
399397.3578402889
 30
0.0
 41
100.0
 42
100.0
 43
100.0
 50
180.0
  0
INSERT
  5
66D94
  8
S-OBRYS
  6
CONTINUOUS
  2
*U155
 10
0.0
 20
0.0
 30
0.0
  0
POINT
  5
66D95
  8
DEFPOINTS
  6
CONTINUOUS
 62
     0
 10
23225.555062844171
 20
399232.30179251212
 30
0.0
  0
POINT
  5
66D96
  8
DEFPOINTS
  6
CONTINUOUS
 62
     0
 10
23305.555062844171
 20
399232.30179251212
 30
0.0
  0
POINT
  5
66D97
  8
DEFPOINTS
  6
CONTINUOUS
 62
     0
 10
23305.555062844171
 20
399397.3578402889
 30
0.0
  0
ENDBLK
  5
66B75
  8
0
  0
BLOCK
  8
0
  2
*D61
 70
     1
 10
0.0
 20
0.0
 30
0.0
  3
*D61
  1

  0
LINE
  5
66D98
  8
S-OBRYS
  6
CONTINUOUS
 62
     0
 10
24498.328463486141
 20
400272.30179251201
 30
0.0
 11
25076.527643538691
 21
400272.30179251201
 31
0.0
  0
LINE
  5
66D99
  8
S-OBRYS
  6
CONTINUOUS
 62
     0
 10
24503.326367938611
 20
400972.30179251212
 30
0.0
 11
25076.527643538691
 21
400972.30179251212
 31
0.0
  0
LINE
  5
66D9A
  8
S-OBRYS
  6
CONTINUOUS
 62
     0
 10
25066.527643538691
 20
400372.30179251201
 30
0.0
 11
25066.527643538691
 21
400872.30179251189
 31
0.0
  0
INSERT
  5
66D9B
  8
S-OBRYS
  6
CONTINUOUS
 62
     0
  2
_OPEN
 10
25066.527643538691
 20
400272.30179251201
 30
0.0
 41
100.0
 42
100.0
 43
100.0
 50
270.0
  0
INSERT
  5
66D9C
  8
S-OBRYS
  6
CONTINUOUS
 62
     0
  2
_OPEN
 10
25066.527643538691
 20
400972.30179251212
 30
0.0
 41
100.0
 42
100.0
 43
100.0
 50
90.0
  0
INSERT
  5
66D9D
  8
S-OBRYS
  6
CONTINUOUS
  2
*U156
 10
0.0
 20
0.0
 30
0.0
  0
POINT
  5
66D9E
  8
DEFPOINTS
  6
CONTINUOUS
 62
     0
 10
24495.17846348614
 20
400272.30179251201
 30
0.0
  0
POINT
  5
66D9F
  8
DEFPOINTS
  6
CONTINUOUS
 62
     0
 10
24500.176367938609
 20
400972.30179251212
 30
0.0
  0
POINT
  5
66DA0
  8
DEFPOINTS
  6
CONTINUOUS
 62
     0
 10
25066.527643538691
 20
400972.30179251212
 30
0.0
  0
ENDBLK
  5
66B81
  8
0
  0
BLOCK
  8
0
  2
*D62
 70
     1
 10
0.0
 20
0.0
 30
0.0
  3
*D62
  1

  0
LINE
  5
66DA1
  8
S-OBRYS
  6
CONTINUOUS
 62
     0
 10
24695.555062844171
 20
398884.15195911197
 30
0.0
 11
24695.555062844171
 21
397965.12778750161
 31
0.0
  0
LINE
  5
66DA2
  8
S-OBRYS
  6
CONTINUOUS
 62
     0
 10
26194.79771147927
 20
398234.4497533614
 30
0.0
 11
26194.79771147927
 21
397965.12778750161
 31
0.0
  0
LINE
  5
66DA3
  8
S-OBRYS
  6
CONTINUOUS
 62
     0
 10
24795.555062844171
 20
397975.12778750161
 30
0.0
 11
26094.797711479281
 21
397975.12778750161
 31
0.0
  0
INSERT
  5
66DA4
  8
S-OBRYS
  6
CONTINUOUS
 62
     0
  2
_OPEN
 10
24695.555062844171
 20
397975.12778750161
 30
0.0
 41
100.0
 42
100.0
 43
100.0
 50
180.0
  0
INSERT
  5
66DA5
  8
S-OBRYS
  6
CONTINUOUS
 62
     0
  2
_OPEN
 10
26194.79771147927
 20
397975.12778750161
 30
0.0
 41
100.0
 42
100.0
 43
100.0
  0
INSERT
  5
66DA6
  8
S-OBRYS
  6
CONTINUOUS
  2
*U157
 10
0.0
 20
0.0
 30
0.0
  0
POINT
  5
66DA7
  8
DEFPOINTS
  6
CONTINUOUS
 62
     0
 10
24695.555062844171
 20
398887.301959112
 30
0.0
  0
POINT
  5
66DA8
  8
DEFPOINTS
  6
CONTINUOUS
 62
     0
 10
26194.79771147927
 20
398237.59975336143
 30
0.0
  0
POINT
  5
66DA9
  8
DEFPOINTS
  6
CONTINUOUS
 62
     0
 10
26194.79771147927
 20
397975.12778750161
 30
0.0
  0
ENDBLK
  5
66B8D
  8
0
  0
BLOCK
  8
0
  2
*D63
 70
     1
 10
0.0
 20
0.0
 30
0.0
  3
*D63
  1

  0
LINE
  5
66DAA
  8
S-OBRYS
  6
CONTINUOUS
 62
     0
 10
23222.405062844169
 20
398887.301959112
 30
0.0
 11
22850.44942847846
 21
398887.301959112
 31
0.0
  0
LINE
  5
66DAB
  8
S-OBRYS
  6
CONTINUOUS
 62
     0
 10
22945.57511234784
 20
398187.301959112
 30
0.0
 11
22850.44942847846
 21
398187.301959112
 31
0.0
  0
LINE
  5
66DAC
  8
S-OBRYS
  6
CONTINUOUS
 62
     0
 10
22860.44942847846
 20
398787.301959112
 30
0.0
 11
22860.44942847846
 21
398287.301959112
 31
0.0
  0
INSERT
  5
66DAD
  8
S-OBRYS
  6
CONTINUOUS
 62
     0
  2
_OPEN
 10
22860.44942847846
 20
398887.301959112
 30
0.0
 41
100.0
 42
100.0
 43
100.0
 50
90.0
  0
INSERT
  5
66DAE
  8
S-OBRYS
  6
CONTINUOUS
 62
     0
  2
_OPEN
 10
22860.44942847846
 20
398187.301959112
 30
0.0
 41
100.0
 42
100.0
 43
100.0
 50
270.0
  0
INSERT
  5
66DAF
  8
S-OBRYS
  6
CONTINUOUS
  2
*U158
 10
0.0
 20
0.0
 30
0.0
  0
POINT
  5
66DB0
  8
DEFPOINTS
  6
CONTINUOUS
 62
     0
 10
23225.555062844171
 20
398887.301959112
 30
0.0
  0
POINT
  5
66DB1
  8
DEFPOINTS
  6
CONTINUOUS
 62
     0
 10
22948.725112347842
 20
398187.301959112
 30
0.0
  0
POINT
  5
66DB2
  8
DEFPOINTS
  6
CONTINUOUS
 62
     0
 10
22860.44942847846
 20
398187.301959112
 30
0.0
  0
ENDBLK
  5
66B99
  8
0
  0
BLOCK
  8
0
  2
*D64
 70
     1
 10
0.0
 20
0.0
 30
0.0
  3
*D64
  1

  0
LINE
  5
66DB3
  8
S-OBRYS
  6
CONTINUOUS
 62
     0
 10
23225.555062844171
 20
398884.15195911197
 30
0.0
 11
23225.555062844171
 21
397670.3976001651
 31
0.0
  0
LINE
  5
66DB4
  8
S-OBRYS
  6
CONTINUOUS
 62
     0
 10
22625.555062844171
 20
397703.96561550972
 30
0.0
 11
22625.555062844171
 21
397670.3976001651
 31
0.0
  0
LINE
  5
66DB5
  8
S-OBRYS
  6
CONTINUOUS
 62
     0
 10
23125.555062844171
 20
397680.3976001651
 30
0.0
 11
22725.555062844171
 21
397680.3976001651
 31
0.0
  0
INSERT
  5
66DB6
  8
S-OBRYS
  6
CONTINUOUS
 62
     0
  2
_OPEN
 10
23225.555062844171
 20
397680.3976001651
 30
0.0
 41
100.0
 42
100.0
 43
100.0
  0
INSERT
  5
66DB7
  8
S-OBRYS
  6
CONTINUOUS
 62
     0
  2
_OPEN
 10
22625.555062844171
 20
397680.3976001651
 30
0.0
 41
100.0
 42
100.0
 43
100.0
 50
180.0
  0
INSERT
  5
66DB8
  8
S-OBRYS
  6
CONTINUOUS
  2
*U159
 10
0.0
 20
0.0
 30
0.0
  0
POINT
  5
66DB9
  8
DEFPOINTS
  6
CONTINUOUS
 62
     0
 10
23225.555062844171
 20
398887.301959112
 30
0.0
  0
POINT
  5
66DBA
  8
DEFPOINTS
  6
CONTINUOUS
 62
     0
 10
22625.555062844171
 20
397707.11561550968
 30
0.0
  0
POINT
  5
66DBB
  8
DEFPOINTS
  6
CONTINUOUS
 62
     0
 10
22625.555062844171
 20
397680.3976001651
 30
0.0
  0
ENDBLK
  5
66BA5
  8
0
  0
BLOCK
  8
0
  2
*D65
 70
     1
 10
0.0
 20
0.0
 30
0.0
  3
*D65
  1

  0
LINE
  5
66DBC
  8
S-OBRYS
  6
CONTINUOUS
 62
     0
 10
20642.344883493552
 20
398887.301959112
 30
0.0
 11
21022.525236909329
 21
398887.301959112
 31
0.0
  0
LINE
  5
66DBD
  8
S-OBRYS
  6
CONTINUOUS
 62
     0
 10
20297.344883493552
 20
400387.30185471202
 30
0.0
 11
21022.525236909329
 21
400387.30185471202
 31
0.0
  0
LINE
  5
66DBE
  8
S-OBRYS
  6
CONTINUOUS
 62
     0
 10
21012.525236909329
 20
398987.301959112
 30
0.0
 11
21012.525236909329
 21
400287.30185471202
 31
0.0
  0
INSERT
  5
66DBF
  8
S-OBRYS
  6
CONTINUOUS
 62
     0
  2
_OPEN
 10
21012.525236909329
 20
398887.301959112
 30
0.0
 41
100.0
 42
100.0
 43
100.0
 50
270.0
  0
INSERT
  5
66DC0
  8
S-OBRYS
  6
CONTINUOUS
 62
     0
  2
_OPEN
 10
21012.525236909329
 20
400387.30185471202
 30
0.0
 41
100.0
 42
100.0
 43
100.0
 50
90.0
  0
INSERT
  5
66DC1
  8
S-OBRYS
  6
CONTINUOUS
  2
*U160
 10
0.0
 20
0.0
 30
0.0
  0
POINT
  5
66DC2
  8
DEFPOINTS
  6
CONTINUOUS
 62
     0
 10
20639.19488349355
 20
398887.301959112
 30
0.0
  0
POINT
  5
66DC3
  8
DEFPOINTS
  6
CONTINUOUS
 62
     0
 10
20294.19488349355
 20
400387.30185471202
 30
0.0
  0
POINT
  5
66DC4
  8
DEFPOINTS
  6
CONTINUOUS
 62
     0
 10
21012.525236909329
 20
400387.30185471202
 30
0.0
  0
ENDBLK
  5
66BB1
  8
0
  0
BLOCK
  8
0
  2
*D66
 70
     1
 10
0.0
 20
0.0
 30
0.0
  3
*D66
  1

  0
LINE
  5
66DC5
  8
S-OBRYS
  6
CONTINUOUS
 62
     0
 10
20187.344883493552
 20
400172.30179251201
 30
0.0
 11
20815.277209327971
 21
400172.30179251201
 31
0.0
  0
LINE
  5
66DC6
  8
S-OBRYS
  6
CONTINUOUS
 62
     0
 10
20187.344883493552
 20
400272.30179251201
 30
0.0
 11
20815.277209327971
 21
400272.30179251201
 31
0.0
  0
LINE
  5
66DC7
  8
S-OBRYS
  6
CONTINUOUS
 62
     0
 10
20805.277209327971
 20
400372.30179251201
 30
0.0
 11
20805.277209327971
 21
400472.30179251201
 31
0.0
  0
LINE
  5
66DC8
  8
S-OBRYS
  6
CONTINUOUS
 62
     0
 10
20805.277209327971
 20
400072.30179251201
 30
0.0
 11
20805.277209327971
 21
399728.01607822633
 31
0.0
  0
LINE
  5
66DC9
  8
S-OBRYS
  6
CONTINUOUS
 62
     0
 10
20805.277209327971
 20
400272.30179251201
 30
0.0
 11
20805.277209327971
 21
400172.30179251201
 31
0.0
  0
INSERT
  5
66DCA
  8
S-OBRYS
  6
CONTINUOUS
 62
     0
  2
_OPEN
 10
20805.277209327971
 20
400272.30179251201
 30
0.0
 41
100.0
 42
100.0
 43
100.0
 50
270.0
  0
INSERT
  5
66DCB
  8
S-OBRYS
  6
CONTINUOUS
 62
     0
  2
_OPEN
 10
20805.277209327971
 20
400172.30179251201
 30
0.0
 41
100.0
 42
100.0
 43
100.0
 50
90.0
  0
INSERT
  5
66DCC
  8
S-OBRYS
  6
CONTINUOUS
  2
*U161
 10
0.0
 20
0.0
 30
0.0
  0
POINT
  5
66DCD
  8
DEFPOINTS
  6
CONTINUOUS
 62
     0
 10
20184.19488349355
 20
400172.30179251201
 30
0.0
  0
POINT
  5
66DCE
  8
DEFPOINTS
  6
CONTINUOUS
 62
     0
 10
20184.19488349355
 20
400272.30179251201
 30
0.0
  0
POINT
  5
66DCF
  8
DEFPOINTS
  6
CONTINUOUS
 62
     0
 10
20805.277209327971
 20
400272.30179251201
 30
0.0
  0
ENDBLK
  5
66BBF
  8
0
  0
BLOCK
  8
0
  2
*D67
 70
     1
 10
0.0
 20
0.0
 30
0.0
  3
*D67
  1

  0
LINE
  5
66DD0
  8
S-OBRYS
  6
CONTINUOUS
 62
     0
 10
20783.41528502955
 20
400275.45179251197
 30
0.0
 11
20783.41528502955
 21
400518.3698255698
 31
0.0
  0
LINE
  5
66DD1
  8
S-OBRYS
  6
CONTINUOUS
 62
     0
 10
20843.41528502955
 20
400275.45179251197
 30
0.0
 11
20843.41528502955
 21
400518.3698255698
 31
0.0
  0
LINE
  5
66DD2
  8
S-OBRYS
  6
CONTINUOUS
 62
     0
 10
20683.41528502955
 20
400508.3698255698
 30
0.0
 11
20583.41528502955
 21
400508.3698255698
 31
0.0
  0
LINE
  5
66DD3
  8
S-OBRYS
  6
CONTINUOUS
 62
     0
 10
20943.41528502955
 20
400508.3698255698
 30
0.0
 11
21219.12957074384
 21
400508.3698255698
 31
0.0
  0
LINE
  5
66DD4
  8
S-OBRYS
  6
CONTINUOUS
 62
     0
 10
20783.41528502955
 20
400508.3698255698
 30
0.0
 11
20843.41528502955
 21
400508.3698255698
 31
0.0
  0
INSERT
  5
66DD5
  8
S-OBRYS
  6
CONTINUOUS
 62
     0
  2
_OPEN
 10
20783.41528502955
 20
400508.3698255698
 30
0.0
 41
100.0
 42
100.0
 43
100.0
  0
INSERT
  5
66DD6
  8
S-OBRYS
  6
CONTINUOUS
 62
     0
  2
_OPEN
 10
20843.41528502955
 20
400508.3698255698
 30
0.0
 41
100.0
 42
100.0
 43
100.0
 50
180.0
  0
INSERT
  5
66DD7
  8
S-OBRYS
  6
CONTINUOUS
  2
*U162
 10
0.0
 20
0.0
 30
0.0
  0
POINT
  5
66DD8
  8
DEFPOINTS
  6
CONTINUOUS
 62
     0
 10
20783.41528502955
 20
400272.30179251201
 30
0.0
  0
POINT
  5
66DD9
  8
DEFPOINTS
  6
CONTINUOUS
 62
     0
 10
20843.41528502955
 20
400272.30179251201
 30
0.0
  0
POINT
  5
66DDA
  8
DEFPOINTS
  6
CONTINUOUS
 62
     0
 10
20843.41528502955
 20
400508.3698255698
 30
0.0
  0
ENDBLK
  5
66BCD
  8
0
  0
BLOCK
  8
0
  2
*D68
 70
     1
 10
0.0
 20
0.0
 30
0.0
  3
*D68
  1

  0
LINE
  5
66DDB
  8
S-OBRYS
  6
CONTINUOUS
 62
     0
 10
20873.962608200822
 20
398917.301959112
 30
0.0
 11
21126.345005648171
 21
398917.301959112
 31
0.0
  0
LINE
  5
66DDC
  8
S-OBRYS
  6
CONTINUOUS
 62
     0
 10
20465.259393461231
 20
398856.30195911211
 30
0.0
 11
21126.345005648171
 21
398856.30195911211
 31
0.0
  0
LINE
  5
66DDD
  8
S-OBRYS
  6
CONTINUOUS
 62
     0
 10
21116.345005648182
 20
399017.301959112
 30
0.0
 11
21116.345005648182
 21
399117.30195911211
 31
0.0
  0
LINE
  5
66DDE
  8
S-OBRYS
  6
CONTINUOUS
 62
     0
 10
21116.345005648182
 20
398756.301959112
 30
0.0
 11
21116.345005648182
 21
398503.44481625489
 31
0.0
  0
LINE
  5
66DDF
  8
S-OBRYS
  6
CONTINUOUS
 62
     0
 10
21116.345005648182
 20
398917.301959112
 30
0.0
 11
21116.345005648182
 21
398856.30195911211
 31
0.0
  0
INSERT
  5
66DE0
  8
S-OBRYS
  6
CONTINUOUS
 62
     0
  2
_OPEN
 10
21116.345005648182
 20
398917.301959112
 30
0.0
 41
100.0
 42
100.0
 43
100.0
 50
270.0
  0
INSERT
  5
66DE1
  8
S-OBRYS
  6
CONTINUOUS
 62
     0
  2
_OPEN
 10
21116.345005648182
 20
398856.30195911211
 30
0.0
 41
100.0
 42
100.0
 43
100.0
 50
90.0
  0
INSERT
  5
66DE2
  8
S-OBRYS
  6
CONTINUOUS
  2
*U163
 10
0.0
 20
0.0
 30
0.0
  0
POINT
  5
66DE3
  8
DEFPOINTS
  6
CONTINUOUS
 62
     0
 10
20870.81260820082
 20
398917.301959112
 30
0.0
  0
POINT
  5
66DE4
  8
DEFPOINTS
  6
CONTINUOUS
 62
     0
 10
20462.109393461229
 20
398856.30195911211
 30
0.0
  0
POINT
  5
66DE5
  8
DEFPOINTS
  6
CONTINUOUS
 62
     0
 10
21116.345005648182
 20
398856.30195911211
 30
0.0
  0
ENDBLK
  5
66BDB
  8
0
  0
BLOCK
  8
0
  2
*D69
 70
     1
 10
0.0
 20
0.0
 30
0.0
  3
*D69
  1

  0
LINE
  5
66DE6
  8
S-OBRYS
  6
CONTINUOUS
 62
     0
 10
19182.71164567969
 20
398621.23289963813
 30
0.0
 11
19577.06639169456
 21
398787.81581345398
 31
0.0
  0
LINE
  5
66DE7
  8
S-OBRYS
  6
CONTINUOUS
 62
     0
 10
19901.32337529229
 20
398924.7881047696
 30
0.0
 11
19993.44183654157
 21
398963.70068752969
 31
0.0
  0
INSERT
  5
66DE8
  8
S-OBRYS
  6
CONTINUOUS
  2
*U164
 10
0.0
 20
0.0
 30
0.0
  0
LINE
  5
66DE9
  8
S-OBRYS
  6
CONTINUOUS
 62
     0
 10
19809.204914042981
 20
398885.8755220095
 30
0.0
 11
19669.184852943868
 21
398826.72839621408
 31
0.0
  0
INSERT
  5
66DEA
  8
S-OBRYS
  6
CONTINUOUS
 62
     0
  2
_OPEN
 10
19809.204914042981
 20
398885.8755220095
 30
0.0
 41
100.0
 42
100.0
 43
100.0
 50
202.9001167741304
  0
INSERT
  5
66DEB
  8
S-OBRYS
  6
CONTINUOUS
 62
     0
  2
_OPEN
 10
19669.184852943868
 20
398826.72839621408
 30
0.0
 41
100.0
 42
100.0
 43
100.0
 50
22.900116774130439
  0
POINT
  5
66DEC
  8
DEFPOINTS
  6
CONTINUOUS
 62
     0
 10
19669.184852943868
 20
398826.72839621408
 30
0.0
  0
POINT
  5
66DED
  8
DEFPOINTS
  6
CONTINUOUS
 62
     0
 10
19809.204914042981
 20
398885.8755220095
 30
0.0
  0
ENDBLK
  5
66BE6
  8
0
  0
BLOCK
  8
0
  2
*D70
 70
     1
 10
0.0
 20
0.0
 30
0.0
  3
*D70
  1

  0
LINE
  5
66DEE
  8
S-OBRYS
  6
CONTINUOUS
 62
     0
 10
20895.494883493539
 20
398887.301959112
 30
0.0
 11
21300.383022075031
 21
398887.301959112
 31
0.0
  0
LINE
  5
66DEF
  8
S-OBRYS
  6
CONTINUOUS
 62
     0
 10
20895.494883493539
 20
399232.30179251212
 30
0.0
 11
21300.383022075031
 21
399232.30179251212
 31
0.0
  0
LINE
  5
66DF0
  8
S-OBRYS
  6
CONTINUOUS
 62
     0
 10
21290.383022075031
 20
398987.301959112
 30
0.0
 11
21290.383022075031
 21
399132.30179251201
 31
0.0
  0
INSERT
  5
66DF1
  8
S-OBRYS
  6
CONTINUOUS
 62
     0
  2
_OPEN
 10
21290.383022075031
 20
398887.301959112
 30
0.0
 41
100.0
 42
100.0
 43
100.0
 50
270.0
  0
INSERT
  5
66DF2
  8
S-OBRYS
  6
CONTINUOUS
 62
     0
  2
_OPEN
 10
21290.383022075031
 20
399232.30179251212
 30
0.0
 41
100.0
 42
100.0
 43
100.0
 50
90.0
  0
INSERT
  5
66DF3
  8
S-OBRYS
  6
CONTINUOUS
  2
*U165
 10
0.0
 20
0.0
 30
0.0
  0
POINT
  5
66DF4
  8
DEFPOINTS
  6
CONTINUOUS
 62
     0
 10
20892.344883493541
 20
398887.301959112
 30
0.0
  0
POINT
  5
66DF5
  8
DEFPOINTS
  6
CONTINUOUS
 62
     0
 10
20892.344883493541
 20
399232.30179251212
 30
0.0
  0
POINT
  5
66DF6
  8
DEFPOINTS
  6
CONTINUOUS
 62
     0
 10
21290.383022075031
 20
399232.30179251212
 30
0.0
  0
ENDBLK
  5
66BF2
  8
0
  0
BLOCK
  8
0
  2
*D71
 70
     1
 10
0.0
 20
0.0
 30
0.0
  3
*D71
  1

  0
LINE
  5
66DF7
  8
S-OBRYS
  6
CONTINUOUS
 62
     0
 10
19537.43340339492
 20
404711.49251216598
 30
0.0
 11
19669.25320120811
 21
404711.49251216598
 31
0.0
  0
LINE
  5
66DF8
  8
S-OBRYS
  6
CONTINUOUS
 62
     0
 10
19537.43340339492
 20
404801.4927812661
 30
0.0
 11
19669.25320120811
 21
404801.4927812661
 31
0.0
  0
LINE
  5
66DF9
  8
S-OBRYS
  6
CONTINUOUS
 62
     0
 10
19659.253201208099
 20
404611.49251216609
 30
0.0
 11
19659.253201208099
 21
404511.49251216609
 31
0.0
  0
LINE
  5
66DFA
  8
S-OBRYS
  6
CONTINUOUS
 62
     0
 10
19659.253201208099
 20
404901.4927812661
 30
0.0
 11
19659.253201208099
 21
405181.01659078989
 31
0.0
  0
LINE
  5
66DFB
  8
S-OBRYS
  6
CONTINUOUS
 62
     0
 10
19659.253201208099
 20
404711.49251216598
 30
0.0
 11
19659.253201208099
 21
404801.4927812661
 31
0.0
  0
INSERT
  5
66DFC
  8
S-OBRYS
  6
CONTINUOUS
 62
     0
  2
_OPEN
 10
19659.253201208099
 20
404711.49251216598
 30
0.0
 41
100.0
 42
100.0
 43
100.0
 50
90.0
  0
INSERT
  5
66DFD
  8
S-OBRYS
  6
CONTINUOUS
 62
     0
  2
_OPEN
 10
19659.253201208099
 20
404801.4927812661
 30
0.0
 41
100.0
 42
100.0
 43
100.0
 50
270.0
  0
INSERT
  5
66DFE
  8
S-OBRYS
  6
CONTINUOUS
  2
*U166
 10
0.0
 20
0.0
 30
0.0
  0
POINT
  5
66DFF
  8
DEFPOINTS
  6
CONTINUOUS
 62
     0
 10
19534.283403394918
 20
404711.49251216598
 30
0.0
  0
POINT
  5
66E00
  8
DEFPOINTS
  6
CONTINUOUS
 62
     0
 10
19534.283403394918
 20
404801.4927812661
 30
0.0
  0
POINT
  5
66E01
  8
DEFPOINTS
  6
CONTINUOUS
 62
     0
 10
19659.253201208099
 20
404801.4927812661
 30
0.0
  0
ENDBLK
  5
66C00
  8
0
  0
BLOCK
  8
0
  2
*D72
 70
     1
 10
0.0
 20
0.0
 30
0.0
  3
*D72
  1

  0
LINE
  5
66E02
  8
S-OBRYS
  6
CONTINUOUS
 62
     0
 10
19685.094954647418
 20
404711.49251216598
 30
0.0
 11
20293.059937062531
 21
404711.49251216598
 31
0.0
  0
LINE
  5
66E03
  8
S-OBRYS
  6
CONTINUOUS
 62
     0
 10
20160.125176034238
 20
404251.49231256603
 30
0.0
 11
20293.059937062531
 21
404251.49231256603
 31
0.0
  0
LINE
  5
66E04
  8
S-OBRYS
  6
CONTINUOUS
 62
     0
 10
20283.059937062531
 20
404611.49251216609
 30
0.0
 11
20283.059937062531
 21
404351.49231256609
 31
0.0
  0
INSERT
  5
66E05
  8
S-OBRYS
  6
CONTINUOUS
 62
     0
  2
_OPEN
 10
20283.059937062531
 20
404711.49251216598
 30
0.0
 41
100.0
 42
100.0
 43
100.0
 50
90.0
  0
INSERT
  5
66E06
  8
S-OBRYS
  6
CONTINUOUS
 62
     0
  2
_OPEN
 10
20283.059937062531
 20
404251.49231256603
 30
0.0
 41
100.0
 42
100.0
 43
100.0
 50
270.0
  0
INSERT
  5
66E07
  8
S-OBRYS
  6
CONTINUOUS
  2
*U167
 10
0.0
 20
0.0
 30
0.0
  0
POINT
  5
66E08
  8
DEFPOINTS
  6
CONTINUOUS
 62
     0
 10
19681.944954647421
 20
404711.49251216598
 30
0.0
  0
POINT
  5
66E09
  8
DEFPOINTS
  6
CONTINUOUS
 62
     0
 10
20156.97517603423
 20
404251.49231256603
 30
0.0
  0
POINT
  5
66E0A
  8
DEFPOINTS
  6
CONTINUOUS
 62
     0
 10
20283.059937062531
 20
404251.49231256603
 30
0.0
  0
ENDBLK
  5
66C0C
  8
0
  0
BLOCK
  8
0
  2
*D73
 70
     1
 10
0.0
 20
0.0
 30
0.0
  3
*D73
  1

  0
LINE
  5
66E0B
  8
S-OBRYS
  6
CONTINUOUS
 62
     0
 10
20160.125176034238
 20
404251.49231256603
 30
0.0
 11
20293.059937062531
 21
404251.49231256603
 31
0.0
  0
LINE
  5
66E0C
  8
S-OBRYS
  6
CONTINUOUS
 62
     0
 10
20160.125176034238
 20
403251.49231256609
 30
0.0
 11
20293.059937062531
 21
403251.49231256609
 31
0.0
  0
LINE
  5
66E0D
  8
S-OBRYS
  6
CONTINUOUS
 62
     0
 10
20283.059937062531
 20
404151.49231256609
 30
0.0
 11
20283.059937062531
 21
403351.49231256603
 31
0.0
  0
INSERT
  5
66E0E
  8
S-OBRYS
  6
CONTINUOUS
 62
     0
  2
_OPEN
 10
20283.059937062531
 20
404251.49231256603
 30
0.0
 41
100.0
 42
100.0
 43
100.0
 50
90.0
  0
INSERT
  5
66E0F
  8
S-OBRYS
  6
CONTINUOUS
 62
     0
  2
_OPEN
 10
20283.059937062531
 20
403251.49231256609
 30
0.0
 41
100.0
 42
100.0
 43
100.0
 50
270.0
  0
INSERT
  5
66E10
  8
S-OBRYS
  6
CONTINUOUS
  2
*U168
 10
0.0
 20
0.0
 30
0.0
  0
POINT
  5
66E11
  8
DEFPOINTS
  6
CONTINUOUS
 62
     0
 10
20156.97517603423
 20
404251.49231256603
 30
0.0
  0
POINT
  5
66E12
  8
DEFPOINTS
  6
CONTINUOUS
 62
     0
 10
20156.97517603423
 20
403251.49231256609
 30
0.0
  0
POINT
  5
66E13
  8
DEFPOINTS
  6
CONTINUOUS
 62
     0
 10
20283.059937062531
 20
403251.49231256609
 30
0.0
  0
ENDBLK
  5
66C18
  8
0
  0
BLOCK
  8
0
  2
*D74
 70
     1
 10
0.0
 20
0.0
 30
0.0
  3
*D74
  1

  0
LINE
  5
66E14
  8
S-OBRYS
  6
CONTINUOUS
 62
     0
 10
19540.583403394921
 20
404801.4927812661
 30
0.0
 11
20494.6986342032
 21
404801.4927812661
 31
0.0
  0
LINE
  5
66E15
  8
S-OBRYS
  6
CONTINUOUS
 62
     0
 10
20137.43311779491
 20
403251.49231256609
 30
0.0
 11
20494.6986342032
 21
403251.49231256609
 31
0.0
  0
LINE
  5
66E16
  8
S-OBRYS
  6
CONTINUOUS
 62
     0
 10
20484.6986342032
 20
404701.4927812661
 30
0.0
 11
20484.6986342032
 21
403351.49231256603
 31
0.0
  0
INSERT
  5
66E17
  8
S-OBRYS
  6
CONTINUOUS
 62
     0
  2
_OPEN
 10
20484.6986342032
 20
404801.4927812661
 30
0.0
 41
100.0
 42
100.0
 43
100.0
 50
90.0
  0
INSERT
  5
66E18
  8
S-OBRYS
  6
CONTINUOUS
 62
     0
  2
_OPEN
 10
20484.6986342032
 20
403251.49231256609
 30
0.0
 41
100.0
 42
100.0
 43
100.0
 50
270.0
  0
INSERT
  5
66E19
  8
S-OBRYS
  6
CONTINUOUS
  2
*U169
 10
0.0
 20
0.0
 30
0.0
  0
POINT
  5
66E1A
  8
DEFPOINTS
  6
CONTINUOUS
 62
     0
 10
19537.43340339492
 20
404801.4927812661
 30
0.0
  0
POINT
  5
66E1B
  8
DEFPOINTS
  6
CONTINUOUS
 62
     0
 10
20134.283117794908
 20
403251.49231256609
 30
0.0
  0
POINT
  5
66E1C
  8
DEFPOINTS
  6
CONTINUOUS
 62
     0
 10
20484.6986342032
 20
403251.49231256609
 30
0.0
  0
ENDBLK
  5
66C24
  8
0
  0
BLOCK
  8
0
  2
*D75
 70
     1
 10
0.0
 20
0.0
 30
0.0
  3
*D75
  1

  0
LINE
  5
66E1D
  8
S-OBRYS
  6
CONTINUOUS
 62
     0
 10
18944.28318189492
 20
403191.91194076597
 30
0.0
 11
18944.28318189492
 21
402999.29763117322
 31
0.0
  0
LINE
  5
66E1E
  8
S-OBRYS
  6
CONTINUOUS
 62
     0
 10
19774.283181894909
 20
403191.91194076597
 30
0.0
 11
19774.283181894909
 21
402999.29763117322
 31
0.0
  0
LINE
  5
66E1F
  8
S-OBRYS
  6
CONTINUOUS
 62
     0
 10
19044.28318189492
 20
403009.29763117328
 30
0.0
 11
19674.283181894909
 21
403009.29763117328
 31
0.0
  0
INSERT
  5
66E20
  8
S-OBRYS
  6
CONTINUOUS
 62
     0
  2
_OPEN
 10
18944.28318189492
 20
403009.29763117328
 30
0.0
 41
100.0
 42
100.0
 43
100.0
 50
180.0
  0
INSERT
  5
66E21
  8
S-OBRYS
  6
CONTINUOUS
 62
     0
  2
_OPEN
 10
19774.283181894909
 20
403009.29763117328
 30
0.0
 41
100.0
 42
100.0
 43
100.0
  0
INSERT
  5
66E22
  8
S-OBRYS
  6
CONTINUOUS
  2
*U170
 10
0.0
 20
0.0
 30
0.0
  0
POINT
  5
66E23
  8
DEFPOINTS
  6
CONTINUOUS
 62
     0
 10
18944.28318189492
 20
403195.06194076611
 30
0.0
  0
POINT
  5
66E24
  8
DEFPOINTS
  6
CONTINUOUS
 62
     0
 10
19774.283181894909
 20
403195.06194076611
 30
0.0
  0
POINT
  5
66E25
  8
DEFPOINTS
  6
CONTINUOUS
 62
     0
 10
19774.283181894909
 20
403009.29763117328
 30
0.0
  0
ENDBLK
  5
66C30
  8
0
  0
BLOCK
  8
0
  2
*D76
 70
     1
 10
0.0
 20
0.0
 30
0.0
  3
*D76
  1

  0
LINE
  5
66E26
  8
S-OBRYS
  6
CONTINUOUS
 62
     0
 10
23116.998744638298
 20
404864.4186746176
 30
0.0
 11
23116.998744638298
 21
405039.6245219445
 31
0.0
  0
LINE
  5
66E27
  8
S-OBRYS
  6
CONTINUOUS
 62
     0
 10
23268.9986732383
 20
404864.41867461771
 30
0.0
 11
23268.9986732383
 21
405039.6245219445
 31
0.0
  0
LINE
  5
66E28
  8
S-OBRYS
  6
CONTINUOUS
 62
     0
 10
23016.998744638298
 20
405029.6245219445
 30
0.0
 11
22916.998744638298
 21
405029.6245219445
 31
0.0
  0
LINE
  5
66E29
  8
S-OBRYS
  6
CONTINUOUS
 62
     0
 10
23368.9986732383
 20
405029.6245219445
 30
0.0
 11
23797.09391133353
 21
405029.6245219445
 31
0.0
  0
LINE
  5
66E2A
  8
S-OBRYS
  6
CONTINUOUS
 62
     0
 10
23116.998744638298
 20
405029.6245219445
 30
0.0
 11
23268.9986732383
 21
405029.6245219445
 31
0.0
  0
INSERT
  5
66E2B
  8
S-OBRYS
  6
CONTINUOUS
 62
     0
  2
_OPEN
 10
23116.998744638298
 20
405029.6245219445
 30
0.0
 41
100.0
 42
100.0
 43
100.0
  0
INSERT
  5
66E2C
  8
S-OBRYS
  6
CONTINUOUS
 62
     0
  2
_OPEN
 10
23268.9986732383
 20
405029.6245219445
 30
0.0
 41
100.0
 42
100.0
 43
100.0
 50
180.0
  0
INSERT
  5
66E2D
  8
S-OBRYS
  6
CONTINUOUS
  2
*U171
 10
0.0
 20
0.0
 30
0.0
  0
POINT
  5
66E2E
  8
DEFPOINTS
  6
CONTINUOUS
 62
     0
 10
23116.998744638298
 20
404861.26867461752
 30
0.0
  0
POINT
  5
66E2F
  8
DEFPOINTS
  6
CONTINUOUS
 62
     0
 10
23268.9986732383
 20
404861.26867461758
 30
0.0
  0
POINT
  5
66E30
  8
DEFPOINTS
  6
CONTINUOUS
 62
     0
 10
23268.9986732383
 20
405029.6245219445
 30
0.0
  0
ENDBLK
  5
66C3E
  8
0
  0
BLOCK
  8
0
  2
*D77
 70
     1
 10
0.0
 20
0.0
 30
0.0
  3
*D77
  1

  0
LINE
  5
66E31
  8
S-OBRYS
  6
CONTINUOUS
 62
     0
 10
22780.998301638301
 20
404962.91996086732
 30
0.0
 11
22780.998301638301
 21
405186.20298014971
 31
0.0
  0
LINE
  5
66E32
  8
S-OBRYS
  6
CONTINUOUS
 62
     0
 10
23191.9984041383
 20
404959.84377775661
 30
0.0
 11
23191.9984041383
 21
405186.20298014971
 31
0.0
  0
LINE
  5
66E33
  8
S-OBRYS
  6
CONTINUOUS
 62
     0
 10
22880.998301638301
 20
405176.20298014971
 30
0.0
 11
23091.9984041383
 21
405176.20298014971
 31
0.0
  0
INSERT
  5
66E34
  8
S-OBRYS
  6
CONTINUOUS
 62
     0
  2
_OPEN
 10
22780.998301638301
 20
405176.20298014971
 30
0.0
 41
100.0
 42
100.0
 43
100.0
 50
180.0
  0
INSERT
  5
66E35
  8
S-OBRYS
  6
CONTINUOUS
 62
     0
  2
_OPEN
 10
23191.9984041383
 20
405176.20298014971
 30
0.0
 41
100.0
 42
100.0
 43
100.0
  0
INSERT
  5
66E36
  8
S-OBRYS
  6
CONTINUOUS
  2
*U172
 10
0.0
 20
0.0
 30
0.0
  0
POINT
  5
66E37
  8
DEFPOINTS
  6
CONTINUOUS
 62
     0
 10
22780.998301638301
 20
404959.76996086712
 30
0.0
  0
POINT
  5
66E38
  8
DEFPOINTS
  6
CONTINUOUS
 62
     0
 10
23191.9984041383
 20
404956.69377775659
 30
0.0
  0
POINT
  5
66E39
  8
DEFPOINTS
  6
CONTINUOUS
 62
     0
 10
23191.9984041383
 20
405176.20298014971
 30
0.0
  0
ENDBLK
  5
66C4A
  8
0
  0
BLOCK
  8
0
  2
*D78
 70
     1
 10
0.0
 20
0.0
 30
0.0
  3
*D78
  1

  0
LINE
  5
66E3A
  8
S-OBRYS
  6
CONTINUOUS
 62
     0
 10
22958.498693388308
 20
404864.4186746176
 30
0.0
 11
22958.498693388308
 21
404980.03855185589
 31
0.0
  0
LINE
  5
66E3B
  8
S-OBRYS
  6
CONTINUOUS
 62
     0
 10
22603.497909888309
 20
404864.4186746176
 30
0.0
 11
22603.497909888309
 21
404980.03855185589
 31
0.0
  0
LINE
  5
66E3C
  8
S-OBRYS
  6
CONTINUOUS
 62
     0
 10
22858.498693388301
 20
404970.03855185589
 30
0.0
 11
22703.497909888309
 21
404970.03855185589
 31
0.0
  0
LINE
  5
66E3D
  8
S-OBRYS
  6
CONTINUOUS
 62
     0
 10
22603.497909888309
 20
404970.03855185589
 30
0.0
 11
22175.402671793068
 21
404970.03855185589
 31
0.0
  0
INSERT
  5
66E3E
  8
S-OBRYS
  6
CONTINUOUS
 62
     0
  2
_OPEN
 10
22958.498693388308
 20
404970.03855185589
 30
0.0
 41
100.0
 42
100.0
 43
100.0
  0
INSERT
  5
66E3F
  8
S-OBRYS
  6
CONTINUOUS
 62
     0
  2
_OPEN
 10
22603.497909888309
 20
404970.03855185589
 30
0.0
 41
100.0
 42
100.0
 43
100.0
 50
180.0
  0
INSERT
  5
66E40
  8
S-OBRYS
  6
CONTINUOUS
  2
*U173
 10
0.0
 20
0.0
 30
0.0
  0
POINT
  5
66E41
  8
DEFPOINTS
  6
CONTINUOUS
 62
     0
 10
22958.498693388308
 20
404861.26867461752
 30
0.0
  0
POINT
  5
66E42
  8
DEFPOINTS
  6
CONTINUOUS
 62
     0
 10
22603.497909888309
 20
404861.26867461752
 30
0.0
  0
POINT
  5
66E43
  8
DEFPOINTS
  6
CONTINUOUS
 62
     0
 10
22603.497909888309
 20
404970.03855185589
 30
0.0
  0
ENDBLK
  5
66C57
  8
0
  0
BLOCK
  8
0
  2
*D79
 70
     1
 10
0.0
 20
0.0
 30
0.0
  3
*D79
  1

  0
LINE
  5
66E44
  8
S-OBRYS
  6
CONTINUOUS
 62
     0
 10
23391.998918538298
 20
403308.11820591748
 30
0.0
 11
23391.998918538298
 21
403084.46738283092
 31
0.0
  0
LINE
  5
66E45
  8
S-OBRYS
  6
CONTINUOUS
 62
     0
 10
23591.998823338301
 20
403583.11837981752
 30
0.0
 11
23591.998823338301
 21
403084.46738283092
 31
0.0
  0
LINE
  5
66E46
  8
S-OBRYS
  6
CONTINUOUS
 62
     0
 10
23291.998918538291
 20
403094.46738283092
 30
0.0
 11
23191.998918538298
 21
403094.46738283092
 31
0.0
  0
LINE
  5
66E47
  8
S-OBRYS
  6
CONTINUOUS
 62
     0
 10
23691.998823338301
 20
403094.46738283092
 30
0.0
 11
24047.713109052591
 21
403094.46738283092
 31
0.0
  0
LINE
  5
66E48
  8
S-OBRYS
  6
CONTINUOUS
 62
     0
 10
23391.998918538298
 20
403094.46738283092
 30
0.0
 11
23591.998823338301
 21
403094.46738283092
 31
0.0
  0
INSERT
  5
66E49
  8
S-OBRYS
  6
CONTINUOUS
 62
     0
  2
_OPEN
 10
23391.998918538298
 20
403094.46738283092
 30
0.0
 41
100.0
 42
100.0
 43
100.0
  0
INSERT
  5
66E4A
  8
S-OBRYS
  6
CONTINUOUS
 62
     0
  2
_OPEN
 10
23591.998823338301
 20
403094.46738283092
 30
0.0
 41
100.0
 42
100.0
 43
100.0
 50
180.0
  0
INSERT
  5
66E4B
  8
S-OBRYS
  6
CONTINUOUS
  2
*U174
 10
0.0
 20
0.0
 30
0.0
  0
POINT
  5
66E4C
  8
DEFPOINTS
  6
CONTINUOUS
 62
     0
 10
23391.998918538298
 20
403311.2682059175
 30
0.0
  0
POINT
  5
66E4D
  8
DEFPOINTS
  6
CONTINUOUS
 62
     0
 10
23591.998823338301
 20
403586.2683798176
 30
0.0
  0
POINT
  5
66E4E
  8
DEFPOINTS
  6
CONTINUOUS
 62
     0
 10
23591.998823338301
 20
403094.46738283092
 30
0.0
  0
ENDBLK
  5
66C65
  8
0
  0
BLOCK
  8
0
  2
*D80
 70
     1
 10
0.0
 20
0.0
 30
0.0
  3
*D80
  1

  0
LINE
  5
66E4F
  8
S-OBRYS
  6
CONTINUOUS
 62
     0
 10
23416.998918538298
 20
403308.11820591748
 30
0.0
 11
23416.998918538298
 21
403143.11585750151
 31
0.0
  0
LINE
  5
66E50
  8
S-OBRYS
  6
CONTINUOUS
 62
     0
 10
23091.998756538309
 20
403308.11820591748
 30
0.0
 11
23091.998756538309
 21
403143.11585750151
 31
0.0
  0
LINE
  5
66E51
  8
S-OBRYS
  6
CONTINUOUS
 62
     0
 10
23316.998918538291
 20
403153.11585750151
 30
0.0
 11
23191.998756538309
 21
403153.11585750151
 31
0.0
  0
INSERT
  5
66E52
  8
S-OBRYS
  6
CONTINUOUS
 62
     0
  2
_OPEN
 10
23416.998918538298
 20
403153.11585750151
 30
0.0
 41
100.0
 42
100.0
 43
100.0
  0
INSERT
  5
66E53
  8
S-OBRYS
  6
CONTINUOUS
 62
     0
  2
_OPEN
 10
23091.998756538309
 20
403153.11585750151
 30
0.0
 41
100.0
 42
100.0
 43
100.0
 50
180.0
  0
INSERT
  5
66E54
  8
S-OBRYS
  6
CONTINUOUS
  2
*U175
 10
0.0
 20
0.0
 30
0.0
  0
POINT
  5
66E55
  8
DEFPOINTS
  6
CONTINUOUS
 62
     0
 10
23416.998918538298
 20
403311.2682059175
 30
0.0
  0
POINT
  5
66E56
  8
DEFPOINTS
  6
CONTINUOUS
 62
     0
 10
23091.998756538309
 20
403311.2682059175
 30
0.0
  0
POINT
  5
66E57
  8
DEFPOINTS
  6
CONTINUOUS
 62
     0
 10
23091.998756538309
 20
403153.11585750151
 30
0.0
  0
ENDBLK
  5
66C71
  8
0
  0
BLOCK
  8
0
  2
*D81
 70
     1
 10
0.0
 20
0.0
 30
0.0
  3
*D81
  1

  0
LINE
  5
66E58
  8
S-OBRYS
  6
CONTINUOUS
 62
     0
 10
22037.779958938299
 20
403333.11788921751
 30
0.0
 11
22037.779958938299
 21
403143.11585750151
 31
0.0
  0
LINE
  5
66E59
  8
S-OBRYS
  6
CONTINUOUS
 62
     0
 10
21816.82403787956
 20
403813.84316628741
 30
0.0
 11
21816.82403787956
 21
403143.11585750151
 31
0.0
  0
LINE
  5
66E5A
  8
S-OBRYS
  6
CONTINUOUS
 62
     0
 10
22137.779958938299
 20
403153.11585750151
 30
0.0
 11
22237.779958938299
 21
403153.11585750151
 31
0.0
  0
LINE
  5
66E5B
  8
S-OBRYS
  6
CONTINUOUS
 62
     0
 10
21716.82403787956
 20
403153.11585750151
 30
0.0
 11
21361.10975216527
 21
403153.11585750151
 31
0.0
  0
LINE
  5
66E5C
  8
S-OBRYS
  6
CONTINUOUS
 62
     0
 10
22037.779958938299
 20
403153.11585750151
 30
0.0
 11
21816.82403787956
 21
403153.11585750151
 31
0.0
  0
INSERT
  5
66E5D
  8
S-OBRYS
  6
CONTINUOUS
 62
     0
  2
_OPEN
 10
22037.779958938299
 20
403153.11585750151
 30
0.0
 41
100.0
 42
100.0
 43
100.0
 50
180.0
  0
INSERT
  5
66E5E
  8
S-OBRYS
  6
CONTINUOUS
 62
     0
  2
_OPEN
 10
21816.82403787956
 20
403153.11585750151
 30
0.0
 41
100.0
 42
100.0
 43
100.0
  0
INSERT
  5
66E5F
  8
S-OBRYS
  6
CONTINUOUS
  2
*U176
 10
0.0
 20
0.0
 30
0.0
  0
POINT
  5
66E60
  8
DEFPOINTS
  6
CONTINUOUS
 62
     0
 10
22037.779958938299
 20
403336.26788921747
 30
0.0
  0
POINT
  5
66E61
  8
DEFPOINTS
  6
CONTINUOUS
 62
     0
 10
21816.82403787956
 20
403816.99316628731
 30
0.0
  0
POINT
  5
66E62
  8
DEFPOINTS
  6
CONTINUOUS
 62
     0
 10
21816.82403787956
 20
403153.11585750151
 30
0.0
  0
ENDBLK
  5
66C7F
  8
0
  0
BLOCK
  8
0
  2
*D82
 70
     1
 10
0.0
 20
0.0
 30
0.0
  3
*D82
  1

  0
LINE
  5
66E63
  8
S-OBRYS
  6
CONTINUOUS
 62
     0
 10
22009.629361238301
 20
403311.2682059175
 30
0.0
 11
21719.12523804561
 21
403311.2682059175
 31
0.0
  0
LINE
  5
66E64
  8
S-OBRYS
  6
CONTINUOUS
 62
     0
 10
21813.674037879558
 20
403816.99316628731
 30
0.0
 11
21719.12523804561
 21
403816.99316628731
 31
0.0
  0
LINE
  5
66E65
  8
S-OBRYS
  6
CONTINUOUS
 62
     0
 10
21729.12523804561
 20
403411.26820591761
 30
0.0
 11
21729.12523804561
 21
403716.99316628737
 31
0.0
  0
INSERT
  5
66E66
  8
S-OBRYS
  6
CONTINUOUS
 62
     0
  2
_OPEN
 10
21729.12523804561
 20
403311.2682059175
 30
0.0
 41
100.0
 42
100.0
 43
100.0
 50
270.0
  0
INSERT
  5
66E67
  8
S-OBRYS
  6
CONTINUOUS
 62
     0
  2
_OPEN
 10
21729.12523804561
 20
403816.99316628731
 30
0.0
 41
100.0
 42
100.0
 43
100.0
 50
90.0
  0
INSERT
  5
66E68
  8
S-OBRYS
  6
CONTINUOUS
  2
*U177
 10
0.0
 20
0.0
 30
0.0
  0
POINT
  5
66E69
  8
DEFPOINTS
  6
CONTINUOUS
 62
     0
 10
22012.779361238299
 20
403311.2682059175
 30
0.0
  0
POINT
  5
66E6A
  8
DEFPOINTS
  6
CONTINUOUS
 62
     0
 10
21816.82403787956
 20
403816.99316628731
 30
0.0
  0
POINT
  5
66E6B
  8
DEFPOINTS
  6
CONTINUOUS
 62
     0
 10
21729.12523804561
 20
403816.99316628731
 30
0.0
  0
ENDBLK
  5
66C8B
  8
0
  0
BLOCK
  8
0
  2
*D83
 70
     1
 10
0.0
 20
0.0
 30
0.0
  3
*D83
  1

  0
LINE
  5
66E6C
  8
S-OBRYS
  6
CONTINUOUS
 62
     0
 10
22037.7796541383
 20
403308.11820591748
 30
0.0
 11
22037.7796541383
 21
403143.11585750151
 31
0.0
  0
LINE
  5
66E6D
  8
S-OBRYS
  6
CONTINUOUS
 62
     0
 10
23092.779958938299
 20
403333.11788921751
 30
0.0
 11
23092.779958938299
 21
403143.11585750151
 31
0.0
  0
LINE
  5
66E6E
  8
S-OBRYS
  6
CONTINUOUS
 62
     0
 10
22137.7796541383
 20
403153.11585750151
 30
0.0
 11
22992.779958938299
 21
403153.11585750151
 31
0.0
  0
INSERT
  5
66E6F
  8
S-OBRYS
  6
CONTINUOUS
 62
     0
  2
_OPEN
 10
22037.7796541383
 20
403153.11585750151
 30
0.0
 41
100.0
 42
100.0
 43
100.0
 50
180.0
  0
INSERT
  5
66E70
  8
S-OBRYS
  6
CONTINUOUS
 62
     0
  2
_OPEN
 10
23092.779958938299
 20
403153.11585750151
 30
0.0
 41
100.0
 42
100.0
 43
100.0
  0
INSERT
  5
66E71
  8
S-OBRYS
  6
CONTINUOUS
  2
*U178
 10
0.0
 20
0.0
 30
0.0
  0
POINT
  5
66E72
  8
DEFPOINTS
  6
CONTINUOUS
 62
     0
 10
22037.7796541383
 20
403311.2682059175
 30
0.0
  0
POINT
  5
66E73
  8
DEFPOINTS
  6
CONTINUOUS
 62
     0
 10
23092.779958938299
 20
403336.26788921747
 30
0.0
  0
POINT
  5
66E74
  8
DEFPOINTS
  6
CONTINUOUS
 62
     0
 10
23092.779958938299
 20
403153.11585750151
 30
0.0
  0
ENDBLK
  5
66C97
  8
0
  0
BLOCK
  8
0
  2
*D84
 70
     1
 10
0.0
 20
0.0
 30
0.0
  3
*D84
  1

  0
LINE
  5
66E75
  8
S-OBRYS
  6
CONTINUOUS
 62
     0
 10
21816.82403787956
 20
403308.11820591748
 30
0.0
 11
21816.82403787956
 21
402935.74833242001
 31
0.0
  0
LINE
  5
66E76
  8
S-OBRYS
  6
CONTINUOUS
 62
     0
 10
23591.998823338301
 20
403583.11837981752
 30
0.0
 11
23591.998823338301
 21
402935.74833242001
 31
0.0
  0
LINE
  5
66E77
  8
S-OBRYS
  6
CONTINUOUS
 62
     0
 10
21916.82403787956
 20
402945.74833242001
 30
0.0
 11
23491.998823338301
 21
402945.74833242001
 31
0.0
  0
INSERT
  5
66E78
  8
S-OBRYS
  6
CONTINUOUS
 62
     0
  2
_OPEN
 10
21816.82403787956
 20
402945.74833242001
 30
0.0
 41
100.0
 42
100.0
 43
100.0
 50
180.0
  0
INSERT
  5
66E79
  8
S-OBRYS
  6
CONTINUOUS
 62
     0
  2
_OPEN
 10
23591.998823338301
 20
402945.74833242001
 30
0.0
 41
100.0
 42
100.0
 43
100.0
  0
INSERT
  5
66E7A
  8
S-OBRYS
  6
CONTINUOUS
  2
*U179
 10
0.0
 20
0.0
 30
0.0
  0
POINT
  5
66E7B
  8
DEFPOINTS
  6
CONTINUOUS
 62
     0
 10
21816.82403787956
 20
403311.2682059175
 30
0.0
  0
POINT
  5
66E7C
  8
DEFPOINTS
  6
CONTINUOUS
 62
     0
 10
23591.998823338301
 20
403586.2683798176
 30
0.0
  0
POINT
  5
66E7D
  8
DEFPOINTS
  6
CONTINUOUS
 62
     0
 10
23591.998823338301
 20
402945.74833242001
 30
0.0
  0
ENDBLK
  5
66CA3
  8
0
  0
BLOCK
  8
0
  2
*D85
 70
     1
 10
0.0
 20
0.0
 30
0.0
  3
*D85
  1

  0
LINE
  5
66E7E
  8
S-OBRYS
  6
CONTINUOUS
 62
     0
 10
26015.53502169533
 20
404923.30424367631
 30
0.0
 11
26015.53502169533
 21
405267.64857507788
 31
0.0
  0
LINE
  5
66E7F
  8
S-OBRYS
  6
CONTINUOUS
 62
     0
 10
25585.535235895321
 20
404923.30424367631
 30
0.0
 11
25585.535235895321
 21
405267.64857507788
 31
0.0
  0
LINE
  5
66E80
  8
S-OBRYS
  6
CONTINUOUS
 62
     0
 10
25915.535021695319
 20
405257.648575078
 30
0.0
 11
25685.535235895331
 21
405257.648575078
 31
0.0
  0
INSERT
  5
66E81
  8
S-OBRYS
  6
CONTINUOUS
 62
     0
  2
_OPEN
 10
26015.53502169533
 20
405257.648575078
 30
0.0
 41
100.0
 42
100.0
 43
100.0
  0
INSERT
  5
66E82
  8
S-OBRYS
  6
CONTINUOUS
 62
     0
  2
_OPEN
 10
25585.535235895321
 20
405257.648575078
 30
0.0
 41
100.0
 42
100.0
 43
100.0
 50
180.0
  0
INSERT
  5
66E83
  8
S-OBRYS
  6
CONTINUOUS
  2
*U180
 10
0.0
 20
0.0
 30
0.0
  0
POINT
  5
66E84
  8
DEFPOINTS
  6
CONTINUOUS
 62
     0
 10
26015.53502169533
 20
404920.1542436764
 30
0.0
  0
POINT
  5
66E85
  8
DEFPOINTS
  6
CONTINUOUS
 62
     0
 10
25585.535235895321
 20
404920.1542436764
 30
0.0
  0
POINT
  5
66E86
  8
DEFPOINTS
  6
CONTINUOUS
 62
     0
 10
25585.535235895321
 20
405257.648575078
 30
0.0
  0
ENDBLK
  5
66CAF
  8
0
  0
BLOCK
  8
0
  2
*D86
 70
     1
 10
0.0
 20
0.0
 30
0.0
  3
*D86
  1

  0
LINE
  5
66E87
  8
S-OBRYS
  6
CONTINUOUS
 62
     0
 10
25582.385235895319
 20
404920.1542436764
 30
0.0
 11
24848.78414278349
 21
404920.1542436764
 31
0.0
  0
LINE
  5
66E88
  8
S-OBRYS
  6
CONTINUOUS
 62
     0
 10
25037.385192895319
 20
403420.15434807632
 30
0.0
 11
24848.78414278349
 21
403420.15434807632
 31
0.0
  0
LINE
  5
66E89
  8
S-OBRYS
  6
CONTINUOUS
 62
     0
 10
24858.78414278349
 20
404820.15424367628
 30
0.0
 11
24858.78414278349
 21
403520.15434807632
 31
0.0
  0
INSERT
  5
66E8A
  8
S-OBRYS
  6
CONTINUOUS
 62
     0
  2
_OPEN
 10
24858.78414278349
 20
404920.1542436764
 30
0.0
 41
100.0
 42
100.0
 43
100.0
 50
90.0
  0
INSERT
  5
66E8B
  8
S-OBRYS
  6
CONTINUOUS
 62
     0
  2
_OPEN
 10
24858.78414278349
 20
403420.15434807632
 30
0.0
 41
100.0
 42
100.0
 43
100.0
 50
270.0
  0
INSERT
  5
66E8C
  8
S-OBRYS
  6
CONTINUOUS
  2
*U181
 10
0.0
 20
0.0
 30
0.0
  0
POINT
  5
66E8D
  8
DEFPOINTS
  6
CONTINUOUS
 62
     0
 10
25585.535235895321
 20
404920.1542436764
 30
0.0
  0
POINT
  5
66E8E
  8
DEFPOINTS
  6
CONTINUOUS
 62
     0
 10
25040.535192895321
 20
403420.15434807632
 30
0.0
  0
POINT
  5
66E8F
  8
DEFPOINTS
  6
CONTINUOUS
 62
     0
 10
24858.78414278349
 20
403420.15434807632
 30
0.0
  0
ENDBLK
  5
66CBB
  8
0
  0
BLOCK
  8
0
  2
*D87
 70
     1
 10
0.0
 20
0.0
 30
0.0
  3
*D87
  1

  0
LINE
  5
66E90
  8
S-OBRYS
  6
CONTINUOUS
 62
     0
 10
26560.535064695319
 20
403417.0043480763
 30
0.0
 11
26560.535064695319
 21
402950.3451592644
 31
0.0
  0
LINE
  5
66E91
  8
S-OBRYS
  6
CONTINUOUS
 62
     0
 10
25040.535192895331
 20
403417.0043480763
 30
0.0
 11
25040.535192895331
 21
402950.3451592644
 31
0.0
  0
LINE
  5
66E92
  8
S-OBRYS
  6
CONTINUOUS
 62
     0
 10
26460.535064695319
 20
402960.3451592644
 30
0.0
 11
25140.535192895321
 21
402960.3451592644
 31
0.0
  0
INSERT
  5
66E93
  8
S-OBRYS
  6
CONTINUOUS
 62
     0
  2
_OPEN
 10
26560.535064695319
 20
402960.3451592644
 30
0.0
 41
100.0
 42
100.0
 43
100.0
  0
INSERT
  5
66E94
  8
S-OBRYS
  6
CONTINUOUS
 62
     0
  2
_OPEN
 10
25040.535192895331
 20
402960.3451592644
 30
0.0
 41
100.0
 42
100.0
 43
100.0
 50
180.0
  0
INSERT
  5
66E95
  8
S-OBRYS
  6
CONTINUOUS
  2
*U182
 10
0.0
 20
0.0
 30
0.0
  0
POINT
  5
66E96
  8
DEFPOINTS
  6
CONTINUOUS
 62
     0
 10
26560.535064695319
 20
403420.15434807638
 30
0.0
  0
POINT
  5
66E97
  8
DEFPOINTS
  6
CONTINUOUS
 62
     0
 10
25040.535192895331
 20
403420.15434807638
 30
0.0
  0
POINT
  5
66E98
  8
DEFPOINTS
  6
CONTINUOUS
 62
     0
 10
25040.535192895331
 20
402960.3451592644
 30
0.0
  0
ENDBLK
  5
66CC7
  8
0
  0
BLOCK
  8
0
  2
*D88
 70
     1
 10
0.0
 20
0.0
 30
0.0
  3
*D88
  1

  0
LINE
  5
66E99
  8
S-OBRYS
  6
CONTINUOUS
 62
     0
 10
19413.49667674971
 20
400361.7036451521
 30
0.0
 11
20047.075485951351
 21
400242.46201746602
 31
0.0
  0
LINE
  5
66E9A
  8
S-OBRYS
  6
CONTINUOUS
 62
     0
 10
20261.31428103568
 20
400202.14156755782
 30
0.0
 11
20359.58895767988
 21
400183.64594833378
 31
0.0
  0
INSERT
  5
66E9B
  8
S-OBRYS
  6
CONTINUOUS
  2
*U183
 10
0.0
 20
0.0
 30
0.0
  0
LINE
  5
66E9C
  8
S-OBRYS
  6
CONTINUOUS
 62
     0
 10
20163.039604391481
 20
400220.63718678168
 30
0.0
 11
20145.350162595551
 21
400223.9663982421
 31
0.0
  0
INSERT
  5
66E9D
  8
S-OBRYS
  6
CONTINUOUS
 62
     0
  2
_OPEN
 10
20163.039604391481
 20
400220.63718678168
 30
0.0
 41
100.0
 42
100.0
 43
100.0
 50
169.34142167868129
  0
INSERT
  5
66E9E
  8
S-OBRYS
  6
CONTINUOUS
 62
     0
  2
_OPEN
 10
20145.350162595551
 20
400223.9663982421
 30
0.0
 41
100.0
 42
100.0
 43
100.0
 50
349.34142167868129
  0
POINT
  5
66E9F
  8
DEFPOINTS
  6
CONTINUOUS
 62
     0
 10
20145.350162595551
 20
400223.9663982421
 30
0.0
  0
POINT
  5
66EA0
  8
DEFPOINTS
  6
CONTINUOUS
 62
     0
 10
20163.039604391481
 20
400220.63718678168
 30
0.0
  0
ENDBLK
  5
66CD2
  8
0
  0
BLOCK
  8
0
  2
*D89
 70
     1
 10
0.0
 20
0.0
 30
0.0
  3
*D89
  1

  0
LINE
  5
66EA1
  8
S-OBRYS
  6
CONTINUOUS
 62
     0
 10
19739.194883493539
 20
398848.85618262028
 30
0.0
 11
19739.194883493539
 21
398418.5123789963
 31
0.0
  0
LINE
  5
66EA2
  8
S-OBRYS
  6
CONTINUOUS
 62
     0
 10
20569.19488349355
 20
398848.85618262028
 30
0.0
 11
20569.19488349355
 21
398418.5123789963
 31
0.0
  0
LINE
  5
66EA3
  8
S-OBRYS
  6
CONTINUOUS
 62
     0
 10
19839.194883493539
 20
398428.5123789963
 30
0.0
 11
20469.19488349355
 21
398428.5123789963
 31
0.0
  0
INSERT
  5
66EA4
  8
S-OBRYS
  6
CONTINUOUS
 62
     0
  2
_OPEN
 10
19739.194883493539
 20
398428.5123789963
 30
0.0
 41
100.0
 42
100.0
 43
100.0
 50
180.0
  0
INSERT
  5
66EA5
  8
S-OBRYS
  6
CONTINUOUS
 62
     0
  2
_OPEN
 10
20569.19488349355
 20
398428.5123789963
 30
0.0
 41
100.0
 42
100.0
 43
100.0
  0
INSERT
  5
66EA6
  8
S-OBRYS
  6
CONTINUOUS
  2
*U184
 10
0.0
 20
0.0
 30
0.0
  0
POINT
  5
66EA7
  8
DEFPOINTS
  6
CONTINUOUS
 62
     0
 10
19739.194883493539
 20
398852.00618262042
 30
0.0
  0
POINT
  5
66EA8
  8
DEFPOINTS
  6
CONTINUOUS
 62
     0
 10
20569.19488349355
 20
398852.00618262042
 30
0.0
  0
POINT
  5
66EA9
  8
DEFPOINTS
  6
CONTINUOUS
 62
     0
 10
20569.19488349355
 20
398428.5123789963
 30
0.0
  0
ENDBLK
  5
66CDE
  8
0
  0
BLOCK
  8
0
  2
*D90
 70
     1
 10
0.0
 20
0.0
 30
0.0
  3
*D90
  1

  0
LINE
  5
66EAA
  8
S-OBRYS
  6
CONTINUOUS
 62
     0
 10
19459.194883493539
 20
398884.15195911197
 30
0.0
 11
19459.194883493539
 21
398240.14944655233
 31
0.0
  0
LINE
  5
66EAB
  8
S-OBRYS
  6
CONTINUOUS
 62
     0
 10
20849.194883493539
 20
398884.15195911197
 30
0.0
 11
20849.194883493539
 21
398240.14944655233
 31
0.0
  0
LINE
  5
66EAC
  8
S-OBRYS
  6
CONTINUOUS
 62
     0
 10
19559.19488349355
 20
398250.14944655221
 30
0.0
 11
20749.194883493539
 21
398250.14944655221
 31
0.0
  0
INSERT
  5
66EAD
  8
S-OBRYS
  6
CONTINUOUS
 62
     0
  2
_OPEN
 10
19459.194883493539
 20
398250.14944655221
 30
0.0
 41
100.0
 42
100.0
 43
100.0
 50
180.0
  0
INSERT
  5
66EAE
  8
S-OBRYS
  6
CONTINUOUS
 62
     0
  2
_OPEN
 10
20849.194883493539
 20
398250.14944655221
 30
0.0
 41
100.0
 42
100.0
 43
100.0
  0
INSERT
  5
66EAF
  8
S-OBRYS
  6
CONTINUOUS
  2
*U185
 10
0.0
 20
0.0
 30
0.0
  0
POINT
  5
66EB0
  8
DEFPOINTS
  6
CONTINUOUS
 62
     0
 10
19459.194883493539
 20
398887.301959112
 30
0.0
  0
POINT
  5
66EB1
  8
DEFPOINTS
  6
CONTINUOUS
 62
     0
 10
20849.194883493539
 20
398887.301959112
 30
0.0
  0
POINT
  5
66EB2
  8
DEFPOINTS
  6
CONTINUOUS
 62
     0
 10
20849.194883493539
 20
398250.14944655221
 30
0.0
  0
ENDBLK
  5
66CEA
  8
0
  0
BLOCK
  8
0
  2
*D91
 70
     1
 10
0.0
 20
0.0
 30
0.0
  3
*D91
  1

  0
LINE
  5
66EB3
  8
S-OBRYS
  6
CONTINUOUS
 62
     0
 10
20138.109556233609
 20
400222.30179251201
 30
0.0
 11
19319.811493939749
 21
400222.30179251201
 31
0.0
  0
LINE
  5
66EB4
  8
S-OBRYS
  6
CONTINUOUS
 62
     0
 10
19443.10955623362
 20
399167.301959112
 30
0.0
 11
19319.811493939749
 21
399167.301959112
 31
0.0
  0
LINE
  5
66EB5
  8
S-OBRYS
  6
CONTINUOUS
 62
     0
 10
19329.811493939749
 20
400122.30179251201
 30
0.0
 11
19329.811493939749
 21
399267.30195911211
 31
0.0
  0
INSERT
  5
66EB6
  8
S-OBRYS
  6
CONTINUOUS
 62
     0
  2
_OPEN
 10
19329.811493939749
 20
400222.30179251201
 30
0.0
 41
100.0
 42
100.0
 43
100.0
 50
90.0
  0
INSERT
  5
66EB7
  8
S-OBRYS
  6
CONTINUOUS
 62
     0
  2
_OPEN
 10
19329.811493939749
 20
399167.301959112
 30
0.0
 41
100.0
 42
100.0
 43
100.0
 50
270.0
  0
INSERT
  5
66EB8
  8
S-OBRYS
  6
CONTINUOUS
  2
*U186
 10
0.0
 20
0.0
 30
0.0
  0
POINT
  5
66EB9
  8
DEFPOINTS
  6
CONTINUOUS
 62
     0
 10
20141.25955623361
 20
400222.30179251201
 30
0.0
  0
POINT
  5
66EBA
  8
DEFPOINTS
  6
CONTINUOUS
 62
     0
 10
19446.259556233621
 20
399167.301959112
 30
0.0
  0
POINT
  5
66EBB
  8
DEFPOINTS
  6
CONTINUOUS
 62
     0
 10
19329.811493939749
 20
399167.301959112
 30
0.0
  0
ENDBLK
  5
66CF6
  8
0
  0
BLOCK
  8
0
  2
*D92
 70
     1
 10
0.0
 20
0.0
 30
0.0
  3
*D92
  1

  0
LINE
  5
66EBC
  8
S-OBRYS
  6
CONTINUOUS
 62
     0
 10
19360.530806872521
 20
399167.301959112
 30
0.0
 11
19319.953057964711
 21
399167.301959112
 31
0.0
  0
LINE
  5
66EBD
  8
S-OBRYS
  6
CONTINUOUS
 62
     0
 10
19443.10955623362
 20
398917.301959112
 30
0.0
 11
19319.953057964711
 21
398917.301959112
 31
0.0
  0
LINE
  5
66EBE
  8
S-OBRYS
  6
CONTINUOUS
 62
     0
 10
19329.953057964711
 20
399067.301959112
 30
0.0
 11
19329.953057964711
 21
399017.301959112
 31
0.0
  0
INSERT
  5
66EBF
  8
S-OBRYS
  6
CONTINUOUS
 62
     0
  2
_OPEN
 10
19329.953057964711
 20
399167.301959112
 30
0.0
 41
100.0
 42
100.0
 43
100.0
 50
90.0
  0
INSERT
  5
66EC0
  8
S-OBRYS
  6
CONTINUOUS
 62
     0
  2
_OPEN
 10
19329.953057964711
 20
398917.301959112
 30
0.0
 41
100.0
 42
100.0
 43
100.0
 50
270.0
  0
INSERT
  5
66EC1
  8
S-OBRYS
  6
CONTINUOUS
  2
*U187
 10
0.0
 20
0.0
 30
0.0
  0
POINT
  5
66EC2
  8
DEFPOINTS
  6
CONTINUOUS
 62
     0
 10
19363.680806872519
 20
399167.301959112
 30
0.0
  0
POINT
  5
66EC3
  8
DEFPOINTS
  6
CONTINUOUS
 62
     0
 10
19446.259556233621
 20
398917.301959112
 30
0.0
  0
POINT
  5
66EC4
  8
DEFPOINTS
  6
CONTINUOUS
 62
     0
 10
19329.953057964711
 20
398917.301959112
 30
0.0
  0
ENDBLK
  5
66D02
  8
0
  0
BLOCK
  8
0
  2
*D93
 70
     1
 10
0.0
 20
0.0
 30
0.0
  3
*D93
  1

  0
LINE
  5
66EC5
  8
S-OBRYS
  6
CONTINUOUS
 62
     0
 10
20367.66662863969
 20
399548.33421218209
 30
0.0
 11
20482.70561502382
 21
399548.33421218209
 31
0.0
  0
LINE
  5
66EC6
  8
S-OBRYS
  6
CONTINUOUS
 62
     0
 10
20367.66662863969
 20
399137.33421218197
 30
0.0
 11
20482.70561502382
 21
399137.33421218197
 31
0.0
  0
LINE
  5
66EC7
  8
S-OBRYS
  6
CONTINUOUS
 62
     0
 10
20472.70561502382
 20
399448.33421218209
 30
0.0
 11
20472.70561502382
 21
399237.33421218197
 31
0.0
  0
INSERT
  5
66EC8
  8
S-OBRYS
  6
CONTINUOUS
 62
     0
  2
_OPEN
 10
20472.70561502382
 20
399548.33421218209
 30
0.0
 41
100.0
 42
100.0
 43
100.0
 50
90.0
  0
INSERT
  5
66EC9
  8
S-OBRYS
  6
CONTINUOUS
 62
     0
  2
_OPEN
 10
20472.70561502382
 20
399137.33421218197
 30
0.0
 41
100.0
 42
100.0
 43
100.0
 50
270.0
  0
INSERT
  5
66ECA
  8
S-OBRYS
  6
CONTINUOUS
  2
*U188
 10
0.0
 20
0.0
 30
0.0
  0
POINT
  5
66ECB
  8
DEFPOINTS
  6
CONTINUOUS
 62
     0
 10
20364.516628639689
 20
399548.33421218209
 30
0.0
  0
POINT
  5
66ECC
  8
DEFPOINTS
  6
CONTINUOUS
 62
     0
 10
20364.516628639689
 20
399137.33421218197
 30
0.0
  0
POINT
  5
66ECD
  8
DEFPOINTS
  6
CONTINUOUS
 62
     0
 10
20472.70561502382
 20
399137.33421218197
 30
0.0
  0
ENDBLK
  5
66D0E
  8
0
  0
BLOCK
  8
0
  2
*D94
 70
     1
 10
0.0
 20
0.0
 30
0.0
  3
*D94
  1

  0
LINE
  5
66ECE
  8
S-OBRYS
  6
CONTINUOUS
 62
     0
 10
19419.194883493539
 20
399235.45179251209
 30
0.0
 11
19419.194883493539
 21
399407.35784028878
 31
0.0
  0
LINE
  5
66ECF
  8
S-OBRYS
  6
CONTINUOUS
 62
     0
 10
19499.194883493539
 20
399235.45179251209
 30
0.0
 11
19499.194883493539
 21
399407.35784028878
 31
0.0
  0
LINE
  5
66ED0
  8
S-OBRYS
  6
CONTINUOUS
 62
     0
 10
19319.194883493539
 20
399397.3578402889
 30
0.0
 11
19219.194883493539
 21
399397.3578402889
 31
0.0
  0
LINE
  5
66ED1
  8
S-OBRYS
  6
CONTINUOUS
 62
     0
 10
19599.194883493539
 20
399397.3578402889
 30
0.0
 11
19878.718693017348
 21
399397.3578402889
 31
0.0
  0
LINE
  5
66ED2
  8
S-OBRYS
  6
CONTINUOUS
 62
     0
 10
19419.194883493539
 20
399397.3578402889
 30
0.0
 11
19499.194883493539
 21
399397.3578402889
 31
0.0
  0
INSERT
  5
66ED3
  8
S-OBRYS
  6
CONTINUOUS
 62
     0
  2
_OPEN
 10
19419.194883493539
 20
399397.3578402889
 30
0.0
 41
100.0
 42
100.0
 43
100.0
  0
INSERT
  5
66ED4
  8
S-OBRYS
  6
CONTINUOUS
 62
     0
  2
_OPEN
 10
19499.194883493539
 20
399397.3578402889
 30
0.0
 41
100.0
 42
100.0
 43
100.0
 50
180.0
  0
INSERT
  5
66ED5
  8
S-OBRYS
  6
CONTINUOUS
  2
*U189
 10
0.0
 20
0.0
 30
0.0
  0
POINT
  5
66ED6
  8
DEFPOINTS
  6
CONTINUOUS
 62
     0
 10
19419.194883493539
 20
399232.30179251212
 30
0.0
  0
POINT
  5
66ED7
  8
DEFPOINTS
  6
CONTINUOUS
 62
     0
 10
19499.194883493539
 20
399232.30179251212
 30
0.0
  0
POINT
  5
66ED8
  8
DEFPOINTS
  6
CONTINUOUS
 62
     0
 10
19499.194883493539
 20
399397.3578402889
 30
0.0
  0
ENDBLK
  5
66D1C
  8
0
  0
BLOCK
  8
0
  2
*U95
 70
     1
 10
0.0
 20
0.0
 30
0.0
  3
*U95
  1

  0
TEXT
  5
6755C
  8
OBRYS
  6
CONTINUOUS
 10
20091.48921631628
 20
407018.38323950872
 30
0.0
 40
400.0
  1
Odkaménkovač OV7
  7
R
  0
ENDBLK
  5
6755E
  8
0
  0
BLOCK
  8
0
  2
*U96
 70
     1
 10
0.0
 20
0.0
 30
0.0
  3
*U96
  1

  0
TEXT
  5
67560
  8
S-OBRYS
  6
CONTINUOUS
 62
     7
 10
36009.760549778097
 20
399479.2066688168
 30
0.0
 40
100.0
  1
1500
 50
90.0
 41
0.8
  0
ENDBLK
  5
67562
  8
0
  0
BLOCK
  8
0
  2
*U97
 70
     1
 10
0.0
 20
0.0
 30
0.0
  3
*U97
  1

  0
TEXT
  5
67564
  8
S-OBRYS
  6
CONTINUOUS
 62
     7
 10
35802.512522196746
 20
399730.15893536923
 30
0.0
 40
100.0
  1
100
 50
90.0
 41
0.8
  0
ENDBLK
  5
67566
  8
0
  0
BLOCK
  8
0
  2
*U98
 70
     1
 10
0.0
 20
0.0
 30
0.0
  3
*U98
  1

  0
TEXT
  5
67568
  8
S-OBRYS
  6
CONTINUOUS
 62
     7
 10
36075.4125026603
 20
400533.3698255698
 30
0.0
 40
100.0
  1
60
 41
0.8
  0
ENDBLK
  5
6756A
  8
0
  0
BLOCK
  8
0
  2
*U99
 70
     1
 10
0.0
 20
0.0
 30
0.0
  3
*U99
  1

  0
TEXT
  5
6756C
  8
S-OBRYS
  6
CONTINUOUS
 62
     7
 10
36113.58031851695
 20
398513.20672101667
 30
0.0
 40
100.0
  1
61
 50
90.0
 41
0.8
  0
ENDBLK
  5
6756E
  8
0
  0
BLOCK
  8
0
  2
*U100
 70
     1
 10
0.0
 20
0.0
 30
0.0
  3
*U100
  1

  0
TEXT
  5
67570
  8
S-OBRYS
  6
CONTINUOUS
 62
     7
 10
34207.720604028043
 20
398649.54350832512
 30
0.0
 40
100.0
  1
\U+2205152
 50
22.900116774126111
 41
0.8
  0
ENDBLK
  5
67572
  8
0
  0
BLOCK
  8
0
  2
*U101
 70
     1
 10
0.0
 20
0.0
 30
0.0
  3
*U101
  1

  0
TEXT
  5
67574
  8
S-OBRYS
  6
CONTINUOUS
 62
     7
 10
36287.618334943807
 20
398945.51616152632
 30
0.0
 40
100.0
  1
345
 50
90.0
 41
0.8
  0
ENDBLK
  5
67576
  8
0
  0
BLOCK
  8
0
  2
*U102
 70
     1
 10
0.0
 20
0.0
 30
0.0
  3
*U102
  1

  0
TEXT
  5
67578
  8
S-OBRYS
  6
CONTINUOUS
 62
     7
 10
34453.693171969113
 20
400383.76219456119
 30
0.0
 40
100.0
  1
\U+220518
 50
349.34142167868561
 41
0.8
  0
ENDBLK
  5
6757A
  8
0
  0
BLOCK
  8
0
  2
*U103
 70
     1
 10
0.0
 20
0.0
 30
0.0
  3
*U103
  1

  0
TEXT
  5
6757C
  8
S-OBRYS
  6
CONTINUOUS
 62
     7
 10
35062.14448207667
 20
398453.51237899641
 30
0.0
 40
100.0
  1
830
 41
0.8
  0
ENDBLK
  5
6757E
  8
0
  0
BLOCK
  8
0
  2
*U104
 70
     1
 10
0.0
 20
0.0
 30
0.0
  3
*U104
  1

  0
TEXT
  5
67580
  8
S-OBRYS
  6
CONTINUOUS
 62
     7
 10
35018.334958267151
 20
398275.14944655221
 30
0.0
 40
100.0
  1
1390
 41
0.8
  0
ENDBLK
  5
67582
  8
0
  0
BLOCK
  8
0
  2
*U105
 70
     1
 10
0.0
 20
0.0
 30
0.0
  3
*U105
  1

  0
TEXT
  5
67584
  8
S-OBRYS
  6
CONTINUOUS
 62
     7
 10
34327.046806808532
 20
399536.70663771679
 30
0.0
 40
100.0
  1
1055
 50
90.0
 41
0.8
  0
ENDBLK
  5
67586
  8
0
  0
BLOCK
  8
0
  2
*U106
 70
     1
 10
0.0
 20
0.0
 30
0.0
  3
*U106
  1

  0
TEXT
  5
67588
  8
S-OBRYS
  6
CONTINUOUS
 62
     7
 10
34327.188370833501
 20
398928.01624482631
 30
0.0
 40
100.0
  1
250
 50
90.0
 41
0.8
  0
ENDBLK
  5
6758A
  8
0
  0
BLOCK
  8
0
  2
*U107
 70
     1
 10
0.0
 20
0.0
 30
0.0
  3
*U107
  1

  0
TEXT
  5
6758C
  8
S-OBRYS
  6
CONTINUOUS
 62
     7
 10
35469.940927892603
 20
399239.97706932487
 30
0.0
 40
100.0
  1
411
 50
90.0
 41
0.8
  0
ENDBLK
  5
6758E
  8
0
  0
BLOCK
  8
0
  2
*U108
 70
     1
 10
0.0
 20
0.0
 30
0.0
  3
*U108
  1

  0
TEXT
  5
67590
  8
S-OBRYS
  6
CONTINUOUS
 62
     7
 10
34735.001624933808
 20
399422.35784028878
 30
0.0
 40
100.0
  1
80
 41
0.8
  0
ENDBLK
  5
67592
  8
0
  0
BLOCK
  8
0
  2
*U109
 70
     1
 10
0.0
 20
0.0
 30
0.0
  3
*U109
  1

  0
TEXT
  5
67594
  8
S-OBRYS
  6
CONTINUOUS
 62
     7
 10
39816.120729128728
 20
399479.2066688168
 30
0.0
 40
100.0
  1
1500
 50
90.0
 41
0.8
  0
ENDBLK
  5
67596
  8
0
  0
BLOCK
  8
0
  2
*U110
 70
     1
 10
0.0
 20
0.0
 30
0.0
  3
*U110
  1

  0
TEXT
  5
67598
  8
S-OBRYS
  6
CONTINUOUS
 62
     7
 10
39608.872701547371
 20
399730.15893536923
 30
0.0
 40
100.0
  1
100
 50
90.0
 41
0.8
  0
ENDBLK
  5
6759A
  8
0
  0
BLOCK
  8
0
  2
*U111
 70
     1
 10
0.0
 20
0.0
 30
0.0
  3
*U111
  1

  0
TEXT
  5
6759C
  8
S-OBRYS
  6
CONTINUOUS
 62
     7
 10
39222.55228047492
 20
400533.3698255698
 30
0.0
 40
100.0
  1
60
 41
0.8
  0
ENDBLK
  5
6759E
  8
0
  0
BLOCK
  8
0
  2
*U112
 70
     1
 10
0.0
 20
0.0
 30
0.0
  3
*U112
  1

  0
TEXT
  5
675A0
  8
S-OBRYS
  6
CONTINUOUS
 62
     7
 10
39919.940497867567
 20
398513.20672101667
 30
0.0
 40
100.0
  1
61
 50
90.0
 41
0.8
  0
ENDBLK
  5
675A2
  8
0
  0
BLOCK
  8
0
  2
*U113
 70
     1
 10
0.0
 20
0.0
 30
0.0
  3
*U113
  1

  0
TEXT
  5
675A4
  8
S-OBRYS
  6
CONTINUOUS
 62
     7
 10
37944.090388221681
 20
398619.97823978972
 30
0.0
 40
100.0
  1
\U+2205152
 50
22.90011677409742
 41
0.8
  0
ENDBLK
  5
675A6
  8
0
  0
BLOCK
  8
0
  2
*U114
 70
     1
 10
0.0
 20
0.0
 30
0.0
  3
*U114
  1

  0
TEXT
  5
675A8
  8
S-OBRYS
  6
CONTINUOUS
 62
     7
 10
40093.978514294431
 20
398945.51616152632
 30
0.0
 40
100.0
  1
345
 50
90.0
 41
0.8
  0
ENDBLK
  5
675AA
  8
0
  0
BLOCK
  8
0
  2
*U115
 70
     1
 10
0.0
 20
0.0
 30
0.0
  3
*U115
  1

  0
TEXT
  5
675AC
  8
S-OBRYS
  6
CONTINUOUS
 62
     7
 10
38260.053351319722
 20
400383.76219456119
 30
0.0
 40
100.0
  1
\U+220518
 50
349.34142167868561
 41
0.8
  0
ENDBLK
  5
675AE
  8
0
  0
BLOCK
  8
0
  2
*U116
 70
     1
 10
0.0
 20
0.0
 30
0.0
  3
*U116
  1

  0
TEXT
  5
675B0
  8
S-OBRYS
  6
CONTINUOUS
 62
     7
 10
38868.504661427301
 20
398453.51237899641
 30
0.0
 40
100.0
  1
830
 41
0.8
  0
ENDBLK
  5
675B2
  8
0
  0
BLOCK
  8
0
  2
*U117
 70
     1
 10
0.0
 20
0.0
 30
0.0
  3
*U117
  1

  0
TEXT
  5
675B4
  8
S-OBRYS
  6
CONTINUOUS
 62
     7
 10
38824.695137617782
 20
398275.14944655221
 30
0.0
 40
100.0
  1
1390
 41
0.8
  0
ENDBLK
  5
675B6
  8
0
  0
BLOCK
  8
0
  2
*U118
 70
     1
 10
0.0
 20
0.0
 30
0.0
  3
*U118
  1

  0
TEXT
  5
675B8
  8
S-OBRYS
  6
CONTINUOUS
 62
     7
 10
38133.406986159149
 20
399536.70663771679
 30
0.0
 40
100.0
  1
1055
 50
90.0
 41
0.8
  0
ENDBLK
  5
675BA
  8
0
  0
BLOCK
  8
0
  2
*U119
 70
     1
 10
0.0
 20
0.0
 30
0.0
  3
*U119
  1

  0
TEXT
  5
675BC
  8
S-OBRYS
  6
CONTINUOUS
 62
     7
 10
38133.548550184118
 20
398928.01624482631
 30
0.0
 40
100.0
  1
250
 50
90.0
 41
0.8
  0
ENDBLK
  5
675BE
  8
0
  0
BLOCK
  8
0
  2
*U120
 70
     1
 10
0.0
 20
0.0
 30
0.0
  3
*U120
  1

  0
TEXT
  5
675C0
  8
S-OBRYS
  6
CONTINUOUS
 62
     7
 10
39276.30110724322
 20
399239.97706932487
 30
0.0
 40
100.0
  1
411
 50
90.0
 41
0.8
  0
ENDBLK
  5
675C2
  8
0
  0
BLOCK
  8
0
  2
*U121
 70
     1
 10
0.0
 20
0.0
 30
0.0
  3
*U121
  1

  0
TEXT
  5
675C4
  8
S-OBRYS
  6
CONTINUOUS
 62
     7
 10
38541.361804284439
 20
399422.35784028878
 30
0.0
 40
100.0
  1
80
 41
0.8
  0
ENDBLK
  5
675C6
  8
0
  0
BLOCK
  8
0
  2
*U122
 70
     1
 10
0.0
 20
0.0
 30
0.0
  3
*U122
  1

  0
TEXT
  5
675C8
  8
S-OBRYS
  6
CONTINUOUS
 62
     7
 10
40063.76295640746
 20
400508.01607822621
 30
0.0
 40
100.0
  1
700
 50
90.0
 41
0.8
  0
ENDBLK
  5
675CA
  8
0
  0
BLOCK
  8
0
  2
*U123
 70
     1
 10
0.0
 20
0.0
 30
0.0
  3
*U123
  1

  0
TEXT
  5
675CC
  8
S-OBRYS
  6
CONTINUOUS
 62
     7
 10
40309.316461935327
 20
398000.12778750161
 30
0.0
 40
100.0
  1
1500
 41
0.8
  0
ENDBLK
  5
675CE
  8
0
  0
BLOCK
  8
0
  2
*U124
 70
     1
 10
0.0
 20
0.0
 30
0.0
  3
*U124
  1

  0
TEXT
  5
675D0
  8
S-OBRYS
  6
CONTINUOUS
 62
     7
 10
37857.684741347228
 20
398423.01624482631
 30
0.0
 40
100.0
  1
700
 50
90.0
 41
0.8
  0
ENDBLK
  5
675D2
  8
0
  0
BLOCK
  8
0
  2
*U125
 70
     1
 10
0.0
 20
0.0
 30
0.0
  3
*U125
  1

  0
TEXT
  5
675D4
  8
S-OBRYS
  6
CONTINUOUS
 62
     7
 10
37831.599899522538
 20
397705.3976001651
 30
0.0
 40
100.0
  1
600
 41
0.8
  0
ENDBLK
  5
675D6
  8
0
  0
BLOCK
  8
0
  2
*U126
 70
     1
 10
0.0
 20
0.0
 30
0.0
  3
*U126
  1

  0
TEXT
  5
675D8
  8
S-OBRYS
  6
CONTINUOUS
 62
     7
 10
34656.488514076882
 20
405015.06420983752
 30
0.0
 40
100.0
  1
90
 50
90.0
 41
0.8
  0
ENDBLK
  5
675DA
  8
0
  0
BLOCK
  8
0
  2
*U127
 70
     1
 10
0.0
 20
0.0
 30
0.0
  3
*U127
  1

  0
TEXT
  5
675DC
  8
S-OBRYS
  6
CONTINUOUS
 62
     7
 10
35280.295249931303
 20
404367.20669808029
 30
0.0
 40
100.0
  1
460
 50
90.0
 41
0.8
  0
ENDBLK
  5
675DE
  8
0
  0
BLOCK
  8
0
  2
*U128
 70
     1
 10
0.0
 20
0.0
 30
0.0
  3
*U128
  1

  0
TEXT
  5
675E0
  8
S-OBRYS
  6
CONTINUOUS
 62
     7
 10
35280.295249931303
 20
403593.39707447082
 30
0.0
 40
100.0
  1
1000
 50
90.0
 41
0.8
  0
ENDBLK
  5
675E2
  8
0
  0
BLOCK
  8
0
  2
*U129
 70
     1
 10
0.0
 20
0.0
 30
0.0
  3
*U129
  1

  0
TEXT
  5
675E4
  8
S-OBRYS
  6
CONTINUOUS
 62
     7
 10
35481.933947071979
 20
403868.3973088208
 30
0.0
 40
100.0
  1
1550
 50
90.0
 41
0.8
  0
ENDBLK
  5
675E6
  8
0
  0
BLOCK
  8
0
  2
*U130
 70
     1
 10
0.0
 20
0.0
 30
0.0
  3
*U130
  1

  0
TEXT
  5
675E8
  8
S-OBRYS
  6
CONTINUOUS
 62
     7
 10
34267.232780478043
 20
403034.29763117322
 30
0.0
 40
100.0
  1
830
 41
0.8
  0
ENDBLK
  5
675EA
  8
0
  0
BLOCK
  8
0
  2
*U131
 70
     1
 10
0.0
 20
0.0
 30
0.0
  3
*U131
  1

  0
TEXT
  5
675EC
  8
S-OBRYS
  6
CONTINUOUS
 62
     7
 10
38504.805414678573
 20
405054.62452194461
 30
0.0
 40
100.0
  1
\U+2205152
 41
0.8
  0
ENDBLK
  5
675EE
  8
0
  0
BLOCK
  8
0
  2
*U132
 70
     1
 10
0.0
 20
0.0
 30
0.0
  3
*U132
  1

  0
TEXT
  5
675F0
  8
S-OBRYS
  6
CONTINUOUS
 62
     7
 10
37905.876522899998
 20
405201.2029801496
 30
0.0
 40
100.0
  1
411
 41
0.8
  0
ENDBLK
  5
675F2
  8
0
  0
BLOCK
  8
0
  2
*U133
 70
     1
 10
0.0
 20
0.0
 30
0.0
  3
*U133
  1

  0
TEXT
  5
675F4
  8
S-OBRYS
  6
CONTINUOUS
 62
     7
 10
37211.209413233337
 20
404995.03855185589
 30
0.0
 40
100.0
  1
\U+2205355
 41
0.8
  0
ENDBLK
  5
675F6
  8
0
  0
BLOCK
  8
0
  2
*U134
 70
     1
 10
0.0
 20
0.0
 30
0.0
  3
*U134
  1

  0
TEXT
  5
675F8
  8
S-OBRYS
  6
CONTINUOUS
 62
     7
 10
38827.805564778573
 20
403119.4673828308
 30
0.0
 40
100.0
  1
200
 41
0.8
  0
ENDBLK
  5
675FA
  8
0
  0
BLOCK
  8
0
  2
*U135
 70
     1
 10
0.0
 20
0.0
 30
0.0
  3
*U135
  1

  0
TEXT
  5
675FC
  8
S-OBRYS
  6
CONTINUOUS
 62
     7
 10
38162.44843612142
 20
403178.11585750151
 30
0.0
 40
100.0
  1
325
 41
0.8
  0
ENDBLK
  5
675FE
  8
0
  0
BLOCK
  8
0
  2
*U136
 70
     1
 10
0.0
 20
0.0
 30
0.0
  3
*U136
  1

  0
TEXT
  5
67600
  8
S-OBRYS
  6
CONTINUOUS
 62
     7
 10
36396.916493605539
 20
403178.11585750151
 30
0.0
 40
100.0
  1
200
 41
0.8
  0
ENDBLK
  5
67602
  8
0
  0
BLOCK
  8
0
  2
*U137
 70
     1
 10
0.0
 20
0.0
 30
0.0
  3
*U137
  1

  0
TEXT
  5
67604
  8
S-OBRYS
  6
CONTINUOUS
 62
     7
 10
36726.360550914389
 20
403449.84497181658
 30
0.0
 40
100.0
  1
500
 50
90.0
 41
0.8
  0
ENDBLK
  5
67606
  8
0
  0
BLOCK
  8
0
  2
*U138
 70
     1
 10
0.0
 20
0.0
 30
0.0
  3
*U138
  1

  0
TEXT
  5
67608
  8
S-OBRYS
  6
CONTINUOUS
 62
     7
 10
37429.4198813119
 20
403178.11585750151
 30
0.0
 40
100.0
  1
1055
 41
0.8
  0
ENDBLK
  5
6760A
  8
0
  0
BLOCK
  8
0
  2
*U139
 70
     1
 10
0.0
 20
0.0
 30
0.0
  3
*U139
  1

  0
TEXT
  5
6760C
  8
S-OBRYS
  6
CONTINUOUS
 62
     7
 10
37429.7225074413
 20
402970.74833242001
 30
0.0
 40
100.0
  1
1780
 41
0.8
  0
ENDBLK
  5
6760E
  8
0
  0
BLOCK
  8
0
  2
*U140
 70
     1
 10
0.0
 20
0.0
 30
0.0
  3
*U140
  1

  0
TEXT
  5
67610
  8
S-OBRYS
  6
CONTINUOUS
 62
     7
 10
40708.484727378447
 20
405282.648575078
 30
0.0
 40
100.0
  1
430
 41
0.8
  0
ENDBLK
  5
67612
  8
0
  0
BLOCK
  8
0
  2
*U141
 70
     1
 10
0.0
 20
0.0
 30
0.0
  3
*U141
  1

  0
TEXT
  5
67614
  8
S-OBRYS
  6
CONTINUOUS
 62
     7
 10
39856.019455652269
 20
404012.05905778101
 30
0.0
 40
100.0
  1
1500
 50
90.0
 41
0.8
  0
ENDBLK
  5
67616
  8
0
  0
BLOCK
  8
0
  2
*U142
 70
     1
 10
0.0
 20
0.0
 30
0.0
  3
*U142
  1

  0
TEXT
  5
67618
  8
S-OBRYS
  6
CONTINUOUS
 62
     7
 10
40664.675203568921
 20
402985.3451592644
 30
0.0
 40
100.0
  1
1520
 41
0.8
  0
ENDBLK
  5
6761A
  8
0
  0
BLOCK
  8
0
  2
*U143
 70
     1
 10
0.0
 20
0.0
 30
0.0
  3
*U143
  1

  0
TEXT
  5
67884
  8
S-OBRYS
  6
CONTINUOUS
 62
     7
 10
24793.885416259891
 20
399479.2066688168
 30
0.0
 40
100.0
  1
1500
 50
90.0
 41
0.8
  0
ENDBLK
  5
67886
  8
0
  0
BLOCK
  8
0
  2
*U144
 70
     1
 10
0.0
 20
0.0
 30
0.0
  3
*U144
  1

  0
TEXT
  5
67888
  8
S-OBRYS
  6
CONTINUOUS
 62
     7
 10
24586.63738867853
 20
399730.15893536923
 30
0.0
 40
100.0
  1
100
 50
90.0
 41
0.8
  0
ENDBLK
  5
6788A
  8
0
  0
BLOCK
  8
0
  2
*U145
 70
     1
 10
0.0
 20
0.0
 30
0.0
  3
*U145
  1

  0
TEXT
  5
6788C
  8
S-OBRYS
  6
CONTINUOUS
 62
     7
 10
24200.316967606079
 20
400533.3698255698
 30
0.0
 40
100.0
  1
60
 41
0.8
  0
ENDBLK
  5
6788E
  8
0
  0
BLOCK
  8
0
  2
*U146
 70
     1
 10
0.0
 20
0.0
 30
0.0
  3
*U146
  1

  0
TEXT
  5
67890
  8
S-OBRYS
  6
CONTINUOUS
 62
     7
 10
24897.70518499874
 20
398513.20672101667
 30
0.0
 40
100.0
  1
61
 50
90.0
 41
0.8
  0
ENDBLK
  5
67892
  8
0
  0
BLOCK
  8
0
  2
*U147
 70
     1
 10
0.0
 20
0.0
 30
0.0
  3
*U147
  1

  0
TEXT
  5
67894
  8
S-OBRYS
  6
CONTINUOUS
 62
     7
 10
22921.855075352749
 20
398619.97823978978
 30
0.0
 40
100.0
  1
\U+2205152
 50
22.90011677407719
 41
0.8
  0
ENDBLK
  5
67896
  8
0
  0
BLOCK
  8
0
  2
*U148
 70
     1
 10
0.0
 20
0.0
 30
0.0
  3
*U148
  1

  0
TEXT
  5
67898
  8
S-OBRYS
  6
CONTINUOUS
 62
     7
 10
25071.74320142559
 20
398945.51616152632
 30
0.0
 40
100.0
  1
345
 50
90.0
 41
0.8
  0
ENDBLK
  5
6789A
  8
0
  0
BLOCK
  8
0
  2
*U149
 70
     1
 10
0.0
 20
0.0
 30
0.0
  3
*U149
  1

  0
TEXT
  5
6789C
  8
S-OBRYS
  6
CONTINUOUS
 62
     7
 10
23237.81803845086
 20
400383.76219456119
 30
0.0
 40
100.0
  1
\U+220518
 50
349.34142167868561
 41
0.8
  0
ENDBLK
  5
6789E
  8
0
  0
BLOCK
  8
0
  2
*U150
 70
     1
 10
0.0
 20
0.0
 30
0.0
  3
*U150
  1

  0
TEXT
  5
678A0
  8
S-OBRYS
  6
CONTINUOUS
 62
     7
 10
23846.26934855846
 20
398453.51237899641
 30
0.0
 40
100.0
  1
830
 41
0.8
  0
ENDBLK
  5
678A2
  8
0
  0
BLOCK
  8
0
  2
*U151
 70
     1
 10
0.0
 20
0.0
 30
0.0
  3
*U151
  1

  0
TEXT
  5
678A4
  8
S-OBRYS
  6
CONTINUOUS
 62
     7
 10
23802.45982474893
 20
398275.14944655221
 30
0.0
 40
100.0
  1
1390
 41
0.8
  0
ENDBLK
  5
678A6
  8
0
  0
BLOCK
  8
0
  2
*U152
 70
     1
 10
0.0
 20
0.0
 30
0.0
  3
*U152
  1

  0
TEXT
  5
678A8
  8
S-OBRYS
  6
CONTINUOUS
 62
     7
 10
23111.171673290311
 20
399536.70663771679
 30
0.0
 40
100.0
  1
1055
 50
90.0
 41
0.8
  0
ENDBLK
  5
678AA
  8
0
  0
BLOCK
  8
0
  2
*U153
 70
     1
 10
0.0
 20
0.0
 30
0.0
  3
*U153
  1

  0
TEXT
  5
678AC
  8
S-OBRYS
  6
CONTINUOUS
 62
     7
 10
23111.31323731528
 20
398928.01624482631
 30
0.0
 40
100.0
  1
250
 50
90.0
 41
0.8
  0
ENDBLK
  5
678AE
  8
0
  0
BLOCK
  8
0
  2
*U154
 70
     1
 10
0.0
 20
0.0
 30
0.0
  3
*U154
  1

  0
TEXT
  5
678B0
  8
S-OBRYS
  6
CONTINUOUS
 62
     7
 10
24254.065794374379
 20
399239.97706932487
 30
0.0
 40
100.0
  1
411
 50
90.0
 41
0.8
  0
ENDBLK
  5
678B2
  8
0
  0
BLOCK
  8
0
  2
*U155
 70
     1
 10
0.0
 20
0.0
 30
0.0
  3
*U155
  1

  0
TEXT
  5
678B4
  8
S-OBRYS
  6
CONTINUOUS
 62
     7
 10
23519.126491415602
 20
399422.35784028878
 30
0.0
 40
100.0
  1
80
 41
0.8
  0
ENDBLK
  5
678B6
  8
0
  0
BLOCK
  8
0
  2
*U156
 70
     1
 10
0.0
 20
0.0
 30
0.0
  3
*U156
  1

  0
TEXT
  5
678B8
  8
S-OBRYS
  6
CONTINUOUS
 62
     7
 10
25041.527643538629
 20
400508.01607822621
 30
0.0
 40
100.0
  1
700
 50
90.0
 41
0.8
  0
ENDBLK
  5
678BA
  8
0
  0
BLOCK
  8
0
  2
*U157
 70
     1
 10
0.0
 20
0.0
 30
0.0
  3
*U157
  1

  0
TEXT
  5
678BC
  8
S-OBRYS
  6
CONTINUOUS
 62
     7
 10
25287.081149066489
 20
398000.12778750161
 30
0.0
 40
100.0
  1
1500
 41
0.8
  0
ENDBLK
  5
678BE
  8
0
  0
BLOCK
  8
0
  2
*U158
 70
     1
 10
0.0
 20
0.0
 30
0.0
  3
*U158
  1

  0
TEXT
  5
678C0
  8
S-OBRYS
  6
CONTINUOUS
 62
     7
 10
22835.449428478401
 20
398423.01624482631
 30
0.0
 40
100.0
  1
700
 50
90.0
 41
0.8
  0
ENDBLK
  5
678C2
  8
0
  0
BLOCK
  8
0
  2
*U159
 70
     1
 10
0.0
 20
0.0
 30
0.0
  3
*U159
  1

  0
TEXT
  5
678C4
  8
S-OBRYS
  6
CONTINUOUS
 62
     7
 10
22809.36458665369
 20
397705.3976001651
 30
0.0
 40
100.0
  1
600
 41
0.8
  0
ENDBLK
  5
678C6
  8
0
  0
BLOCK
  8
0
  2
*U160
 70
     1
 10
0.0
 20
0.0
 30
0.0
  3
*U160
  1

  0
TEXT
  5
678C8
  8
S-OBRYS
  6
CONTINUOUS
 62
     7
 10
20987.52523690927
 20
399479.2066688168
 30
0.0
 40
100.0
  1
1500
 50
90.0
 41
0.8
  0
ENDBLK
  5
678CA
  8
0
  0
BLOCK
  8
0
  2
*U161
 70
     1
 10
0.0
 20
0.0
 30
0.0
  3
*U161
  1

  0
TEXT
  5
678CC
  8
S-OBRYS
  6
CONTINUOUS
 62
     7
 10
20780.277209327902
 20
399730.15893536923
 30
0.0
 40
100.0
  1
100
 50
90.0
 41
0.8
  0
ENDBLK
  5
678CE
  8
0
  0
BLOCK
  8
0
  2
*U162
 70
     1
 10
0.0
 20
0.0
 30
0.0
  3
*U162
  1

  0
TEXT
  5
678D0
  8
S-OBRYS
  6
CONTINUOUS
 62
     7
 10
21053.177189791451
 20
400533.3698255698
 30
0.0
 40
100.0
  1
60
 41
0.8
  0
ENDBLK
  5
678D2
  8
0
  0
BLOCK
  8
0
  2
*U163
 70
     1
 10
0.0
 20
0.0
 30
0.0
  3
*U163
  1

  0
TEXT
  5
678D4
  8
S-OBRYS
  6
CONTINUOUS
 62
     7
 10
21091.345005648109
 20
398513.20672101667
 30
0.0
 40
100.0
  1
61
 50
90.0
 41
0.8
  0
ENDBLK
  5
678D6
  8
0
  0
BLOCK
  8
0
  2
*U164
 70
     1
 10
0.0
 20
0.0
 30
0.0
  3
*U164
  1

  0
TEXT
  5
678D8
  8
S-OBRYS
  6
CONTINUOUS
 62
     7
 10
19185.48529115921
 20
398649.543508325
 30
0.0
 40
100.0
  1
\U+2205152
 50
22.900116774130439
 41
0.8
  0
ENDBLK
  5
678DA
  8
0
  0
BLOCK
  8
0
  2
*U165
 70
     1
 10
0.0
 20
0.0
 30
0.0
  3
*U165
  1

  0
TEXT
  5
678DC
  8
S-OBRYS
  6
CONTINUOUS
 62
     7
 10
21265.38302207497
 20
398945.51616152632
 30
0.0
 40
100.0
  1
345
 50
90.0
 41
0.8
  0
ENDBLK
  5
678DE
  8
0
  0
BLOCK
  8
0
  2
*U166
 70
     1
 10
0.0
 20
0.0
 30
0.0
  3
*U166
  1

  0
TEXT
  5
678E0
  8
S-OBRYS
  6
CONTINUOUS
 62
     7
 10
19634.253201208041
 20
405015.06420983752
 30
0.0
 40
100.0
  1
90
 50
90.0
 41
0.8
  0
ENDBLK
  5
678E2
  8
0
  0
BLOCK
  8
0
  2
*U167
 70
     1
 10
0.0
 20
0.0
 30
0.0
  3
*U167
  1

  0
TEXT
  5
678E4
  8
S-OBRYS
  6
CONTINUOUS
 62
     7
 10
20258.059937062459
 20
404367.20669808029
 30
0.0
 40
100.0
  1
460
 50
90.0
 41
0.8
  0
ENDBLK
  5
678E6
  8
0
  0
BLOCK
  8
0
  2
*U168
 70
     1
 10
0.0
 20
0.0
 30
0.0
  3
*U168
  1

  0
TEXT
  5
678E8
  8
S-OBRYS
  6
CONTINUOUS
 62
     7
 10
20258.059937062459
 20
403593.39707447082
 30
0.0
 40
100.0
  1
1000
 50
90.0
 41
0.8
  0
ENDBLK
  5
678EA
  8
0
  0
BLOCK
  8
0
  2
*U169
 70
     1
 10
0.0
 20
0.0
 30
0.0
  3
*U169
  1

  0
TEXT
  5
678EC
  8
S-OBRYS
  6
CONTINUOUS
 62
     7
 10
20459.698634203141
 20
403868.3973088208
 30
0.0
 40
100.0
  1
1550
 50
90.0
 41
0.8
  0
ENDBLK
  5
678EE
  8
0
  0
BLOCK
  8
0
  2
*U170
 70
     1
 10
0.0
 20
0.0
 30
0.0
  3
*U170
  1

  0
TEXT
  5
678F0
  8
S-OBRYS
  6
CONTINUOUS
 62
     7
 10
19244.997467609199
 20
403034.29763117322
 30
0.0
 40
100.0
  1
830
 41
0.8
  0
ENDBLK
  5
678F2
  8
0
  0
BLOCK
  8
0
  2
*U171
 70
     1
 10
0.0
 20
0.0
 30
0.0
  3
*U171
  1

  0
TEXT
  5
678F4
  8
S-OBRYS
  6
CONTINUOUS
 62
     7
 10
23482.570101809721
 20
405054.62452194461
 30
0.0
 40
100.0
  1
\U+2205152
 41
0.8
  0
ENDBLK
  5
678F6
  8
0
  0
BLOCK
  8
0
  2
*U172
 70
     1
 10
0.0
 20
0.0
 30
0.0
  3
*U172
  1

  0
TEXT
  5
678F8
  8
S-OBRYS
  6
CONTINUOUS
 62
     7
 10
22883.641210031161
 20
405201.2029801496
 30
0.0
 40
100.0
  1
411
 41
0.8
  0
ENDBLK
  5
678FA
  8
0
  0
BLOCK
  8
0
  2
*U173
 70
     1
 10
0.0
 20
0.0
 30
0.0
  3
*U173
  1

  0
TEXT
  5
678FC
  8
S-OBRYS
  6
CONTINUOUS
 62
     7
 10
22188.974100364499
 20
404995.03855185589
 30
0.0
 40
100.0
  1
\U+2205355
 41
0.8
  0
ENDBLK
  5
678FE
  8
0
  0
BLOCK
  8
0
  2
*U174
 70
     1
 10
0.0
 20
0.0
 30
0.0
  3
*U174
  1

  0
TEXT
  5
67900
  8
S-OBRYS
  6
CONTINUOUS
 62
     7
 10
23805.570251909721
 20
403119.4673828308
 30
0.0
 40
100.0
  1
200
 41
0.8
  0
ENDBLK
  5
67902
  8
0
  0
BLOCK
  8
0
  2
*U175
 70
     1
 10
0.0
 20
0.0
 30
0.0
  3
*U175
  1

  0
TEXT
  5
67904
  8
S-OBRYS
  6
CONTINUOUS
 62
     7
 10
23140.21312325259
 20
403178.11585750151
 30
0.0
 40
100.0
  1
325
 41
0.8
  0
ENDBLK
  5
67906
  8
0
  0
BLOCK
  8
0
  2
*U176
 70
     1
 10
0.0
 20
0.0
 30
0.0
  3
*U176
  1

  0
TEXT
  5
67908
  8
S-OBRYS
  6
CONTINUOUS
 62
     7
 10
21374.681180736701
 20
403178.11585750151
 30
0.0
 40
100.0
  1
200
 41
0.8
  0
ENDBLK
  5
6790A
  8
0
  0
BLOCK
  8
0
  2
*U177
 70
     1
 10
0.0
 20
0.0
 30
0.0
  3
*U177
  1

  0
TEXT
  5
6790C
  8
S-OBRYS
  6
CONTINUOUS
 62
     7
 10
21704.125238045552
 20
403449.84497181658
 30
0.0
 40
100.0
  1
500
 50
90.0
 41
0.8
  0
ENDBLK
  5
6790E
  8
0
  0
BLOCK
  8
0
  2
*U178
 70
     1
 10
0.0
 20
0.0
 30
0.0
  3
*U178
  1

  0
TEXT
  5
67910
  8
S-OBRYS
  6
CONTINUOUS
 62
     7
 10
22407.18456844307
 20
403178.11585750151
 30
0.0
 40
100.0
  1
1055
 41
0.8
  0
ENDBLK
  5
67912
  8
0
  0
BLOCK
  8
0
  2
*U179
 70
     1
 10
0.0
 20
0.0
 30
0.0
  3
*U179
  1

  0
TEXT
  5
67914
  8
S-OBRYS
  6
CONTINUOUS
 62
     7
 10
22407.487194572459
 20
402970.74833242001
 30
0.0
 40
100.0
  1
1780
 41
0.8
  0
ENDBLK
  5
67916
  8
0
  0
BLOCK
  8
0
  2
*U180
 70
     1
 10
0.0
 20
0.0
 30
0.0
  3
*U180
  1

  0
TEXT
  5
67918
  8
S-OBRYS
  6
CONTINUOUS
 62
     7
 10
25686.24941450961
 20
405282.648575078
 30
0.0
 40
100.0
  1
430
 41
0.8
  0
ENDBLK
  5
6791A
  8
0
  0
BLOCK
  8
0
  2
*U181
 70
     1
 10
0.0
 20
0.0
 30
0.0
  3
*U181
  1

  0
TEXT
  5
6791C
  8
S-OBRYS
  6
CONTINUOUS
 62
     7
 10
24833.784142783428
 20
404012.05905778101
 30
0.0
 40
100.0
  1
1500
 50
90.0
 41
0.8
  0
ENDBLK
  5
6791E
  8
0
  0
BLOCK
  8
0
  2
*U182
 70
     1
 10
0.0
 20
0.0
 30
0.0
  3
*U182
  1

  0
TEXT
  5
67920
  8
S-OBRYS
  6
CONTINUOUS
 62
     7
 10
25642.43989070008
 20
402985.3451592644
 30
0.0
 40
100.0
  1
1520
 41
0.8
  0
ENDBLK
  5
67922
  8
0
  0
BLOCK
  8
0
  2
*U183
 70
     1
 10
0.0
 20
0.0
 30
0.0
  3
*U183
  1

  0
TEXT
  5
67924
  8
S-OBRYS
  6
CONTINUOUS
 62
     7
 10
19431.457859100261
 20
400383.76219456131
 30
0.0
 40
100.0
  1
\U+220518
 50
349.34142167868129
 41
0.8
  0
ENDBLK
  5
67926
  8
0
  0
BLOCK
  8
0
  2
*U184
 70
     1
 10
0.0
 20
0.0
 30
0.0
  3
*U184
  1

  0
TEXT
  5
67928
  8
S-OBRYS
  6
CONTINUOUS
 62
     7
 10
20039.909169207829
 20
398453.51237899641
 30
0.0
 40
100.0
  1
830
 41
0.8
  0
ENDBLK
  5
6792A
  8
0
  0
BLOCK
  8
0
  2
*U185
 70
     1
 10
0.0
 20
0.0
 30
0.0
  3
*U185
  1

  0
TEXT
  5
6792C
  8
S-OBRYS
  6
CONTINUOUS
 62
     7
 10
19996.099645398299
 20
398275.14944655221
 30
0.0
 40
100.0
  1
1390
 41
0.8
  0
ENDBLK
  5
6792E
  8
0
  0
BLOCK
  8
0
  2
*U186
 70
     1
 10
0.0
 20
0.0
 30
0.0
  3
*U186
  1

  0
TEXT
  5
67930
  8
S-OBRYS
  6
CONTINUOUS
 62
     7
 10
19304.811493939691
 20
399536.70663771679
 30
0.0
 40
100.0
  1
1055
 50
90.0
 41
0.8
  0
ENDBLK
  5
67932
  8
0
  0
BLOCK
  8
0
  2
*U187
 70
     1
 10
0.0
 20
0.0
 30
0.0
  3
*U187
  1

  0
TEXT
  5
67934
  8
S-OBRYS
  6
CONTINUOUS
 62
     7
 10
19304.953057964649
 20
398928.01624482631
 30
0.0
 40
100.0
  1
250
 50
90.0
 41
0.8
  0
ENDBLK
  5
67936
  8
0
  0
BLOCK
  8
0
  2
*U188
 70
     1
 10
0.0
 20
0.0
 30
0.0
  3
*U188
  1

  0
TEXT
  5
67938
  8
S-OBRYS
  6
CONTINUOUS
 62
     7
 10
20447.705615023759
 20
399239.97706932487
 30
0.0
 40
100.0
  1
411
 50
90.0
 41
0.8
  0
ENDBLK
  5
6793A
  8
0
  0
BLOCK
  8
0
  2
*U189
 70
     1
 10
0.0
 20
0.0
 30
0.0
  3
*U189
  1

  0
TEXT
  5
6793C
  8
S-OBRYS
  6
CONTINUOUS
 62
     7
 10
19712.76631206497
 20
399422.35784028878
 30
0.0
 40
100.0
  1
80
 41
0.8
  0
ENDBLK
  5
6793E
  8
0
  0
ENDSEC
  0
SECTION
  2
ENTITIES
  0
TEXT
  5
2F7A5
  8
KOTY
 10
-393803.77638965531
 20
-299016.15321175661
 30
0.0
 40
150.0
  1

 41
0.7
  7
ROMANT
  0
TEXT
  5
3AD8B
  8
KOTY
 10
-14797.18019204357
 20
454294.55370899959
 30
0.0
 40
150.0
  1

 41
0.7
  7
ROMANT
  0
TEXT
  5
404AD
  8
KOTY
 10
44010.2314385153
 20
465617.23741859582
 30
0.0
 40
92.0
  1

 41
0.7
  7
CYRILLIC
  0
TEXT
  5
404B4
  8
KOTY
 10
39575.071591094718
 20
465613.29777162091
 30
0.0
 40
92.0
  1

 41
0.7
  7
CYRILLIC
  0
TEXT
  5
40B14
  8
KOTY
 10
5856.0590664841584
 20
486921.1132385282
 30
0.0
 40
150.0
  1

 41
0.7
  7
ROMANT
  0
TEXT
  5
40BFC
  8
KOTY
 10
8767.7265956277752
 20
466337.2608060218
 30
0.0
 40
150.0
  1

 41
0.7
  7
ROMANS
  0
TEXT
  5
51A7C
  8
KOTY
 10
-47677.341387967608
 20
395133.71812193602
 30
0.0
 40
150.0
  1

 41
0.7
  7
ROMANS
  0
TEXT
  5
51A94
  8
KOTY
 10
-45176.819295693742
 20
395133.7181219359
 30
0.0
 40
150.0
  1

 41
0.7
  7
ROMANS
  0
TEXT
  5
51A9B
  8
KOTY
 10
-48084.423320344351
 20
397411.27855615731
 30
0.0
 40
150.0
  1

 41
0.7
  7
ROMANT
  0
TEXT
  5
51B05
  8
RAZ
 62
     6
 10
-47365.887544580757
 20
392999.37567832542
 30
0.0
 40
193.54103193599991
  1

 41
0.8
  7
R08
  0
TEXT
  5
51B06
  8
RAZ
 62
     1
 10
-47245.037660778231
 20
393401.77274166199
 30
0.0
 40
125.41458869452801
  1

  7
ROMANS
  0
TEXT
  5
58307
  8
KOTY
 10
22966.528519463162
 20
383405.87475258159
 30
0.0
 40
150.0
  1

 41
0.7
  7
ROMANS
  0
TEXT
  5
58308
  8
KOTY
 10
22966.528519463169
 20
383855.87475258159
 30
0.0
 40
150.0
  1

 41
0.7
  7
ROMANS
  0
TEXT
  5
58315
  8
KOTY
 10
25467.050611737021
 20
383855.87475258141
 30
0.0
 40
150.0
  1

 41
0.7
  7
ROMANS
  0
TEXT
  5
58316
  8
KOTY
 10
25467.050611737021
 20
383405.87475258141
 30
0.0
 40
150.0
  1

 41
0.7
  7
ROMANS
  0
TEXT
  5
5833F
  8
KOTY
 10
22966.528519463162
 20
385205.87475258153
 30
0.0
 40
150.0
  1

 41
0.7
  7
ROMANS
  0
TEXT
  5
58340
  8
KOTY
 10
22966.528519463169
 20
385655.87475258159
 30
0.0
 40
150.0
  1

 41
0.7
  7
ROMANS
  0
TEXT
  5
58354
  8
KOTY
 10
25467.050611737021
 20
385655.87475258141
 30
0.0
 40
150.0
  1

 41
0.7
  7
ROMANS
  0
TEXT
  5
58355
  8
KOTY
 10
25467.050611737021
 20
385205.87475258141
 30
0.0
 40
150.0
  1

 41
0.7
  7
ROMANS
  0
TEXT
  5
58397
  8
KOTY
 10
25467.050611737039
 20
390605.87475258129
 30
0.0
 40
150.0
  1

 41
0.7
  7
ROMANS
  0
TEXT
  5
58398
  8
KOTY
 10
25467.050611737039
 20
391055.87475258141
 30
0.0
 40
150.0
  1

 41
0.7
  7
ROMANS
  0
TEXT
  5
583C1
  8
KOTY
 10
25467.050611737031
 20
389255.87475258141
 30
0.0
 40
150.0
  1

 41
0.7
  7
ROMANS
  0
TEXT
  5
58C84
  8
KOTY
 10
22966.52851946322
 20
387905.87475258153
 30
0.0
 40
150.0
  1

 41
0.7
  7
ROMANS
  0
LINE
  5
652E5
  8
S-OBRYS
  6
CONTINUOUS
 10
17309.31774476992
 20
393788.58852907608
 30
0.0
 11
27809.317744769931
 21
393788.58852907608
 31
0.0
  0
LINE
  5
652E6
  8
S-OBRYS
  6
CONTINUOUS
 10
27809.317744769931
 20
393788.58852907608
 30
0.0
 11
27809.317744769931
 21
408638.58852907602
 31
0.0
  0
LINE
  5
652E7
  8
S-OBRYS
  6
CONTINUOUS
 10
27809.317744769931
 20
408638.58852907602
 30
0.0
 11
17309.31774476992
 21
408638.58852907602
 31
0.0
  0
LINE
  5
652E8
  8
S-OBRYS
  6
CONTINUOUS
 10
17309.31774476992
 20
408638.58852907602
 30
0.0
 11
17309.31774476992
 21
393788.58852907608
 31
0.0
  0
INSERT
  5
65A6C
  8
S-OBRYS
  6
CONTINUOUS
  2
*U95
 10
0.0
 20
0.0
 30
0.0
  0
LINE
  5
668AD
  8
S-OBRYS
  6
CONTINUOUS
 10
26001.835526295319
 20
404885.15395807632
 30
0.0
 11
25803.423159595321
 21
404885.15395807632
 31
0.0
  0
POLYLINE
  5
668AE
  8
S-OBRYS
  6
CONTINUOUS
 66
     1
 10
0.0
 20
0.0
 30
0.0
 70
     1
  0
VERTEX
  5
6761B
  8
S-OBRYS
  6
CONTINUOUS
 10
25921.33595399532
 20
403295.15410277632
 30
0.0
  0
VERTEX
  5
6761C
  8
S-OBRYS
  6
CONTINUOUS
 10
25917.230094795319
 20
403319.7789328763
 30
0.0
  0
VERTEX
  5
6761D
  8
S-OBRYS
  6
CONTINUOUS
 10
25905.19261569532
 20
403342.72508967633
 30
0.0
  0
VERTEX
  5
6761E
  8
S-OBRYS
  6
CONTINUOUS
 10
25886.043479495322
 20
403362.42955877632
 30
0.0
  0
VERTEX
  5
6761F
  8
S-OBRYS
  6
CONTINUOUS
 10
25861.08799219532
 20
403377.54975967627
 30
0.0
  0
VERTEX
  5
67620
  8
S-OBRYS
  6
CONTINUOUS
 10
25832.02696319532
 20
403387.05438887631
 30
0.0
  0
VERTEX
  5
67621
  8
S-OBRYS
  6
CONTINUOUS
 10
25800.840347895319
 20
403390.2960765764
 30
0.0
  0
VERTEX
  5
67622
  8
S-OBRYS
  6
CONTINUOUS
 10
25769.653719895319
 20
403387.05438887631
 30
0.0
  0
VERTEX
  5
67623
  8
S-OBRYS
  6
CONTINUOUS
 10
25740.592690895319
 20
403377.54975967627
 30
0.0
  0
VERTEX
  5
67624
  8
S-OBRYS
  6
CONTINUOUS
 10
25715.637203595332
 20
403362.42955877632
 30
0.0
  0
VERTEX
  5
67625
  8
S-OBRYS
  6
CONTINUOUS
 10
25696.488067395308
 20
403342.72508967633
 30
0.0
  0
VERTEX
  5
67626
  8
S-OBRYS
  6
CONTINUOUS
 10
25684.45058829532
 20
403319.7789328763
 30
0.0
  0
VERTEX
  5
67627
  8
S-OBRYS
  6
CONTINUOUS
 10
25680.344729095319
 20
403295.15410277632
 30
0.0
  0
VERTEX
  5
67628
  8
S-OBRYS
  6
CONTINUOUS
 10
25684.45058829532
 20
403270.52927267627
 30
0.0
  0
VERTEX
  5
67629
  8
S-OBRYS
  6
CONTINUOUS
 10
25696.488067395308
 20
403247.5831285764
 30
0.0
  0
VERTEX
  5
6762A
  8
S-OBRYS
  6
CONTINUOUS
 10
25715.637203595332
 20
403227.87865947641
 30
0.0
  0
VERTEX
  5
6762B
  8
S-OBRYS
  6
CONTINUOUS
 10
25740.592386095319
 20
403212.75845857628
 30
0.0
  0
VERTEX
  5
6762C
  8
S-OBRYS
  6
CONTINUOUS
 10
25769.653719895319
 20
403203.25382937642
 30
0.0
  0
VERTEX
  5
6762D
  8
S-OBRYS
  6
CONTINUOUS
 10
25800.840347895319
 20
403200.01214167633
 30
0.0
  0
VERTEX
  5
6762E
  8
S-OBRYS
  6
CONTINUOUS
 10
25832.02696319532
 20
403203.25382937642
 30
0.0
  0
VERTEX
  5
6762F
  8
S-OBRYS
  6
CONTINUOUS
 10
25861.08799219532
 20
403212.75845857628
 30
0.0
  0
VERTEX
  5
67630
  8
S-OBRYS
  6
CONTINUOUS
 10
25886.043479495322
 20
403227.87865947641
 30
0.0
  0
VERTEX
  5
67631
  8
S-OBRYS
  6
CONTINUOUS
 10
25905.19261569532
 20
403247.5831285764
 30
0.0
  0
VERTEX
  5
67632
  8
S-OBRYS
  6
CONTINUOUS
 10
25917.230094795319
 20
403270.52927267627
 30
0.0
  0
VERTEX
  5
67633
  8
S-OBRYS
  6
CONTINUOUS
 10
25921.33595399532
 20
403295.15410277632
 30
0.0
  0
SEQEND
  5
67634
  8
S-OBRYS
  6
CONTINUOUS
  0
ARC
  5
668AF
  8
S-OBRYS
  6
CONTINUOUS
 10
25800.53512879532
 20
404980.46366077621
 30
0.0
 40
75.000058914999997
 50
306.4741820004499
 51
233.52584800076809
  0
LINE
  5
668B0
  8
S-OBRYS
  6
CONTINUOUS
 10
26015.53502169533
 20
404920.1542436764
 30
0.0
 11
25803.423159595321
 21
404920.1542436764
 31
0.0
  0
CIRCLE
  5
668B1
  8
S-OBRYS
  6
CONTINUOUS
 10
25800.53512879532
 20
404001.0133971764
 30
0.0
 40
174.99999163000001
  0
CIRCLE
  5
668B2
  8
S-OBRYS
  6
CONTINUOUS
 10
25800.53512879532
 20
403600.03738937638
 30
0.0
 40
90.000004403999995
  0
LINE
  5
668B3
  8
S-OBRYS
  6
CONTINUOUS
 10
26454.832042195321
 20
403420.15434807632
 30
0.0
 11
25800.53512879532
 21
403420.15434807632
 31
0.0
  0
LINE
  5
668B4
  8
S-OBRYS
  6
CONTINUOUS
 10
25800.53512879532
 20
403600.03738937638
 30
0.0
 11
26337.449421995319
 21
403600.03738937638
 31
0.0
  0
LINE
  5
668B5
  8
S-OBRYS
  6
CONTINUOUS
 10
25800.53512879532
 20
404001.0133971764
 30
0.0
 11
26035.154408095321
 21
404000.96494667628
 31
0.0
  0
LINE
  5
668B6
  8
S-OBRYS
  6
CONTINUOUS
 10
26454.832042195321
 20
403455.15463367628
 30
0.0
 11
25800.53512879532
 21
403455.15463367628
 31
0.0
  0
LINE
  5
668B7
  8
S-OBRYS
  6
CONTINUOUS
 10
25900.02245839532
 20
404761.26737577643
 30
0.0
 11
25800.53512879532
 21
404761.27767547627
 31
0.0
  0
LINE
  5
668B8
  8
S-OBRYS
  6
CONTINUOUS
 10
25800.53512879532
 20
404284.0702478764
 30
0.0
 11
25851.731432295321
 21
404284.0702478764
 31
0.0
  0
LINE
  5
668B9
  8
S-OBRYS
  6
CONTINUOUS
 10
25800.53512879532
 20
404210.65721207642
 30
0.0
 11
25896.165188995321
 21
404210.65721207642
 31
0.0
  0
LINE
  5
668BA
  8
S-OBRYS
  6
CONTINUOUS
 10
25901.633910595319
 20
404980.46366077621
 30
0.0
 11
25700.242377895331
 21
404980.46366077621
 31
0.0
  0
LINE
  5
668BB
  8
S-OBRYS
  6
CONTINUOUS
 10
25625.193366195319
 20
403295.16319597641
 30
0.0
 11
25970.797122046832
 21
403295.16319597641
 31
0.0
  0
LINE
  5
668BC
  8
S-OBRYS
  6
CONTINUOUS
 10
25599.234731295321
 20
404885.15395807632
 30
0.0
 11
25181.934626095321
 21
403841.51004587632
 31
0.0
  0
LINE
  5
668BD
  8
S-OBRYS
  6
CONTINUOUS
 10
25492.390177395318
 20
403841.51004587632
 30
0.0
 11
25704.905068595319
 21
404210.65721207642
 31
0.0
  0
LINE
  5
668BE
  8
S-OBRYS
  6
CONTINUOUS
 10
25585.535235895321
 20
404920.1542436764
 30
0.0
 11
25159.43630399532
 21
403854.50466047629
 31
0.0
  0
LINE
  5
668BF
  8
S-OBRYS
  6
CONTINUOUS
 10
25800.53512879532
 20
405082.65400757629
 30
0.0
 11
25800.53512879532
 21
403132.65433887643
 31
0.0
  0
LINE
  5
668C0
  8
S-OBRYS
  6
CONTINUOUS
 10
25478.855393695321
 20
403891.88307187631
 30
0.0
 11
25652.756785795322
 21
404191.34576987638
 31
0.0
  0
LINE
  5
668C1
  8
S-OBRYS
  6
CONTINUOUS
 10
25575.46165209532
 20
404699.45126877632
 30
0.0
 11
25266.355348795321
 21
403891.88307187631
 31
0.0
  0
LINE
  5
668C2
  8
S-OBRYS
  6
CONTINUOUS
 10
25146.238215395319
 20
403420.15434807632
 30
0.0
 11
25800.53512879532
 21
403420.15434807632
 31
0.0
  0
LINE
  5
668C3
  8
S-OBRYS
  6
CONTINUOUS
 10
25710.300815995321
 20
403719.37300287629
 30
0.0
 11
25040.535192895321
 21
403719.37300287629
 31
0.0
  0
LINE
  5
668C4
  8
S-OBRYS
  6
CONTINUOUS
 10
25710.300815995321
 20
403799.4510875764
 30
0.0
 11
25040.535192895331
 21
403799.4510875764
 31
0.0
  0
LINE
  5
668C5
  8
S-OBRYS
  6
CONTINUOUS
 10
25146.238215395319
 20
403455.15463367628
 30
0.0
 11
25800.53512879532
 21
403455.15463367628
 31
0.0
  0
LINE
  5
668C6
  8
S-OBRYS
  6
CONTINUOUS
 10
25146.238215395319
 20
403719.37300287629
 30
0.0
 11
25146.238215395319
 21
403420.15434807632
 31
0.0
  0
LINE
  5
668C7
  8
S-OBRYS
  6
CONTINUOUS
 10
25114.473197898329
 20
403719.37300287629
 30
0.0
 11
25114.519289595319
 21
403420.15434807632
 31
0.0
  0
LINE
  5
668C8
  8
S-OBRYS
  6
CONTINUOUS
 10
25040.535192895321
 20
403420.15434807632
 30
0.0
 11
25040.535192895321
 21
403799.4510875764
 31
0.0
  0
LINE
  5
668C9
  8
S-OBRYS
  6
CONTINUOUS
 10
25114.519289595319
 20
403420.15434807632
 30
0.0
 11
25040.535192895321
 21
403420.15434807632
 31
0.0
  0
LINE
  5
668CA
  8
S-OBRYS
  6
CONTINUOUS
 10
25114.485685395321
 20
403624.6912897763
 30
0.0
 11
25040.535192895321
 21
403624.6912897763
 31
0.0
  0
LINE
  5
668CB
  8
S-OBRYS
  6
CONTINUOUS
 10
25159.43630399532
 20
403854.50466047629
 30
0.0
 11
25159.432671795319
 21
403799.4510875764
 31
0.0
  0
LINE
  5
668CC
  8
S-OBRYS
  6
CONTINUOUS
 10
25339.744152995321
 20
403336.82912737632
 30
0.0
 11
25339.744152995321
 21
403254.60244397633
 31
0.0
  0
LINE
  5
668CD
  8
S-OBRYS
  6
CONTINUOUS
 10
25418.063617895321
 20
403336.82912737632
 30
0.0
 11
25418.063617895321
 21
403254.60244397633
 31
0.0
  0
LINE
  5
668CE
  8
S-OBRYS
  6
CONTINUOUS
 10
25319.187323395319
 20
403223.74313307629
 30
0.0
 11
25319.187323395319
 21
403336.82912737632
 31
0.0
  0
LINE
  5
668CF
  8
S-OBRYS
  6
CONTINUOUS
 10
25438.620447495319
 20
403223.74313307629
 30
0.0
 11
25438.620447495319
 21
403336.82912737632
 31
0.0
  0
LINE
  5
668D0
  8
S-OBRYS
  6
CONTINUOUS
 10
25378.903891795318
 20
403478.82143927627
 30
0.0
 11
25378.903891795318
 21
403214.60307007632
 31
0.0
  0
LINE
  5
668D1
  8
S-OBRYS
  6
CONTINUOUS
 10
25378.903891795318
 20
403223.74313307629
 30
0.0
 11
25319.187323395319
 21
403223.74313307629
 31
0.0
  0
LINE
  5
668D2
  8
S-OBRYS
  6
CONTINUOUS
 10
25418.063617895321
 20
403254.60244397633
 30
0.0
 11
25381.052198395319
 21
403254.60244397633
 31
0.0
  0
LINE
  5
668D3
  8
S-OBRYS
  6
CONTINUOUS
 10
25378.903891795318
 20
403223.74313307629
 30
0.0
 11
25438.620447495319
 21
403223.74313307629
 31
0.0
  0
LINE
  5
668D4
  8
S-OBRYS
  6
CONTINUOUS
 10
25339.744152995321
 20
403254.60244397633
 30
0.0
 11
25376.755585195318
 21
403254.60244397633
 31
0.0
  0
LINE
  5
668D5
  8
S-OBRYS
  6
CONTINUOUS
 10
25438.620447495319
 20
403336.82912737632
 30
0.0
 11
25510.568576395319
 21
403420.15434807632
 31
0.0
  0
LINE
  5
668D6
  8
S-OBRYS
  6
CONTINUOUS
 10
25438.620447495319
 20
403336.82912737632
 30
0.0
 11
25510.568576395319
 21
403420.15434807632
 31
0.0
  0
LINE
  5
668D7
  8
S-OBRYS
  6
CONTINUOUS
 10
25710.300815995321
 20
403841.51004587632
 30
0.0
 11
25181.934626095321
 21
403841.51004587632
 31
0.0
  0
POLYLINE
  5
668D8
  8
S-OBRYS
  6
CONTINUOUS
 66
     1
 10
0.0
 20
0.0
 30
0.0
 70
     1
  0
VERTEX
  5
67635
  8
S-OBRYS
  6
CONTINUOUS
 10
25339.744152995321
 20
403600.01256087632
 30
0.0
  0
VERTEX
  5
67636
  8
S-OBRYS
  6
CONTINUOUS
 10
25344.227887995319
 20
403618.64029857633
 30
0.0
  0
VERTEX
  5
67637
  8
S-OBRYS
  6
CONTINUOUS
 10
25357.37419139532
 20
403635.99873477628
 30
0.0
  0
VERTEX
  5
67638
  8
S-OBRYS
  6
CONTINUOUS
 10
25378.286493995322
 20
403650.90516927629
 30
0.0
  0
VERTEX
  5
67639
  8
S-OBRYS
  6
CONTINUOUS
 10
25405.539855795319
 20
403662.34281467629
 30
0.0
  0
VERTEX
  5
6763A
  8
S-OBRYS
  6
CONTINUOUS
 10
25437.277562195319
 20
403669.53290697641
 30
0.0
  0
VERTEX
  5
6763B
  8
S-OBRYS
  6
CONTINUOUS
 10
25471.335863395321
 20
403671.98551827628
 30
0.0
  0
VERTEX
  5
6763C
  8
S-OBRYS
  6
CONTINUOUS
 10
25505.39416459532
 20
403669.53290697641
 30
0.0
  0
VERTEX
  5
6763D
  8
S-OBRYS
  6
CONTINUOUS
 10
25537.131566195319
 20
403662.34281467629
 30
0.0
  0
VERTEX
  5
6763E
  8
S-OBRYS
  6
CONTINUOUS
 10
25564.385232795321
 20
403650.90516927629
 30
0.0
  0
VERTEX
  5
6763F
  8
S-OBRYS
  6
CONTINUOUS
 10
25585.297535395319
 20
403635.99873477628
 30
0.0
  0
VERTEX
  5
67640
  8
S-OBRYS
  6
CONTINUOUS
 10
25598.44383879532
 20
403618.64029857633
 30
0.0
  0
VERTEX
  5
67641
  8
S-OBRYS
  6
CONTINUOUS
 10
25602.92758649532
 20
403600.01256087632
 30
0.0
  0
VERTEX
  5
67642
  8
S-OBRYS
  6
CONTINUOUS
 10
25598.44383879532
 20
403581.38482317643
 30
0.0
  0
VERTEX
  5
67643
  8
S-OBRYS
  6
CONTINUOUS
 10
25585.297535395319
 20
403564.02577737637
 30
0.0
  0
VERTEX
  5
67644
  8
S-OBRYS
  6
CONTINUOUS
 10
25564.385232795321
 20
403549.11995247641
 30
0.0
  0
VERTEX
  5
67645
  8
S-OBRYS
  6
CONTINUOUS
 10
25537.131566195319
 20
403537.68230707629
 30
0.0
  0
VERTEX
  5
67646
  8
S-OBRYS
  6
CONTINUOUS
 10
25505.39416459532
 20
403530.49221477628
 30
0.0
  0
VERTEX
  5
67647
  8
S-OBRYS
  6
CONTINUOUS
 10
25471.335863395321
 20
403528.0396034763
 30
0.0
  0
VERTEX
  5
67648
  8
S-OBRYS
  6
CONTINUOUS
 10
25437.277562195319
 20
403530.49221477628
 30
0.0
  0
VERTEX
  5
67649
  8
S-OBRYS
  6
CONTINUOUS
 10
25405.54016059533
 20
403537.68230707629
 30
0.0
  0
VERTEX
  5
6764A
  8
S-OBRYS
  6
CONTINUOUS
 10
25378.286493995322
 20
403549.11995247641
 30
0.0
  0
VERTEX
  5
6764B
  8
S-OBRYS
  6
CONTINUOUS
 10
25357.37419139532
 20
403564.02577737637
 30
0.0
  0
VERTEX
  5
6764C
  8
S-OBRYS
  6
CONTINUOUS
 10
25344.227887995319
 20
403581.38482317643
 30
0.0
  0
VERTEX
  5
6764D
  8
S-OBRYS
  6
CONTINUOUS
 10
25339.744152995321
 20
403600.01256087632
 30
0.0
  0
SEQEND
  5
6764E
  8
S-OBRYS
  6
CONTINUOUS
  0
LINE
  5
668D9
  8
S-OBRYS
  6
CONTINUOUS
 10
25800.53512879532
 20
403600.03738937638
 30
0.0
 11
25263.62083559532
 21
403600.03738937638
 31
0.0
  0
LINE
  5
668DA
  8
S-OBRYS
  6
CONTINUOUS
 10
25387.034139695312
 20
403717.22439147631
 30
0.0
 11
25197.605295795322
 21
403455.15463367628
 31
0.0
  0
LINE
  5
668DB
  8
S-OBRYS
  6
CONTINUOUS
 10
25475.534978695319
 20
403719.37300287629
 30
0.0
 11
25475.534978695319
 21
403455.15463367628
 31
0.0
  0
LINE
  5
668DC
  8
S-OBRYS
  6
CONTINUOUS
 10
25197.605295795322
 20
403455.15463367628
 30
0.0
 11
25197.605295795322
 21
403719.37300287629
 31
0.0
  0
LINE
  5
668DD
  8
S-OBRYS
  6
CONTINUOUS
 10
25378.903891795318
 20
403336.82912737632
 30
0.0
 11
25319.187323395319
 21
403336.82912737632
 31
0.0
  0
LINE
  5
668DE
  8
S-OBRYS
  6
CONTINUOUS
 10
25319.187323395319
 20
403336.82912737632
 30
0.0
 11
25247.239207195322
 21
403420.15434807632
 31
0.0
  0
LINE
  5
668DF
  8
S-OBRYS
  6
CONTINUOUS
 10
25319.187323395319
 20
403336.82912737632
 30
0.0
 11
25247.239207195322
 21
403420.15434807632
 31
0.0
  0
LINE
  5
668E0
  8
S-OBRYS
  6
CONTINUOUS
 10
25378.903891795318
 20
403336.82912737632
 30
0.0
 11
25438.620447495319
 21
403336.82912737632
 31
0.0
  0
LINE
  5
668E1
  8
S-OBRYS
  6
CONTINUOUS
 10
25266.355348795321
 20
403891.88307187631
 30
0.0
 11
25478.855393695321
 21
403891.88307187631
 31
0.0
  0
LINE
  5
668E2
  8
S-OBRYS
  6
CONTINUOUS
 10
25181.80956919532
 20
403799.32937077642
 30
0.0
 11
25181.934626095321
 21
403841.51004587632
 31
0.0
  0
LINE
  5
668E3
  8
S-OBRYS
  6
CONTINUOUS
 10
25710.300815995321
 20
403600.03738937638
 30
0.0
 11
25710.300815995321
 21
403851.07099957642
 31
0.0
  0
LINE
  5
668E4
  8
S-OBRYS
  6
CONTINUOUS
 10
25679.001843795319
 20
403455.15463367628
 30
0.0
 11
25679.001843795319
 21
403717.22439147631
 31
0.0
  0
LINE
  5
668E5
  8
S-OBRYS
  6
CONTINUOUS
 10
25679.73430359532
 20
403419.47064357641
 30
0.0
 11
25679.73430359532
 21
403295.15410277632
 31
0.0
  0
LINE
  5
668E6
  8
S-OBRYS
  6
CONTINUOUS
 10
25704.905068595319
 20
404210.65721207642
 30
0.0
 11
25599.234731295321
 21
404885.15395807632
 31
0.0
  0
LINE
  5
668E7
  8
S-OBRYS
  6
CONTINUOUS
 10
25749.338825295319
 20
404284.0702478764
 30
0.0
 11
25701.047799195319
 21
404761.26737577643
 31
0.0
  0
LINE
  5
668E8
  8
S-OBRYS
  6
CONTINUOUS
 10
25652.756785795322
 20
404191.34576987638
 30
0.0
 11
25575.46165209532
 21
404699.45126877632
 31
0.0
  0
LINE
  5
668E9
  8
S-OBRYS
  6
CONTINUOUS
 10
25800.53512879532
 20
404001.0133971764
 30
0.0
 11
25565.915849495312
 21
404000.96494667628
 31
0.0
  0
LINE
  5
668EA
  8
S-OBRYS
  6
CONTINUOUS
 10
25800.53512879532
 20
404210.65721207642
 30
0.0
 11
25704.905068595319
 21
404210.65721207642
 31
0.0
  0
LINE
  5
668EB
  8
S-OBRYS
  6
CONTINUOUS
 10
25800.53512879532
 20
404284.0702478764
 30
0.0
 11
25749.338825295319
 21
404284.0702478764
 31
0.0
  0
LINE
  5
668EC
  8
S-OBRYS
  6
CONTINUOUS
 10
25599.234731295321
 20
404885.15395807632
 30
0.0
 11
25804.967085895321
 21
404885.15395807632
 31
0.0
  0
LINE
  5
668ED
  8
S-OBRYS
  6
CONTINUOUS
 10
25585.535235895321
 20
404920.1542436764
 30
0.0
 11
25800.53512879532
 21
404920.1542436764
 31
0.0
  0
LINE
  5
668EE
  8
S-OBRYS
  6
CONTINUOUS
 10
25701.047799195319
 20
404761.26737577643
 30
0.0
 11
25800.53512879532
 21
404761.27767547627
 31
0.0
  0
LINE
  5
668EF
  8
S-OBRYS
  6
CONTINUOUS
 10
26108.680080195321
 20
403841.51004587632
 30
0.0
 11
25896.165188995321
 21
404210.65721207642
 31
0.0
  0
LINE
  5
668F0
  8
S-OBRYS
  6
CONTINUOUS
 10
26001.835526295319
 20
404885.15395807632
 30
0.0
 11
26419.135631495319
 21
403841.51004587632
 31
0.0
  0
LINE
  5
668F1
  8
S-OBRYS
  6
CONTINUOUS
 10
26015.53502169533
 20
404920.1542436764
 30
0.0
 11
26441.633953595319
 21
403854.50466047629
 31
0.0
  0
LINE
  5
668F2
  8
S-OBRYS
  6
CONTINUOUS
 10
26025.608605495319
 20
404699.45126877632
 30
0.0
 11
26334.714908795318
 21
403891.88307187631
 31
0.0
  0
LINE
  5
668F3
  8
S-OBRYS
  6
CONTINUOUS
 10
26122.214863895319
 20
403891.88307187631
 30
0.0
 11
25948.313471795322
 21
404191.34576987638
 31
0.0
  0
LINE
  5
668F4
  8
S-OBRYS
  6
CONTINUOUS
 10
26486.584572195319
 20
403624.6912897763
 30
0.0
 11
26560.535064695319
 21
403624.6912897763
 31
0.0
  0
LINE
  5
668F5
  8
S-OBRYS
  6
CONTINUOUS
 10
25890.769441595319
 20
403799.4510875764
 30
0.0
 11
26560.535064695319
 21
403799.4510875764
 31
0.0
  0
LINE
  5
668F6
  8
S-OBRYS
  6
CONTINUOUS
 10
26486.550967995321
 20
403420.15434807632
 30
0.0
 11
26560.535064695319
 21
403420.15434807632
 31
0.0
  0
LINE
  5
668F7
  8
S-OBRYS
  6
CONTINUOUS
 10
25890.769441595319
 20
403719.37300287629
 30
0.0
 11
26560.535064695319
 21
403719.37300287629
 31
0.0
  0
LINE
  5
668F8
  8
S-OBRYS
  6
CONTINUOUS
 10
26183.006639695319
 20
403336.82912737632
 30
0.0
 11
26183.006639695319
 21
403254.60244397633
 31
0.0
  0
LINE
  5
668F9
  8
S-OBRYS
  6
CONTINUOUS
 10
26261.326104595319
 20
403336.82912737632
 30
0.0
 11
26261.326104595319
 21
403254.60244397633
 31
0.0
  0
LINE
  5
668FA
  8
S-OBRYS
  6
CONTINUOUS
 10
26162.449810095321
 20
403223.74313307629
 30
0.0
 11
26162.449810095321
 21
403336.82912737632
 31
0.0
  0
LINE
  5
668FB
  8
S-OBRYS
  6
CONTINUOUS
 10
26281.882934195321
 20
403223.74313307629
 30
0.0
 11
26281.882934195321
 21
403336.82912737632
 31
0.0
  0
LINE
  5
668FC
  8
S-OBRYS
  6
CONTINUOUS
 10
26222.166365795321
 20
403478.82143927627
 30
0.0
 11
26222.166365795321
 21
403214.60307007632
 31
0.0
  0
LINE
  5
668FD
  8
S-OBRYS
  6
CONTINUOUS
 10
26183.006639695319
 20
403254.60244397633
 30
0.0
 11
26220.018059195321
 21
403254.60244397633
 31
0.0
  0
LINE
  5
668FE
  8
S-OBRYS
  6
CONTINUOUS
 10
26222.166365795321
 20
403223.74313307629
 30
0.0
 11
26162.449810095321
 21
403223.74313307629
 31
0.0
  0
LINE
  5
668FF
  8
S-OBRYS
  6
CONTINUOUS
 10
26222.166365795321
 20
403223.74313307629
 30
0.0
 11
26281.882934195321
 21
403223.74313307629
 31
0.0
  0
LINE
  5
66900
  8
S-OBRYS
  6
CONTINUOUS
 10
26261.326104595319
 20
403254.60244397633
 30
0.0
 11
26224.314672395321
 21
403254.60244397633
 31
0.0
  0
POLYLINE
  5
66901
  8
S-OBRYS
  6
CONTINUOUS
 66
     1
 10
0.0
 20
0.0
 30
0.0
 70
     1
  0
VERTEX
  5
6764F
  8
S-OBRYS
  6
CONTINUOUS
 10
26261.326104595319
 20
403600.01256087632
 30
0.0
  0
VERTEX
  5
67650
  8
S-OBRYS
  6
CONTINUOUS
 10
26256.842369595332
 20
403618.64029857633
 30
0.0
  0
VERTEX
  5
67651
  8
S-OBRYS
  6
CONTINUOUS
 10
26243.69606619532
 20
403635.99873477628
 30
0.0
  0
VERTEX
  5
67652
  8
S-OBRYS
  6
CONTINUOUS
 10
26222.783763595318
 20
403650.90516927629
 30
0.0
  0
VERTEX
  5
67653
  8
S-OBRYS
  6
CONTINUOUS
 10
26195.53040179532
 20
403662.34281467629
 30
0.0
  0
VERTEX
  5
67654
  8
S-OBRYS
  6
CONTINUOUS
 10
26163.792695395321
 20
403669.53290697641
 30
0.0
  0
VERTEX
  5
67655
  8
S-OBRYS
  6
CONTINUOUS
 10
26129.734394195319
 20
403671.98551827628
 30
0.0
  0
VERTEX
  5
67656
  8
S-OBRYS
  6
CONTINUOUS
 10
26095.67609299532
 20
403669.53290697641
 30
0.0
  0
VERTEX
  5
67657
  8
S-OBRYS
  6
CONTINUOUS
 10
26063.938678695318
 20
403662.34281467629
 30
0.0
  0
VERTEX
  5
67658
  8
S-OBRYS
  6
CONTINUOUS
 10
26036.685024795319
 20
403650.90516927629
 30
0.0
  0
VERTEX
  5
67659
  8
S-OBRYS
  6
CONTINUOUS
 10
26015.772722195321
 20
403635.99873477628
 30
0.0
  0
VERTEX
  5
6765A
  8
S-OBRYS
  6
CONTINUOUS
 10
26002.62641879532
 20
403618.64029857633
 30
0.0
  0
VERTEX
  5
6765B
  8
S-OBRYS
  6
CONTINUOUS
 10
25998.142671095331
 20
403600.01256087632
 30
0.0
  0
VERTEX
  5
6765C
  8
S-OBRYS
  6
CONTINUOUS
 10
26002.62641879532
 20
403581.38482317643
 30
0.0
  0
VERTEX
  5
6765D
  8
S-OBRYS
  6
CONTINUOUS
 10
26015.772722195321
 20
403564.02577737637
 30
0.0
  0
VERTEX
  5
6765E
  8
S-OBRYS
  6
CONTINUOUS
 10
26036.685024795319
 20
403549.11995247641
 30
0.0
  0
VERTEX
  5
6765F
  8
S-OBRYS
  6
CONTINUOUS
 10
26063.938678695318
 20
403537.68230707629
 30
0.0
  0
VERTEX
  5
67660
  8
S-OBRYS
  6
CONTINUOUS
 10
26095.67609299532
 20
403530.49221477628
 30
0.0
  0
VERTEX
  5
67661
  8
S-OBRYS
  6
CONTINUOUS
 10
26129.734394195319
 20
403528.0396034763
 30
0.0
  0
VERTEX
  5
67662
  8
S-OBRYS
  6
CONTINUOUS
 10
26163.792695395321
 20
403530.49221477628
 30
0.0
  0
VERTEX
  5
67663
  8
S-OBRYS
  6
CONTINUOUS
 10
26195.53009699532
 20
403537.68230707629
 30
0.0
  0
VERTEX
  5
67664
  8
S-OBRYS
  6
CONTINUOUS
 10
26222.783763595318
 20
403549.11995247641
 30
0.0
  0
VERTEX
  5
67665
  8
S-OBRYS
  6
CONTINUOUS
 10
26243.69606619532
 20
403564.02577737637
 30
0.0
  0
VERTEX
  5
67666
  8
S-OBRYS
  6
CONTINUOUS
 10
26256.842369595332
 20
403581.38482317643
 30
0.0
  0
VERTEX
  5
67667
  8
S-OBRYS
  6
CONTINUOUS
 10
26261.326104595319
 20
403600.01256087632
 30
0.0
  0
SEQEND
  5
67668
  8
S-OBRYS
  6
CONTINUOUS
  0
LINE
  5
66902
  8
S-OBRYS
  6
CONTINUOUS
 10
26222.166365795321
 20
403336.82912737632
 30
0.0
 11
26162.449810095321
 21
403336.82912737632
 31
0.0
  0
LINE
  5
66903
  8
S-OBRYS
  6
CONTINUOUS
 10
25890.769441595319
 20
403841.51004587632
 30
0.0
 11
26419.135631495319
 21
403841.51004587632
 31
0.0
  0
LINE
  5
66904
  8
S-OBRYS
  6
CONTINUOUS
 10
26334.714908795318
 20
403891.88307187631
 30
0.0
 11
26122.214863895319
 21
403891.88307187631
 31
0.0
  0
LINE
  5
66905
  8
S-OBRYS
  6
CONTINUOUS
 10
25890.769441595319
 20
403600.03738937638
 30
0.0
 11
25890.769441595319
 21
403851.07099957642
 31
0.0
  0
LINE
  5
66906
  8
S-OBRYS
  6
CONTINUOUS
 10
25922.068413795321
 20
403455.15463367628
 30
0.0
 11
25922.068413795321
 21
403717.22439147631
 31
0.0
  0
LINE
  5
66907
  8
S-OBRYS
  6
CONTINUOUS
 10
26125.535278895321
 20
403719.37300287629
 30
0.0
 11
26125.535278895321
 21
403455.15463367628
 31
0.0
  0
LINE
  5
66908
  8
S-OBRYS
  6
CONTINUOUS
 10
25921.33595399532
 20
403419.47064357641
 30
0.0
 11
25921.33595399532
 21
403295.15410277632
 31
0.0
  0
LINE
  5
66909
  8
S-OBRYS
  6
CONTINUOUS
 10
26162.449810095321
 20
403336.82912737632
 30
0.0
 11
26090.501681195321
 21
403420.15434807632
 31
0.0
  0
LINE
  5
6690A
  8
S-OBRYS
  6
CONTINUOUS
 10
26214.036117895321
 20
403717.22439147631
 30
0.0
 11
26403.464961795329
 21
403455.15463367628
 31
0.0
  0
LINE
  5
6690B
  8
S-OBRYS
  6
CONTINUOUS
 10
26486.5968363428
 20
403719.37300287629
 30
0.0
 11
26486.550967995321
 21
403420.15434807632
 31
0.0
  0
LINE
  5
6690C
  8
S-OBRYS
  6
CONTINUOUS
 10
26454.832042195321
 20
403719.37300287629
 30
0.0
 11
26454.832042195321
 21
403420.15434807632
 31
0.0
  0
LINE
  5
6690D
  8
S-OBRYS
  6
CONTINUOUS
 10
26403.464961795329
 20
403455.15463367628
 30
0.0
 11
26403.464961795329
 21
403719.37300287629
 31
0.0
  0
LINE
  5
6690E
  8
S-OBRYS
  6
CONTINUOUS
 10
26222.166365795321
 20
403336.82912737632
 30
0.0
 11
26281.882934195321
 21
403336.82912737632
 31
0.0
  0
LINE
  5
6690F
  8
S-OBRYS
  6
CONTINUOUS
 10
26281.882934195321
 20
403336.82912737632
 30
0.0
 11
26353.831050395322
 21
403420.15434807632
 31
0.0
  0
LINE
  5
66910
  8
S-OBRYS
  6
CONTINUOUS
 10
26419.260688395319
 20
403799.32937077642
 30
0.0
 11
26419.135631495319
 21
403841.51004587632
 31
0.0
  0
LINE
  5
66911
  8
S-OBRYS
  6
CONTINUOUS
 10
26441.633953595319
 20
403854.50466047629
 30
0.0
 11
26441.552240528628
 21
403799.4510875764
 31
0.0
  0
LINE
  5
66912
  8
S-OBRYS
  6
CONTINUOUS
 10
26560.535064695319
 20
403420.15434807632
 30
0.0
 11
26560.535064695319
 21
403799.4510875764
 31
0.0
  0
LINE
  5
66913
  8
S-OBRYS
  6
CONTINUOUS
 10
25896.165188995321
 20
404210.65721207642
 30
0.0
 11
26001.835526295319
 21
404885.15395807632
 31
0.0
  0
LINE
  5
66914
  8
S-OBRYS
  6
CONTINUOUS
 10
25851.731432295321
 20
404284.0702478764
 30
0.0
 11
25900.02245839532
 21
404761.26737577643
 31
0.0
  0
LINE
  5
66915
  8
S-OBRYS
  6
CONTINUOUS
 10
25948.313471795322
 20
404191.34576987638
 30
0.0
 11
26025.608605495319
 21
404699.45126877632
 31
0.0
  0
LINE
  5
66916
  8
S-OBRYS
  6
CONTINUOUS
 10
19284.283522394911
 20
404536.49229066609
 30
0.0
 11
19434.283450994921
 21
404536.49229066609
 31
0.0
  0
LINE
  5
66917
  8
S-OBRYS
  6
CONTINUOUS
 10
19298.928032094918
 20
404636.49224306608
 30
0.0
 11
19434.283450994921
 21
404636.49224306608
 31
0.0
  0
LINE
  5
66918
  8
S-OBRYS
  6
CONTINUOUS
 10
19434.283450994921
 20
404686.49162236601
 30
0.0
 11
19284.283522394911
 21
404686.49162236601
 31
0.0
  0
LINE
  5
66919
  8
S-OBRYS
  6
CONTINUOUS
 10
19434.283450994921
 20
404561.49198666611
 30
0.0
 11
19278.033293594919
 21
404561.49198666611
 31
0.0
  0
ARC
  5
6691A
  8
S-OBRYS
  6
CONTINUOUS
 10
19359.28318189492
 20
403711.49298816611
 30
0.0
 40
124.999940373
 50
216.86990400102781
 51
323.13000500088589
  0
ARC
  5
6691B
  8
S-OBRYS
  6
CONTINUOUS
 10
19359.28318189492
 20
403608.36701966613
 30
0.0
 40
124.999940373
 50
216.86990400102781
 51
323.13021899950053
  0
POLYLINE
  5
6691C
  8
S-OBRYS
  6
CONTINUOUS
 66
     1
 10
0.0
 20
0.0
 30
0.0
 70
     1
  0
VERTEX
  5
67669
  8
S-OBRYS
  6
CONTINUOUS
 10
19459.283134294921
 20
403711.49298816611
 30
0.0
  0
VERTEX
  5
6766A
  8
S-OBRYS
  6
CONTINUOUS
 10
19455.875825894909
 20
403724.4330943661
 30
0.0
  0
VERTEX
  5
6766B
  8
S-OBRYS
  6
CONTINUOUS
 10
19445.885815394919
 20
403736.49146496609
 30
0.0
  0
VERTEX
  5
6766C
  8
S-OBRYS
  6
CONTINUOUS
 10
19429.99379739492
 20
403746.84694336611
 30
0.0
  0
VERTEX
  5
6766D
  8
S-OBRYS
  6
CONTINUOUS
 10
19409.28315809491
 20
403754.79339686601
 30
0.0
  0
VERTEX
  5
6766E
  8
S-OBRYS
  6
CONTINUOUS
 10
19385.165197694922
 20
403759.78946256608
 30
0.0
  0
VERTEX
  5
6766F
  8
S-OBRYS
  6
CONTINUOUS
 10
19359.28318189492
 20
403761.4923674661
 30
0.0
  0
VERTEX
  5
67670
  8
S-OBRYS
  6
CONTINUOUS
 10
19333.401166094922
 20
403759.78946256608
 30
0.0
  0
VERTEX
  5
67671
  8
S-OBRYS
  6
CONTINUOUS
 10
19309.283205694919
 20
403754.79339686601
 30
0.0
  0
VERTEX
  5
67672
  8
S-OBRYS
  6
CONTINUOUS
 10
19288.57256639492
 20
403746.84694336611
 30
0.0
  0
VERTEX
  5
67673
  8
S-OBRYS
  6
CONTINUOUS
 10
19272.680548394921
 20
403736.49146496609
 30
0.0
  0
VERTEX
  5
67674
  8
S-OBRYS
  6
CONTINUOUS
 10
19262.690842694908
 20
403724.4330943661
 30
0.0
  0
VERTEX
  5
67675
  8
S-OBRYS
  6
CONTINUOUS
 10
19259.283229494918
 20
403711.49298816611
 30
0.0
  0
VERTEX
  5
67676
  8
S-OBRYS
  6
CONTINUOUS
 10
19262.690842694908
 20
403698.55167546601
 30
0.0
  0
VERTEX
  5
67677
  8
S-OBRYS
  6
CONTINUOUS
 10
19272.680548394921
 20
403686.49209836608
 30
0.0
  0
VERTEX
  5
67678
  8
S-OBRYS
  6
CONTINUOUS
 10
19288.57256639492
 20
403676.13661996613
 30
0.0
  0
VERTEX
  5
67679
  8
S-OBRYS
  6
CONTINUOUS
 10
19309.283205694919
 20
403668.1913729661
 30
0.0
  0
VERTEX
  5
6767A
  8
S-OBRYS
  6
CONTINUOUS
 10
19333.401166094922
 20
403663.196526466
 30
0.0
  0
VERTEX
  5
6767B
  8
S-OBRYS
  6
CONTINUOUS
 10
19359.28318189492
 20
403661.49241506611
 30
0.0
  0
VERTEX
  5
6767C
  8
S-OBRYS
  6
CONTINUOUS
 10
19385.165197694922
 20
403663.196526466
 30
0.0
  0
VERTEX
  5
6767D
  8
S-OBRYS
  6
CONTINUOUS
 10
19409.28315809491
 20
403668.1913729661
 30
0.0
  0
VERTEX
  5
6767E
  8
S-OBRYS
  6
CONTINUOUS
 10
19429.99379739492
 20
403676.13661996613
 30
0.0
  0
VERTEX
  5
6767F
  8
S-OBRYS
  6
CONTINUOUS
 10
19445.885815394919
 20
403686.49209836608
 30
0.0
  0
VERTEX
  5
67680
  8
S-OBRYS
  6
CONTINUOUS
 10
19455.875825894909
 20
403698.55167546601
 30
0.0
  0
VERTEX
  5
67681
  8
S-OBRYS
  6
CONTINUOUS
 10
19459.283134294921
 20
403711.49298816611
 30
0.0
  0
SEQEND
  5
67682
  8
S-OBRYS
  6
CONTINUOUS
  0
LINE
  5
6691D
  8
S-OBRYS
  6
CONTINUOUS
 10
19359.28318189492
 20
403244.30433656613
 30
0.0
 11
19401.470524494911
 21
403244.30433656613
 31
0.0
  0
LINE
  5
6691E
  8
S-OBRYS
  6
CONTINUOUS
 10
19359.28318189492
 20
403362.6256010661
 30
0.0
 11
19685.220367894912
 21
403362.6256010661
 31
0.0
  0
LINE
  5
6691F
  8
S-OBRYS
  6
CONTINUOUS
 10
19359.28318189492
 20
403312.62562486611
 30
0.0
 11
19685.220367894912
 21
403312.62562486611
 31
0.0
  0
LINE
  5
66920
  8
S-OBRYS
  6
CONTINUOUS
 10
20084.283141594919
 20
403912.947512866
 30
0.0
 11
18634.283222194921
 21
403912.947512866
 31
0.0
  0
LINE
  5
66921
  8
S-OBRYS
  6
CONTINUOUS
 10
19433.69724439492
 20
404474.36067756609
 30
0.0
 11
19283.37787269492
 21
404474.36067756609
 31
0.0
  0
LINE
  5
66922
  8
S-OBRYS
  6
CONTINUOUS
 10
19433.69724439492
 20
404484.92931276601
 30
0.0
 11
19283.306714594921
 21
404484.92931276601
 31
0.0
  0
LINE
  5
66923
  8
S-OBRYS
  6
CONTINUOUS
 10
19433.111342594912
 20
404731.80498106609
 30
0.0
 11
19284.283217594912
 21
404731.80498106609
 31
0.0
  0
LINE
  5
66924
  8
S-OBRYS
  6
CONTINUOUS
 10
19284.283217594912
 20
404711.29630986613
 30
0.0
 11
19433.306643194919
 21
404711.49251216598
 31
0.0
  0
LINE
  5
66925
  8
S-OBRYS
  6
CONTINUOUS
 10
19184.28296039491
 20
404801.4927812661
 30
0.0
 11
19534.283403394918
 21
404801.4927812661
 31
0.0
  0
ARC
  5
66926
  8
S-OBRYS
  6
CONTINUOUS
 10
19359.28318189492
 20
403534.44893026608
 30
0.0
 40
124.999940373
 50
216.86990400102781
 51
323.13000500088589
  0
ARC
  5
66927
  8
S-OBRYS
  6
CONTINUOUS
 10
19359.28318189492
 20
403736.49146496609
 30
0.0
 40
124.999940373
 50
216.86990400102781
 51
323.13021899950053
  0
ARC
  5
66928
  8
S-OBRYS
  6
CONTINUOUS
 10
19359.28318189492
 20
403584.44829686609
 30
0.0
 40
124.999940373
 50
216.86990400102781
 51
323.13021899950053
  0
LINE
  5
66929
  8
S-OBRYS
  6
CONTINUOUS
 10
19484.283122394922
 20
403711.49298816611
 30
0.0
 11
19234.283241394911
 21
403711.49298816611
 31
0.0
  0
LINE
  5
6692A
  8
S-OBRYS
  6
CONTINUOUS
 10
19284.283522394911
 20
404511.49260736612
 30
0.0
 11
19434.283450994921
 21
404511.49260736612
 31
0.0
  0
LINE
  5
6692B
  8
S-OBRYS
  6
CONTINUOUS
 10
19284.283522394911
 20
404611.49255976611
 30
0.0
 11
19421.783298194921
 21
404611.49255976611
 31
0.0
  0
LINE
  5
6692C
  8
S-OBRYS
  6
CONTINUOUS
 10
19428.033222194921
 20
404661.49314556603
 30
0.0
 11
19290.533446394918
 21
404661.49314556603
 31
0.0
  0
LINE
  5
6692D
  8
S-OBRYS
  6
CONTINUOUS
 10
19434.283450994921
 20
404586.49287646601
 30
0.0
 11
19284.283522394911
 21
404586.49287646601
 31
0.0
  0
LINE
  5
6692E
  8
S-OBRYS
  6
CONTINUOUS
 10
19195.025407794921
 20
404198.01610706601
 30
0.0
 11
19523.540955994918
 21
404198.01610706601
 31
0.0
  0
LINE
  5
6692F
  8
S-OBRYS
  6
CONTINUOUS
 10
18634.283222194921
 20
404229.98683106608
 30
0.0
 11
18634.283222194921
 21
403276.49199586612
 31
0.0
  0
LINE
  5
66930
  8
S-OBRYS
  6
CONTINUOUS
 10
19085.845717594912
 20
404258.36731986603
 30
0.0
 11
18723.541044694921
 21
404163.05458186602
 31
0.0
  0
LINE
  5
66931
  8
S-OBRYS
  6
CONTINUOUS
 10
18584.282941194921
 20
404251.49231256603
 30
0.0
 11
18584.282941194921
 21
403251.49231256609
 31
0.0
  0
LINE
  5
66932
  8
S-OBRYS
  6
CONTINUOUS
 10
19359.28318189492
 20
404986.49268606608
 30
0.0
 11
19359.28318189492
 21
403194.96564936609
 31
0.0
  0
LINE
  5
66933
  8
S-OBRYS
  6
CONTINUOUS
 10
19195.025407794921
 20
404017.35126646608
 30
0.0
 11
19195.025407794921
 21
404198.01610706601
 31
0.0
  0
LINE
  5
66934
  8
S-OBRYS
  6
CONTINUOUS
 10
18723.541044694921
 20
404017.35126646608
 30
0.0
 11
19085.845717594912
 21
404258.36731986603
 31
0.0
  0
LINE
  5
66935
  8
S-OBRYS
  6
CONTINUOUS
 10
18850.533458294911
 20
403312.62562486611
 30
0.0
 11
18634.283222194921
 21
403312.62562486611
 31
0.0
  0
LINE
  5
66936
  8
S-OBRYS
  6
CONTINUOUS
 10
18850.533458294911
 20
403362.6256010661
 30
0.0
 11
18634.283222194921
 21
403362.6256010661
 31
0.0
  0
LINE
  5
66937
  8
S-OBRYS
  6
CONTINUOUS
 10
18584.28324599492
 20
403276.49199586612
 30
0.0
 11
18759.283162694919
 21
403276.49199586612
 31
0.0
  0
LINE
  5
66938
  8
S-OBRYS
  6
CONTINUOUS
 10
18759.283162694919
 20
403251.49231256609
 30
0.0
 11
18584.28324599492
 21
403251.49231256609
 31
0.0
  0
LINE
  5
66939
  8
S-OBRYS
  6
CONTINUOUS
 10
18659.28351509491
 20
403636.49271906598
 30
0.0
 11
18920.845903394911
 21
403636.49271906598
 31
0.0
  0
LINE
  5
6693A
  8
S-OBRYS
  6
CONTINUOUS
 10
18659.28351509491
 20
403686.49209836608
 30
0.0
 11
18920.845903394911
 21
403686.49209836608
 31
0.0
  0
LINE
  5
6693B
  8
S-OBRYS
  6
CONTINUOUS
 10
18759.283467494919
 20
403561.49246266612
 30
0.0
 11
18634.283222194921
 21
403561.49246266612
 31
0.0
  0
LINE
  5
6693C
  8
S-OBRYS
  6
CONTINUOUS
 10
18634.283222194921
 20
403511.49248646601
 30
0.0
 11
18759.283467494919
 21
403561.49246266612
 31
0.0
  0
LINE
  5
6693D
  8
S-OBRYS
  6
CONTINUOUS
 10
18770.178518094908
 20
403632.66786006599
 30
0.0
 11
18673.585569294919
 21
403606.78584426612
 31
0.0
  0
LINE
  5
6693E
  8
S-OBRYS
  6
CONTINUOUS
 10
18673.585569294919
 20
403606.78584426612
 30
0.0
 11
18770.178518094908
 21
403580.9038157661
 31
0.0
  0
LINE
  5
6693F
  8
S-OBRYS
  6
CONTINUOUS
 10
18770.178518094908
 20
403580.9038157661
 30
0.0
 11
18697.733806494911
 21
403561.49246266612
 31
0.0
  0
LINE
  5
66940
  8
S-OBRYS
  6
CONTINUOUS
 10
18659.28351509491
 20
403912.947512866
 30
0.0
 11
18659.28351509491
 21
403636.49271906598
 31
0.0
  0
LINE
  5
66941
  8
S-OBRYS
  6
CONTINUOUS
 10
19048.345881494919
 20
403258.367186266
 30
0.0
 11
19048.345881494919
 21
403553.6798290661
 31
0.0
  0
LINE
  5
66942
  8
S-OBRYS
  6
CONTINUOUS
 10
18850.533458294911
 20
403553.6798290661
 30
0.0
 11
18850.533458294911
 21
403258.367186266
 31
0.0
  0
LINE
  5
66943
  8
S-OBRYS
  6
CONTINUOUS
 10
19259.283229494918
 20
403459.44866116613
 30
0.0
 11
19259.283229494918
 21
403711.49298816611
 31
0.0
  0
LINE
  5
66944
  8
S-OBRYS
  6
CONTINUOUS
 10
18944.28318189492
 20
403954.37303326611
 30
0.0
 11
18944.28318189492
 21
403195.06194076611
 31
0.0
  0
LINE
  5
66945
  8
S-OBRYS
  6
CONTINUOUS
 10
19359.28318189492
 20
403312.62562486611
 30
0.0
 11
19048.345881494919
 21
403312.62562486611
 31
0.0
  0
LINE
  5
66946
  8
S-OBRYS
  6
CONTINUOUS
 10
19359.28318189492
 20
403362.6256010661
 30
0.0
 11
19048.345881494919
 21
403362.6256010661
 31
0.0
  0
LINE
  5
66947
  8
S-OBRYS
  6
CONTINUOUS
 10
18850.533458294911
 20
403258.367186266
 30
0.0
 11
19048.345881494919
 21
403258.367186266
 31
0.0
  0
LINE
  5
66948
  8
S-OBRYS
  6
CONTINUOUS
 10
18759.283162694919
 20
403276.49199586612
 30
0.0
 11
18759.283162694919
 21
403251.49231256609
 31
0.0
  0
LINE
  5
66949
  8
S-OBRYS
  6
CONTINUOUS
 10
19317.095839294911
 20
403244.30433656613
 30
0.0
 11
19317.095839294911
 21
403309.92956726608
 31
0.0
  0
LINE
  5
6694A
  8
S-OBRYS
  6
CONTINUOUS
 10
19359.28318189492
 20
403244.30433656613
 30
0.0
 11
19317.095839294911
 21
403244.30433656613
 31
0.0
  0
LINE
  5
6694B
  8
S-OBRYS
  6
CONTINUOUS
 10
19317.095839294911
 20
403363.05435306608
 30
0.0
 11
19317.095839294911
 21
403414.61734366609
 31
0.0
  0
LINE
  5
6694C
  8
S-OBRYS
  6
CONTINUOUS
 10
18967.720460394921
 20
403636.49271906598
 30
0.0
 11
19259.283229494918
 21
403636.49271906598
 31
0.0
  0
LINE
  5
6694D
  8
S-OBRYS
  6
CONTINUOUS
 10
18967.720460394921
 20
403686.49209836608
 30
0.0
 11
19259.283229494918
 21
403686.49209836608
 31
0.0
  0
LINE
  5
6694E
  8
S-OBRYS
  6
CONTINUOUS
 10
18994.282853294921
 20
403788.0544555661
 30
0.0
 11
19139.544594194911
 21
403912.947512866
 31
0.0
  0
LINE
  5
6694F
  8
S-OBRYS
  6
CONTINUOUS
 10
18723.541044694921
 20
404017.35126646608
 30
0.0
 11
19195.025407794921
 21
404017.35126646608
 31
0.0
  0
POLYLINE
  5
66950
  8
S-OBRYS
  6
CONTINUOUS
 66
     1
 10
0.0
 20
0.0
 30
0.0
 70
     1
  0
VERTEX
  5
67683
  8
S-OBRYS
  6
CONTINUOUS
 10
18996.783208394911
 20
404094.30513846612
 30
0.0
  0
VERTEX
  5
67684
  8
S-OBRYS
  6
CONTINUOUS
 10
18999.232187494919
 20
404104.41474486608
 30
0.0
  0
VERTEX
  5
67685
  8
S-OBRYS
  6
CONTINUOUS
 10
19006.412576994921
 20
404113.83640496602
 30
0.0
  0
VERTEX
  5
67686
  8
S-OBRYS
  6
CONTINUOUS
 10
19017.834791894911
 20
404121.92700346612
 30
0.0
  0
VERTEX
  5
67687
  8
S-OBRYS
  6
CONTINUOUS
 10
19032.720626994909
 20
404128.13423006609
 30
0.0
  0
VERTEX
  5
67688
  8
S-OBRYS
  6
CONTINUOUS
 10
19050.055453894922
 20
404132.03660986607
 30
0.0
  0
VERTEX
  5
67689
  8
S-OBRYS
  6
CONTINUOUS
 10
19068.658058294921
 20
404133.36767146608
 30
0.0
  0
VERTEX
  5
6768A
  8
S-OBRYS
  6
CONTINUOUS
 10
19087.26066269492
 20
404132.03660986607
 30
0.0
  0
VERTEX
  5
6768B
  8
S-OBRYS
  6
CONTINUOUS
 10
19104.595476894909
 20
404128.13423006609
 30
0.0
  0
VERTEX
  5
6768C
  8
S-OBRYS
  6
CONTINUOUS
 10
19119.48132469492
 20
404121.92700346612
 30
0.0
  0
VERTEX
  5
6768D
  8
S-OBRYS
  6
CONTINUOUS
 10
19130.903526894908
 20
404113.83640496602
 30
0.0
  0
VERTEX
  5
6768E
  8
S-OBRYS
  6
CONTINUOUS
 10
19138.083929094912
 20
404104.41474486608
 30
0.0
  0
VERTEX
  5
6768F
  8
S-OBRYS
  6
CONTINUOUS
 10
19140.53290819492
 20
404094.30513846612
 30
0.0
  0
VERTEX
  5
67690
  8
S-OBRYS
  6
CONTINUOUS
 10
19138.083929094912
 20
404084.19553206611
 30
0.0
  0
VERTEX
  5
67691
  8
S-OBRYS
  6
CONTINUOUS
 10
19130.903526894908
 20
404074.77387196611
 30
0.0
  0
VERTEX
  5
67692
  8
S-OBRYS
  6
CONTINUOUS
 10
19119.48132469492
 20
404066.68327346601
 30
0.0
  0
VERTEX
  5
67693
  8
S-OBRYS
  6
CONTINUOUS
 10
19104.595476894909
 20
404060.4760468661
 30
0.0
  0
VERTEX
  5
67694
  8
S-OBRYS
  6
CONTINUOUS
 10
19087.26066269492
 20
404056.573667066
 30
0.0
  0
VERTEX
  5
67695
  8
S-OBRYS
  6
CONTINUOUS
 10
19068.658058294921
 20
404055.2426054661
 30
0.0
  0
VERTEX
  5
67696
  8
S-OBRYS
  6
CONTINUOUS
 10
19050.055453894922
 20
404056.573667066
 30
0.0
  0
VERTEX
  5
67697
  8
S-OBRYS
  6
CONTINUOUS
 10
19032.720626994909
 20
404060.4760468661
 30
0.0
  0
VERTEX
  5
67698
  8
S-OBRYS
  6
CONTINUOUS
 10
19017.834791894911
 20
404066.68327346601
 30
0.0
  0
VERTEX
  5
67699
  8
S-OBRYS
  6
CONTINUOUS
 10
19006.412576994921
 20
404074.77387196611
 30
0.0
  0
VERTEX
  5
6769A
  8
S-OBRYS
  6
CONTINUOUS
 10
18999.232187494919
 20
404084.19553206611
 30
0.0
  0
VERTEX
  5
6769B
  8
S-OBRYS
  6
CONTINUOUS
 10
18996.783208394911
 20
404094.30513846612
 30
0.0
  0
SEQEND
  5
6769C
  8
S-OBRYS
  6
CONTINUOUS
  0
LINE
  5
66951
  8
S-OBRYS
  6
CONTINUOUS
 10
18945.220522594911
 20
404094.30513846612
 30
0.0
 11
19182.720555594919
 21
404094.30513846612
 31
0.0
  0
LINE
  5
66952
  8
S-OBRYS
  6
CONTINUOUS
 10
18921.987427360658
 20
403761.4923674661
 30
0.0
 11
18779.021540794911
 21
403912.947512866
 31
0.0
  0
LINE
  5
66953
  8
S-OBRYS
  6
CONTINUOUS
 10
19048.345881494919
 20
403553.6798290661
 30
0.0
 11
18850.533458294911
 21
403553.6798290661
 31
0.0
  0
LINE
  5
66954
  8
S-OBRYS
  6
CONTINUOUS
 10
18967.720460394921
 20
403553.6798290661
 30
0.0
 11
18967.720460394921
 21
403761.4923674661
 31
0.0
  0
LINE
  5
66955
  8
S-OBRYS
  6
CONTINUOUS
 10
18920.845903394911
 20
403553.6798290661
 30
0.0
 11
18920.845903394911
 21
403761.4923674661
 31
0.0
  0
LINE
  5
66956
  8
S-OBRYS
  6
CONTINUOUS
 10
18939.595370594921
 20
403761.4923674661
 30
0.0
 11
18967.720460394921
 21
403761.4923674661
 31
0.0
  0
LINE
  5
66957
  8
S-OBRYS
  6
CONTINUOUS
 10
18948.971005894909
 20
403761.4923674661
 30
0.0
 11
18920.845903394911
 21
403761.4923674661
 31
0.0
  0
LINE
  5
66958
  8
S-OBRYS
  6
CONTINUOUS
 10
18967.720460394921
 20
403761.4923674661
 30
0.0
 11
18994.282853294921
 21
403788.0544555661
 31
0.0
  0
LINE
  5
66959
  8
S-OBRYS
  6
CONTINUOUS
 10
18723.541044694921
 20
403912.85909546609
 30
0.0
 11
18723.541044694921
 21
404017.35126646608
 31
0.0
  0
LINE
  5
6695A
  8
S-OBRYS
  6
CONTINUOUS
 10
18723.541044694921
 20
404163.05458186602
 30
0.0
 11
18723.541044694921
 21
404017.35126646608
 31
0.0
  0
LINE
  5
6695B
  8
S-OBRYS
  6
CONTINUOUS
 10
19186.697116094922
 20
403636.49271906598
 30
0.0
 11
19186.697116094922
 21
403912.947512866
 31
0.0
  0
LINE
  5
6695C
  8
S-OBRYS
  6
CONTINUOUS
 10
19065.532943894919
 20
404177.11743156612
 30
0.0
 11
19065.532943894919
 21
404033.36651256611
 31
0.0
  0
LINE
  5
6695D
  8
S-OBRYS
  6
CONTINUOUS
 10
18584.282941194921
 20
404251.49231256603
 30
0.0
 11
19059.283324694909
 21
404711.49251216598
 31
0.0
  0
LINE
  5
6695E
  8
S-OBRYS
  6
CONTINUOUS
 10
18634.283222194921
 20
404229.98683106608
 30
0.0
 11
19079.206106794922
 21
404661.49193906609
 31
0.0
  0
LINE
  5
6695F
  8
S-OBRYS
  6
CONTINUOUS
 10
19184.282960394921
 20
404508.36659126601
 30
0.0
 11
19184.282960394921
 21
404661.49193906609
 31
0.0
  0
POLYLINE
  5
66960
  8
S-OBRYS
  6
CONTINUOUS
 66
     1
 10
0.0
 20
0.0
 30
0.0
  0
VERTEX
  5
6769D
  8
S-OBRYS
  6
CONTINUOUS
 10
19283.983751594918
 20
404711.23937576602
 30
0.0
  0
VERTEX
  5
6769E
  8
S-OBRYS
  6
CONTINUOUS
 10
19283.983751594918
 20
404707.90988026612
 30
0.0
  0
VERTEX
  5
6769F
  8
S-OBRYS
  6
CONTINUOUS
 10
19286.06483709492
 20
404704.99581446598
 30
0.0
  0
VERTEX
  5
676A0
  8
S-OBRYS
  6
CONTINUOUS
 10
19286.89722049492
 20
404701.66631896608
 30
0.0
  0
VERTEX
  5
676A1
  8
S-OBRYS
  6
CONTINUOUS
 10
19288.14593529492
 20
404699.584331766
 30
0.0
  0
VERTEX
  5
676A2
  8
S-OBRYS
  6
CONTINUOUS
 10
19286.89722049492
 20
404696.67147246609
 30
0.0
  0
VERTEX
  5
676A3
  8
S-OBRYS
  6
CONTINUOUS
 10
19286.89722049492
 20
404693.34197696601
 30
0.0
  0
VERTEX
  5
676A4
  8
S-OBRYS
  6
CONTINUOUS
 10
19286.06483709492
 20
404690.4279111661
 30
0.0
  0
VERTEX
  5
676A5
  8
S-OBRYS
  6
CONTINUOUS
 10
19283.983751594918
 20
404689.18040286598
 30
0.0
  0
VERTEX
  5
676A6
  8
S-OBRYS
  6
CONTINUOUS
 10
19283.983751594918
 20
404676.69328026602
 30
0.0
  0
VERTEX
  5
676A7
  8
S-OBRYS
  6
CONTINUOUS
 10
19286.06483709492
 20
404673.77921446611
 30
0.0
  0
VERTEX
  5
676A8
  8
S-OBRYS
  6
CONTINUOUS
 10
19286.06483709492
 20
404670.44971896609
 30
0.0
  0
VERTEX
  5
676A9
  8
S-OBRYS
  6
CONTINUOUS
 10
19288.14593529492
 20
404668.36893826601
 30
0.0
  0
VERTEX
  5
676AA
  8
S-OBRYS
  6
CONTINUOUS
 10
19290.227020794919
 20
404665.45607896609
 30
0.0
  0
VERTEX
  5
676AB
  8
S-OBRYS
  6
CONTINUOUS
 10
19290.227020794919
 20
404640.4818337661
 30
0.0
  0
VERTEX
  5
676AC
  8
S-OBRYS
  6
CONTINUOUS
 10
19288.14593529492
 20
404639.23432546621
 30
0.0
  0
VERTEX
  5
676AD
  8
S-OBRYS
  6
CONTINUOUS
 10
19286.89722049492
 20
404636.32025966613
 30
0.0
  0
VERTEX
  5
676AE
  8
S-OBRYS
  6
CONTINUOUS
 10
19286.06483709492
 20
404632.98955766601
 30
0.0
  0
VERTEX
  5
676AF
  8
S-OBRYS
  6
CONTINUOUS
 10
19283.983751594918
 20
404630.9087769661
 30
0.0
  0
VERTEX
  5
676B0
  8
S-OBRYS
  6
CONTINUOUS
 10
19282.735049494921
 20
404627.995917666
 30
0.0
  0
VERTEX
  5
676B1
  8
S-OBRYS
  6
CONTINUOUS
 10
19280.653951294909
 20
404626.74720286601
 30
0.0
  0
VERTEX
  5
676B2
  8
S-OBRYS
  6
CONTINUOUS
 10
19280.653951294909
 20
404618.42286086612
 30
0.0
  0
VERTEX
  5
676B3
  8
S-OBRYS
  6
CONTINUOUS
 10
19282.735049494921
 20
404615.51000156609
 30
0.0
  0
VERTEX
  5
676B4
  8
S-OBRYS
  6
CONTINUOUS
 10
19282.735049494921
 20
404612.17929956608
 30
0.0
  0
VERTEX
  5
676B5
  8
S-OBRYS
  6
CONTINUOUS
 10
19283.983751594918
 20
404608.01772546611
 30
0.0
  0
VERTEX
  5
676B6
  8
S-OBRYS
  6
CONTINUOUS
 10
19283.983751594918
 20
404601.77416416601
 30
0.0
  0
VERTEX
  5
676B7
  8
S-OBRYS
  6
CONTINUOUS
 10
19286.06483709492
 20
404599.69216426602
 30
0.0
  0
VERTEX
  5
676B8
  8
S-OBRYS
  6
CONTINUOUS
 10
19286.89722049492
 20
404596.77931766602
 30
0.0
  0
VERTEX
  5
676B9
  8
S-OBRYS
  6
CONTINUOUS
 10
19288.14593529492
 20
404593.44982216612
 30
0.0
  0
VERTEX
  5
676BA
  8
S-OBRYS
  6
CONTINUOUS
 10
19288.14593529492
 20
404589.28824806609
 30
0.0
  0
VERTEX
  5
676BB
  8
S-OBRYS
  6
CONTINUOUS
 10
19286.89722049492
 20
404587.20626086608
 30
0.0
  0
VERTEX
  5
676BC
  8
S-OBRYS
  6
CONTINUOUS
 10
19286.06483709492
 20
404584.2934015661
 30
0.0
  0
VERTEX
  5
676BD
  8
S-OBRYS
  6
CONTINUOUS
 10
19283.983751594918
 20
404583.04348026612
 30
0.0
  0
VERTEX
  5
676BE
  8
S-OBRYS
  6
CONTINUOUS
 10
19282.735049494921
 20
404580.13062096608
 30
0.0
  0
VERTEX
  5
676BF
  8
S-OBRYS
  6
CONTINUOUS
 10
19280.653951294909
 20
404578.04984026612
 30
0.0
  0
VERTEX
  5
676C0
  8
S-OBRYS
  6
CONTINUOUS
 10
19279.821580594911
 20
404574.72034476598
 30
0.0
  0
VERTEX
  5
676C1
  8
S-OBRYS
  6
CONTINUOUS
 10
19277.740495094909
 20
404570.55756416608
 30
0.0
  0
VERTEX
  5
676C2
  8
S-OBRYS
  6
CONTINUOUS
 10
19277.740495094909
 20
404558.07164806611
 30
0.0
  0
VERTEX
  5
676C3
  8
S-OBRYS
  6
CONTINUOUS
 10
19279.821580594911
 20
404555.15758226608
 30
0.0
  0
VERTEX
  5
676C4
  8
S-OBRYS
  6
CONTINUOUS
 10
19280.653951294909
 20
404551.82808676612
 30
0.0
  0
VERTEX
  5
676C5
  8
S-OBRYS
  6
CONTINUOUS
 10
19282.735049494921
 20
404549.74608686607
 30
0.0
  0
VERTEX
  5
676C6
  8
S-OBRYS
  6
CONTINUOUS
 10
19283.983751594918
 20
404546.83324026607
 30
0.0
  0
VERTEX
  5
676C7
  8
S-OBRYS
  6
CONTINUOUS
 10
19286.06483709492
 20
404543.50373206602
 30
0.0
  0
VERTEX
  5
676C8
  8
S-OBRYS
  6
CONTINUOUS
 10
19286.89722049492
 20
404540.58966626611
 30
0.0
  0
VERTEX
  5
676C9
  8
S-OBRYS
  6
CONTINUOUS
 10
19288.14593529492
 20
404537.26017076598
 30
0.0
  0
VERTEX
  5
676CA
  8
S-OBRYS
  6
CONTINUOUS
 10
19286.06483709492
 20
404534.34732416598
 30
0.0
  0
VERTEX
  5
676CB
  8
S-OBRYS
  6
CONTINUOUS
 10
19283.983751594918
 20
404533.09740286611
 30
0.0
  0
VERTEX
  5
676CC
  8
S-OBRYS
  6
CONTINUOUS
 10
19283.983751594918
 20
404528.10376286611
 30
0.0
  0
VERTEX
  5
676CD
  8
S-OBRYS
  6
CONTINUOUS
 10
19282.735049494921
 20
404524.7742673661
 30
0.0
  0
VERTEX
  5
676CE
  8
S-OBRYS
  6
CONTINUOUS
 10
19282.735049494921
 20
404512.28713206609
 30
0.0
  0
VERTEX
  5
676CF
  8
S-OBRYS
  6
CONTINUOUS
 10
19283.983751594918
 20
404509.37306626601
 30
0.0
  0
VERTEX
  5
676D0
  8
S-OBRYS
  6
CONTINUOUS
 10
19293.140476994911
 20
404501.88200936612
 30
0.0
  0
VERTEX
  5
676D1
  8
S-OBRYS
  6
CONTINUOUS
 10
19291.05939149491
 20
404498.96915006608
 30
0.0
  0
VERTEX
  5
676D2
  8
S-OBRYS
  6
CONTINUOUS
 10
19290.227020794919
 20
404495.63844806608
 30
0.0
  0
VERTEX
  5
676D3
  8
S-OBRYS
  6
CONTINUOUS
 10
19288.14593529492
 20
404493.55765466602
 30
0.0
  0
VERTEX
  5
676D4
  8
S-OBRYS
  6
CONTINUOUS
 10
19286.89722049492
 20
404490.64358886611
 30
0.0
  0
VERTEX
  5
676D5
  8
S-OBRYS
  6
CONTINUOUS
 10
19286.06483709492
 20
404487.31409336609
 30
0.0
  0
SEQEND
  5
676D6
  8
S-OBRYS
  6
CONTINUOUS
  0
LINE
  5
66961
  8
S-OBRYS
  6
CONTINUOUS
 10
19283.37787269492
 20
404486.4917175661
 30
0.0
 11
19192.681495794921
 21
404486.4917175661
 31
0.0
  0
LINE
  5
66962
  8
S-OBRYS
  6
CONTINUOUS
 10
19283.37787269492
 20
404436.49233826611
 30
0.0
 11
19192.681495794921
 21
404436.49233826611
 31
0.0
  0
LINE
  5
66963
  8
S-OBRYS
  6
CONTINUOUS
 10
19205.181331094918
 20
404361.49208186608
 30
0.0
 11
19283.37787269492
 21
404361.49208186608
 31
0.0
  0
LINE
  5
66964
  8
S-OBRYS
  6
CONTINUOUS
 10
19283.37787269492
 20
404336.49238586612
 30
0.0
 11
19198.931711894918
 21
404336.49238586612
 31
0.0
  0
LINE
  5
66965
  8
S-OBRYS
  6
CONTINUOUS
 10
19283.37787269492
 20
404286.49181276612
 30
0.0
 11
19198.931711894918
 21
404286.49181276612
 31
0.0
  0
LINE
  5
66966
  8
S-OBRYS
  6
CONTINUOUS
 10
19283.37787269492
 20
404258.17231136613
 30
0.0
 11
19195.025407794921
 21
404258.17231136613
 31
0.0
  0
LINE
  5
66967
  8
S-OBRYS
  6
CONTINUOUS
 10
19195.025407794921
 20
404268.1329467661
 30
0.0
 11
19283.37787269492
 21
404268.1329467661
 31
0.0
  0
LINE
  5
66968
  8
S-OBRYS
  6
CONTINUOUS
 10
19284.283217594912
 20
404508.36659126601
 30
0.0
 11
19189.556686194919
 21
404508.36659126601
 31
0.0
  0
LINE
  5
66969
  8
S-OBRYS
  6
CONTINUOUS
 10
19211.431559894922
 20
404311.49270256609
 30
0.0
 11
19283.37787269492
 21
404311.49270256609
 31
0.0
  0
LINE
  5
6696A
  8
S-OBRYS
  6
CONTINUOUS
 10
19283.37787269492
 20
404386.4929716661
 30
0.0
 11
19198.931711894918
 21
404386.4929716661
 31
0.0
  0
LINE
  5
6696B
  8
S-OBRYS
  6
CONTINUOUS
 10
19198.931711894918
 20
404411.49265496607
 30
0.0
 11
19283.37787269492
 21
404411.49265496607
 31
0.0
  0
LINE
  5
6696C
  8
S-OBRYS
  6
CONTINUOUS
 10
19198.931711894918
 20
404461.49324076599
 30
0.0
 11
19283.37787269492
 21
404461.49324076599
 31
0.0
  0
POLYLINE
  5
6696D
  8
S-OBRYS
  6
CONTINUOUS
 66
     1
 10
0.0
 20
0.0
 30
0.0
  0
VERTEX
  5
676D7
  8
S-OBRYS
  6
CONTINUOUS
 10
19189.94728739492
 20
404508.36659126601
 30
0.0
  0
VERTEX
  5
676D8
  8
S-OBRYS
  6
CONTINUOUS
 10
19190.77875639491
 20
404507.52967396611
 30
0.0
  0
VERTEX
  5
676D9
  8
S-OBRYS
  6
CONTINUOUS
 10
19192.407772694922
 20
404504.81423616601
 30
0.0
  0
VERTEX
  5
676DA
  8
S-OBRYS
  6
CONTINUOUS
 10
19195.122600894909
 20
404503.1864263661
 30
0.0
  0
VERTEX
  5
676DB
  8
S-OBRYS
  6
CONTINUOUS
 10
19196.20841279492
 20
404499.38457976608
 30
0.0
  0
VERTEX
  5
676DC
  8
S-OBRYS
  6
CONTINUOUS
 10
19197.83742909491
 20
404496.67036116601
 30
0.0
  0
VERTEX
  5
676DD
  8
S-OBRYS
  6
CONTINUOUS
 10
19197.83742909491
 20
404492.32711356611
 30
0.0
  0
VERTEX
  5
676DE
  8
S-OBRYS
  6
CONTINUOUS
 10
19195.122600894909
 20
404488.52526696608
 30
0.0
  0
VERTEX
  5
676DF
  8
S-OBRYS
  6
CONTINUOUS
 10
19192.407772694922
 20
404486.89623796608
 30
0.0
  0
VERTEX
  5
676E0
  8
S-OBRYS
  6
CONTINUOUS
 10
19190.77875639491
 20
404483.09559786611
 30
0.0
  0
VERTEX
  5
676E1
  8
S-OBRYS
  6
CONTINUOUS
 10
19190.77875639491
 20
404478.75236296601
 30
0.0
  0
VERTEX
  5
676E2
  8
S-OBRYS
  6
CONTINUOUS
 10
19192.407772694922
 20
404476.03692516609
 30
0.0
  0
VERTEX
  5
676E3
  8
S-OBRYS
  6
CONTINUOUS
 10
19192.407772694922
 20
404470.60726876609
 30
0.0
  0
VERTEX
  5
676E4
  8
S-OBRYS
  6
CONTINUOUS
 10
19195.122600894909
 20
404467.8930374661
 30
0.0
  0
VERTEX
  5
676E5
  8
S-OBRYS
  6
CONTINUOUS
 10
19196.20841279492
 20
404464.09239736613
 30
0.0
  0
VERTEX
  5
676E6
  8
S-OBRYS
  6
CONTINUOUS
 10
19197.83742909491
 20
404459.74794326612
 30
0.0
  0
VERTEX
  5
676E7
  8
S-OBRYS
  6
CONTINUOUS
 10
19197.83742909491
 20
404454.31828686601
 30
0.0
  0
VERTEX
  5
676E8
  8
S-OBRYS
  6
CONTINUOUS
 10
19196.20841279492
 20
404447.80222166609
 30
0.0
  0
VERTEX
  5
676E9
  8
S-OBRYS
  6
CONTINUOUS
 10
19196.20841279492
 20
404443.45897406602
 30
0.0
  0
VERTEX
  5
676EA
  8
S-OBRYS
  6
CONTINUOUS
 10
19192.407772694922
 20
404442.372552566
 30
0.0
  0
VERTEX
  5
676EB
  8
S-OBRYS
  6
CONTINUOUS
 10
19192.407772694922
 20
404438.02931766608
 30
0.0
  0
VERTEX
  5
676EC
  8
S-OBRYS
  6
CONTINUOUS
 10
19190.77875639491
 20
404434.22745836608
 30
0.0
  0
VERTEX
  5
676ED
  8
S-OBRYS
  6
CONTINUOUS
 10
19192.407772694922
 20
404429.8842234661
 30
0.0
  0
VERTEX
  5
676EE
  8
S-OBRYS
  6
CONTINUOUS
 10
19192.407772694922
 20
404419.02489796613
 30
0.0
  0
VERTEX
  5
676EF
  8
S-OBRYS
  6
CONTINUOUS
 10
19195.122600894909
 20
404415.22425786598
 30
0.0
  0
VERTEX
  5
676F0
  8
S-OBRYS
  6
CONTINUOUS
 10
19196.20841279492
 20
404409.7946014661
 30
0.0
  0
VERTEX
  5
676F1
  8
S-OBRYS
  6
CONTINUOUS
 10
19200.552257294919
 20
404405.45014736609
 30
0.0
  0
VERTEX
  5
676F2
  8
S-OBRYS
  6
CONTINUOUS
 10
19200.552257294919
 20
404394.5908345661
 30
0.0
  0
VERTEX
  5
676F3
  8
S-OBRYS
  6
CONTINUOUS
 10
19196.20841279492
 20
404393.50563226599
 30
0.0
  0
VERTEX
  5
676F4
  8
S-OBRYS
  6
CONTINUOUS
 10
19196.20841279492
 20
404377.21544386609
 30
0.0
  0
VERTEX
  5
676F5
  8
S-OBRYS
  6
CONTINUOUS
 10
19197.83742909491
 20
404372.87219626602
 30
0.0
  0
VERTEX
  5
676F6
  8
S-OBRYS
  6
CONTINUOUS
 10
19200.552257294919
 20
404370.1567584661
 30
0.0
  0
VERTEX
  5
676F7
  8
S-OBRYS
  6
CONTINUOUS
 10
19200.552257294919
 20
404364.72830856597
 30
0.0
  0
VERTEX
  5
676F8
  8
S-OBRYS
  6
CONTINUOUS
 10
19204.352897394911
 20
404360.927668466
 30
0.0
  0
VERTEX
  5
676F9
  8
S-OBRYS
  6
CONTINUOUS
 10
19204.352897394911
 20
404350.06835566601
 30
0.0
  0
VERTEX
  5
676FA
  8
S-OBRYS
  6
CONTINUOUS
 10
19201.638069194909
 20
404348.43812016601
 30
0.0
  0
VERTEX
  5
676FB
  8
S-OBRYS
  6
CONTINUOUS
 10
19200.552257294919
 20
404344.6374800661
 30
0.0
  0
VERTEX
  5
676FC
  8
S-OBRYS
  6
CONTINUOUS
 10
19196.20841279492
 20
404341.92326146603
 30
0.0
  0
VERTEX
  5
676FD
  8
S-OBRYS
  6
CONTINUOUS
 10
19196.20841279492
 20
404337.57880736602
 30
0.0
  0
VERTEX
  5
676FE
  8
S-OBRYS
  6
CONTINUOUS
 10
19195.122600894909
 20
404333.77816726611
 30
0.0
  0
VERTEX
  5
676FF
  8
S-OBRYS
  6
CONTINUOUS
 10
19196.20841279492
 20
404329.43491966609
 30
0.0
  0
VERTEX
  5
67700
  8
S-OBRYS
  6
CONTINUOUS
 10
19197.83742909491
 20
404325.634279566
 30
0.0
  0
VERTEX
  5
67701
  8
S-OBRYS
  6
CONTINUOUS
 10
19200.552257294919
 20
404324.00526326598
 30
0.0
  0
VERTEX
  5
67702
  8
S-OBRYS
  6
CONTINUOUS
 10
19201.638069194909
 20
404320.20341666602
 30
0.0
  0
VERTEX
  5
67703
  8
S-OBRYS
  6
CONTINUOUS
 10
19205.981913694912
 20
404320.20341666602
 30
0.0
  0
VERTEX
  5
67704
  8
S-OBRYS
  6
CONTINUOUS
 10
19205.981913694912
 20
404315.860169066
 30
0.0
  0
VERTEX
  5
67705
  8
S-OBRYS
  6
CONTINUOUS
 10
19208.696741894921
 20
404312.05952896609
 30
0.0
  0
VERTEX
  5
67706
  8
S-OBRYS
  6
CONTINUOUS
 10
19209.78255379491
 20
404307.71629406611
 30
0.0
  0
VERTEX
  5
67707
  8
S-OBRYS
  6
CONTINUOUS
 10
19208.696741894921
 20
404303.91565396608
 30
0.0
  0
VERTEX
  5
67708
  8
S-OBRYS
  6
CONTINUOUS
 10
19205.981913694912
 20
404299.57119986613
 30
0.0
  0
VERTEX
  5
67709
  8
S-OBRYS
  6
CONTINUOUS
 10
19204.352897394911
 20
404295.77055976598
 30
0.0
  0
VERTEX
  5
6770A
  8
S-OBRYS
  6
CONTINUOUS
 10
19201.638069194909
 20
404293.0563284661
 30
0.0
  0
VERTEX
  5
6770B
  8
S-OBRYS
  6
CONTINUOUS
 10
19200.552257294919
 20
404287.625465566
 30
0.0
  0
VERTEX
  5
6770C
  8
S-OBRYS
  6
CONTINUOUS
 10
19197.83742909491
 20
404284.91123426601
 30
0.0
  0
VERTEX
  5
6770D
  8
S-OBRYS
  6
CONTINUOUS
 10
19197.83742909491
 20
404275.138330266
 30
0.0
  0
VERTEX
  5
6770E
  8
S-OBRYS
  6
CONTINUOUS
 10
19200.552257294919
 20
404271.33769016608
 30
0.0
  0
VERTEX
  5
6770F
  8
S-OBRYS
  6
CONTINUOUS
 10
19200.552257294919
 20
404266.99323606608
 30
0.0
  0
VERTEX
  5
67710
  8
S-OBRYS
  6
CONTINUOUS
 10
19201.638069194909
 20
404263.19138946611
 30
0.0
  0
SEQEND
  5
67711
  8
S-OBRYS
  6
CONTINUOUS
  0
LINE
  5
6696E
  8
S-OBRYS
  6
CONTINUOUS
 10
19085.845717594912
 20
404258.36731986603
 30
0.0
 11
19195.025407794921
 21
404258.36731986603
 31
0.0
  0
LINE
  5
6696F
  8
S-OBRYS
  6
CONTINUOUS
 10
19195.025407794921
 20
404258.17231136613
 30
0.0
 11
19195.025407794921
 21
404268.1329467661
 31
0.0
  0
LINE
  5
66970
  8
S-OBRYS
  6
CONTINUOUS
 10
19283.37787269492
 20
404198.01610706601
 30
0.0
 11
19283.37787269492
 21
404484.92931276601
 31
0.0
  0
LINE
  5
66971
  8
S-OBRYS
  6
CONTINUOUS
 10
19079.206106794922
 20
404661.49193906609
 30
0.0
 11
19290.194013494918
 21
404661.49193906609
 31
0.0
  0
LINE
  5
66972
  8
S-OBRYS
  6
CONTINUOUS
 10
19059.283324694909
 20
404711.49251216598
 30
0.0
 11
19284.283217594912
 21
404711.49251216598
 31
0.0
  0
LINE
  5
66973
  8
S-OBRYS
  6
CONTINUOUS
 10
19184.282960394921
 20
404711.49251216598
 30
0.0
 11
19184.28296039491
 21
404801.4927812661
 31
0.0
  0
LINE
  5
66974
  8
S-OBRYS
  6
CONTINUOUS
 10
19284.283217594912
 20
404801.4927812661
 30
0.0
 11
19284.283217594912
 21
404711.29630986613
 31
0.0
  0
LINE
  5
66975
  8
S-OBRYS
  6
CONTINUOUS
 10
19632.720646194921
 20
404258.36731986603
 30
0.0
 11
19995.025319094912
 21
404163.05458186602
 31
0.0
  0
LINE
  5
66976
  8
S-OBRYS
  6
CONTINUOUS
 10
20134.283422594919
 20
404251.49231256603
 30
0.0
 11
20134.283422594919
 21
403251.49231256609
 31
0.0
  0
LINE
  5
66977
  8
S-OBRYS
  6
CONTINUOUS
 10
20084.283141594919
 20
404229.98683106608
 30
0.0
 11
20084.283141594919
 21
403276.49199586612
 31
0.0
  0
LINE
  5
66978
  8
S-OBRYS
  6
CONTINUOUS
 10
19523.540955994918
 20
404017.35126646608
 30
0.0
 11
19523.540955994918
 21
404198.01610706601
 31
0.0
  0
LINE
  5
66979
  8
S-OBRYS
  6
CONTINUOUS
 10
19995.025319094912
 20
404017.35126646608
 30
0.0
 11
19632.720646194921
 21
404258.36731986603
 31
0.0
  0
LINE
  5
6697A
  8
S-OBRYS
  6
CONTINUOUS
 10
20134.283422594919
 20
403276.49199586612
 30
0.0
 11
19959.283201094921
 21
403276.49199586612
 31
0.0
  0
LINE
  5
6697B
  8
S-OBRYS
  6
CONTINUOUS
 10
19959.283201094921
 20
403251.49231256609
 30
0.0
 11
20134.283117794908
 21
403251.49231256609
 31
0.0
  0
LINE
  5
6697C
  8
S-OBRYS
  6
CONTINUOUS
 10
19868.032905494922
 20
403553.6798290661
 30
0.0
 11
19868.032905494922
 21
403258.367186266
 31
0.0
  0
LINE
  5
6697D
  8
S-OBRYS
  6
CONTINUOUS
 10
19685.220367894912
 20
403258.367186266
 30
0.0
 11
19685.220367894912
 21
403553.6798290661
 31
0.0
  0
LINE
  5
6697E
  8
S-OBRYS
  6
CONTINUOUS
 10
19459.283134294921
 20
403711.49298816611
 30
0.0
 11
19459.283134294921
 21
403459.44866116613
 31
0.0
  0
LINE
  5
6697F
  8
S-OBRYS
  6
CONTINUOUS
 10
19774.28318189492
 20
403954.37303326611
 30
0.0
 11
19774.28318189492
 21
403195.06194076611
 31
0.0
  0
LINE
  5
66980
  8
S-OBRYS
  6
CONTINUOUS
 10
19868.032905494922
 20
403258.367186266
 30
0.0
 11
19685.220367894912
 21
403258.367186266
 31
0.0
  0
LINE
  5
66981
  8
S-OBRYS
  6
CONTINUOUS
 10
19401.470524494911
 20
403244.30433656613
 30
0.0
 11
19401.470524494911
 21
403309.92956726608
 31
0.0
  0
LINE
  5
66982
  8
S-OBRYS
  6
CONTINUOUS
 10
19401.470524494911
 20
403363.05435306608
 30
0.0
 11
19401.470524494911
 21
403414.61734366609
 31
0.0
  0
LINE
  5
66983
  8
S-OBRYS
  6
CONTINUOUS
 10
19868.032905494922
 20
403362.6256010661
 30
0.0
 11
20084.283141594919
 21
403362.6256010661
 31
0.0
  0
LINE
  5
66984
  8
S-OBRYS
  6
CONTINUOUS
 10
19868.032905494922
 20
403312.62562486611
 30
0.0
 11
20084.283141594919
 21
403312.62562486611
 31
0.0
  0
LINE
  5
66985
  8
S-OBRYS
  6
CONTINUOUS
 10
19959.283201094921
 20
403276.49199586612
 30
0.0
 11
19959.283201094921
 21
403251.49231256609
 31
0.0
  0
LINE
  5
66986
  8
S-OBRYS
  6
CONTINUOUS
 10
19685.220367894912
 20
403553.6798290661
 30
0.0
 11
19868.032905494922
 21
403553.6798290661
 31
0.0
  0
LINE
  5
66987
  8
S-OBRYS
  6
CONTINUOUS
 10
19751.987427360658
 20
403761.4923674661
 30
0.0
 11
19579.021769594921
 21
403912.947512866
 31
0.0
  0
LINE
  5
66988
  8
S-OBRYS
  6
CONTINUOUS
 10
19750.845903394918
 20
403686.49209836608
 30
0.0
 11
19459.283134294921
 21
403686.49209836608
 31
0.0
  0
LINE
  5
66989
  8
S-OBRYS
  6
CONTINUOUS
 10
19750.845903394918
 20
403636.49271906598
 30
0.0
 11
19459.283134294921
 21
403636.49271906598
 31
0.0
  0
LINE
  5
6698A
  8
S-OBRYS
  6
CONTINUOUS
 10
19995.025319094912
 20
404017.35126646608
 30
0.0
 11
19523.540955994918
 21
404017.35126646608
 31
0.0
  0
LINE
  5
6698B
  8
S-OBRYS
  6
CONTINUOUS
 10
19773.345841194921
 20
404094.30513846612
 30
0.0
 11
19535.845808194921
 21
404094.30513846612
 31
0.0
  0
LINE
  5
6698C
  8
S-OBRYS
  6
CONTINUOUS
 10
19528.450725194922
 20
403636.49271906598
 30
0.0
 11
19528.450725194922
 21
403912.947512866
 31
0.0
  0
POLYLINE
  5
6698D
  8
S-OBRYS
  6
CONTINUOUS
 66
     1
 10
0.0
 20
0.0
 30
0.0
 70
     1
  0
VERTEX
  5
67712
  8
S-OBRYS
  6
CONTINUOUS
 10
19721.783155394922
 20
404094.30513846612
 30
0.0
  0
VERTEX
  5
67713
  8
S-OBRYS
  6
CONTINUOUS
 10
19719.33417629492
 20
404104.41474486608
 30
0.0
  0
VERTEX
  5
67714
  8
S-OBRYS
  6
CONTINUOUS
 10
19712.153786794908
 20
404113.83640496602
 30
0.0
  0
VERTEX
  5
67715
  8
S-OBRYS
  6
CONTINUOUS
 10
19700.731571894921
 20
404121.92700346612
 30
0.0
  0
VERTEX
  5
67716
  8
S-OBRYS
  6
CONTINUOUS
 10
19685.845736794909
 20
404128.13423006609
 30
0.0
  0
VERTEX
  5
67717
  8
S-OBRYS
  6
CONTINUOUS
 10
19668.510909894911
 20
404132.03660986607
 30
0.0
  0
VERTEX
  5
67718
  8
S-OBRYS
  6
CONTINUOUS
 10
19649.908305494911
 20
404133.36767146608
 30
0.0
  0
VERTEX
  5
67719
  8
S-OBRYS
  6
CONTINUOUS
 10
19631.30570109492
 20
404132.03660986607
 30
0.0
  0
VERTEX
  5
6771A
  8
S-OBRYS
  6
CONTINUOUS
 10
19613.97088689492
 20
404128.13423006609
 30
0.0
  0
VERTEX
  5
6771B
  8
S-OBRYS
  6
CONTINUOUS
 10
19599.08503909492
 20
404121.92700346612
 30
0.0
  0
VERTEX
  5
6771C
  8
S-OBRYS
  6
CONTINUOUS
 10
19587.66283689491
 20
404113.83640496602
 30
0.0
  0
VERTEX
  5
6771D
  8
S-OBRYS
  6
CONTINUOUS
 10
19580.482434694921
 20
404104.41474486608
 30
0.0
  0
VERTEX
  5
6771E
  8
S-OBRYS
  6
CONTINUOUS
 10
19578.033455594908
 20
404094.30513846612
 30
0.0
  0
VERTEX
  5
6771F
  8
S-OBRYS
  6
CONTINUOUS
 10
19580.482434694921
 20
404084.19553206611
 30
0.0
  0
VERTEX
  5
67720
  8
S-OBRYS
  6
CONTINUOUS
 10
19587.66283689491
 20
404074.77387196611
 30
0.0
  0
VERTEX
  5
67721
  8
S-OBRYS
  6
CONTINUOUS
 10
19599.08503909492
 20
404066.68327346601
 30
0.0
  0
VERTEX
  5
67722
  8
S-OBRYS
  6
CONTINUOUS
 10
19613.97088689492
 20
404060.4760468661
 30
0.0
  0
VERTEX
  5
67723
  8
S-OBRYS
  6
CONTINUOUS
 10
19631.30570109492
 20
404056.573667066
 30
0.0
  0
VERTEX
  5
67724
  8
S-OBRYS
  6
CONTINUOUS
 10
19649.908305494911
 20
404055.2426054661
 30
0.0
  0
VERTEX
  5
67725
  8
S-OBRYS
  6
CONTINUOUS
 10
19668.510909894911
 20
404056.573667066
 30
0.0
  0
VERTEX
  5
67726
  8
S-OBRYS
  6
CONTINUOUS
 10
19685.845736794909
 20
404060.4760468661
 30
0.0
  0
VERTEX
  5
67727
  8
S-OBRYS
  6
CONTINUOUS
 10
19700.731571894921
 20
404066.68327346601
 30
0.0
  0
VERTEX
  5
67728
  8
S-OBRYS
  6
CONTINUOUS
 10
19712.153786794908
 20
404074.77387196611
 30
0.0
  0
VERTEX
  5
67729
  8
S-OBRYS
  6
CONTINUOUS
 10
19719.33417629492
 20
404084.19553206611
 30
0.0
  0
VERTEX
  5
6772A
  8
S-OBRYS
  6
CONTINUOUS
 10
19721.783155394922
 20
404094.30513846612
 30
0.0
  0
SEQEND
  5
6772B
  8
S-OBRYS
  6
CONTINUOUS
  0
LINE
  5
6698E
  8
S-OBRYS
  6
CONTINUOUS
 10
19653.033419894909
 20
404177.11743156612
 30
0.0
 11
19653.033419894909
 21
404033.36651256611
 31
0.0
  0
LINE
  5
6698F
  8
S-OBRYS
  6
CONTINUOUS
 10
19824.282853294921
 20
403788.0544555661
 30
0.0
 11
19939.544822994922
 21
403912.947512866
 31
0.0
  0
LINE
  5
66990
  8
S-OBRYS
  6
CONTINUOUS
 10
20059.283153494918
 20
403912.947512866
 30
0.0
 11
20059.283153494918
 21
403636.49271906598
 31
0.0
  0
LINE
  5
66991
  8
S-OBRYS
  6
CONTINUOUS
 10
20059.282848694911
 20
403686.49209836608
 30
0.0
 11
19797.720460394921
 21
403686.49209836608
 31
0.0
  0
LINE
  5
66992
  8
S-OBRYS
  6
CONTINUOUS
 10
20059.282848694911
 20
403636.49271906598
 30
0.0
 11
19797.720460394921
 21
403636.49271906598
 31
0.0
  0
LINE
  5
66993
  8
S-OBRYS
  6
CONTINUOUS
 10
19797.720460394921
 20
403553.6798290661
 30
0.0
 11
19797.720460394921
 21
403761.4923674661
 31
0.0
  0
LINE
  5
66994
  8
S-OBRYS
  6
CONTINUOUS
 10
19750.845903394918
 20
403553.6798290661
 30
0.0
 11
19750.845903394918
 21
403761.4923674661
 31
0.0
  0
LINE
  5
66995
  8
S-OBRYS
  6
CONTINUOUS
 10
19769.595357894908
 20
403761.4923674661
 30
0.0
 11
19797.720460394921
 21
403761.4923674661
 31
0.0
  0
LINE
  5
66996
  8
S-OBRYS
  6
CONTINUOUS
 10
19778.970993194918
 20
403761.4923674661
 30
0.0
 11
19750.845903394918
 21
403761.4923674661
 31
0.0
  0
LINE
  5
66997
  8
S-OBRYS
  6
CONTINUOUS
 10
19797.720460394921
 20
403761.4923674661
 30
0.0
 11
19824.282853294921
 21
403788.0544555661
 31
0.0
  0
LINE
  5
66998
  8
S-OBRYS
  6
CONTINUOUS
 10
19959.28289629491
 20
403561.49246266612
 30
0.0
 11
20084.283141594919
 21
403561.49246266612
 31
0.0
  0
LINE
  5
66999
  8
S-OBRYS
  6
CONTINUOUS
 10
20084.283141594919
 20
403511.49248646601
 30
0.0
 11
19959.28289629491
 21
403561.49246266612
 31
0.0
  0
LINE
  5
6699A
  8
S-OBRYS
  6
CONTINUOUS
 10
19973.486842994909
 20
403626.19721006602
 30
0.0
 11
20070.07948699492
 21
403600.31518156611
 31
0.0
  0
LINE
  5
6699B
  8
S-OBRYS
  6
CONTINUOUS
 10
20070.07948699492
 20
403600.31518156611
 30
0.0
 11
19973.486842994909
 21
403574.43316576601
 31
0.0
  0
LINE
  5
6699C
  8
S-OBRYS
  6
CONTINUOUS
 10
19973.486842994909
 20
403574.43316576601
 30
0.0
 11
20021.783012594919
 21
403561.49246266612
 31
0.0
  0
LINE
  5
6699D
  8
S-OBRYS
  6
CONTINUOUS
 10
20016.85871459491
 20
403636.49271906598
 30
0.0
 11
19973.486842994909
 21
403626.19721006602
 31
0.0
  0
LINE
  5
6699E
  8
S-OBRYS
  6
CONTINUOUS
 10
19995.025319094912
 20
403912.85909546609
 30
0.0
 11
19995.025319094912
 21
404017.35126646608
 31
0.0
  0
LINE
  5
6699F
  8
S-OBRYS
  6
CONTINUOUS
 10
19995.025319094912
 20
404163.05458186602
 30
0.0
 11
19995.025319094912
 21
404017.35126646608
 31
0.0
  0
LINE
  5
669A0
  8
S-OBRYS
  6
CONTINUOUS
 10
20134.283422594919
 20
404251.49231256603
 30
0.0
 11
19659.283039094909
 21
404711.49251216598
 31
0.0
  0
LINE
  5
669A1
  8
S-OBRYS
  6
CONTINUOUS
 10
20084.283141594919
 20
404229.98683106608
 30
0.0
 11
19639.360256994911
 21
404661.49193906609
 31
0.0
  0
LINE
  5
669A2
  8
S-OBRYS
  6
CONTINUOUS
 10
19534.283403394918
 20
404508.36659126601
 30
0.0
 11
19534.283403394918
 21
404661.49193906609
 31
0.0
  0
POLYLINE
  5
669A3
  8
S-OBRYS
  6
CONTINUOUS
 66
     1
 10
0.0
 20
0.0
 30
0.0
  0
VERTEX
  5
6772C
  8
S-OBRYS
  6
CONTINUOUS
 10
19433.82199649492
 20
404711.23937576602
 30
0.0
  0
VERTEX
  5
6772D
  8
S-OBRYS
  6
CONTINUOUS
 10
19434.654367194918
 20
404707.90988026612
 30
0.0
  0
VERTEX
  5
6772E
  8
S-OBRYS
  6
CONTINUOUS
 10
19436.73545269492
 20
404705.82909956609
 30
0.0
  0
VERTEX
  5
6772F
  8
S-OBRYS
  6
CONTINUOUS
 10
19437.984167494909
 20
404701.66631896608
 30
0.0
  0
VERTEX
  5
67730
  8
S-OBRYS
  6
CONTINUOUS
 10
19437.984167494909
 20
404693.34197696601
 30
0.0
  0
VERTEX
  5
67731
  8
S-OBRYS
  6
CONTINUOUS
 10
19436.73545269492
 20
404690.4279111661
 30
0.0
  0
VERTEX
  5
67732
  8
S-OBRYS
  6
CONTINUOUS
 10
19434.654367194918
 20
404689.18040286598
 30
0.0
  0
VERTEX
  5
67733
  8
S-OBRYS
  6
CONTINUOUS
 10
19433.82199649492
 20
404686.26633706602
 30
0.0
  0
VERTEX
  5
67734
  8
S-OBRYS
  6
CONTINUOUS
 10
19431.740910994911
 20
404682.93563506601
 30
0.0
  0
VERTEX
  5
67735
  8
S-OBRYS
  6
CONTINUOUS
 10
19429.65982549492
 20
404680.02277576597
 30
0.0
  0
VERTEX
  5
67736
  8
S-OBRYS
  6
CONTINUOUS
 10
19427.578739994919
 20
404677.94199506601
 30
0.0
  0
VERTEX
  5
67737
  8
S-OBRYS
  6
CONTINUOUS
 10
19427.578739994919
 20
404674.61249956611
 30
0.0
  0
VERTEX
  5
67738
  8
S-OBRYS
  6
CONTINUOUS
 10
19426.330025194919
 20
404671.69843376608
 30
0.0
  0
VERTEX
  5
67739
  8
S-OBRYS
  6
CONTINUOUS
 10
19426.330025194919
 20
404664.20615766611
 30
0.0
  0
VERTEX
  5
6773A
  8
S-OBRYS
  6
CONTINUOUS
 10
19427.578739994919
 20
404661.29329836607
 30
0.0
  0
VERTEX
  5
6773B
  8
S-OBRYS
  6
CONTINUOUS
 10
19427.578739994919
 20
404649.63825436612
 30
0.0
  0
VERTEX
  5
6773C
  8
S-OBRYS
  6
CONTINUOUS
 10
19429.65982549492
 20
404645.47668026609
 30
0.0
  0
VERTEX
  5
6773D
  8
S-OBRYS
  6
CONTINUOUS
 10
19430.492196194911
 20
404642.56261446601
 30
0.0
  0
VERTEX
  5
6773E
  8
S-OBRYS
  6
CONTINUOUS
 10
19430.492196194911
 20
404634.2394789661
 30
0.0
  0
VERTEX
  5
6773F
  8
S-OBRYS
  6
CONTINUOUS
 10
19429.65982549492
 20
404630.9087769661
 30
0.0
  0
VERTEX
  5
67740
  8
S-OBRYS
  6
CONTINUOUS
 10
19427.578739994919
 20
404626.74720286601
 30
0.0
  0
VERTEX
  5
67741
  8
S-OBRYS
  6
CONTINUOUS
 10
19426.330025194919
 20
404620.50364156609
 30
0.0
  0
VERTEX
  5
67742
  8
S-OBRYS
  6
CONTINUOUS
 10
19424.248939694909
 20
404618.42286086612
 30
0.0
  0
VERTEX
  5
67743
  8
S-OBRYS
  6
CONTINUOUS
 10
19423.41655629492
 20
404615.51000156609
 30
0.0
  0
VERTEX
  5
67744
  8
S-OBRYS
  6
CONTINUOUS
 10
19421.335470794918
 20
404614.2600802661
 30
0.0
  0
VERTEX
  5
67745
  8
S-OBRYS
  6
CONTINUOUS
 10
19421.335470794918
 20
404599.69216426602
 30
0.0
  0
VERTEX
  5
67746
  8
S-OBRYS
  6
CONTINUOUS
 10
19424.248939694909
 20
404596.77931766602
 30
0.0
  0
VERTEX
  5
67747
  8
S-OBRYS
  6
CONTINUOUS
 10
19426.330025194919
 20
404595.53060286609
 30
0.0
  0
VERTEX
  5
67748
  8
S-OBRYS
  6
CONTINUOUS
 10
19427.578739994919
 20
404592.616537066
 30
0.0
  0
VERTEX
  5
67749
  8
S-OBRYS
  6
CONTINUOUS
 10
19427.578739994919
 20
404589.28824806609
 30
0.0
  0
VERTEX
  5
6774A
  8
S-OBRYS
  6
CONTINUOUS
 10
19430.492196194911
 20
404587.20626086608
 30
0.0
  0
VERTEX
  5
6774B
  8
S-OBRYS
  6
CONTINUOUS
 10
19431.740910994911
 20
404584.2934015661
 30
0.0
  0
VERTEX
  5
6774C
  8
S-OBRYS
  6
CONTINUOUS
 10
19433.82199649492
 20
404583.04348026612
 30
0.0
  0
VERTEX
  5
6774D
  8
S-OBRYS
  6
CONTINUOUS
 10
19433.82199649492
 20
404578.04984026612
 30
0.0
  0
VERTEX
  5
6774E
  8
S-OBRYS
  6
CONTINUOUS
 10
19434.654367194918
 20
404574.72034476598
 30
0.0
  0
VERTEX
  5
6774F
  8
S-OBRYS
  6
CONTINUOUS
 10
19434.654367194918
 20
404570.55756416608
 30
0.0
  0
VERTEX
  5
67750
  8
S-OBRYS
  6
CONTINUOUS
 10
19436.73545269492
 20
404568.476783466
 30
0.0
  0
VERTEX
  5
67751
  8
S-OBRYS
  6
CONTINUOUS
 10
19434.654367194918
 20
404564.3140028661
 30
0.0
  0
VERTEX
  5
67752
  8
S-OBRYS
  6
CONTINUOUS
 10
19434.654367194918
 20
404555.99086736608
 30
0.0
  0
VERTEX
  5
67753
  8
S-OBRYS
  6
CONTINUOUS
 10
19433.82199649492
 20
404551.82808676612
 30
0.0
  0
VERTEX
  5
67754
  8
S-OBRYS
  6
CONTINUOUS
 10
19433.82199649492
 20
404546.83324026607
 30
0.0
  0
VERTEX
  5
67755
  8
S-OBRYS
  6
CONTINUOUS
 10
19431.740910994911
 20
404545.58452546602
 30
0.0
  0
VERTEX
  5
67756
  8
S-OBRYS
  6
CONTINUOUS
 10
19430.492196194911
 20
404543.50373206602
 30
0.0
  0
VERTEX
  5
67757
  8
S-OBRYS
  6
CONTINUOUS
 10
19430.492196194911
 20
404539.34217066609
 30
0.0
  0
VERTEX
  5
67758
  8
S-OBRYS
  6
CONTINUOUS
 10
19431.740910994911
 20
404537.26017076598
 30
0.0
  0
VERTEX
  5
67759
  8
S-OBRYS
  6
CONTINUOUS
 10
19433.82199649492
 20
404534.34732416598
 30
0.0
  0
VERTEX
  5
6775A
  8
S-OBRYS
  6
CONTINUOUS
 10
19434.654367194918
 20
404531.01660946611
 30
0.0
  0
VERTEX
  5
6775B
  8
S-OBRYS
  6
CONTINUOUS
 10
19436.73545269492
 20
404528.10376286611
 30
0.0
  0
VERTEX
  5
6775C
  8
S-OBRYS
  6
CONTINUOUS
 10
19436.73545269492
 20
404515.61784676608
 30
0.0
  0
VERTEX
  5
6775D
  8
S-OBRYS
  6
CONTINUOUS
 10
19437.984167494909
 20
404512.28713206609
 30
0.0
  0
VERTEX
  5
6775E
  8
S-OBRYS
  6
CONTINUOUS
 10
19437.984167494909
 20
404508.1255706661
 30
0.0
  0
VERTEX
  5
6775F
  8
S-OBRYS
  6
CONTINUOUS
 10
19436.73545269492
 20
404505.21150486608
 30
0.0
  0
VERTEX
  5
67760
  8
S-OBRYS
  6
CONTINUOUS
 10
19436.73545269492
 20
404501.88200936612
 30
0.0
  0
VERTEX
  5
67761
  8
S-OBRYS
  6
CONTINUOUS
 10
19434.654367194918
 20
404498.96915006608
 30
0.0
  0
VERTEX
  5
67762
  8
S-OBRYS
  6
CONTINUOUS
 10
19434.654367194918
 20
404495.63844806608
 30
0.0
  0
VERTEX
  5
67763
  8
S-OBRYS
  6
CONTINUOUS
 10
19433.82199649492
 20
404492.72438226611
 30
0.0
  0
VERTEX
  5
67764
  8
S-OBRYS
  6
CONTINUOUS
 10
19433.82199649492
 20
404489.39609326603
 30
0.0
  0
SEQEND
  5
67765
  8
S-OBRYS
  6
CONTINUOUS
  0
LINE
  5
669A4
  8
S-OBRYS
  6
CONTINUOUS
 10
19632.720646194921
 20
404258.36731986603
 30
0.0
 11
19535.845808194921
 21
404258.36731986603
 31
0.0
  0
POLYLINE
  5
669A5
  8
S-OBRYS
  6
CONTINUOUS
 66
     1
 10
0.0
 20
0.0
 30
0.0
  0
VERTEX
  5
67766
  8
S-OBRYS
  6
CONTINUOUS
 10
19531.09470009492
 20
404508.36659126601
 30
0.0
  0
VERTEX
  5
67767
  8
S-OBRYS
  6
CONTINUOUS
 10
19531.580678294911
 20
404507.52967396611
 30
0.0
  0
VERTEX
  5
67768
  8
S-OBRYS
  6
CONTINUOUS
 10
19533.209707294918
 20
404504.81423616601
 30
0.0
  0
VERTEX
  5
67769
  8
S-OBRYS
  6
CONTINUOUS
 10
19537.010639494911
 20
404503.1864263661
 30
0.0
  0
VERTEX
  5
6776A
  8
S-OBRYS
  6
CONTINUOUS
 10
19537.010639494911
 20
404496.67036116601
 30
0.0
  0
VERTEX
  5
6776B
  8
S-OBRYS
  6
CONTINUOUS
 10
19531.580678294911
 20
404495.041332166
 30
0.0
  0
VERTEX
  5
6776C
  8
S-OBRYS
  6
CONTINUOUS
 10
19528.86585009492
 20
404492.32711356611
 30
0.0
  0
VERTEX
  5
6776D
  8
S-OBRYS
  6
CONTINUOUS
 10
19528.86585009492
 20
404474.95172286622
 30
0.0
  0
VERTEX
  5
6776E
  8
S-OBRYS
  6
CONTINUOUS
 10
19531.580678294911
 20
404470.60726876609
 30
0.0
  0
VERTEX
  5
6776F
  8
S-OBRYS
  6
CONTINUOUS
 10
19533.209707294918
 20
404464.09239736613
 30
0.0
  0
VERTEX
  5
67770
  8
S-OBRYS
  6
CONTINUOUS
 10
19533.209707294918
 20
404459.74794326612
 30
0.0
  0
VERTEX
  5
67771
  8
S-OBRYS
  6
CONTINUOUS
 10
19535.924535494909
 20
404455.94730316609
 30
0.0
  0
VERTEX
  5
67772
  8
S-OBRYS
  6
CONTINUOUS
 10
19537.010639494911
 20
404451.602861766
 30
0.0
  0
VERTEX
  5
67773
  8
S-OBRYS
  6
CONTINUOUS
 10
19535.924535494909
 20
404447.80222166609
 30
0.0
  0
VERTEX
  5
67774
  8
S-OBRYS
  6
CONTINUOUS
 10
19535.924535494909
 20
404443.45897406602
 30
0.0
  0
VERTEX
  5
67775
  8
S-OBRYS
  6
CONTINUOUS
 10
19533.209707294918
 20
404439.65833396598
 30
0.0
  0
VERTEX
  5
67776
  8
S-OBRYS
  6
CONTINUOUS
 10
19528.86585009492
 20
404435.31508636608
 30
0.0
  0
VERTEX
  5
67777
  8
S-OBRYS
  6
CONTINUOUS
 10
19527.78003819492
 20
404431.51323976601
 30
0.0
  0
VERTEX
  5
67778
  8
S-OBRYS
  6
CONTINUOUS
 10
19523.43619369491
 20
404429.8842234661
 30
0.0
  0
VERTEX
  5
67779
  8
S-OBRYS
  6
CONTINUOUS
 10
19523.43619369491
 20
404423.36814556603
 30
0.0
  0
VERTEX
  5
6777A
  8
S-OBRYS
  6
CONTINUOUS
 10
19526.151021894919
 20
404419.02489796613
 30
0.0
  0
VERTEX
  5
6777B
  8
S-OBRYS
  6
CONTINUOUS
 10
19528.86585009492
 20
404415.22425786598
 30
0.0
  0
VERTEX
  5
6777C
  8
S-OBRYS
  6
CONTINUOUS
 10
19528.86585009492
 20
404410.88102296612
 30
0.0
  0
VERTEX
  5
6777D
  8
S-OBRYS
  6
CONTINUOUS
 10
19531.580678294911
 20
404407.08038286609
 30
0.0
  0
VERTEX
  5
6777E
  8
S-OBRYS
  6
CONTINUOUS
 10
19533.209707294918
 20
404402.73592876602
 30
0.0
  0
VERTEX
  5
6777F
  8
S-OBRYS
  6
CONTINUOUS
 10
19537.010639494911
 20
404401.64950726612
 30
0.0
  0
VERTEX
  5
67780
  8
S-OBRYS
  6
CONTINUOUS
 10
19537.010639494911
 20
404386.44694686611
 30
0.0
  0
VERTEX
  5
67781
  8
S-OBRYS
  6
CONTINUOUS
 10
19533.209707294918
 20
404385.36174456612
 30
0.0
  0
VERTEX
  5
67782
  8
S-OBRYS
  6
CONTINUOUS
 10
19531.580678294911
 20
404382.64630676608
 30
0.0
  0
VERTEX
  5
67783
  8
S-OBRYS
  6
CONTINUOUS
 10
19528.86585009492
 20
404381.017290466
 30
0.0
  0
VERTEX
  5
67784
  8
S-OBRYS
  6
CONTINUOUS
 10
19526.151021894919
 20
404377.21544386609
 30
0.0
  0
VERTEX
  5
67785
  8
S-OBRYS
  6
CONTINUOUS
 10
19526.151021894919
 20
404372.87219626602
 30
0.0
  0
VERTEX
  5
67786
  8
S-OBRYS
  6
CONTINUOUS
 10
19527.78003819492
 20
404369.07155616611
 30
0.0
  0
VERTEX
  5
67787
  8
S-OBRYS
  6
CONTINUOUS
 10
19528.86585009492
 20
404362.01288346603
 30
0.0
  0
VERTEX
  5
67788
  8
S-OBRYS
  6
CONTINUOUS
 10
19533.209707294918
 20
404360.927668466
 30
0.0
  0
VERTEX
  5
67789
  8
S-OBRYS
  6
CONTINUOUS
 10
19535.924535494909
 20
404358.21224336611
 30
0.0
  0
VERTEX
  5
6778A
  8
S-OBRYS
  6
CONTINUOUS
 10
19539.725480394922
 20
404356.58321436611
 30
0.0
  0
VERTEX
  5
6778B
  8
S-OBRYS
  6
CONTINUOUS
 10
19541.354191894919
 20
404350.06835566601
 30
0.0
  0
VERTEX
  5
6778C
  8
S-OBRYS
  6
CONTINUOUS
 10
19541.354191894919
 20
404345.72390156612
 30
0.0
  0
VERTEX
  5
6778D
  8
S-OBRYS
  6
CONTINUOUS
 10
19539.725480394922
 20
404341.92326146603
 30
0.0
  0
VERTEX
  5
6778E
  8
S-OBRYS
  6
CONTINUOUS
 10
19537.010639494911
 20
404340.29424516612
 30
0.0
  0
VERTEX
  5
6778F
  8
S-OBRYS
  6
CONTINUOUS
 10
19533.209707294918
 20
404336.49360506609
 30
0.0
  0
VERTEX
  5
67790
  8
S-OBRYS
  6
CONTINUOUS
 10
19531.580678294911
 20
404333.77816726611
 30
0.0
  0
VERTEX
  5
67791
  8
S-OBRYS
  6
CONTINUOUS
 10
19526.151021894919
 20
404333.77816726611
 30
0.0
  0
VERTEX
  5
67792
  8
S-OBRYS
  6
CONTINUOUS
 10
19523.43619369491
 20
404332.15035746602
 30
0.0
  0
VERTEX
  5
67793
  8
S-OBRYS
  6
CONTINUOUS
 10
19522.350381794909
 20
404328.3497173661
 30
0.0
  0
VERTEX
  5
67794
  8
S-OBRYS
  6
CONTINUOUS
 10
19518.006537294921
 20
404325.634279566
 30
0.0
  0
VERTEX
  5
67795
  8
S-OBRYS
  6
CONTINUOUS
 10
19515.291709094919
 20
404324.00526326598
 30
0.0
  0
VERTEX
  5
67796
  8
S-OBRYS
  6
CONTINUOUS
 10
19515.291709094919
 20
404317.48918536608
 30
0.0
  0
VERTEX
  5
67797
  8
S-OBRYS
  6
CONTINUOUS
 10
19518.006537294921
 20
404315.860169066
 30
0.0
  0
VERTEX
  5
67798
  8
S-OBRYS
  6
CONTINUOUS
 10
19519.635553594919
 20
404312.05952896609
 30
0.0
  0
VERTEX
  5
67799
  8
S-OBRYS
  6
CONTINUOUS
 10
19522.350381794909
 20
404309.34409116599
 30
0.0
  0
VERTEX
  5
6779A
  8
S-OBRYS
  6
CONTINUOUS
 10
19526.151021894919
 20
404307.71629406611
 30
0.0
  0
VERTEX
  5
6779B
  8
S-OBRYS
  6
CONTINUOUS
 10
19528.86585009492
 20
404303.91565396608
 30
0.0
  0
VERTEX
  5
6779C
  8
S-OBRYS
  6
CONTINUOUS
 10
19533.209707294918
 20
404301.20021616609
 30
0.0
  0
VERTEX
  5
6779D
  8
S-OBRYS
  6
CONTINUOUS
 10
19537.010639494911
 20
404299.57119986613
 30
0.0
  0
VERTEX
  5
6779E
  8
S-OBRYS
  6
CONTINUOUS
 10
19537.010639494911
 20
404293.0563284661
 30
0.0
  0
VERTEX
  5
6779F
  8
S-OBRYS
  6
CONTINUOUS
 10
19539.725480394922
 20
404291.42610566609
 30
0.0
  0
VERTEX
  5
677A0
  8
S-OBRYS
  6
CONTINUOUS
 10
19537.010639494911
 20
404288.7118743661
 30
0.0
  0
VERTEX
  5
677A1
  8
S-OBRYS
  6
CONTINUOUS
 10
19535.924535494909
 20
404284.91123426601
 30
0.0
  0
VERTEX
  5
677A2
  8
S-OBRYS
  6
CONTINUOUS
 10
19531.580678294911
 20
404284.91123426601
 30
0.0
  0
VERTEX
  5
677A3
  8
S-OBRYS
  6
CONTINUOUS
 10
19528.86585009492
 20
404283.2822179661
 30
0.0
  0
VERTEX
  5
677A4
  8
S-OBRYS
  6
CONTINUOUS
 10
19528.86585009492
 20
404276.76614006603
 30
0.0
  0
VERTEX
  5
677A5
  8
S-OBRYS
  6
CONTINUOUS
 10
19533.209707294918
 20
404276.76614006603
 30
0.0
  0
VERTEX
  5
677A6
  8
S-OBRYS
  6
CONTINUOUS
 10
19533.209707294918
 20
404272.42290516599
 30
0.0
  0
VERTEX
  5
677A7
  8
S-OBRYS
  6
CONTINUOUS
 10
19535.924535494909
 20
404268.62226506608
 30
0.0
  0
VERTEX
  5
677A8
  8
S-OBRYS
  6
CONTINUOUS
 10
19533.209707294918
 20
404266.99323606608
 30
0.0
  0
VERTEX
  5
677A9
  8
S-OBRYS
  6
CONTINUOUS
 10
19533.209707294918
 20
404260.4771708661
 30
0.0
  0
SEQEND
  5
677AA
  8
S-OBRYS
  6
CONTINUOUS
  0
LINE
  5
669A6
  8
S-OBRYS
  6
CONTINUOUS
 10
19433.69724439492
 20
404198.01610706601
 30
0.0
 11
19433.69724439492
 21
404484.92931276601
 31
0.0
  0
LINE
  5
669A7
  8
S-OBRYS
  6
CONTINUOUS
 10
19530.181481194912
 20
404336.49238586612
 30
0.0
 11
19433.69724439492
 21
404336.49238586612
 31
0.0
  0
LINE
  5
669A8
  8
S-OBRYS
  6
CONTINUOUS
 10
19536.431405194919
 20
404286.49181276612
 30
0.0
 11
19433.69724439492
 21
404286.49181276612
 31
0.0
  0
LINE
  5
669A9
  8
S-OBRYS
  6
CONTINUOUS
 10
19433.69724439492
 20
404268.1329467661
 30
0.0
 11
19536.236409394911
 21
404268.1329467661
 31
0.0
  0
LINE
  5
669AA
  8
S-OBRYS
  6
CONTINUOUS
 10
19536.236409394911
 20
404258.17231136613
 30
0.0
 11
19433.69724439492
 21
404258.17231136613
 31
0.0
  0
LINE
  5
669AB
  8
S-OBRYS
  6
CONTINUOUS
 10
19433.69724439492
 20
404311.49270256609
 30
0.0
 11
19517.681645894922
 21
404311.49270256609
 31
0.0
  0
LINE
  5
669AC
  8
S-OBRYS
  6
CONTINUOUS
 10
19536.236409394911
 20
404268.1329467661
 30
0.0
 11
19536.236409394911
 21
404258.17231136613
 31
0.0
  0
LINE
  5
669AD
  8
S-OBRYS
  6
CONTINUOUS
 10
19530.181481194912
 20
404486.4917175661
 30
0.0
 11
19433.69724439492
 21
404486.4917175661
 31
0.0
  0
LINE
  5
669AE
  8
S-OBRYS
  6
CONTINUOUS
 10
19530.181481194912
 20
404436.49233826611
 30
0.0
 11
19433.69724439492
 21
404436.49233826611
 31
0.0
  0
LINE
  5
669AF
  8
S-OBRYS
  6
CONTINUOUS
 10
19536.431405194919
 20
404386.4929716661
 30
0.0
 11
19433.69724439492
 21
404386.4929716661
 31
0.0
  0
LINE
  5
669B0
  8
S-OBRYS
  6
CONTINUOUS
 10
19438.384763594921
 20
404508.36659126601
 30
0.0
 11
19534.283403394918
 21
404508.36659126601
 31
0.0
  0
LINE
  5
669B1
  8
S-OBRYS
  6
CONTINUOUS
 10
19433.69724439492
 20
404361.49208186608
 30
0.0
 11
19530.181481194912
 21
404361.49208186608
 31
0.0
  0
LINE
  5
669B2
  8
S-OBRYS
  6
CONTINUOUS
 10
19433.69724439492
 20
404411.49265496607
 30
0.0
 11
19530.181481194912
 21
404411.49265496607
 31
0.0
  0
LINE
  5
669B3
  8
S-OBRYS
  6
CONTINUOUS
 10
19433.69724439492
 20
404461.49324076599
 30
0.0
 11
19530.181481194912
 21
404461.49324076599
 31
0.0
  0
LINE
  5
669B4
  8
S-OBRYS
  6
CONTINUOUS
 10
19639.360256994911
 20
404661.49193906609
 30
0.0
 11
19427.34437419492
 21
404661.49193906609
 31
0.0
  0
LINE
  5
669B5
  8
S-OBRYS
  6
CONTINUOUS
 10
19659.283039094909
 20
404711.49251216598
 30
0.0
 11
19434.67405219491
 21
404711.49251216598
 31
0.0
  0
LINE
  5
669B6
  8
S-OBRYS
  6
CONTINUOUS
 10
19433.306643194919
 20
404711.49251216598
 30
0.0
 11
19433.306643194908
 21
404801.4927812661
 31
0.0
  0
LINE
  5
669B7
  8
S-OBRYS
  6
CONTINUOUS
 10
19534.283403394918
 20
404711.49251216598
 30
0.0
 11
19534.283403394918
 21
404801.4927812661
 31
0.0
  0
LINE
  5
669B8
  8
S-OBRYS
  6
CONTINUOUS
 10
22607.550455602319
 20
404536.26913411758
 30
0.0
 11
22957.257445297251
 21
404536.26913411758
 31
0.0
  0
LINE
  5
669B9
  8
S-OBRYS
  6
CONTINUOUS
 10
22609.939288538149
 20
404486.2685483176
 30
0.0
 11
22966.278014888299
 21
404486.2685483176
 31
0.0
  0
LINE
  5
669BA
  8
S-OBRYS
  6
CONTINUOUS
 10
22615.911130938759
 20
404436.26797521749
 30
0.0
 11
22961.475864737371
 21
404436.26797521749
 31
0.0
  0
LINE
  5
669BB
  8
S-OBRYS
  6
CONTINUOUS
 10
22615.91113093877
 20
404386.2685959175
 30
0.0
 11
22962.575829436759
 21
404386.2685959175
 31
0.0
  0
LINE
  5
669BC
  8
S-OBRYS
  6
CONTINUOUS
 10
22062.7799470383
 20
403461.26813451748
 30
0.0
 11
23066.998768438301
 21
403461.26813451748
 31
0.0
  0
LINE
  5
669BD
  8
S-OBRYS
  6
CONTINUOUS
 10
23066.998768438301
 20
403411.2681583176
 30
0.0
 11
22062.7799470383
 21
403411.2681583176
 31
0.0
  0
LINE
  5
669BE
  8
S-OBRYS
  6
CONTINUOUS
 10
23041.998475538301
 20
404361.26770611748
 30
0.0
 11
22766.998301638301
 21
404361.26770611748
 31
0.0
  0
LINE
  5
669BF
  8
S-OBRYS
  6
CONTINUOUS
 10
21921.3740467383
 20
404136.49702281749
 30
0.0
 11
23066.998768438301
 21
404036.26816561748
 31
0.0
  0
LINE
  5
669C0
  8
S-OBRYS
  6
CONTINUOUS
 10
23062.640992038301
 20
403986.45773691748
 30
0.0
 11
21917.0174768383
 21
404086.68780061748
 31
0.0
  0
LINE
  5
669C1
  8
S-OBRYS
  6
CONTINUOUS
 10
22603.497909888301
 20
404586.26850071747
 30
0.0
 11
22958.498693388308
 21
404586.26850071747
 31
0.0
  0
LINE
  5
669C2
  8
S-OBRYS
  6
CONTINUOUS
 10
22958.498693388308
 20
404861.26867461752
 30
0.0
 11
22603.497909888301
 21
404861.26867461752
 31
0.0
  0
LINE
  5
669C3
  8
S-OBRYS
  6
CONTINUOUS
 10
22973.729104888309
 20
404411.26827921747
 30
0.0
 11
22600.229148042421
 21
404411.26827921747
 31
0.0
  0
LINE
  5
669C4
  8
S-OBRYS
  6
CONTINUOUS
 10
22954.123352888299
 20
404461.26886501751
 30
0.0
 11
22598.130590367458
 21
404461.5039595277
 31
0.0
  0
LINE
  5
669C5
  8
S-OBRYS
  6
CONTINUOUS
 10
23034.186451538299
 20
404201.89273911749
 30
0.0
 11
22013.8738490383
 21
404233.14326081751
 31
0.0
  0
LINE
  5
669C6
  8
S-OBRYS
  6
CONTINUOUS
 10
22662.311134838299
 20
404323.76756521763
 30
0.0
 11
22973.249032138301
 21
404323.76756521763
 31
0.0
  0
LINE
  5
669C7
  8
S-OBRYS
  6
CONTINUOUS
 10
22973.249032138301
 20
404253.45572971762
 30
0.0
 11
22359.186468038301
 21
404262.83015851758
 31
0.0
  0
LINE
  5
669C8
  8
S-OBRYS
  6
CONTINUOUS
 10
22013.8738490383
 20
404233.14326081751
 30
0.0
 11
22591.998080138299
 21
404361.26770611748
 31
0.0
  0
LINE
  5
669C9
  8
S-OBRYS
  6
CONTINUOUS
 10
22187.779582738302
 20
403311.2682059175
 30
0.0
 11
22062.7799470383
 21
403311.2682059175
 31
0.0
  0
LINE
  5
669CA
  8
S-OBRYS
  6
CONTINUOUS
 10
22112.7799232383
 20
403336.26788921747
 30
0.0
 11
22062.7799470383
 21
403336.26788921747
 31
0.0
  0
LINE
  5
669CB
  8
S-OBRYS
  6
CONTINUOUS
 10
22012.779361238299
 20
403311.2682059175
 30
0.0
 11
22012.779361238299
 21
403711.26861241751
 31
0.0
  0
LINE
  5
669CC
  8
S-OBRYS
  6
CONTINUOUS
 10
22062.7799470383
 20
403711.26861241751
 30
0.0
 11
22062.7799470383
 21
403336.26788921747
 31
0.0
  0
LINE
  5
669CD
  8
S-OBRYS
  6
CONTINUOUS
 10
22012.779970838292
 20
403336.26788921747
 30
0.0
 11
22062.7799470383
 21
403336.26788921747
 31
0.0
  0
LINE
  5
669CE
  8
S-OBRYS
  6
CONTINUOUS
 10
22062.7799470383
 20
403311.2682059175
 30
0.0
 11
22012.779361238299
 21
403311.2682059175
 31
0.0
  0
LINE
  5
669CF
  8
S-OBRYS
  6
CONTINUOUS
 10
21858.098035085961
 20
403956.14855810878
 30
0.0
 11
21816.82403787956
 21
403816.99316628731
 31
0.0
  0
LINE
  5
669D0
  8
S-OBRYS
  6
CONTINUOUS
 10
21816.82403787956
 20
403816.99316628731
 30
0.0
 11
21904.972604785959
 21
403931.1488748088
 31
0.0
  0
LINE
  5
669D1
  8
S-OBRYS
  6
CONTINUOUS
 10
22019.4783254883
 20
403905.01648501749
 30
0.0
 11
22062.779940688299
 21
403930.01737481757
 31
0.0
  0
POLYLINE
  5
669D2
  8
S-OBRYS
  6
CONTINUOUS
 66
     1
 10
0.0
 20
0.0
 30
0.0
 70
     1
  0
VERTEX
  5
677AB
  8
S-OBRYS
  6
CONTINUOUS
 10
22025.279812488301
 20
403711.26861241751
 30
0.0
  0
VERTEX
  5
677AC
  8
S-OBRYS
  6
CONTINUOUS
 10
22025.279812488301
 20
403811.2685648175
 30
0.0
  0
VERTEX
  5
677AD
  8
S-OBRYS
  6
CONTINUOUS
 10
22050.279495788302
 20
403811.2685648175
 30
0.0
  0
VERTEX
  5
677AE
  8
S-OBRYS
  6
CONTINUOUS
 10
22050.279495788302
 20
403711.26861241751
 30
0.0
  0
VERTEX
  5
677AF
  8
S-OBRYS
  6
CONTINUOUS
 10
22025.279812488301
 20
403711.26861241751
 30
0.0
  0
SEQEND
  5
677B0
  8
S-OBRYS
  6
CONTINUOUS
  0
LINE
  5
669D3
  8
S-OBRYS
  6
CONTINUOUS
 10
22012.779361238299
 20
403711.26861241751
 30
0.0
 11
22062.7799470383
 21
403711.26861241751
 31
0.0
  0
POLYLINE
  5
669D4
  8
S-OBRYS
  6
CONTINUOUS
 66
     1
 10
0.0
 20
0.0
 30
0.0
 70
     1
  0
VERTEX
  5
677B1
  8
S-OBRYS
  6
CONTINUOUS
 10
22012.779354888298
 20
403811.2685648175
 30
0.0
  0
VERTEX
  5
677B2
  8
S-OBRYS
  6
CONTINUOUS
 10
22012.779354888298
 20
403861.26915061747
 30
0.0
  0
VERTEX
  5
677B3
  8
S-OBRYS
  6
CONTINUOUS
 10
22062.779940688299
 20
403861.26915061747
 30
0.0
  0
VERTEX
  5
677B4
  8
S-OBRYS
  6
CONTINUOUS
 10
22062.779940688299
 20
403811.2685648175
 30
0.0
  0
VERTEX
  5
677B5
  8
S-OBRYS
  6
CONTINUOUS
 10
22012.779354888298
 20
403811.2685648175
 30
0.0
  0
SEQEND
  5
677B6
  8
S-OBRYS
  6
CONTINUOUS
  0
LINE
  5
669D5
  8
S-OBRYS
  6
CONTINUOUS
 10
22019.029583688301
 20
403861.26915061747
 30
0.0
 11
22062.779940688299
 21
403880.01680171757
 31
0.0
  0
LINE
  5
669D6
  8
S-OBRYS
  6
CONTINUOUS
 10
22062.779940688299
 20
403880.01680171757
 30
0.0
 11
22019.4783254883
 21
403905.01648501749
 31
0.0
  0
LINE
  5
669D7
  8
S-OBRYS
  6
CONTINUOUS
 10
21914.347630485961
 20
403924.89925560879
 30
0.0
 11
21848.722399785958
 21
403962.3993965087
 31
0.0
  0
LINE
  5
669D8
  8
S-OBRYS
  6
CONTINUOUS
 10
21914.347630485961
 20
403943.64811320882
 30
0.0
 11
21867.472463885959
 21
403968.64901570871
 31
0.0
  0
LINE
  5
669D9
  8
S-OBRYS
  6
CONTINUOUS
 10
21867.472463885959
 20
403968.64901570871
 30
0.0
 11
21926.373744638298
 21
404086.26753221749
 31
0.0
  0
LINE
  5
669DA
  8
S-OBRYS
  6
CONTINUOUS
 10
21848.722399785958
 20
403962.3993965087
 30
0.0
 11
21858.098035085961
 21
403974.89863490878
 31
0.0
  0
LINE
  5
669DB
  8
S-OBRYS
  6
CONTINUOUS
 10
21858.098035085961
 20
403974.89863490878
 30
0.0
 11
21867.472463885959
 21
403968.64901570871
 31
0.0
  0
LINE
  5
669DC
  8
S-OBRYS
  6
CONTINUOUS
 10
22062.779940688299
 20
404030.01854641747
 30
0.0
 11
22012.779354888298
 21
404030.01854641747
 31
0.0
  0
LINE
  5
669DD
  8
S-OBRYS
  6
CONTINUOUS
 10
21985.748746538298
 20
404080.01791301748
 30
0.0
 11
21914.347630485961
 21
403943.64811320882
 31
0.0
  0
LINE
  5
669DE
  8
S-OBRYS
  6
CONTINUOUS
 10
21914.347630485961
 20
403943.64811320882
 30
0.0
 11
21920.597859285961
 21
403937.39849400881
 31
0.0
  0
LINE
  5
669DF
  8
S-OBRYS
  6
CONTINUOUS
 10
21920.597859285961
 20
403937.39849400881
 30
0.0
 11
21914.347630485961
 21
403924.89925560879
 31
0.0
  0
LINE
  5
669E0
  8
S-OBRYS
  6
CONTINUOUS
 10
22012.779354888298
 20
404030.01854641747
 30
0.0
 11
22012.779354888298
 21
404078.3096388483
 31
0.0
  0
LINE
  5
669E1
  8
S-OBRYS
  6
CONTINUOUS
 10
22062.779940688299
 20
403980.01796061749
 30
0.0
 11
22019.4783254883
 21
404005.01764391758
 31
0.0
  0
LINE
  5
669E2
  8
S-OBRYS
  6
CONTINUOUS
 10
22062.779940688299
 20
403930.01737481757
 30
0.0
 11
22019.4783254883
 21
403955.01827731752
 31
0.0
  0
LINE
  5
669E3
  8
S-OBRYS
  6
CONTINUOUS
 10
22019.4783254883
 20
403955.01827731752
 30
0.0
 11
22062.779940688299
 21
403980.01796061749
 31
0.0
  0
LINE
  5
669E4
  8
S-OBRYS
  6
CONTINUOUS
 10
22019.4783254883
 20
404005.01764391758
 30
0.0
 11
22062.779940688299
 21
404030.01854641747
 31
0.0
  0
LINE
  5
669E5
  8
S-OBRYS
  6
CONTINUOUS
 10
22062.779940688299
 20
404073.76829381759
 30
0.0
 11
22062.779940688299
 21
404030.01854641747
 31
0.0
  0
LINE
  5
669E6
  8
S-OBRYS
  6
CONTINUOUS
 10
21967.214604440171
 20
404132.48650643742
 30
0.0
 11
22013.8738490383
 21
404233.14326081751
 31
0.0
  0
LINE
  5
669E7
  8
S-OBRYS
  6
CONTINUOUS
 10
21917.0174768383
 20
404086.68780061748
 30
0.0
 11
21921.374656338299
 21
404136.49702281749
 31
0.0
  0
LINE
  5
669E8
  8
S-OBRYS
  6
CONTINUOUS
 10
22187.779582738302
 20
403336.26788921747
 30
0.0
 11
22187.779582738302
 21
403311.2682059175
 31
0.0
  0
LINE
  5
669E9
  8
S-OBRYS
  6
CONTINUOUS
 10
22112.7799232383
 20
403336.26788921747
 30
0.0
 11
22187.779582738302
 21
403336.26788921747
 31
0.0
  0
LINE
  5
669EA
  8
S-OBRYS
  6
CONTINUOUS
 10
22780.998301638301
 20
404311.2683268176
 30
0.0
 11
22780.998301638301
 21
404959.76996086712
 31
0.0
  0
LINE
  5
669EB
  8
S-OBRYS
  6
CONTINUOUS
 10
22359.186468038301
 20
404262.83015851758
 30
0.0
 11
22662.311134838299
 21
404323.76756521763
 31
0.0
  0
LINE
  5
669EC
  8
S-OBRYS
  6
CONTINUOUS
 10
22603.497909888301
 20
404861.26867461752
 30
0.0
 11
22603.497909888301
 21
404586.26850071747
 31
0.0
  0
LINE
  5
669ED
  8
S-OBRYS
  6
CONTINUOUS
 10
22591.998080138299
 20
404361.26770611748
 30
0.0
 11
22780.998301638301
 21
404361.26770611748
 31
0.0
  0
LINE
  5
669EE
  8
S-OBRYS
  6
CONTINUOUS
 10
23365.8268220383
 20
404143.10393111763
 30
0.0
 11
23116.998744638298
 21
404303.54351371748
 31
0.0
  0
LINE
  5
669EF
  8
S-OBRYS
  6
CONTINUOUS
 10
23116.998744638298
 20
403336.26788921747
 30
0.0
 11
23116.998744638298
 21
404811.26808881748
 31
0.0
  0
LINE
  5
669F0
  8
S-OBRYS
  6
CONTINUOUS
 10
23066.998768438301
 20
404811.26808881748
 30
0.0
 11
23066.998768438301
 21
403311.2682059175
 31
0.0
  0
LINE
  5
669F1
  8
S-OBRYS
  6
CONTINUOUS
 10
23366.998625638302
 20
404000.46080826782
 30
0.0
 11
23366.998625638302
 21
404336.26922931749
 31
0.0
  0
LINE
  5
669F2
  8
S-OBRYS
  6
CONTINUOUS
 10
23455.468107566241
 20
403904.00455756602
 30
0.0
 11
23591.998530438301
 21
403761.2686013176
 31
0.0
  0
LINE
  5
669F3
  8
S-OBRYS
  6
CONTINUOUS
 10
23591.998823338301
 20
403586.2683798176
 30
0.0
 11
23416.998918538298
 21
403586.2683798176
 31
0.0
  0
LINE
  5
669F4
  8
S-OBRYS
  6
CONTINUOUS
 10
23416.998918538298
 20
403361.26818211761
 30
0.0
 11
23541.9988471383
 21
403361.26818211761
 31
0.0
  0
LINE
  5
669F5
  8
S-OBRYS
  6
CONTINUOUS
 10
23629.131069838299
 20
403798.40053111757
 30
0.0
 11
23416.998918538298
 21
403586.2683798176
 31
0.0
  0
LINE
  5
669F6
  8
S-OBRYS
  6
CONTINUOUS
 10
23487.709838838298
 20
403939.82238441758
 30
0.0
 11
23629.131069838299
 21
403798.40053111757
 31
0.0
  0
LINE
  5
669F7
  8
S-OBRYS
  6
CONTINUOUS
 10
23579.498682438301
 20
403748.76814371761
 30
0.0
 11
23443.61148529686
 21
403890.832856583
 31
0.0
  0
LINE
  5
669F8
  8
S-OBRYS
  6
CONTINUOUS
 10
23416.998918538298
 20
403716.8246446338
 30
0.0
 11
23591.998530438301
 21
403911.26792031759
 31
0.0
  0
LINE
  5
669F9
  8
S-OBRYS
  6
CONTINUOUS
 10
23416.998601838299
 20
403411.2681583176
 30
0.0
 11
23541.9988471383
 21
403411.2681583176
 31
0.0
  0
LINE
  5
669FA
  8
S-OBRYS
  6
CONTINUOUS
 10
23191.9984041383
 20
403336.26788921747
 30
0.0
 11
23191.9984041383
 21
403969.79269365658
 31
0.0
  0
LINE
  5
669FB
  8
S-OBRYS
  6
CONTINUOUS
 10
23416.998918538298
 20
403913.87336488481
 30
0.0
 11
23416.998918538298
 21
403311.2682059175
 31
0.0
  0
LINE
  5
669FC
  8
S-OBRYS
  6
CONTINUOUS
 10
23193.561418538298
 20
403311.2682059175
 30
0.0
 11
23115.436339838299
 21
403311.2682059175
 31
0.0
  0
LINE
  5
669FD
  8
S-OBRYS
  6
CONTINUOUS
 10
23166.998720838292
 20
403336.26788921747
 30
0.0
 11
23116.998744638298
 21
403336.26788921747
 31
0.0
  0
LINE
  5
669FE
  8
S-OBRYS
  6
CONTINUOUS
 10
23116.998744638298
 20
403461.26813451748
 30
0.0
 11
23191.9984041383
 21
403461.26813451748
 31
0.0
  0
LINE
  5
669FF
  8
S-OBRYS
  6
CONTINUOUS
 10
23191.9984041383
 20
403411.2681583176
 30
0.0
 11
23116.998744638298
 21
403411.2681583176
 31
0.0
  0
LINE
  5
66A00
  8
S-OBRYS
  6
CONTINUOUS
 10
23066.998768438301
 20
403311.2682059175
 30
0.0
 11
23116.998744638298
 21
403311.2682059175
 31
0.0
  0
LINE
  5
66A01
  8
S-OBRYS
  6
CONTINUOUS
 10
23066.998768438301
 20
403336.26788921747
 30
0.0
 11
23118.561149438308
 21
403336.26788921747
 31
0.0
  0
LINE
  5
66A02
  8
S-OBRYS
  6
CONTINUOUS
 10
23416.998918538298
 20
403336.26788921747
 30
0.0
 11
23166.998720838292
 21
403336.26788921747
 31
0.0
  0
LINE
  5
66A03
  8
S-OBRYS
  6
CONTINUOUS
 10
23416.998918538298
 20
403311.2682059175
 30
0.0
 11
23191.9984041383
 21
403311.2682059175
 31
0.0
  0
LINE
  5
66A04
  8
S-OBRYS
  6
CONTINUOUS
 10
23191.9984041383
 20
403461.26813451748
 30
0.0
 11
23191.9984041383
 21
403411.2681583176
 31
0.0
  0
POLYLINE
  5
66A05
  8
S-OBRYS
  6
CONTINUOUS
 66
     1
 10
0.0
 20
0.0
 30
0.0
 70
     1
  0
VERTEX
  5
677B7
  8
S-OBRYS
  6
CONTINUOUS
 10
23391.998918538298
 20
403461.26813451748
 30
0.0
  0
VERTEX
  5
677B8
  8
S-OBRYS
  6
CONTINUOUS
 10
23391.998918538298
 20
403411.2681583176
 30
0.0
  0
VERTEX
  5
677B9
  8
S-OBRYS
  6
CONTINUOUS
 10
23416.998601838299
 20
403411.2681583176
 30
0.0
  0
VERTEX
  5
677BA
  8
S-OBRYS
  6
CONTINUOUS
 10
23416.998601838299
 20
403461.26813451748
 30
0.0
  0
VERTEX
  5
677BB
  8
S-OBRYS
  6
CONTINUOUS
 10
23391.998918538298
 20
403461.26813451748
 30
0.0
  0
SEQEND
  5
677BC
  8
S-OBRYS
  6
CONTINUOUS
  0
LINE
  5
66A06
  8
S-OBRYS
  6
CONTINUOUS
 10
23116.8085875383
 20
404028.12670361763
 30
0.0
 11
23370.2148752383
 21
404000.10515691747
 31
0.0
  0
LINE
  5
66A07
  8
S-OBRYS
  6
CONTINUOUS
 10
23368.3230324383
 20
403950.29472821747
 30
0.0
 11
23116.998744638298
 21
403978.08615091757
 31
0.0
  0
LINE
  5
66A08
  8
S-OBRYS
  6
CONTINUOUS
 10
23365.8268220383
 20
404143.10393111763
 30
0.0
 11
23119.537957238299
 21
404197.40052051749
 31
0.0
  0
LINE
  5
66A09
  8
S-OBRYS
  6
CONTINUOUS
 10
22981.647262738301
 20
403992.90840981749
 30
0.0
 11
23034.186451538299
 21
404201.89273911749
 31
0.0
  0
LINE
  5
66A0A
  8
S-OBRYS
  6
CONTINUOUS
 10
23416.998918538298
 20
403861.26855371759
 30
0.0
 11
23487.709838838298
 21
403939.82238441758
 31
0.0
  0
LINE
  5
66A0B
  8
S-OBRYS
  6
CONTINUOUS
 10
23426.054300994871
 20
403993.93045979092
 30
0.0
 11
23370.2148752383
 21
404000.10515691747
 31
0.0
  0
LINE
  5
66A0C
  8
S-OBRYS
  6
CONTINUOUS
 10
23416.985384563519
 20
403944.91369301261
 30
0.0
 11
23416.998918538298
 21
403913.87336488481
 31
0.0
  0
LINE
  5
66A0D
  8
S-OBRYS
  6
CONTINUOUS
 10
23420.244893757841
 20
403944.55325803702
 30
0.0
 11
23426.323584830989
 21
403993.90068251238
 31
0.0
  0
LINE
  5
66A0E
  8
S-OBRYS
  6
CONTINUOUS
 10
23541.9988471383
 20
403411.2681583176
 30
0.0
 11
23591.998823338301
 21
403586.2683798176
 31
0.0
  0
LINE
  5
66A0F
  8
S-OBRYS
  6
CONTINUOUS
 10
23541.9988471383
 20
403361.26818211761
 30
0.0
 11
23541.9988471383
 21
403411.2681583176
 31
0.0
  0
LINE
  5
66A10
  8
S-OBRYS
  6
CONTINUOUS
 10
23516.9985542383
 20
403686.26833221753
 30
0.0
 11
23566.998530438301
 21
403586.2683798176
 31
0.0
  0
LINE
  5
66A11
  8
S-OBRYS
  6
CONTINUOUS
 10
23191.9984041383
 20
404311.2683268176
 30
0.0
 11
23191.9984041383
 21
404956.69377775659
 31
0.0
  0
LINE
  5
66A12
  8
S-OBRYS
  6
CONTINUOUS
 10
23266.9986732383
 20
404561.26761091751
 30
0.0
 11
23116.998744638298
 21
404561.26761091751
 31
0.0
  0
LINE
  5
66A13
  8
S-OBRYS
  6
CONTINUOUS
 10
23366.998625638302
 20
404336.26922931749
 30
0.0
 11
23116.998744638298
 21
404336.26922931749
 31
0.0
  0
LINE
  5
66A14
  8
S-OBRYS
  6
CONTINUOUS
 10
23116.998744638298
 20
404786.26840551762
 30
0.0
 11
23268.9986732383
 21
404786.26840551762
 31
0.0
  0
LINE
  5
66A15
  8
S-OBRYS
  6
CONTINUOUS
 10
23268.9986732383
 20
404861.26867461752
 30
0.0
 11
23116.998744638298
 21
404861.26867461752
 31
0.0
  0
POLYLINE
  5
66A16
  8
S-OBRYS
  6
CONTINUOUS
 66
     1
 10
0.0
 20
0.0
 30
0.0
 70
     1
  0
VERTEX
  5
677BD
  8
S-OBRYS
  6
CONTINUOUS
 10
22991.9984993383
 20
404836.26778481749
 30
0.0
  0
VERTEX
  5
677BE
  8
S-OBRYS
  6
CONTINUOUS
 10
22991.9984993383
 20
404811.26808881748
 30
0.0
  0
VERTEX
  5
677BF
  8
S-OBRYS
  6
CONTINUOUS
 10
23141.998427938299
 20
404811.26808881748
 30
0.0
  0
VERTEX
  5
677C0
  8
S-OBRYS
  6
CONTINUOUS
 10
23141.998427938299
 20
404836.26778481749
 30
0.0
  0
VERTEX
  5
677C1
  8
S-OBRYS
  6
CONTINUOUS
 10
22991.9984993383
 20
404836.26778481749
 30
0.0
  0
SEQEND
  5
677C2
  8
S-OBRYS
  6
CONTINUOUS
  0
POLYLINE
  5
66A17
  8
S-OBRYS
  6
CONTINUOUS
 66
     1
 10
0.0
 20
0.0
 30
0.0
  0
VERTEX
  5
677C3
  8
S-OBRYS
  6
CONTINUOUS
 10
23117.719990338301
 20
404786.41011211759
 30
0.0
  0
VERTEX
  5
677C4
  8
S-OBRYS
  6
CONTINUOUS
 10
23119.3459840383
 20
404783.69952571747
 30
0.0
  0
VERTEX
  5
677C5
  8
S-OBRYS
  6
CONTINUOUS
 10
23122.056570438301
 20
404782.07292241749
 30
0.0
  0
VERTEX
  5
677C6
  8
S-OBRYS
  6
CONTINUOUS
 10
23123.140566238311
 20
404778.27955941763
 30
0.0
  0
VERTEX
  5
677C7
  8
S-OBRYS
  6
CONTINUOUS
 10
23123.140566238311
 20
404773.94236971752
 30
0.0
  0
VERTEX
  5
677C8
  8
S-OBRYS
  6
CONTINUOUS
 10
23122.056570438301
 20
404767.43718841748
 30
0.0
  0
VERTEX
  5
677C9
  8
S-OBRYS
  6
CONTINUOUS
 10
23122.056570438301
 20
404751.17486381758
 30
0.0
  0
VERTEX
  5
677CA
  8
S-OBRYS
  6
CONTINUOUS
 10
23119.3459840383
 20
404749.54826051748
 30
0.0
  0
VERTEX
  5
677CB
  8
S-OBRYS
  6
CONTINUOUS
 10
23119.3459840383
 20
404738.70832791761
 30
0.0
  0
VERTEX
  5
677CC
  8
S-OBRYS
  6
CONTINUOUS
 10
23122.056570438301
 20
404734.91252651758
 30
0.0
  0
VERTEX
  5
677CD
  8
S-OBRYS
  6
CONTINUOUS
 10
23122.056570438301
 20
404730.57655601751
 30
0.0
  0
VERTEX
  5
677CE
  8
S-OBRYS
  6
CONTINUOUS
 10
23125.851152638301
 20
404729.49135371752
 30
0.0
  0
VERTEX
  5
677CF
  8
S-OBRYS
  6
CONTINUOUS
 10
23127.4771463383
 20
404726.78197381762
 30
0.0
  0
VERTEX
  5
677D0
  8
S-OBRYS
  6
CONTINUOUS
 10
23128.5611421383
 20
404722.44478411757
 30
0.0
  0
VERTEX
  5
677D1
  8
S-OBRYS
  6
CONTINUOUS
 10
23128.5611421383
 20
404706.1836660176
 30
0.0
  0
VERTEX
  5
677D2
  8
S-OBRYS
  6
CONTINUOUS
 10
23127.4771463383
 20
404700.76248051762
 30
0.0
  0
VERTEX
  5
677D3
  8
S-OBRYS
  6
CONTINUOUS
 10
23125.851152638301
 20
404698.0518941175
 30
0.0
  0
VERTEX
  5
677D4
  8
S-OBRYS
  6
CONTINUOUS
 10
23123.140566238311
 20
404694.25731191749
 30
0.0
  0
VERTEX
  5
677D5
  8
S-OBRYS
  6
CONTINUOUS
 10
23122.056570438301
 20
404689.92012221762
 30
0.0
  0
VERTEX
  5
677D6
  8
S-OBRYS
  6
CONTINUOUS
 10
23122.056570438301
 20
404684.5001559176
 30
0.0
  0
VERTEX
  5
677D7
  8
S-OBRYS
  6
CONTINUOUS
 10
23119.3459840383
 20
404680.70557371748
 30
0.0
  0
VERTEX
  5
677D8
  8
S-OBRYS
  6
CONTINUOUS
 10
23119.3459840383
 20
404669.8632027175
 30
0.0
  0
VERTEX
  5
677D9
  8
S-OBRYS
  6
CONTINUOUS
 10
23122.056570438301
 20
404668.23781861749
 30
0.0
  0
VERTEX
  5
677DA
  8
S-OBRYS
  6
CONTINUOUS
 10
23123.140566238311
 20
404664.4432364176
 30
0.0
  0
VERTEX
  5
677DB
  8
S-OBRYS
  6
CONTINUOUS
 10
23125.851152638301
 20
404661.73265001748
 30
0.0
  0
VERTEX
  5
677DC
  8
S-OBRYS
  6
CONTINUOUS
 10
23125.851152638301
 20
404657.39546031749
 30
0.0
  0
VERTEX
  5
677DD
  8
S-OBRYS
  6
CONTINUOUS
 10
23128.5611421383
 20
404653.60208461748
 30
0.0
  0
VERTEX
  5
677DE
  8
S-OBRYS
  6
CONTINUOUS
 10
23128.5611421383
 20
404649.26489491749
 30
0.0
  0
VERTEX
  5
677DF
  8
S-OBRYS
  6
CONTINUOUS
 10
23131.271728538301
 20
404645.47031271749
 30
0.0
  0
VERTEX
  5
677E0
  8
S-OBRYS
  6
CONTINUOUS
 10
23131.271728538301
 20
404641.13434221759
 30
0.0
  0
VERTEX
  5
677E1
  8
S-OBRYS
  6
CONTINUOUS
 10
23132.8977222383
 20
404637.33976001758
 30
0.0
  0
VERTEX
  5
677E2
  8
S-OBRYS
  6
CONTINUOUS
 10
23131.271728538301
 20
404633.00257031748
 30
0.0
  0
VERTEX
  5
677E3
  8
S-OBRYS
  6
CONTINUOUS
 10
23128.5611421383
 20
404629.20919461758
 30
0.0
  0
VERTEX
  5
677E4
  8
S-OBRYS
  6
CONTINUOUS
 10
23128.5611421383
 20
404624.87200491759
 30
0.0
  0
VERTEX
  5
677E5
  8
S-OBRYS
  6
CONTINUOUS
 10
23127.4771463383
 20
404619.45083211758
 30
0.0
  0
VERTEX
  5
677E6
  8
S-OBRYS
  6
CONTINUOUS
 10
23125.851152638301
 20
404616.74145221763
 30
0.0
  0
VERTEX
  5
677E7
  8
S-OBRYS
  6
CONTINUOUS
 10
23123.140566238311
 20
404612.94565081748
 30
0.0
  0
VERTEX
  5
677E8
  8
S-OBRYS
  6
CONTINUOUS
 10
23122.056570438301
 20
404608.60968031752
 30
0.0
  0
VERTEX
  5
677E9
  8
S-OBRYS
  6
CONTINUOUS
 10
23119.3459840383
 20
404604.81509811751
 30
0.0
  0
VERTEX
  5
677EA
  8
S-OBRYS
  6
CONTINUOUS
 10
23117.719990338301
 20
404600.47790841758
 30
0.0
  0
VERTEX
  5
677EB
  8
S-OBRYS
  6
CONTINUOUS
 10
23117.719990338301
 20
404595.05794211762
 30
0.0
  0
VERTEX
  5
677EC
  8
S-OBRYS
  6
CONTINUOUS
 10
23119.3459840383
 20
404591.2633599175
 30
0.0
  0
VERTEX
  5
677ED
  8
S-OBRYS
  6
CONTINUOUS
 10
23122.056570438301
 20
404588.55276081752
 30
0.0
  0
VERTEX
  5
677EE
  8
S-OBRYS
  6
CONTINUOUS
 10
23122.056570438301
 20
404584.21679031762
 30
0.0
  0
VERTEX
  5
677EF
  8
S-OBRYS
  6
CONTINUOUS
 10
23125.851152638301
 20
404583.13158801751
 30
0.0
  0
VERTEX
  5
677F0
  8
S-OBRYS
  6
CONTINUOUS
 10
23125.851152638301
 20
404567.95324651751
 30
0.0
  0
VERTEX
  5
677F1
  8
S-OBRYS
  6
CONTINUOUS
 10
23123.140566238311
 20
404564.1598708175
 30
0.0
  0
SEQEND
  5
677F2
  8
S-OBRYS
  6
CONTINUOUS
  0
POLYLINE
  5
66A18
  8
S-OBRYS
  6
CONTINUOUS
 66
     1
 10
0.0
 20
0.0
 30
0.0
 70
     1
  0
VERTEX
  5
677F3
  8
S-OBRYS
  6
CONTINUOUS
 10
22941.9985231383
 20
404861.26867461752
 30
0.0
  0
VERTEX
  5
677F4
  8
S-OBRYS
  6
CONTINUOUS
 10
22941.9985231383
 20
404411.26827921747
 30
0.0
  0
VERTEX
  5
677F5
  8
S-OBRYS
  6
CONTINUOUS
 10
22991.9984993383
 20
404411.26827921747
 30
0.0
  0
VERTEX
  5
677F6
  8
S-OBRYS
  6
CONTINUOUS
 10
22991.9984993383
 20
404861.26867461752
 30
0.0
  0
VERTEX
  5
677F7
  8
S-OBRYS
  6
CONTINUOUS
 10
22941.9985231383
 20
404861.26867461752
 30
0.0
  0
SEQEND
  5
677F8
  8
S-OBRYS
  6
CONTINUOUS
  0
LINE
  5
66A19
  8
S-OBRYS
  6
CONTINUOUS
 10
22958.498693388308
 20
404586.26850071747
 30
0.0
 11
22958.498693388308
 21
404811.26808881748
 31
0.0
  0
POLYLINE
  5
66A1A
  8
S-OBRYS
  6
CONTINUOUS
 66
     1
 10
0.0
 20
0.0
 30
0.0
  0
VERTEX
  5
677F9
  8
S-OBRYS
  6
CONTINUOUS
 10
22957.990604488299
 20
404587.27013701748
 30
0.0
  0
VERTEX
  5
677FA
  8
S-OBRYS
  6
CONTINUOUS
 10
22959.648094188309
 20
404583.40288541763
 30
0.0
  0
VERTEX
  5
677FB
  8
S-OBRYS
  6
CONTINUOUS
 10
22962.41076328831
 20
404580.64021631749
 30
0.0
  0
VERTEX
  5
677FC
  8
S-OBRYS
  6
CONTINUOUS
 10
22966.278014888299
 20
404576.22066711762
 30
0.0
  0
VERTEX
  5
677FD
  8
S-OBRYS
  6
CONTINUOUS
 10
22967.9354918883
 20
404572.35219631757
 30
0.0
  0
VERTEX
  5
677FE
  8
S-OBRYS
  6
CONTINUOUS
 10
22973.729104888309
 20
404568.71506871749
 30
0.0
  0
VERTEX
  5
677FF
  8
S-OBRYS
  6
CONTINUOUS
 10
22973.729104888309
 20
404560.42584221758
 30
0.0
  0
VERTEX
  5
67800
  8
S-OBRYS
  6
CONTINUOUS
 10
22967.9354918883
 20
404555.7786074176
 30
0.0
  0
VERTEX
  5
67801
  8
S-OBRYS
  6
CONTINUOUS
 10
22966.278014888299
 20
404551.35783901758
 30
0.0
  0
VERTEX
  5
67802
  8
S-OBRYS
  6
CONTINUOUS
 10
22963.51595538831
 20
404547.49058741762
 30
0.0
  0
VERTEX
  5
67803
  8
S-OBRYS
  6
CONTINUOUS
 10
22962.41076328831
 20
404543.07103821757
 30
0.0
  0
VERTEX
  5
67804
  8
S-OBRYS
  6
CONTINUOUS
 10
22957.990604488299
 20
404539.2025801175
 30
0.0
  0
VERTEX
  5
67805
  8
S-OBRYS
  6
CONTINUOUS
 10
22956.886021988299
 20
404534.78303091752
 30
0.0
  0
VERTEX
  5
67806
  8
S-OBRYS
  6
CONTINUOUS
 10
22956.886021988299
 20
404529.25889921747
 30
0.0
  0
VERTEX
  5
67807
  8
S-OBRYS
  6
CONTINUOUS
 10
22957.990604488299
 20
404522.62897851749
 30
0.0
  0
VERTEX
  5
67808
  8
S-OBRYS
  6
CONTINUOUS
 10
22957.990604488299
 20
404518.20822281751
 30
0.0
  0
VERTEX
  5
67809
  8
S-OBRYS
  6
CONTINUOUS
 10
22962.41076328831
 20
404517.10364031763
 30
0.0
  0
VERTEX
  5
6780A
  8
S-OBRYS
  6
CONTINUOUS
 10
22962.41076328831
 20
404512.68288461748
 30
0.0
  0
VERTEX
  5
6780B
  8
S-OBRYS
  6
CONTINUOUS
 10
22966.278014888299
 20
404508.81562031747
 30
0.0
  0
VERTEX
  5
6780C
  8
S-OBRYS
  6
CONTINUOUS
 10
22966.278014888299
 20
404504.39608381758
 30
0.0
  0
VERTEX
  5
6780D
  8
S-OBRYS
  6
CONTINUOUS
 10
22967.9354918883
 20
404501.63341471762
 30
0.0
  0
VERTEX
  5
6780E
  8
S-OBRYS
  6
CONTINUOUS
 10
22967.9354918883
 20
404496.10806381749
 30
0.0
  0
VERTEX
  5
6780F
  8
S-OBRYS
  6
CONTINUOUS
 10
22966.278014888299
 20
404489.47814311751
 30
0.0
  0
VERTEX
  5
67810
  8
S-OBRYS
  6
CONTINUOUS
 10
22966.278014888299
 20
404485.05859391752
 30
0.0
  0
VERTEX
  5
67811
  8
S-OBRYS
  6
CONTINUOUS
 10
22963.51595538831
 20
404481.19013581751
 30
0.0
  0
VERTEX
  5
67812
  8
S-OBRYS
  6
CONTINUOUS
 10
22962.41076328831
 20
404476.77058661758
 30
0.0
  0
VERTEX
  5
67813
  8
S-OBRYS
  6
CONTINUOUS
 10
22959.648094188309
 20
404472.9033350175
 30
0.0
  0
VERTEX
  5
67814
  8
S-OBRYS
  6
CONTINUOUS
 10
22956.886021988299
 20
404468.48257931758
 30
0.0
  0
VERTEX
  5
67815
  8
S-OBRYS
  6
CONTINUOUS
 10
22954.123352888299
 20
404464.61653421749
 30
0.0
  0
VERTEX
  5
67816
  8
S-OBRYS
  6
CONTINUOUS
 10
22954.123352888299
 20
404448.04050691752
 30
0.0
  0
VERTEX
  5
67817
  8
S-OBRYS
  6
CONTINUOUS
 10
22956.886021988299
 20
404443.62095771759
 30
0.0
  0
VERTEX
  5
67818
  8
S-OBRYS
  6
CONTINUOUS
 10
22957.990604488299
 20
404439.75370611751
 30
0.0
  0
VERTEX
  5
67819
  8
S-OBRYS
  6
CONTINUOUS
 10
22962.41076328831
 20
404435.33295041748
 30
0.0
  0
VERTEX
  5
6781A
  8
S-OBRYS
  6
CONTINUOUS
 10
22963.51595538831
 20
404431.46569881763
 30
0.0
  0
VERTEX
  5
6781B
  8
S-OBRYS
  6
CONTINUOUS
 10
22966.278014888299
 20
404427.04614961758
 30
0.0
  0
VERTEX
  5
6781C
  8
S-OBRYS
  6
CONTINUOUS
 10
22967.9354918883
 20
404423.17767881748
 30
0.0
  0
VERTEX
  5
6781D
  8
S-OBRYS
  6
CONTINUOUS
 10
22973.729104888309
 20
404419.54055121762
 30
0.0
  0
VERTEX
  5
6781E
  8
S-OBRYS
  6
CONTINUOUS
 10
22973.729104888309
 20
404402.96452391747
 30
0.0
  0
VERTEX
  5
6781F
  8
S-OBRYS
  6
CONTINUOUS
 10
22967.9354918883
 20
404398.31606991758
 30
0.0
  0
VERTEX
  5
67820
  8
S-OBRYS
  6
CONTINUOUS
 10
22966.278014888299
 20
404393.89652071748
 30
0.0
  0
VERTEX
  5
67821
  8
S-OBRYS
  6
CONTINUOUS
 10
22963.51595538831
 20
404390.02806261758
 30
0.0
  0
VERTEX
  5
67822
  8
S-OBRYS
  6
CONTINUOUS
 10
22962.41076328831
 20
404385.6085134176
 30
0.0
  0
VERTEX
  5
67823
  8
S-OBRYS
  6
CONTINUOUS
 10
22962.41076328831
 20
404380.08438171761
 30
0.0
  0
VERTEX
  5
67824
  8
S-OBRYS
  6
CONTINUOUS
 10
22959.648094188309
 20
404377.32050611748
 30
0.0
  0
VERTEX
  5
67825
  8
S-OBRYS
  6
CONTINUOUS
 10
22962.41076328831
 20
404373.45446101762
 30
0.0
  0
VERTEX
  5
67826
  8
S-OBRYS
  6
CONTINUOUS
 10
22962.41076328831
 20
404369.03370531747
 30
0.0
  0
VERTEX
  5
67827
  8
S-OBRYS
  6
CONTINUOUS
 10
22963.51595538831
 20
404365.16645371763
 30
0.0
  0
VERTEX
  5
67828
  8
S-OBRYS
  6
CONTINUOUS
 10
22963.51595538831
 20
404360.74690451758
 30
0.0
  0
SEQEND
  5
67829
  8
S-OBRYS
  6
CONTINUOUS
  0
LINE
  5
66A1B
  8
S-OBRYS
  6
CONTINUOUS
 10
22973.249032138301
 20
404323.76756521763
 30
0.0
 11
22973.249032138301
 21
404253.45572971762
 31
0.0
  0
LINE
  5
66A1C
  8
S-OBRYS
  6
CONTINUOUS
 10
23041.998475538301
 20
404361.26770611748
 30
0.0
 11
23066.998768438301
 21
404336.26922931749
 31
0.0
  0
POLYLINE
  5
66A1D
  8
S-OBRYS
  6
CONTINUOUS
 66
     1
 10
0.0
 20
0.0
 30
0.0
 70
     1
  0
VERTEX
  5
6782A
  8
S-OBRYS
  6
CONTINUOUS
 10
22941.9985231383
 20
404836.26778481749
 30
0.0
  0
VERTEX
  5
6782B
  8
S-OBRYS
  6
CONTINUOUS
 10
22941.9985231383
 20
404811.26808881748
 30
0.0
  0
VERTEX
  5
6782C
  8
S-OBRYS
  6
CONTINUOUS
 10
22791.998594538301
 20
404811.26808881748
 30
0.0
  0
VERTEX
  5
6782D
  8
S-OBRYS
  6
CONTINUOUS
 10
22791.998594538301
 20
404836.26778481749
 30
0.0
  0
VERTEX
  5
6782E
  8
S-OBRYS
  6
CONTINUOUS
 10
22941.9985231383
 20
404836.26778481749
 30
0.0
  0
SEQEND
  5
6782F
  8
S-OBRYS
  6
CONTINUOUS
  0
LINE
  5
66A1E
  8
S-OBRYS
  6
CONTINUOUS
 10
22958.498693388308
 20
404836.26778481749
 30
0.0
 11
22958.498693388308
 21
404861.26867461752
 31
0.0
  0
LINE
  5
66A1F
  8
S-OBRYS
  6
CONTINUOUS
 10
23116.998744638298
 20
404861.26867461752
 30
0.0
 11
23116.998744638298
 21
404836.26778481749
 31
0.0
  0
LINE
  5
66A20
  8
S-OBRYS
  6
CONTINUOUS
 10
23116.998744638298
 20
404811.26808881748
 30
0.0
 11
23066.998768438301
 21
404811.26808881748
 31
0.0
  0
POLYLINE
  5
66A21
  8
S-OBRYS
  6
CONTINUOUS
 66
     1
 10
0.0
 20
0.0
 30
0.0
  0
VERTEX
  5
67830
  8
S-OBRYS
  6
CONTINUOUS
 10
23268.9986732383
 20
404786.26840551762
 30
0.0
  0
VERTEX
  5
67831
  8
S-OBRYS
  6
CONTINUOUS
 10
23269.500941538299
 20
404782.07292241749
 30
0.0
  0
VERTEX
  5
67832
  8
S-OBRYS
  6
CONTINUOUS
 10
23272.210931038298
 20
404779.36233601748
 30
0.0
  0
VERTEX
  5
67833
  8
S-OBRYS
  6
CONTINUOUS
 10
23276.547511138298
 20
404775.56896031753
 30
0.0
  0
VERTEX
  5
67834
  8
S-OBRYS
  6
CONTINUOUS
 10
23277.632103838299
 20
404771.23178331758
 30
0.0
  0
VERTEX
  5
67835
  8
S-OBRYS
  6
CONTINUOUS
 10
23276.547511138298
 20
404765.81180431758
 30
0.0
  0
VERTEX
  5
67836
  8
S-OBRYS
  6
CONTINUOUS
 10
23273.837521638299
 20
404759.30541651748
 30
0.0
  0
VERTEX
  5
67837
  8
S-OBRYS
  6
CONTINUOUS
 10
23273.837521638299
 20
404754.96944601752
 30
0.0
  0
VERTEX
  5
67838
  8
S-OBRYS
  6
CONTINUOUS
 10
23269.500941538299
 20
404751.17486381758
 30
0.0
  0
VERTEX
  5
67839
  8
S-OBRYS
  6
CONTINUOUS
 10
23268.4163361383
 20
404746.83767411747
 30
0.0
  0
VERTEX
  5
6783A
  8
S-OBRYS
  6
CONTINUOUS
 10
23265.706359338299
 20
404743.04429841752
 30
0.0
  0
VERTEX
  5
6783B
  8
S-OBRYS
  6
CONTINUOUS
 10
23262.9957602383
 20
404738.70832791761
 30
0.0
  0
VERTEX
  5
6783C
  8
S-OBRYS
  6
CONTINUOUS
 10
23260.285173838289
 20
404733.28714241763
 30
0.0
  0
VERTEX
  5
6783D
  8
S-OBRYS
  6
CONTINUOUS
 10
23258.659180138311
 20
404730.57655601751
 30
0.0
  0
VERTEX
  5
6783E
  8
S-OBRYS
  6
CONTINUOUS
 10
23258.659180138311
 20
404725.15537051758
 30
0.0
  0
VERTEX
  5
6783F
  8
S-OBRYS
  6
CONTINUOUS
 10
23260.285173838289
 20
404722.44478411757
 30
0.0
  0
VERTEX
  5
67840
  8
S-OBRYS
  6
CONTINUOUS
 10
23264.0797560383
 20
404717.02359861752
 30
0.0
  0
VERTEX
  5
67841
  8
S-OBRYS
  6
CONTINUOUS
 10
23265.706359338299
 20
404714.31423141749
 30
0.0
  0
VERTEX
  5
67842
  8
S-OBRYS
  6
CONTINUOUS
 10
23268.4163361383
 20
404710.51963651751
 30
0.0
  0
VERTEX
  5
67843
  8
S-OBRYS
  6
CONTINUOUS
 10
23268.4163361383
 20
404706.1836660176
 30
0.0
  0
VERTEX
  5
67844
  8
S-OBRYS
  6
CONTINUOUS
 10
23265.706359338299
 20
404702.38786461751
 30
0.0
  0
VERTEX
  5
67845
  8
S-OBRYS
  6
CONTINUOUS
 10
23265.706359338299
 20
404698.0518941175
 30
0.0
  0
VERTEX
  5
67846
  8
S-OBRYS
  6
CONTINUOUS
 10
23264.0797560383
 20
404694.25731191749
 30
0.0
  0
VERTEX
  5
67847
  8
S-OBRYS
  6
CONTINUOUS
 10
23262.9957602383
 20
404689.92012221762
 30
0.0
  0
VERTEX
  5
67848
  8
S-OBRYS
  6
CONTINUOUS
 10
23260.285173838289
 20
404686.12674651761
 30
0.0
  0
VERTEX
  5
67849
  8
S-OBRYS
  6
CONTINUOUS
 10
23258.659180138311
 20
404681.7895568175
 30
0.0
  0
VERTEX
  5
6784A
  8
S-OBRYS
  6
CONTINUOUS
 10
23258.659180138311
 20
404668.23781861749
 30
0.0
  0
VERTEX
  5
6784B
  8
S-OBRYS
  6
CONTINUOUS
 10
23260.285173838289
 20
404664.4432364176
 30
0.0
  0
VERTEX
  5
6784C
  8
S-OBRYS
  6
CONTINUOUS
 10
23262.9957602383
 20
404661.73265001748
 30
0.0
  0
VERTEX
  5
6784D
  8
S-OBRYS
  6
CONTINUOUS
 10
23265.706359338299
 20
404657.39546031749
 30
0.0
  0
VERTEX
  5
6784E
  8
S-OBRYS
  6
CONTINUOUS
 10
23269.500941538299
 20
404656.31268371758
 30
0.0
  0
VERTEX
  5
6784F
  8
S-OBRYS
  6
CONTINUOUS
 10
23272.210931038298
 20
404651.97549401759
 30
0.0
  0
VERTEX
  5
67850
  8
S-OBRYS
  6
CONTINUOUS
 10
23272.210931038298
 20
404635.7131567176
 30
0.0
  0
VERTEX
  5
67851
  8
S-OBRYS
  6
CONTINUOUS
 10
23269.500941538299
 20
404633.00257031748
 30
0.0
  0
VERTEX
  5
67852
  8
S-OBRYS
  6
CONTINUOUS
 10
23268.4163361383
 20
404629.20919461758
 30
0.0
  0
VERTEX
  5
67853
  8
S-OBRYS
  6
CONTINUOUS
 10
23265.706359338299
 20
404624.87200491759
 30
0.0
  0
VERTEX
  5
67854
  8
S-OBRYS
  6
CONTINUOUS
 10
23265.706359338299
 20
404619.45083211758
 30
0.0
  0
VERTEX
  5
67855
  8
S-OBRYS
  6
CONTINUOUS
 10
23264.0797560383
 20
404616.74145221763
 30
0.0
  0
VERTEX
  5
67856
  8
S-OBRYS
  6
CONTINUOUS
 10
23264.0797560383
 20
404611.32026671758
 30
0.0
  0
VERTEX
  5
67857
  8
S-OBRYS
  6
CONTINUOUS
 10
23265.706359338299
 20
404608.60968031752
 30
0.0
  0
VERTEX
  5
67858
  8
S-OBRYS
  6
CONTINUOUS
 10
23265.706359338299
 20
404603.18849481759
 30
0.0
  0
VERTEX
  5
67859
  8
S-OBRYS
  6
CONTINUOUS
 10
23268.4163361383
 20
404600.47790841758
 30
0.0
  0
VERTEX
  5
6785A
  8
S-OBRYS
  6
CONTINUOUS
 10
23269.500941538299
 20
404596.68453271763
 30
0.0
  0
VERTEX
  5
6785B
  8
S-OBRYS
  6
CONTINUOUS
 10
23272.210931038298
 20
404595.05794211762
 30
0.0
  0
VERTEX
  5
6785C
  8
S-OBRYS
  6
CONTINUOUS
 10
23273.837521638299
 20
404592.34734301758
 30
0.0
  0
VERTEX
  5
6785D
  8
S-OBRYS
  6
CONTINUOUS
 10
23273.837521638299
 20
404586.92737671762
 30
0.0
  0
VERTEX
  5
6785E
  8
S-OBRYS
  6
CONTINUOUS
 10
23272.210931038298
 20
404583.13158801751
 30
0.0
  0
VERTEX
  5
6785F
  8
S-OBRYS
  6
CONTINUOUS
 10
23272.210931038298
 20
404578.79560481751
 30
0.0
  0
VERTEX
  5
67860
  8
S-OBRYS
  6
CONTINUOUS
 10
23269.500941538299
 20
404576.08501841751
 30
0.0
  0
VERTEX
  5
67861
  8
S-OBRYS
  6
CONTINUOUS
 10
23269.500941538299
 20
404570.66383291758
 30
0.0
  0
VERTEX
  5
67862
  8
S-OBRYS
  6
CONTINUOUS
 10
23268.4163361383
 20
404566.8704572175
 30
0.0
  0
VERTEX
  5
67863
  8
S-OBRYS
  6
CONTINUOUS
 10
23268.4163361383
 20
404562.53328021761
 30
0.0
  0
SEQEND
  5
67864
  8
S-OBRYS
  6
CONTINUOUS
  0
LINE
  5
66A22
  8
S-OBRYS
  6
CONTINUOUS
 10
23266.9986732383
 20
404336.26922931749
 30
0.0
 11
23266.9986732383
 21
404561.26761091751
 31
0.0
  0
LINE
  5
66A23
  8
S-OBRYS
  6
CONTINUOUS
 10
23123.248363838298
 20
404586.26850071747
 30
0.0
 11
23273.248889338302
 21
404586.26850071747
 31
0.0
  0
LINE
  5
66A24
  8
S-OBRYS
  6
CONTINUOUS
 10
23123.248363838298
 20
404736.2690389175
 30
0.0
 11
23260.748444438301
 21
404736.2690389175
 31
0.0
  0
LINE
  5
66A25
  8
S-OBRYS
  6
CONTINUOUS
 10
23260.748444438301
 20
404661.26876981749
 30
0.0
 11
23123.248363838298
 21
404661.26876981749
 31
0.0
  0
LINE
  5
66A26
  8
S-OBRYS
  6
CONTINUOUS
 10
23135.748808738292
 20
404636.26788001758
 30
0.0
 11
23273.248889338302
 21
404636.26788001758
 31
0.0
  0
LINE
  5
66A27
  8
S-OBRYS
  6
CONTINUOUS
 10
23260.748444438301
 20
404611.26818401762
 30
0.0
 11
23123.248363838298
 21
404611.26818401762
 31
0.0
  0
LINE
  5
66A28
  8
S-OBRYS
  6
CONTINUOUS
 10
23123.248363838298
 20
404686.26845311758
 30
0.0
 11
23260.748444438301
 21
404686.26845311758
 31
0.0
  0
LINE
  5
66A29
  8
S-OBRYS
  6
CONTINUOUS
 10
23266.9986732383
 20
404711.26813641761
 30
0.0
 11
23129.498579938299
 21
404711.26813641761
 31
0.0
  0
LINE
  5
66A2A
  8
S-OBRYS
  6
CONTINUOUS
 10
23273.248889338302
 20
404761.26751571748
 30
0.0
 11
23123.248363838298
 21
404761.26751571748
 31
0.0
  0
LINE
  5
66A2B
  8
S-OBRYS
  6
CONTINUOUS
 10
23268.9986732383
 20
404786.26840551762
 30
0.0
 11
23268.9986732383
 21
404861.26867461752
 31
0.0
  0
LINE
  5
66A2C
  8
S-OBRYS
  6
CONTINUOUS
 10
19419.194883493539
 20
398887.301959112
 30
0.0
 11
20889.19488349355
 21
398887.301959112
 31
0.0
  0
LINE
  5
66A2D
  8
S-OBRYS
  6
CONTINUOUS
 10
20889.19488349355
 20
398887.301959112
 30
0.0
 11
20889.19488349355
 21
399232.30179251212
 31
0.0
  0
LINE
  5
66A2E
  8
S-OBRYS
  6
CONTINUOUS
 10
20889.19488349355
 20
399232.30179251212
 30
0.0
 11
20860.053382493541
 21
399232.30179251212
 31
0.0
  0
LINE
  5
66A2F
  8
S-OBRYS
  6
CONTINUOUS
 10
20860.053382493541
 20
399232.30179251212
 30
0.0
 11
20369.19488349355
 21
400387.30185471202
 31
0.0
  0
LINE
  5
66A30
  8
S-OBRYS
  6
CONTINUOUS
 10
20369.19488349355
 20
400387.30185471202
 30
0.0
 11
19939.194883493539
 21
400387.30185471202
 31
0.0
  0
LINE
  5
66A31
  8
S-OBRYS
  6
CONTINUOUS
 10
19939.194883493539
 20
400387.30185471202
 30
0.0
 11
19448.336384493548
 21
399232.30179251212
 31
0.0
  0
LINE
  5
66A32
  8
S-OBRYS
  6
CONTINUOUS
 10
19448.336384493548
 20
399232.30179251212
 30
0.0
 11
19419.194883493539
 21
399232.30179251212
 31
0.0
  0
LINE
  5
66A33
  8
S-OBRYS
  6
CONTINUOUS
 10
19419.194883493539
 20
399232.30179251212
 30
0.0
 11
19419.194883493539
 21
398887.301959112
 31
0.0
  0
POLYLINE
  5
66A34
  8
S-OBRYS
  6
CONTINUOUS
 66
     1
 10
0.0
 20
0.0
 30
0.0
 70
     1
  0
VERTEX
  5
67865
  8
S-OBRYS
  6
CONTINUOUS
 10
19419.194883493539
 20
398887.301959112
 30
0.0
  0
VERTEX
  5
67866
  8
S-OBRYS
  6
CONTINUOUS
 10
19499.194883493539
 20
398887.301959112
 30
0.0
  0
VERTEX
  5
67867
  8
S-OBRYS
  6
CONTINUOUS
 10
19499.194883493539
 20
399232.30179251212
 30
0.0
  0
VERTEX
  5
67868
  8
S-OBRYS
  6
CONTINUOUS
 10
19419.194883493539
 20
399232.30179251212
 30
0.0
  0
SEQEND
  5
67869
  8
S-OBRYS
  6
CONTINUOUS
  0
POLYLINE
  5
66A35
  8
S-OBRYS
  6
CONTINUOUS
 66
     1
 10
0.0
 20
0.0
 30
0.0
 70
     1
  0
VERTEX
  5
6786A
  8
S-OBRYS
  6
CONTINUOUS
 10
20809.19488349355
 20
398887.301959112
 30
0.0
  0
VERTEX
  5
6786B
  8
S-OBRYS
  6
CONTINUOUS
 10
20889.19488349355
 20
398887.301959112
 30
0.0
  0
VERTEX
  5
6786C
  8
S-OBRYS
  6
CONTINUOUS
 10
20889.19488349355
 20
399232.30179251212
 30
0.0
  0
VERTEX
  5
6786D
  8
S-OBRYS
  6
CONTINUOUS
 10
20809.19488349355
 20
399232.30179251212
 30
0.0
  0
SEQEND
  5
6786E
  8
S-OBRYS
  6
CONTINUOUS
  0
LINE
  5
66A36
  8
S-OBRYS
  6
CONTINUOUS
 10
19472.130210753468
 20
398917.301959112
 30
0.0
 11
19446.259556233621
 21
398917.301959112
 31
0.0
  0
LINE
  5
66A37
  8
S-OBRYS
  6
CONTINUOUS
 10
19806.346714031912
 20
398856.30195911211
 30
0.0
 11
19696.25955623361
 21
398856.30195911211
 31
0.0
  0
CIRCLE
  5
66A38
  8
S-OBRYS
  6
CONTINUOUS
 10
19459.194883493539
 20
398917.301959112
 30
0.0
 40
9.0
  0
LINE
  5
66A39
  8
S-OBRYS
  6
CONTINUOUS
 10
19459.194883493539
 20
399154.366631852
 30
0.0
 11
19459.194883493539
 21
399180.23728637199
 31
0.0
  0
CIRCLE
  5
66A3A
  8
S-OBRYS
  6
CONTINUOUS
 10
19459.194883493539
 20
399167.301959112
 30
0.0
 40
9.0
  0
LINE
  5
66A3B
  8
S-OBRYS
  6
CONTINUOUS
 10
19472.130210753468
 20
399167.301959112
 30
0.0
 11
19446.259556233621
 21
399167.301959112
 31
0.0
  0
LINE
  5
66A3C
  8
S-OBRYS
  6
CONTINUOUS
 10
20849.19488349355
 20
398904.36663185211
 30
0.0
 11
20849.19488349355
 21
398930.23728637199
 31
0.0
  0
CIRCLE
  5
66A3D
  8
S-OBRYS
  6
CONTINUOUS
 10
20849.19488349355
 20
398917.301959112
 30
0.0
 40
9.0
  0
LINE
  5
66A3E
  8
S-OBRYS
  6
CONTINUOUS
 10
20836.25955623361
 20
398917.301959112
 30
0.0
 11
20862.130210753468
 21
398917.301959112
 31
0.0
  0
LINE
  5
66A3F
  8
S-OBRYS
  6
CONTINUOUS
 10
20836.25955623361
 20
399167.301959112
 30
0.0
 11
20862.130210753468
 21
399167.301959112
 31
0.0
  0
CIRCLE
  5
66A40
  8
S-OBRYS
  6
CONTINUOUS
 10
20849.19488349355
 20
399167.301959112
 30
0.0
 40
9.0
  0
LINE
  5
66A41
  8
S-OBRYS
  6
CONTINUOUS
 10
20849.19488349355
 20
399154.366631852
 30
0.0
 11
20849.19488349355
 21
399180.23728637199
 31
0.0
  0
POLYLINE
  5
66A42
  8
S-OBRYS
  6
CONTINUOUS
 66
     1
 10
0.0
 20
0.0
 30
0.0
 70
     1
  0
VERTEX
  5
6786F
  8
S-OBRYS
  6
CONTINUOUS
 10
20184.19488349355
 20
400272.30179251201
 30
0.0
  0
VERTEX
  5
67870
  8
S-OBRYS
  6
CONTINUOUS
 10
20124.19488349355
 20
400272.30179251201
 30
0.0
  0
VERTEX
  5
67871
  8
S-OBRYS
  6
CONTINUOUS
 10
20124.19488349355
 20
400172.30179251201
 30
0.0
  0
VERTEX
  5
67872
  8
S-OBRYS
  6
CONTINUOUS
 10
20184.19488349355
 20
400172.30179251201
 30
0.0
  0
SEQEND
  5
67873
  8
S-OBRYS
  6
CONTINUOUS
  0
LINE
  5
66A43
  8
S-OBRYS
  6
CONTINUOUS
 10
20154.19488349355
 20
400209.36646525201
 30
0.0
 11
20154.19488349355
 21
400235.23711977189
 31
0.0
  0
CIRCLE
  5
66A44
  8
S-OBRYS
  6
CONTINUOUS
 10
20154.19488349355
 20
400222.30179251201
 30
0.0
 40
9.0
  0
LINE
  5
66A45
  8
S-OBRYS
  6
CONTINUOUS
 10
20167.130210753468
 20
400222.30179251201
 30
0.0
 11
20141.25955623361
 21
400222.30179251201
 31
0.0
  0
CIRCLE
  5
66A46
  8
S-OBRYS
  6
CONTINUOUS
 10
19739.194883493419
 20
398856.30195911211
 30
0.0
 40
76.0
  0
LINE
  5
66A47
  8
S-OBRYS
  6
CONTINUOUS
 10
19739.194883493248
 20
398939.21625947981
 30
0.0
 11
19739.194883493248
 21
398773.38765874429
 31
0.0
  0
LINE
  5
66A48
  8
S-OBRYS
  6
CONTINUOUS
 10
19656.280583125568
 20
398856.30195911211
 30
0.0
 11
19822.109183860939
 21
398856.30195911211
 31
0.0
  0
DIMENSION
  5
66A49
  8
S-OBRYS
  6
CONTINUOUS
  2
*D65
 10
21012.525236909329
 20
400387.30185471202
 30
0.0
 11
20937.52523690927
 21
399637.30190691201
 31
0.0
 70
     0
 13
20639.19488349355
 23
398887.301959112
 33
0.0
 14
20294.19488349355
 24
400387.30185471202
 34
0.0
 50
90.0
  0
DIMENSION
  5
66A4A
  8
S-OBRYS
  6
CONTINUOUS
  2
*D66
 10
20805.277209327971
 20
400272.30179251201
 30
0.0
 11
20805.277209327909
 21
399850.15893536923
 31
0.0
 70
   128
 13
20184.19488349355
 23
400172.30179251201
 33
0.0
 14
20184.19488349355
 24
400272.30179251201
 34
0.0
 50
90.0
  0
DIMENSION
  5
66A4B
  8
S-OBRYS
  6
CONTINUOUS
  2
*D67
 10
20843.41528502955
 20
400508.3698255698
 30
0.0
 11
21131.272427886692
 21
400583.3698255698
 31
0.0
 70
     0
 13
20783.41528502955
 23
400272.30179251201
 33
0.0
 14
20843.41528502955
 24
400272.30179251201
 34
0.0
  0
DIMENSION
  5
66A4C
  8
S-OBRYS
  6
CONTINUOUS
  2
*D68
 10
21116.345005648182
 20
398856.30195911211
 30
0.0
 11
21041.345005648109
 21
398579.87338768347
 31
0.0
 70
     0
 13
20870.81260820082
 23
398917.301959112
 33
0.0
 14
20462.109393461229
 24
398856.30195911211
 34
0.0
 50
90.0
  0
DIMENSION
  5
66A4D
  8
S-OBRYS
  6
CONTINUOUS
  2
*D69
 10
19809.204914042981
 20
398885.8755220095
 30
0.0
 11
19304.645350992389
 21
398754.156911103
 31
0.0
 70
     3
 15
19669.184852943868
 25
398826.72839621408
 35
0.0
 40
0.0
  0
DIMENSION
  5
66A4E
  8
S-OBRYS
  6
CONTINUOUS
  2
*D70
 10
21290.383022075031
 20
399232.30179251212
 30
0.0
 11
21290.38302207497
 21
399059.801875812
 31
0.0
 70
   128
 13
20892.344883493541
 23
398887.301959112
 33
0.0
 14
20892.344883493541
 24
399232.30179251212
 34
0.0
 50
90.0
  0
DIMENSION
  5
66A4F
  8
S-OBRYS
  6
CONTINUOUS
  2
*D71
 10
19659.253201208099
 20
404801.4927812661
 30
0.0
 11
19584.253201208041
 21
405091.254686028
 31
0.0
 70
     0
 13
19534.283403394918
 23
404711.49251216598
 33
0.0
 14
19534.283403394918
 24
404801.4927812661
 34
0.0
 50
90.0
  0
DIMENSION
  5
66A50
  8
S-OBRYS
  6
CONTINUOUS
  2
*D72
 10
20283.059937062531
 20
404251.49231256603
 30
0.0
 11
20208.059937062459
 21
404481.49241236609
 31
0.0
 70
     0
 13
19681.944954647421
 23
404711.49251216598
 33
0.0
 14
20156.97517603423
 24
404251.49231256603
 34
0.0
 50
90.0
  0
DIMENSION
  5
66A51
  8
S-OBRYS
  6
CONTINUOUS
  2
*D73
 10
20283.059937062531
 20
403251.49231256609
 30
0.0
 11
20208.059937062459
 21
403751.49231256609
 31
0.0
 70
     0
 13
20156.97517603423
 23
404251.49231256603
 33
0.0
 14
20156.97517603423
 24
403251.49231256609
 34
0.0
 50
90.0
  0
DIMENSION
  5
66A52
  8
S-OBRYS
  6
CONTINUOUS
  2
*D74
 10
20484.6986342032
 20
403251.49231256609
 30
0.0
 11
20409.698634203141
 21
404026.49254691618
 31
0.0
 70
     0
 13
19537.43340339492
 23
404801.4927812661
 33
0.0
 14
20134.283117794908
 24
403251.49231256609
 34
0.0
 50
90.0
  0
DIMENSION
  5
66A53
  8
S-OBRYS
  6
CONTINUOUS
  2
*D75
 10
19774.283181894909
 20
403009.29763117328
 30
0.0
 11
19359.28318189492
 21
403084.29763117328
 31
0.0
 70
     0
 13
18944.28318189492
 23
403195.06194076611
 33
0.0
 14
19774.283181894909
 24
403195.06194076611
 34
0.0
  0
DIMENSION
  5
66A54
  8
S-OBRYS
  6
CONTINUOUS
  2
*D76
 10
23268.9986732383
 20
405029.6245219445
 30
0.0
 11
23633.046292285919
 21
405104.62452194461
 31
0.0
 70
     0
  1
%%c<>
 13
23116.998744638298
 23
404861.26867461752
 33
0.0
 14
23268.9986732383
 24
404861.26867461758
 34
0.0
  0
DIMENSION
  5
66A55
  8
S-OBRYS
  6
CONTINUOUS
  2
*D77
 10
23191.9984041383
 20
405176.20298014971
 30
0.0
 11
22986.498352888299
 21
405251.20298014971
 31
0.0
 70
     0
 13
22780.998301638301
 23
404959.76996086712
 33
0.0
 14
23191.9984041383
 24
404956.69377775659
 34
0.0
  0
DIMENSION
  5
66A56
  8
S-OBRYS
  6
CONTINUOUS
  2
*D78
 10
22603.497909888309
 20
404970.03855185589
 30
0.0
 11
22339.45029084069
 21
404970.03855185589
 31
0.0
 70
   128
  1
%%c<>
 13
22958.498693388308
 23
404861.26867461752
 33
0.0
 14
22603.497909888309
 24
404861.26867461752
 34
0.0
  0
DIMENSION
  5
66A57
  8
S-OBRYS
  6
CONTINUOUS
  2
*D79
 10
23591.998823338301
 20
403094.46738283092
 30
0.0
 11
23919.855966195439
 21
403169.46738283092
 31
0.0
 70
     0
 13
23391.998918538298
 23
403311.2682059175
 33
0.0
 14
23591.998823338301
 24
403586.2683798176
 34
0.0
  0
POLYLINE
  8
S-OBRYS
  5
6793F
  66
     1
 10
0.000000
 20
0.000000
 30
0.000000
  70
     8
  0
VERTEX
  8
S-OBRYS
  5
67940
 10
22603.5
 20
404586.
 30
0.000000
  70
    32
  0
VERTEX
  8
S-OBRYS
  5
67941
 10
22604.1
 20
404586.
 30
0.000000
  70
    32
  0
VERTEX
  8
S-OBRYS
  5
67942
 10
22604.7
 20
404586.
 30
0.000000
  70
    32
  0
VERTEX
  8
S-OBRYS
  5
67943
 10
22605.1
 20
404586.
 30
0.000000
  70
    32
  0
VERTEX
  8
S-OBRYS
  5
67944
 10
22605.5
 20
404586.
 30
0.000000
  70
    32
  0
VERTEX
  8
S-OBRYS
  5
67945
 10
22605.8
 20
404586.
 30
0.000000
  70
    32
  0
VERTEX
  8
S-OBRYS
  5
67946
 10
22606.1
 20
404585.
 30
0.000000
  70
    32
  0
VERTEX
  8
S-OBRYS
  5
67947
 10
22606.2
 20
404585.
 30
0.000000
  70
    32
  0
VERTEX
  8
S-OBRYS
  5
67948
 10
22606.3
 20
404585.
 30
0.000000
  70
    32
  0
VERTEX
  8
S-OBRYS
  5
67949
 10
22606.4
 20
404584.
 30
0.000000
  70
    32
  0
VERTEX
  8
S-OBRYS
  5
6794A
 10
22606.3
 20
404584.
 30
0.000000
  70
    32
  0
VERTEX
  8
S-OBRYS
  5
6794B
 10
22606.3
 20
404583.
 30
0.000000
  70
    32
  0
VERTEX
  8
S-OBRYS
  5
6794C
 10
22606.1
 20
404583.
 30
0.000000
  70
    32
  0
VERTEX
  8
S-OBRYS
  5
6794D
 10
22606.0
 20
404582.
 30
0.000000
  70
    32
  0
VERTEX
  8
S-OBRYS
  5
6794E
 10
22605.8
 20
404581.
 30
0.000000
  70
    32
  0
VERTEX
  8
S-OBRYS
  5
6794F
 10
22605.5
 20
404581.
 30
0.000000
  70
    32
  0
VERTEX
  8
S-OBRYS
  5
67950
 10
22605.2
 20
404580.
 30
0.000000
  70
    32
  0
VERTEX
  8
S-OBRYS
  5
67951
 10
22604.9
 20
404579.
 30
0.000000
  70
    32
  0
VERTEX
  8
S-OBRYS
  5
67952
 10
22604.5
 20
404579.
 30
0.000000
  70
    32
  0
VERTEX
  8
S-OBRYS
  5
67953
 10
22604.2
 20
404578.
 30
0.000000
  70
    32
  0
VERTEX
  8
S-OBRYS
  5
67954
 10
22603.8
 20
404577.
 30
0.000000
  70
    32
  0
VERTEX
  8
S-OBRYS
  5
67955
 10
22603.4
 20
404576.
 30
0.000000
  70
    32
  0
VERTEX
  8
S-OBRYS
  5
67956
 10
22602.9
 20
404575.
 30
0.000000
  70
    32
  0
VERTEX
  8
S-OBRYS
  5
67957
 10
22602.5
 20
404575.
 30
0.000000
  70
    32
  0
VERTEX
  8
S-OBRYS
  5
67958
 10
22602.0
 20
404574.
 30
0.000000
  70
    32
  0
VERTEX
  8
S-OBRYS
  5
67959
 10
22601.6
 20
404573.
 30
0.000000
  70
    32
  0
VERTEX
  8
S-OBRYS
  5
6795A
 10
22601.2
 20
404572.
 30
0.000000
  70
    32
  0
VERTEX
  8
S-OBRYS
  5
6795B
 10
22600.7
 20
404571.
 30
0.000000
  70
    32
  0
VERTEX
  8
S-OBRYS
  5
6795C
 10
22600.3
 20
404570.
 30
0.000000
  70
    32
  0
VERTEX
  8
S-OBRYS
  5
6795D
 10
22599.9
 20
404569.
 30
0.000000
  70
    32
  0
VERTEX
  8
S-OBRYS
  5
6795E
 10
22599.4
 20
404568.
 30
0.000000
  70
    32
  0
VERTEX
  8
S-OBRYS
  5
6795F
 10
22599.1
 20
404568.
 30
0.000000
  70
    32
  0
VERTEX
  8
S-OBRYS
  5
67960
 10
22598.7
 20
404567.
 30
0.000000
  70
    32
  0
VERTEX
  8
S-OBRYS
  5
67961
 10
22598.3
 20
404566.
 30
0.000000
  70
    32
  0
VERTEX
  8
S-OBRYS
  5
67962
 10
22598.0
 20
404565.
 30
0.000000
  70
    32
  0
VERTEX
  8
S-OBRYS
  5
67963
 10
22597.7
 20
404564.
 30
0.000000
  70
    32
  0
VERTEX
  8
S-OBRYS
  5
67964
 10
22597.5
 20
404563.
 30
0.000000
  70
    32
  0
VERTEX
  8
S-OBRYS
  5
67965
 10
22597.3
 20
404562.
 30
0.000000
  70
    32
  0
VERTEX
  8
S-OBRYS
  5
67966
 10
22597.1
 20
404561.
 30
0.000000
  70
    32
  0
VERTEX
  8
S-OBRYS
  5
67967
 10
22597.0
 20
404561.
 30
0.000000
  70
    32
  0
VERTEX
  8
S-OBRYS
  5
67968
 10
22597.0
 20
404560.
 30
0.000000
  70
    32
  0
VERTEX
  8
S-OBRYS
  5
67969
 10
22596.9
 20
404559.
 30
0.000000
  70
    32
  0
VERTEX
  8
S-OBRYS
  5
6796A
 10
22597.0
 20
404558.
 30
0.000000
  70
    32
  0
VERTEX
  8
S-OBRYS
  5
6796B
 10
22597.0
 20
404558.
 30
0.000000
  70
    32
  0
VERTEX
  8
S-OBRYS
  5
6796C
 10
22597.1
 20
404557.
 30
0.000000
  70
    32
  0
VERTEX
  8
S-OBRYS
  5
6796D
 10
22597.3
 20
404556.
 30
0.000000
  70
    32
  0
VERTEX
  8
S-OBRYS
  5
6796E
 10
22597.4
 20
404555.
 30
0.000000
  70
    32
  0
VERTEX
  8
S-OBRYS
  5
6796F
 10
22597.6
 20
404555.
 30
0.000000
  70
    32
  0
VERTEX
  8
S-OBRYS
  5
67970
 10
22597.9
 20
404554.
 30
0.000000
  70
    32
  0
VERTEX
  8
S-OBRYS
  5
67971
 10
22598.1
 20
404553.
 30
0.000000
  70
    32
  0
VERTEX
  8
S-OBRYS
  5
67972
 10
22598.4
 20
404553.
 30
0.000000
  70
    32
  0
VERTEX
  8
S-OBRYS
  5
67973
 10
22598.7
 20
404552.
 30
0.000000
  70
    32
  0
VERTEX
  8
S-OBRYS
  5
67974
 10
22599.0
 20
404551.
 30
0.000000
  70
    32
  0
VERTEX
  8
S-OBRYS
  5
67975
 10
22599.4
 20
404551.
 30
0.000000
  70
    32
  0
VERTEX
  8
S-OBRYS
  5
67976
 10
22599.8
 20
404550.
 30
0.000000
  70
    32
  0
VERTEX
  8
S-OBRYS
  5
67977
 10
22600.1
 20
404550.
 30
0.000000
  70
    32
  0
VERTEX
  8
S-OBRYS
  5
67978
 10
22600.5
 20
404549.
 30
0.000000
  70
    32
  0
VERTEX
  8
S-OBRYS
  5
67979
 10
22600.9
 20
404548.
 30
0.000000
  70
    32
  0
VERTEX
  8
S-OBRYS
  5
6797A
 10
22601.3
 20
404548.
 30
0.000000
  70
    32
  0
VERTEX
  8
S-OBRYS
  5
6797B
 10
22601.7
 20
404547.
 30
0.000000
  70
    32
  0
VERTEX
  8
S-OBRYS
  5
6797C
 10
22602.1
 20
404547.
 30
0.000000
  70
    32
  0
VERTEX
  8
S-OBRYS
  5
6797D
 10
22602.5
 20
404546.
 30
0.000000
  70
    32
  0
VERTEX
  8
S-OBRYS
  5
6797E
 10
22603.0
 20
404545.
 30
0.000000
  70
    32
  0
VERTEX
  8
S-OBRYS
  5
6797F
 10
22603.4
 20
404545.
 30
0.000000
  70
    32
  0
VERTEX
  8
S-OBRYS
  5
67980
 10
22603.8
 20
404544.
 30
0.000000
  70
    32
  0
VERTEX
  8
S-OBRYS
  5
67981
 10
22604.2
 20
404544.
 30
0.000000
  70
    32
  0
VERTEX
  8
S-OBRYS
  5
67982
 10
22604.5
 20
404543.
 30
0.000000
  70
    32
  0
VERTEX
  8
S-OBRYS
  5
67983
 10
22604.9
 20
404543.
 30
0.000000
  70
    32
  0
VERTEX
  8
S-OBRYS
  5
67984
 10
22605.3
 20
404542.
 30
0.000000
  70
    32
  0
VERTEX
  8
S-OBRYS
  5
67985
 10
22605.6
 20
404542.
 30
0.000000
  70
    32
  0
VERTEX
  8
S-OBRYS
  5
67986
 10
22605.9
 20
404541.
 30
0.000000
  70
    32
  0
VERTEX
  8
S-OBRYS
  5
67987
 10
22606.2
 20
404540.
 30
0.000000
  70
    32
  0
VERTEX
  8
S-OBRYS
  5
67988
 10
22606.5
 20
404540.
 30
0.000000
  70
    32
  0
VERTEX
  8
S-OBRYS
  5
67989
 10
22606.7
 20
404539.
 30
0.000000
  70
    32
  0
VERTEX
  8
S-OBRYS
  5
6798A
 10
22607.0
 20
404539.
 30
0.000000
  70
    32
  0
VERTEX
  8
S-OBRYS
  5
6798B
 10
22607.2
 20
404538.
 30
0.000000
  70
    32
  0
VERTEX
  8
S-OBRYS
  5
6798C
 10
22607.3
 20
404538.
 30
0.000000
  70
    32
  0
VERTEX
  8
S-OBRYS
  5
6798D
 10
22607.4
 20
404537.
 30
0.000000
  70
    32
  0
VERTEX
  8
S-OBRYS
  5
6798E
 10
22607.5
 20
404537.
 30
0.000000
  70
    32
  0
VERTEX
  8
S-OBRYS
  5
6798F
 10
22607.6
 20
404536.
 30
0.000000
  70
    32
  0
VERTEX
  8
S-OBRYS
  5
67990
 10
22607.6
 20
404535.
 30
0.000000
  70
    32
  0
VERTEX
  8
S-OBRYS
  5
67991
 10
22607.6
 20
404535.
 30
0.000000
  70
    32
  0
VERTEX
  8
S-OBRYS
  5
67992
 10
22607.5
 20
404534.
 30
0.000000
  70
    32
  0
VERTEX
  8
S-OBRYS
  5
67993
 10
22607.4
 20
404534.
 30
0.000000
  70
    32
  0
VERTEX
  8
S-OBRYS
  5
67994
 10
22607.3
 20
404533.
 30
0.000000
  70
    32
  0
VERTEX
  8
S-OBRYS
  5
67995
 10
22607.1
 20
404532.
 30
0.000000
  70
    32
  0
VERTEX
  8
S-OBRYS
  5
67996
 10
22607.0
 20
404532.
 30
0.000000
  70
    32
  0
VERTEX
  8
S-OBRYS
  5
67997
 10
22606.7
 20
404531.
 30
0.000000
  70
    32
  0
VERTEX
  8
S-OBRYS
  5
67998
 10
22606.5
 20
404530.
 30
0.000000
  70
    32
  0
VERTEX
  8
S-OBRYS
  5
67999
 10
22606.3
 20
404530.
 30
0.000000
  70
    32
  0
VERTEX
  8
S-OBRYS
  5
6799A
 10
22606.0
 20
404529.
 30
0.000000
  70
    32
  0
VERTEX
  8
S-OBRYS
  5
6799B
 10
22605.7
 20
404529.
 30
0.000000
  70
    32
  0
VERTEX
  8
S-OBRYS
  5
6799C
 10
22605.4
 20
404528.
 30
0.000000
  70
    32
  0
VERTEX
  8
S-OBRYS
  5
6799D
 10
22605.1
 20
404527.
 30
0.000000
  70
    32
  0
VERTEX
  8
S-OBRYS
  5
6799E
 10
22604.8
 20
404527.
 30
0.000000
  70
    32
  0
VERTEX
  8
S-OBRYS
  5
6799F
 10
22604.5
 20
404526.
 30
0.000000
  70
    32
  0
VERTEX
  8
S-OBRYS
  5
679A0
 10
22604.1
 20
404525.
 30
0.000000
  70
    32
  0
VERTEX
  8
S-OBRYS
  5
679A1
 10
22603.8
 20
404525.
 30
0.000000
  70
    32
  0
VERTEX
  8
S-OBRYS
  5
679A2
 10
22603.5
 20
404524.
 30
0.000000
  70
    32
  0
VERTEX
  8
S-OBRYS
  5
679A3
 10
22603.1
 20
404523.
 30
0.000000
  70
    32
  0
VERTEX
  8
S-OBRYS
  5
679A4
 10
22602.8
 20
404523.
 30
0.000000
  70
    32
  0
VERTEX
  8
S-OBRYS
  5
679A5
 10
22602.5
 20
404522.
 30
0.000000
  70
    32
  0
VERTEX
  8
S-OBRYS
  5
679A6
 10
22602.1
 20
404521.
 30
0.000000
  70
    32
  0
VERTEX
  8
S-OBRYS
  5
679A7
 10
22601.8
 20
404521.
 30
0.000000
  70
    32
  0
VERTEX
  8
S-OBRYS
  5
679A8
 10
22601.5
 20
404520.
 30
0.000000
  70
    32
  0
VERTEX
  8
S-OBRYS
  5
679A9
 10
22601.2
 20
404519.
 30
0.000000
  70
    32
  0
VERTEX
  8
S-OBRYS
  5
679AA
 10
22600.9
 20
404519.
 30
0.000000
  70
    32
  0
VERTEX
  8
S-OBRYS
  5
679AB
 10
22600.6
 20
404518.
 30
0.000000
  70
    32
  0
VERTEX
  8
S-OBRYS
  5
679AC
 10
22600.4
 20
404517.
 30
0.000000
  70
    32
  0
VERTEX
  8
S-OBRYS
  5
679AD
 10
22600.1
 20
404517.
 30
0.000000
  70
    32
  0
VERTEX
  8
S-OBRYS
  5
679AE
 10
22599.9
 20
404516.
 30
0.000000
  70
    32
  0
VERTEX
  8
S-OBRYS
  5
679AF
 10
22599.7
 20
404515.
 30
0.000000
  70
    32
  0
VERTEX
  8
S-OBRYS
  5
679B0
 10
22599.6
 20
404515.
 30
0.000000
  70
    32
  0
VERTEX
  8
S-OBRYS
  5
679B1
 10
22599.4
 20
404514.
 30
0.000000
  70
    32
  0
VERTEX
  8
S-OBRYS
  5
679B2
 10
22599.3
 20
404514.
 30
0.000000
  70
    32
  0
VERTEX
  8
S-OBRYS
  5
679B3
 10
22599.2
 20
404513.
 30
0.000000
  70
    32
  0
VERTEX
  8
S-OBRYS
  5
679B4
 10
22599.2
 20
404512.
 30
0.000000
  70
    32
  0
VERTEX
  8
S-OBRYS
  5
679B5
 10
22599.2
 20
404512.
 30
0.000000
  70
    32
  0
VERTEX
  8
S-OBRYS
  5
679B6
 10
22599.2
 20
404511.
 30
0.000000
  70
    32
  0
VERTEX
  8
S-OBRYS
  5
679B7
 10
22599.3
 20
404510.
 30
0.000000
  70
    32
  0
VERTEX
  8
S-OBRYS
  5
679B8
 10
22599.4
 20
404510.
 30
0.000000
  70
    32
  0
VERTEX
  8
S-OBRYS
  5
679B9
 10
22599.5
 20
404509.
 30
0.000000
  70
    32
  0
VERTEX
  8
S-OBRYS
  5
679BA
 10
22599.7
 20
404508.
 30
0.000000
  70
    32
  0
VERTEX
  8
S-OBRYS
  5
679BB
 10
22599.9
 20
404508.
 30
0.000000
  70
    32
  0
VERTEX
  8
S-OBRYS
  5
679BC
 10
22600.1
 20
404507.
 30
0.000000
  70
    32
  0
VERTEX
  8
S-OBRYS
  5
679BD
 10
22600.4
 20
404506.
 30
0.000000
  70
    32
  0
VERTEX
  8
S-OBRYS
  5
679BE
 10
22600.6
 20
404506.
 30
0.000000
  70
    32
  0
VERTEX
  8
S-OBRYS
  5
679BF
 10
22600.9
 20
404505.
 30
0.000000
  70
    32
  0
VERTEX
  8
S-OBRYS
  5
679C0
 10
22601.2
 20
404505.
 30
0.000000
  70
    32
  0
VERTEX
  8
S-OBRYS
  5
679C1
 10
22601.6
 20
404504.
 30
0.000000
  70
    32
  0
VERTEX
  8
S-OBRYS
  5
679C2
 10
22601.9
 20
404503.
 30
0.000000
  70
    32
  0
VERTEX
  8
S-OBRYS
  5
679C3
 10
22602.3
 20
404503.
 30
0.000000
  70
    32
  0
VERTEX
  8
S-OBRYS
  5
679C4
 10
22602.7
 20
404502.
 30
0.000000
  70
    32
  0
VERTEX
  8
S-OBRYS
  5
679C5
 10
22603.0
 20
404501.
 30
0.000000
  70
    32
  0
VERTEX
  8
S-OBRYS
  5
679C6
 10
22603.4
 20
404501.
 30
0.000000
  70
    32
  0
VERTEX
  8
S-OBRYS
  5
679C7
 10
22603.8
 20
404500.
 30
0.000000
  70
    32
  0
VERTEX
  8
S-OBRYS
  5
679C8
 10
22604.2
 20
404500.
 30
0.000000
  70
    32
  0
VERTEX
  8
S-OBRYS
  5
679C9
 10
22604.6
 20
404499.
 30
0.000000
  70
    32
  0
VERTEX
  8
S-OBRYS
  5
679CA
 10
22605.0
 20
404498.
 30
0.000000
  70
    32
  0
VERTEX
  8
S-OBRYS
  5
679CB
 10
22605.4
 20
404498.
 30
0.000000
  70
    32
  0
VERTEX
  8
S-OBRYS
  5
679CC
 10
22605.8
 20
404497.
 30
0.000000
  70
    32
  0
VERTEX
  8
S-OBRYS
  5
679CD
 10
22606.2
 20
404497.
 30
0.000000
  70
    32
  0
VERTEX
  8
S-OBRYS
  5
679CE
 10
22606.6
 20
404496.
 30
0.000000
  70
    32
  0
VERTEX
  8
S-OBRYS
  5
679CF
 10
22607.0
 20
404495.
 30
0.000000
  70
    32
  0
VERTEX
  8
S-OBRYS
  5
679D0
 10
22607.3
 20
404495.
 30
0.000000
  70
    32
  0
VERTEX
  8
S-OBRYS
  5
679D1
 10
22607.7
 20
404494.
 30
0.000000
  70
    32
  0
VERTEX
  8
S-OBRYS
  5
679D2
 10
22608.0
 20
404494.
 30
0.000000
  70
    32
  0
VERTEX
  8
S-OBRYS
  5
679D3
 10
22608.3
 20
404493.
 30
0.000000
  70
    32
  0
VERTEX
  8
S-OBRYS
  5
679D4
 10
22608.6
 20
404492.
 30
0.000000
  70
    32
  0
VERTEX
  8
S-OBRYS
  5
679D5
 10
22608.9
 20
404492.
 30
0.000000
  70
    32
  0
VERTEX
  8
S-OBRYS
  5
679D6
 10
22609.1
 20
404491.
 30
0.000000
  70
    32
  0
VERTEX
  8
S-OBRYS
  5
679D7
 10
22609.3
 20
404490.
 30
0.000000
  70
    32
  0
VERTEX
  8
S-OBRYS
  5
679D8
 10
22609.5
 20
404490.
 30
0.000000
  70
    32
  0
VERTEX
  8
S-OBRYS
  5
679D9
 10
22609.7
 20
404489.
 30
0.000000
  70
    32
  0
VERTEX
  8
S-OBRYS
  5
679DA
 10
22609.8
 20
404489.
 30
0.000000
  70
    32
  0
VERTEX
  8
S-OBRYS
  5
679DB
 10
22609.9
 20
404488.
 30
0.000000
  70
    32
  0
VERTEX
  8
S-OBRYS
  5
679DC
 10
22609.9
 20
404487.
 30
0.000000
  70
    32
  0
VERTEX
  8
S-OBRYS
  5
679DD
 10
22610.0
 20
404487.
 30
0.000000
  70
    32
  0
VERTEX
  8
S-OBRYS
  5
679DE
 10
22609.9
 20
404486.
 30
0.000000
  70
    32
  0
VERTEX
  8
S-OBRYS
  5
679DF
 10
22609.9
 20
404486.
 30
0.000000
  70
    32
  0
VERTEX
  8
S-OBRYS
  5
679E0
 10
22609.8
 20
404485.
 30
0.000000
  70
    32
  0
VERTEX
  8
S-OBRYS
  5
679E1
 10
22609.6
 20
404484.
 30
0.000000
  70
    32
  0
VERTEX
  8
S-OBRYS
  5
679E2
 10
22609.5
 20
404484.
 30
0.000000
  70
    32
  0
VERTEX
  8
S-OBRYS
  5
679E3
 10
22609.3
 20
404483.
 30
0.000000
  70
    32
  0
VERTEX
  8
S-OBRYS
  5
679E4
 10
22609.0
 20
404482.
 30
0.000000
  70
    32
  0
VERTEX
  8
S-OBRYS
  5
679E5
 10
22608.8
 20
404482.
 30
0.000000
  70
    32
  0
VERTEX
  8
S-OBRYS
  5
679E6
 10
22608.5
 20
404481.
 30
0.000000
  70
    32
  0
VERTEX
  8
S-OBRYS
  5
679E7
 10
22608.1
 20
404481.
 30
0.000000
  70
    32
  0
VERTEX
  8
S-OBRYS
  5
679E8
 10
22607.8
 20
404480.
 30
0.000000
  70
    32
  0
VERTEX
  8
S-OBRYS
  5
679E9
 10
22607.5
 20
404479.
 30
0.000000
  70
    32
  0
VERTEX
  8
S-OBRYS
  5
679EA
 10
22607.1
 20
404479.
 30
0.000000
  70
    32
  0
VERTEX
  8
S-OBRYS
  5
679EB
 10
22606.7
 20
404478.
 30
0.000000
  70
    32
  0
VERTEX
  8
S-OBRYS
  5
679EC
 10
22606.3
 20
404477.
 30
0.000000
  70
    32
  0
VERTEX
  8
S-OBRYS
  5
679ED
 10
22605.9
 20
404477.
 30
0.000000
  70
    32
  0
VERTEX
  8
S-OBRYS
  5
679EE
 10
22605.4
 20
404476.
 30
0.000000
  70
    32
  0
VERTEX
  8
S-OBRYS
  5
679EF
 10
22605.0
 20
404476.
 30
0.000000
  70
    32
  0
VERTEX
  8
S-OBRYS
  5
679F0
 10
22604.6
 20
404475.
 30
0.000000
  70
    32
  0
VERTEX
  8
S-OBRYS
  5
679F1
 10
22604.1
 20
404474.
 30
0.000000
  70
    32
  0
VERTEX
  8
S-OBRYS
  5
679F2
 10
22603.7
 20
404474.
 30
0.000000
  70
    32
  0
VERTEX
  8
S-OBRYS
  5
679F3
 10
22603.3
 20
404473.
 30
0.000000
  70
    32
  0
VERTEX
  8
S-OBRYS
  5
679F4
 10
22602.8
 20
404473.
 30
0.000000
  70
    32
  0
VERTEX
  8
S-OBRYS
  5
679F5
 10
22602.4
 20
404472.
 30
0.000000
  70
    32
  0
VERTEX
  8
S-OBRYS
  5
679F6
 10
22602.0
 20
404471.
 30
0.000000
  70
    32
  0
VERTEX
  8
S-OBRYS
  5
679F7
 10
22601.6
 20
404471.
 30
0.000000
  70
    32
  0
VERTEX
  8
S-OBRYS
  5
679F8
 10
22601.2
 20
404470.
 30
0.000000
  70
    32
  0
VERTEX
  8
S-OBRYS
  5
679F9
 10
22600.8
 20
404469.
 30
0.000000
  70
    32
  0
VERTEX
  8
S-OBRYS
  5
679FA
 10
22600.4
 20
404469.
 30
0.000000
  70
    32
  0
VERTEX
  8
S-OBRYS
  5
679FB
 10
22600.1
 20
404468.
 30
0.000000
  70
    32
  0
VERTEX
  8
S-OBRYS
  5
679FC
 10
22599.8
 20
404468.
 30
0.000000
  70
    32
  0
VERTEX
  8
S-OBRYS
  5
679FD
 10
22599.5
 20
404467.
 30
0.000000
  70
    32
  0
VERTEX
  8
S-OBRYS
  5
679FE
 10
22599.2
 20
404466.
 30
0.000000
  70
    32
  0
VERTEX
  8
S-OBRYS
  5
679FF
 10
22598.9
 20
404466.
 30
0.000000
  70
    32
  0
VERTEX
  8
S-OBRYS
  5
67A00
 10
22598.7
 20
404465.
 30
0.000000
  70
    32
  0
VERTEX
  8
S-OBRYS
  5
67A01
 10
22598.5
 20
404465.
 30
0.000000
  70
    32
  0
VERTEX
  8
S-OBRYS
  5
67A02
 10
22598.4
 20
404464.
 30
0.000000
  70
    32
  0
VERTEX
  8
S-OBRYS
  5
67A03
 10
22598.2
 20
404463.
 30
0.000000
  70
    32
  0
VERTEX
  8
S-OBRYS
  5
67A04
 10
22598.2
 20
404463.
 30
0.000000
  70
    32
  0
VERTEX
  8
S-OBRYS
  5
67A05
 10
22598.1
 20
404462.
 30
0.000000
  70
    32
  0
VERTEX
  8
S-OBRYS
  5
67A06
 10
22598.1
 20
404462.
 30
0.000000
  70
    32
  0
VERTEX
  8
S-OBRYS
  5
67A07
 10
22598.2
 20
404461.
 30
0.000000
  70
    32
  0
VERTEX
  8
S-OBRYS
  5
67A08
 10
22598.3
 20
404461.
 30
0.000000
  70
    32
  0
VERTEX
  8
S-OBRYS
  5
67A09
 10
22598.4
 20
404460.
 30
0.000000
  70
    32
  0
VERTEX
  8
S-OBRYS
  5
67A0A
 10
22598.6
 20
404459.
 30
0.000000
  70
    32
  0
VERTEX
  8
S-OBRYS
  5
67A0B
 10
22598.8
 20
404459.
 30
0.000000
  70
    32
  0
VERTEX
  8
S-OBRYS
  5
67A0C
 10
22599.0
 20
404458.
 30
0.000000
  70
    32
  0
VERTEX
  8
S-OBRYS
  5
67A0D
 10
22599.3
 20
404458.
 30
0.000000
  70
    32
  0
VERTEX
  8
S-OBRYS
  5
67A0E
 10
22599.6
 20
404457.
 30
0.000000
  70
    32
  0
VERTEX
  8
S-OBRYS
  5
67A0F
 10
22600.0
 20
404457.
 30
0.000000
  70
    32
  0
VERTEX
  8
S-OBRYS
  5
67A10
 10
22600.4
 20
404456.
 30
0.000000
  70
    32
  0
VERTEX
  8
S-OBRYS
  5
67A11
 10
22600.8
 20
404455.
 30
0.000000
  70
    32
  0
VERTEX
  8
S-OBRYS
  5
67A12
 10
22601.2
 20
404455.
 30
0.000000
  70
    32
  0
VERTEX
  8
S-OBRYS
  5
67A13
 10
22601.7
 20
404454.
 30
0.000000
  70
    32
  0
VERTEX
  8
S-OBRYS
  5
67A14
 10
22602.1
 20
404454.
 30
0.000000
  70
    32
  0
VERTEX
  8
S-OBRYS
  5
67A15
 10
22602.6
 20
404453.
 30
0.000000
  70
    32
  0
VERTEX
  8
S-OBRYS
  5
67A16
 10
22603.1
 20
404453.
 30
0.000000
  70
    32
  0
VERTEX
  8
S-OBRYS
  5
67A17
 10
22603.7
 20
404452.
 30
0.000000
  70
    32
  0
VERTEX
  8
S-OBRYS
  5
67A18
 10
22604.2
 20
404452.
 30
0.000000
  70
    32
  0
VERTEX
  8
S-OBRYS
  5
67A19
 10
22604.8
 20
404451.
 30
0.000000
  70
    32
  0
VERTEX
  8
S-OBRYS
  5
67A1A
 10
22605.3
 20
404451.
 30
0.000000
  70
    32
  0
VERTEX
  8
S-OBRYS
  5
67A1B
 10
22605.9
 20
404450.
 30
0.000000
  70
    32
  0
VERTEX
  8
S-OBRYS
  5
67A1C
 10
22606.4
 20
404449.
 30
0.000000
  70
    32
  0
VERTEX
  8
S-OBRYS
  5
67A1D
 10
22607.0
 20
404449.
 30
0.000000
  70
    32
  0
VERTEX
  8
S-OBRYS
  5
67A1E
 10
22607.6
 20
404448.
 30
0.000000
  70
    32
  0
VERTEX
  8
S-OBRYS
  5
67A1F
 10
22608.1
 20
404448.
 30
0.000000
  70
    32
  0
VERTEX
  8
S-OBRYS
  5
67A20
 10
22608.7
 20
404447.
 30
0.000000
  70
    32
  0
VERTEX
  8
S-OBRYS
  5
67A21
 10
22609.3
 20
404447.
 30
0.000000
  70
    32
  0
VERTEX
  8
S-OBRYS
  5
67A22
 10
22609.8
 20
404446.
 30
0.000000
  70
    32
  0
VERTEX
  8
S-OBRYS
  5
67A23
 10
22610.4
 20
404446.
 30
0.000000
  70
    32
  0
VERTEX
  8
S-OBRYS
  5
67A24
 10
22610.9
 20
404445.
 30
0.000000
  70
    32
  0
VERTEX
  8
S-OBRYS
  5
67A25
 10
22611.4
 20
404445.
 30
0.000000
  70
    32
  0
VERTEX
  8
S-OBRYS
  5
67A26
 10
22611.9
 20
404444.
 30
0.000000
  70
    32
  0
VERTEX
  8
S-OBRYS
  5
67A27
 10
22612.4
 20
404443.
 30
0.000000
  70
    32
  0
VERTEX
  8
S-OBRYS
  5
67A28
 10
22612.8
 20
404443.
 30
0.000000
  70
    32
  0
VERTEX
  8
S-OBRYS
  5
67A29
 10
22613.2
 20
404442.
 30
0.000000
  70
    32
  0
VERTEX
  8
S-OBRYS
  5
67A2A
 10
22613.7
 20
404442.
 30
0.000000
  70
    32
  0
VERTEX
  8
S-OBRYS
  5
67A2B
 10
22614.0
 20
404441.
 30
0.000000
  70
    32
  0
VERTEX
  8
S-OBRYS
  5
67A2C
 10
22614.4
 20
404441.
 30
0.000000
  70
    32
  0
VERTEX
  8
S-OBRYS
  5
67A2D
 10
22614.7
 20
404440.
 30
0.000000
  70
    32
  0
VERTEX
  8
S-OBRYS
  5
67A2E
 10
22615.0
 20
404440.
 30
0.000000
  70
    32
  0
VERTEX
  8
S-OBRYS
  5
67A2F
 10
22615.2
 20
404439.
 30
0.000000
  70
    32
  0
VERTEX
  8
S-OBRYS
  5
67A30
 10
22615.5
 20
404439.
 30
0.000000
  70
    32
  0
VERTEX
  8
S-OBRYS
  5
67A31
 10
22615.6
 20
404438.
 30
0.000000
  70
    32
  0
VERTEX
  8
S-OBRYS
  5
67A32
 10
22615.8
 20
404437.
 30
0.000000
  70
    32
  0
VERTEX
  8
S-OBRYS
  5
67A33
 10
22615.9
 20
404437.
 30
0.000000
  70
    32
  0
VERTEX
  8
S-OBRYS
  5
67A34
 10
22615.9
 20
404436.
 30
0.000000
  70
    32
  0
VERTEX
  8
S-OBRYS
  5
67A35
 10
22615.9
 20
404436.
 30
0.000000
  70
    32
  0
VERTEX
  8
S-OBRYS
  5
67A36
 10
22615.9
 20
404435.
 30
0.000000
  70
    32
  0
VERTEX
  8
S-OBRYS
  5
67A37
 10
22615.8
 20
404435.
 30
0.000000
  70
    32
  0
VERTEX
  8
S-OBRYS
  5
67A38
 10
22615.6
 20
404434.
 30
0.000000
  70
    32
  0
VERTEX
  8
S-OBRYS
  5
67A39
 10
22615.5
 20
404434.
 30
0.000000
  70
    32
  0
VERTEX
  8
S-OBRYS
  5
67A3A
 10
22615.2
 20
404433.
 30
0.000000
  70
    32
  0
VERTEX
  8
S-OBRYS
  5
67A3B
 10
22615.0
 20
404433.
 30
0.000000
  70
    32
  0
VERTEX
  8
S-OBRYS
  5
67A3C
 10
22614.7
 20
404432.
 30
0.000000
  70
    32
  0
VERTEX
  8
S-OBRYS
  5
67A3D
 10
22614.4
 20
404431.
 30
0.000000
  70
    32
  0
VERTEX
  8
S-OBRYS
  5
67A3E
 10
22614.0
 20
404431.
 30
0.000000
  70
    32
  0
VERTEX
  8
S-OBRYS
  5
67A3F
 10
22613.7
 20
404430.
 30
0.000000
  70
    32
  0
VERTEX
  8
S-OBRYS
  5
67A40
 10
22613.3
 20
404430.
 30
0.000000
  70
    32
  0
VERTEX
  8
S-OBRYS
  5
67A41
 10
22612.9
 20
404429.
 30
0.000000
  70
    32
  0
VERTEX
  8
S-OBRYS
  5
67A42
 10
22612.4
 20
404429.
 30
0.000000
  70
    32
  0
VERTEX
  8
S-OBRYS
  5
67A43
 10
22612.0
 20
404428.
 30
0.000000
  70
    32
  0
VERTEX
  8
S-OBRYS
  5
67A44
 10
22611.5
 20
404427.
 30
0.000000
  70
    32
  0
VERTEX
  8
S-OBRYS
  5
67A45
 10
22611.0
 20
404427.
 30
0.000000
  70
    32
  0
VERTEX
  8
S-OBRYS
  5
67A46
 10
22610.5
 20
404426.
 30
0.000000
  70
    32
  0
VERTEX
  8
S-OBRYS
  5
67A47
 10
22610.0
 20
404426.
 30
0.000000
  70
    32
  0
VERTEX
  8
S-OBRYS
  5
67A48
 10
22609.5
 20
404425.
 30
0.000000
  70
    32
  0
VERTEX
  8
S-OBRYS
  5
67A49
 10
22608.9
 20
404425.
 30
0.000000
  70
    32
  0
VERTEX
  8
S-OBRYS
  5
67A4A
 10
22608.4
 20
404424.
 30
0.000000
  70
    32
  0
VERTEX
  8
S-OBRYS
  5
67A4B
 10
22607.9
 20
404423.
 30
0.000000
  70
    32
  0
VERTEX
  8
S-OBRYS
  5
67A4C
 10
22607.4
 20
404423.
 30
0.000000
  70
    32
  0
VERTEX
  8
S-OBRYS
  5
67A4D
 10
22606.8
 20
404422.
 30
0.000000
  70
    32
  0
VERTEX
  8
S-OBRYS
  5
67A4E
 10
22606.3
 20
404422.
 30
0.000000
  70
    32
  0
VERTEX
  8
S-OBRYS
  5
67A4F
 10
22605.8
 20
404421.
 30
0.000000
  70
    32
  0
VERTEX
  8
S-OBRYS
  5
67A50
 10
22605.3
 20
404421.
 30
0.000000
  70
    32
  0
VERTEX
  8
S-OBRYS
  5
67A51
 10
22604.8
 20
404420.
 30
0.000000
  70
    32
  0
VERTEX
  8
S-OBRYS
  5
67A52
 10
22604.3
 20
404419.
 30
0.000000
  70
    32
  0
VERTEX
  8
S-OBRYS
  5
67A53
 10
22603.9
 20
404419.
 30
0.000000
  70
    32
  0
VERTEX
  8
S-OBRYS
  5
67A54
 10
22603.4
 20
404418.
 30
0.000000
  70
    32
  0
VERTEX
  8
S-OBRYS
  5
67A55
 10
22603.0
 20
404418.
 30
0.000000
  70
    32
  0
VERTEX
  8
S-OBRYS
  5
67A56
 10
22602.6
 20
404417.
 30
0.000000
  70
    32
  0
VERTEX
  8
S-OBRYS
  5
67A57
 10
22602.2
 20
404417.
 30
0.000000
  70
    32
  0
VERTEX
  8
S-OBRYS
  5
67A58
 10
22601.8
 20
404416.
 30
0.000000
  70
    32
  0
VERTEX
  8
S-OBRYS
  5
67A59
 10
22601.5
 20
404415.
 30
0.000000
  70
    32
  0
VERTEX
  8
S-OBRYS
  5
67A5A
 10
22601.2
 20
404415.
 30
0.000000
  70
    32
  0
VERTEX
  8
S-OBRYS
  5
67A5B
 10
22601.0
 20
404414.
 30
0.000000
  70
    32
  0
VERTEX
  8
S-OBRYS
  5
67A5C
 10
22600.7
 20
404414.
 30
0.000000
  70
    32
  0
VERTEX
  8
S-OBRYS
  5
67A5D
 10
22600.5
 20
404413.
 30
0.000000
  70
    32
  0
VERTEX
  8
S-OBRYS
  5
67A5E
 10
22600.4
 20
404412.
 30
0.000000
  70
    32
  0
VERTEX
  8
S-OBRYS
  5
67A5F
 10
22600.3
 20
404412.
 30
0.000000
  70
    32
  0
VERTEX
  8
S-OBRYS
  5
67A60
 10
22600.2
 20
404411.
 30
0.000000
  70
    32
  0
VERTEX
  8
S-OBRYS
  5
67A61
 10
22600.2
 20
404411.
 30
0.000000
  70
    32
  0
VERTEX
  8
S-OBRYS
  5
67A62
 10
22600.2
 20
404410.
 30
0.000000
  70
    32
  0
VERTEX
  8
S-OBRYS
  5
67A63
 10
22600.3
 20
404409.
 30
0.000000
  70
    32
  0
VERTEX
  8
S-OBRYS
  5
67A64
 10
22600.4
 20
404409.
 30
0.000000
  70
    32
  0
VERTEX
  8
S-OBRYS
  5
67A65
 10
22600.6
 20
404408.
 30
0.000000
  70
    32
  0
VERTEX
  8
S-OBRYS
  5
67A66
 10
22600.7
 20
404408.
 30
0.000000
  70
    32
  0
VERTEX
  8
S-OBRYS
  5
67A67
 10
22601.0
 20
404407.
 30
0.000000
  70
    32
  0
VERTEX
  8
S-OBRYS
  5
67A68
 10
22601.2
 20
404407.
 30
0.000000
  70
    32
  0
VERTEX
  8
S-OBRYS
  5
67A69
 10
22601.5
 20
404406.
 30
0.000000
  70
    32
  0
VERTEX
  8
S-OBRYS
  5
67A6A
 10
22601.8
 20
404405.
 30
0.000000
  70
    32
  0
VERTEX
  8
S-OBRYS
  5
67A6B
 10
22602.1
 20
404405.
 30
0.000000
  70
    32
  0
VERTEX
  8
S-OBRYS
  5
67A6C
 10
22602.5
 20
404404.
 30
0.000000
  70
    32
  0
VERTEX
  8
S-OBRYS
  5
67A6D
 10
22602.9
 20
404404.
 30
0.000000
  70
    32
  0
VERTEX
  8
S-OBRYS
  5
67A6E
 10
22603.3
 20
404403.
 30
0.000000
  70
    32
  0
VERTEX
  8
S-OBRYS
  5
67A6F
 10
22603.7
 20
404402.
 30
0.000000
  70
    32
  0
VERTEX
  8
S-OBRYS
  5
67A70
 10
22604.1
 20
404402.
 30
0.000000
  70
    32
  0
VERTEX
  8
S-OBRYS
  5
67A71
 10
22604.6
 20
404401.
 30
0.000000
  70
    32
  0
VERTEX
  8
S-OBRYS
  5
67A72
 10
22605.1
 20
404401.
 30
0.000000
  70
    32
  0
VERTEX
  8
S-OBRYS
  5
67A73
 10
22605.5
 20
404400.
 30
0.000000
  70
    32
  0
VERTEX
  8
S-OBRYS
  5
67A74
 10
22606.0
 20
404400.
 30
0.000000
  70
    32
  0
VERTEX
  8
S-OBRYS
  5
67A75
 10
22606.5
 20
404399.
 30
0.000000
  70
    32
  0
VERTEX
  8
S-OBRYS
  5
67A76
 10
22607.0
 20
404398.
 30
0.000000
  70
    32
  0
VERTEX
  8
S-OBRYS
  5
67A77
 10
22607.6
 20
404398.
 30
0.000000
  70
    32
  0
VERTEX
  8
S-OBRYS
  5
67A78
 10
22608.1
 20
404397.
 30
0.000000
  70
    32
  0
VERTEX
  8
S-OBRYS
  5
67A79
 10
22608.6
 20
404397.
 30
0.000000
  70
    32
  0
VERTEX
  8
S-OBRYS
  5
67A7A
 10
22609.1
 20
404396.
 30
0.000000
  70
    32
  0
VERTEX
  8
S-OBRYS
  5
67A7B
 10
22609.6
 20
404396.
 30
0.000000
  70
    32
  0
VERTEX
  8
S-OBRYS
  5
67A7C
 10
22610.1
 20
404395.
 30
0.000000
  70
    32
  0
VERTEX
  8
S-OBRYS
  5
67A7D
 10
22610.6
 20
404394.
 30
0.000000
  70
    32
  0
VERTEX
  8
S-OBRYS
  5
67A7E
 10
22611.1
 20
404394.
 30
0.000000
  70
    32
  0
VERTEX
  8
S-OBRYS
  5
67A7F
 10
22611.6
 20
404393.
 30
0.000000
  70
    32
  0
VERTEX
  8
S-OBRYS
  5
67A80
 10
22612.0
 20
404393.
 30
0.000000
  70
    32
  0
VERTEX
  8
S-OBRYS
  5
67A81
 10
22612.5
 20
404392.
 30
0.000000
  70
    32
  0
VERTEX
  8
S-OBRYS
  5
67A82
 10
22612.9
 20
404392.
 30
0.000000
  70
    32
  0
VERTEX
  8
S-OBRYS
  5
67A83
 10
22613.3
 20
404391.
 30
0.000000
  70
    32
  0
VERTEX
  8
S-OBRYS
  5
67A84
 10
22613.7
 20
404390.
 30
0.000000
  70
    32
  0
VERTEX
  8
S-OBRYS
  5
67A85
 10
22614.1
 20
404390.
 30
0.000000
  70
    32
  0
VERTEX
  8
S-OBRYS
  5
67A86
 10
22614.5
 20
404389.
 30
0.000000
  70
    32
  0
VERTEX
  8
S-OBRYS
  5
67A87
 10
22614.8
 20
404389.
 30
0.000000
  70
    32
  0
VERTEX
  8
S-OBRYS
  5
67A88
 10
22615.1
 20
404388.
 30
0.000000
  70
    32
  0
VERTEX
  8
S-OBRYS
  5
67A89
 10
22615.3
 20
404388.
 30
0.000000
  70
    32
  0
VERTEX
  8
S-OBRYS
  5
67A8A
 10
22615.6
 20
404387.
 30
0.000000
  70
    32
  0
VERTEX
  8
S-OBRYS
  5
67A8B
 10
22615.8
 20
404387.
 30
0.000000
  70
    32
  0
VERTEX
  8
S-OBRYS
  5
67A8C
 10
22616.0
 20
404386.
 30
0.000000
  70
    32
  0
VERTEX
  8
S-OBRYS
  5
67A8D
 10
22616.1
 20
404386.
 30
0.000000
  70
    32
  0
VERTEX
  8
S-OBRYS
  5
67A8E
 10
22616.2
 20
404385.
 30
0.000000
  70
    32
  0
VERTEX
  8
S-OBRYS
  5
67A8F
 10
22616.2
 20
404385.
 30
0.000000
  70
    32
  0
VERTEX
  8
S-OBRYS
  5
67A90
 10
22616.3
 20
404384.
 30
0.000000
  70
    32
  0
VERTEX
  8
S-OBRYS
  5
67A91
 10
22616.3
 20
404383.
 30
0.000000
  70
    32
  0
VERTEX
  8
S-OBRYS
  5
67A92
 10
22616.2
 20
404383.
 30
0.000000
  70
    32
  0
VERTEX
  8
S-OBRYS
  5
67A93
 10
22616.1
 20
404382.
 30
0.000000
  70
    32
  0
VERTEX
  8
S-OBRYS
  5
67A94
 10
22616.0
 20
404382.
 30
0.000000
  70
    32
  0
VERTEX
  8
S-OBRYS
  5
67A95
 10
22615.9
 20
404381.
 30
0.000000
  70
    32
  0
VERTEX
  8
S-OBRYS
  5
67A96
 10
22615.7
 20
404381.
 30
0.000000
  70
    32
  0
VERTEX
  8
S-OBRYS
  5
67A97
 10
22615.5
 20
404380.
 30
0.000000
  70
    32
  0
VERTEX
  8
S-OBRYS
  5
67A98
 10
22615.3
 20
404380.
 30
0.000000
  70
    32
  0
VERTEX
  8
S-OBRYS
  5
67A99
 10
22615.1
 20
404379.
 30
0.000000
  70
    32
  0
VERTEX
  8
S-OBRYS
  5
67A9A
 10
22614.8
 20
404379.
 30
0.000000
  70
    32
  0
VERTEX
  8
S-OBRYS
  5
67A9B
 10
22614.5
 20
404378.
 30
0.000000
  70
    32
  0
VERTEX
  8
S-OBRYS
  5
67A9C
 10
22614.2
 20
404378.
 30
0.000000
  70
    32
  0
VERTEX
  8
S-OBRYS
  5
67A9D
 10
22613.8
 20
404377.
 30
0.000000
  70
    32
  0
VERTEX
  8
S-OBRYS
  5
67A9E
 10
22613.4
 20
404377.
 30
0.000000
  70
    32
  0
VERTEX
  8
S-OBRYS
  5
67A9F
 10
22613.0
 20
404376.
 30
0.000000
  70
    32
  0
VERTEX
  8
S-OBRYS
  5
67AA0
 10
22612.6
 20
404376.
 30
0.000000
  70
    32
  0
VERTEX
  8
S-OBRYS
  5
67AA1
 10
22612.2
 20
404375.
 30
0.000000
  70
    32
  0
VERTEX
  8
S-OBRYS
  5
67AA2
 10
22611.7
 20
404375.
 30
0.000000
  70
    32
  0
VERTEX
  8
S-OBRYS
  5
67AA3
 10
22611.2
 20
404374.
 30
0.000000
  70
    32
  0
VERTEX
  8
S-OBRYS
  5
67AA4
 10
22610.7
 20
404374.
 30
0.000000
  70
    32
  0
VERTEX
  8
S-OBRYS
  5
67AA5
 10
22610.2
 20
404373.
 30
0.000000
  70
    32
  0
VERTEX
  8
S-OBRYS
  5
67AA6
 10
22609.6
 20
404373.
 30
0.000000
  70
    32
  0
VERTEX
  8
S-OBRYS
  5
67AA7
 10
22609.0
 20
404373.
 30
0.000000
  70
    32
  0
VERTEX
  8
S-OBRYS
  5
67AA8
 10
22608.5
 20
404372.
 30
0.000000
  70
    32
  0
VERTEX
  8
S-OBRYS
  5
67AA9
 10
22607.9
 20
404372.
 30
0.000000
  70
    32
  0
VERTEX
  8
S-OBRYS
  5
67AAA
 10
22607.3
 20
404371.
 30
0.000000
  70
    32
  0
VERTEX
  8
S-OBRYS
  5
67AAB
 10
22606.6
 20
404371.
 30
0.000000
  70
    32
  0
VERTEX
  8
S-OBRYS
  5
67AAC
 10
22606.0
 20
404370.
 30
0.000000
  70
    32
  0
VERTEX
  8
S-OBRYS
  5
67AAD
 10
22605.3
 20
404370.
 30
0.000000
  70
    32
  0
VERTEX
  8
S-OBRYS
  5
67AAE
 10
22604.7
 20
404369.
 30
0.000000
  70
    32
  0
VERTEX
  8
S-OBRYS
  5
67AAF
 10
22604.0
 20
404369.
 30
0.000000
  70
    32
  0
VERTEX
  8
S-OBRYS
  5
67AB0
 10
22603.3
 20
404368.
 30
0.000000
  70
    32
  0
VERTEX
  8
S-OBRYS
  5
67AB1
 10
22602.6
 20
404368.
 30
0.000000
  70
    32
  0
VERTEX
  8
S-OBRYS
  5
67AB2
 10
22601.9
 20
404367.
 30
0.000000
  70
    32
  0
VERTEX
  8
S-OBRYS
  5
67AB3
 10
22601.1
 20
404367.
 30
0.000000
  70
    32
  0
VERTEX
  8
S-OBRYS
  5
67AB4
 10
22600.4
 20
404366.
 30
0.000000
  70
    32
  0
VERTEX
  8
S-OBRYS
  5
67AB5
 10
22599.7
 20
404366.
 30
0.000000
  70
    32
  0
VERTEX
  8
S-OBRYS
  5
67AB6
 10
22598.9
 20
404365.
 30
0.000000
  70
    32
  0
VERTEX
  8
S-OBRYS
  5
67AB7
 10
22598.2
 20
404365.
 30
0.000000
  70
    32
  0
VERTEX
  8
S-OBRYS
  5
67AB8
 10
22597.4
 20
404365.
 30
0.000000
  70
    32
  0
VERTEX
  8
S-OBRYS
  5
67AB9
 10
22596.6
 20
404364.
 30
0.000000
  70
    32
  0
VERTEX
  8
S-OBRYS
  5
67ABA
 10
22595.9
 20
404364.
 30
0.000000
  70
    32
  0
VERTEX
  8
S-OBRYS
  5
67ABB
 10
22595.1
 20
404363.
 30
0.000000
  70
    32
  0
VERTEX
  8
S-OBRYS
  5
67ABC
 10
22594.3
 20
404363.
 30
0.000000
  70
    32
  0
VERTEX
  8
S-OBRYS
  5
67ABD
 10
22593.6
 20
404362.
 30
0.000000
  70
    32
  0
VERTEX
  8
S-OBRYS
  5
67ABE
 10
22592.8
 20
404362.
 30
0.000000
  70
    32
  0
VERTEX
  8
S-OBRYS
  5
67ABF
 10
22592.0
 20
404361.
 30
0.000000
  70
    32
  0
SEQEND
  8
S-OBRYS
  5
67AC0
  0
LINE
  5
66A59
  8
S-OBRYS
  6
CONTINUOUS
 10
22596.952133263861
 20
404559.52582139312
 30
0.0
 11
22972.607067252258
 21
404559.52582139312
 31
0.0
  0
LINE
  5
66A5A
  8
S-OBRYS
  6
CONTINUOUS
 10
22599.178821353438
 20
404511.81177737209
 30
0.0
 11
22963.379435004921
 21
404511.71420971979
 31
0.0
  0
DIMENSION
  5
66A5B
  8
S-OBRYS
  6
CONTINUOUS
  2
*D80
 10
23091.998756538309
 20
403153.11585750151
 30
0.0
 11
23254.4988375383
 21
403228.11585750151
 31
0.0
 70
     0
 13
23416.998918538298
 23
403311.2682059175
 33
0.0
 14
23091.998756538309
 24
403311.2682059175
 34
0.0
  0
DIMENSION
  5
66A5C
  8
S-OBRYS
  6
CONTINUOUS
  2
*D81
 10
21816.82403787956
 20
403153.11585750151
 30
0.0
 11
21488.966895022419
 21
403153.11585750151
 31
0.0
 70
   128
  1
200
 13
22037.779958938299
 23
403336.26788921747
 33
0.0
 14
21816.82403787956
 24
403816.99316628731
 34
0.0
  0
DIMENSION
  5
66A5D
  8
S-OBRYS
  6
CONTINUOUS
  2
*D82
 10
21729.12523804561
 20
403816.99316628731
 30
0.0
 11
21654.125238045552
 21
403564.13068610238
 31
0.0
 70
     0
  1
500
 13
22012.779361238299
 23
403311.2682059175
 33
0.0
 14
21816.82403787956
 24
403816.99316628731
 34
0.0
 50
90.0
  0
LINE
  5
66A5E
  8
S-OBRYS
  6
CONTINUOUS
 10
23368.322993961749
 20
403950.29475700727
 30
0.0
 11
23420.244893757848
 21
403944.55325803702
 31
0.0
  0
LINE
  5
66A5F
  8
S-OBRYS
  6
CONTINUOUS
 10
23092.779958938299
 20
403336.26788921747
 30
0.0
 11
23092.779958938299
 21
403411.2681583176
 31
0.0
  0
DIMENSION
  5
66A60
  8
S-OBRYS
  6
CONTINUOUS
  2
*D83
 10
23092.779958938299
 20
403153.11585750151
 30
0.0
 11
22565.279806538299
 21
403228.11585750151
 31
0.0
 70
     0
 13
22037.7796541383
 23
403311.2682059175
 33
0.0
 14
23092.779958938299
 24
403336.26788921747
 34
0.0
  0
DIMENSION
  5
66A61
  8
S-OBRYS
  6
CONTINUOUS
  2
*D84
 10
23591.998823338301
 20
402945.74833242001
 30
0.0
 11
22565.582432667688
 21
402945.74833242001
 31
0.0
 70
   128
  1
1780
 13
21816.82403787956
 23
403311.2682059175
 33
0.0
 14
23591.998823338301
 24
403586.2683798176
 34
0.0
  0
DIMENSION
  5
66A62
  8
S-OBRYS
  6
CONTINUOUS
  2
*D85
 10
25585.535235895321
 20
405257.648575078
 30
0.0
 11
25800.53512879532
 21
405332.648575078
 31
0.0
 70
     0
 13
26015.53502169533
 23
404920.1542436764
 33
0.0
 14
25585.535235895321
 24
404920.1542436764
 34
0.0
  0
DIMENSION
  5
66A63
  8
S-OBRYS
  6
CONTINUOUS
  2
*D86
 10
24858.78414278349
 20
403420.15434807632
 30
0.0
 11
24783.784142783428
 21
404170.15429587627
 31
0.0
 70
     0
 13
25585.535235895321
 23
404920.1542436764
 33
0.0
 14
25040.535192895321
 24
403420.15434807632
 34
0.0
 50
90.0
  0
DIMENSION
  5
66A64
  8
S-OBRYS
  6
CONTINUOUS
  2
*D87
 10
25040.535192895331
 20
402960.3451592644
 30
0.0
 11
25800.53512879532
 21
403035.3451592644
 31
0.0
 70
     0
 13
26560.535064695319
 23
403420.15434807638
 33
0.0
 14
25040.535192895331
 24
403420.15434807638
 34
0.0
  0
DIMENSION
  5
66A65
  8
S-OBRYS
  6
CONTINUOUS
  2
*D88
 10
20163.039604391481
 20
400220.63718678168
 30
0.0
 11
19537.275971856321
 21
400338.4079723676
 31
0.0
 70
   131
 15
20145.350162595551
 25
400223.9663982421
 35
0.0
 40
0.0
  0
DIMENSION
  5
66A66
  8
S-OBRYS
  6
CONTINUOUS
  2
*D89
 10
20569.19488349355
 20
398428.5123789963
 30
0.0
 11
20154.19488349355
 21
398503.5123789963
 31
0.0
 70
     0
 13
19739.194883493539
 23
398852.00618262042
 33
0.0
 14
20569.19488349355
 24
398852.00618262042
 34
0.0
  0
CIRCLE
  5
66A67
  8
S-OBRYS
  6
CONTINUOUS
 10
20569.194883493259
 20
398856.30195911211
 30
0.0
 40
76.0
  0
LINE
  5
66A68
  8
S-OBRYS
  6
CONTINUOUS
 10
19459.194883493539
 20
398887.301959112
 30
0.0
 11
19459.194883493539
 21
398969.23552825721
 31
0.0
  0
LINE
  5
66A69
  8
S-OBRYS
  6
CONTINUOUS
 10
20849.19488349355
 20
398887.301959112
 30
0.0
 11
20849.19488349355
 21
398969.23552825721
 31
0.0
  0
DIMENSION
  5
66A6A
  8
S-OBRYS
  6
CONTINUOUS
  2
*D90
 10
20849.194883493539
 20
398250.14944655221
 30
0.0
 11
20154.194883493539
 21
398325.14944655221
 31
0.0
 70
     0
 13
19459.194883493539
 23
398887.301959112
 33
0.0
 14
20849.194883493539
 24
398887.301959112
 34
0.0
  0
DIMENSION
  5
66A6B
  8
S-OBRYS
  6
CONTINUOUS
  2
*D91
 10
19329.811493939749
 20
399167.301959112
 30
0.0
 11
19254.81149393968
 21
399694.80187581212
 31
0.0
 70
     0
 13
20141.25955623361
 23
400222.30179251201
 33
0.0
 14
19446.259556233621
 24
399167.301959112
 34
0.0
 50
90.0
  0
DIMENSION
  5
66A6C
  8
S-OBRYS
  6
CONTINUOUS
  2
*D92
 10
19329.953057964711
 20
398917.301959112
 30
0.0
 11
19329.953057964649
 21
399042.30195911211
 31
0.0
 70
   128
 13
19363.680806872519
 23
399167.301959112
 33
0.0
 14
19446.259556233621
 24
398917.301959112
 34
0.0
 50
90.0
  0
LINE
  5
66A6D
  8
S-OBRYS
  6
CONTINUOUS
 10
20469.194883493259
 20
398856.30195911211
 30
0.0
 11
20669.194883493259
 21
398856.30195911211
 31
0.0
  0
LINE
  5
66A6E
  8
S-OBRYS
  6
CONTINUOUS
 10
20569.194883493259
 20
398756.301959112
 30
0.0
 11
20569.194883493259
 21
398956.301959112
 31
0.0
  0
LINE
  5
66A6F
  8
S-OBRYS
  6
CONTINUOUS
 10
20154.19488349355
 20
398887.301959112
 30
0.0
 11
20154.19488349355
 21
400209.36646525201
 31
0.0
  0
LINE
  5
66A70
  8
S-OBRYS
  6
CONTINUOUS
 10
20154.19488349355
 20
399548.33421218209
 30
0.0
 11
20071.7639046683
 21
399548.33421218209
 31
0.0
  0
CIRCLE
  5
66A71
  8
S-OBRYS
  6
CONTINUOUS
 10
20154.19488349355
 20
399548.33421218209
 30
0.0
 40
177.5
  0
LINE
  5
66A72
  8
S-OBRYS
  6
CONTINUOUS
 10
19907.173651302899
 20
399548.33421218209
 30
0.0
 11
20415.906769077621
 21
399548.33421218209
 31
0.0
  0
LINE
  5
66A73
  8
S-OBRYS
  6
CONTINUOUS
 10
19907.173651302899
 20
399137.33421218197
 30
0.0
 11
20415.906769077621
 21
399137.33421218197
 31
0.0
  0
LINE
  5
66A74
  8
S-OBRYS
  6
CONTINUOUS
 10
20154.19488349355
 20
399448.33421218209
 30
0.0
 11
20154.19488349355
 21
399648.33421218197
 31
0.0
  0
DIMENSION
  5
66A75
  8
S-OBRYS
  6
CONTINUOUS
  2
*D93
 10
20472.70561502382
 20
399137.33421218197
 30
0.0
 11
20397.705615023759
 21
399342.83421218197
 31
0.0
 70
     0
 13
20364.516628639689
 23
399548.33421218209
 33
0.0
 14
20364.516628639689
 24
399137.33421218197
 34
0.0
 50
90.0
  0
DIMENSION
  5
66A76
  8
S-OBRYS
  6
CONTINUOUS
  2
*D94
 10
19499.194883493539
 20
399397.3578402889
 30
0.0
 11
19788.956788255451
 21
399472.35784028878
 31
0.0
 70
     0
 13
19419.194883493539
 23
399232.30179251212
 33
0.0
 14
19499.194883493539
 24
399232.30179251212
 34
0.0
  0
LINE
  5
66A77
  8
S-OBRYS
  6
CONTINUOUS
 10
23225.555062844171
 20
398887.301959112
 30
0.0
 11
24695.555062844171
 21
398887.301959112
 31
0.0
  0
LINE
  5
66A78
  8
S-OBRYS
  6
CONTINUOUS
 10
24695.555062844171
 20
398887.301959112
 30
0.0
 11
24695.555062844171
 21
399232.30179251212
 31
0.0
  0
LINE
  5
66A79
  8
S-OBRYS
  6
CONTINUOUS
 10
24695.555062844171
 20
399232.30179251212
 30
0.0
 11
24666.413561844169
 21
399232.30179251212
 31
0.0
  0
LINE
  5
66A7A
  8
S-OBRYS
  6
CONTINUOUS
 10
24666.413561844169
 20
399232.30179251212
 30
0.0
 11
24175.555062844171
 21
400387.30185471202
 31
0.0
  0
LINE
  5
66A7B
  8
S-OBRYS
  6
CONTINUOUS
 10
24175.555062844171
 20
400387.30185471202
 30
0.0
 11
23745.555062844171
 21
400387.30185471202
 31
0.0
  0
LINE
  5
66A7C
  8
S-OBRYS
  6
CONTINUOUS
 10
23745.555062844171
 20
400387.30185471202
 30
0.0
 11
23254.69656384418
 21
399232.30179251212
 31
0.0
  0
LINE
  5
66A7D
  8
S-OBRYS
  6
CONTINUOUS
 10
23254.69656384418
 20
399232.30179251212
 30
0.0
 11
23225.555062844171
 21
399232.30179251212
 31
0.0
  0
LINE
  5
66A7E
  8
S-OBRYS
  6
CONTINUOUS
 10
23225.555062844171
 20
399232.30179251212
 30
0.0
 11
23225.555062844171
 21
398887.301959112
 31
0.0
  0
POLYLINE
  5
66A7F
  8
S-OBRYS
  6
CONTINUOUS
 66
     1
 10
0.0
 20
0.0
 30
0.0
 70
     1
  0
VERTEX
  5
67874
  8
S-OBRYS
  6
CONTINUOUS
 10
23225.555062844171
 20
398887.301959112
 30
0.0
  0
VERTEX
  5
67875
  8
S-OBRYS
  6
CONTINUOUS
 10
23305.555062844171
 20
398887.301959112
 30
0.0
  0
VERTEX
  5
67876
  8
S-OBRYS
  6
CONTINUOUS
 10
23305.555062844171
 20
399232.30179251212
 30
0.0
  0
VERTEX
  5
67877
  8
S-OBRYS
  6
CONTINUOUS
 10
23225.555062844171
 20
399232.30179251212
 30
0.0
  0
SEQEND
  5
67878
  8
S-OBRYS
  6
CONTINUOUS
  0
POLYLINE
  5
66A80
  8
S-OBRYS
  6
CONTINUOUS
 66
     1
 10
0.0
 20
0.0
 30
0.0
 70
     1
  0
VERTEX
  5
67879
  8
S-OBRYS
  6
CONTINUOUS
 10
24615.555062844171
 20
398887.301959112
 30
0.0
  0
VERTEX
  5
6787A
  8
S-OBRYS
  6
CONTINUOUS
 10
24695.555062844171
 20
398887.301959112
 30
0.0
  0
VERTEX
  5
6787B
  8
S-OBRYS
  6
CONTINUOUS
 10
24695.555062844171
 20
399232.30179251212
 30
0.0
  0
VERTEX
  5
6787C
  8
S-OBRYS
  6
CONTINUOUS
 10
24615.555062844171
 20
399232.30179251212
 30
0.0
  0
SEQEND
  5
6787D
  8
S-OBRYS
  6
CONTINUOUS
  0
LINE
  5
66A81
  8
S-OBRYS
  6
CONTINUOUS
 10
23278.4903901041
 20
398917.301959112
 30
0.0
 11
23252.619735584249
 21
398917.301959112
 31
0.0
  0
LINE
  5
66A82
  8
S-OBRYS
  6
CONTINUOUS
 10
23612.706893382539
 20
398856.30195911211
 30
0.0
 11
23502.619735584241
 21
398856.30195911211
 31
0.0
  0
CIRCLE
  5
66A83
  8
S-OBRYS
  6
CONTINUOUS
 10
23265.555062844171
 20
398917.301959112
 30
0.0
 40
9.0
  0
LINE
  5
66A84
  8
S-OBRYS
  6
CONTINUOUS
 10
23265.555062844171
 20
399154.366631852
 30
0.0
 11
23265.555062844171
 21
399180.23728637199
 31
0.0
  0
CIRCLE
  5
66A85
  8
S-OBRYS
  6
CONTINUOUS
 10
23265.555062844171
 20
399167.301959112
 30
0.0
 40
9.0
  0
LINE
  5
66A86
  8
S-OBRYS
  6
CONTINUOUS
 10
23278.4903901041
 20
399167.301959112
 30
0.0
 11
23252.619735584249
 21
399167.301959112
 31
0.0
  0
LINE
  5
66A87
  8
S-OBRYS
  6
CONTINUOUS
 10
24655.555062844171
 20
398904.36663185211
 30
0.0
 11
24655.555062844171
 21
398930.23728637199
 31
0.0
  0
CIRCLE
  5
66A88
  8
S-OBRYS
  6
CONTINUOUS
 10
24655.555062844171
 20
398917.301959112
 30
0.0
 40
9.0
  0
LINE
  5
66A89
  8
S-OBRYS
  6
CONTINUOUS
 10
24642.619735584241
 20
398917.301959112
 30
0.0
 11
24668.4903901041
 21
398917.301959112
 31
0.0
  0
LINE
  5
66A8A
  8
S-OBRYS
  6
CONTINUOUS
 10
24642.619735584241
 20
399167.301959112
 30
0.0
 11
24668.4903901041
 21
399167.301959112
 31
0.0
  0
CIRCLE
  5
66A8B
  8
S-OBRYS
  6
CONTINUOUS
 10
24655.555062844171
 20
399167.301959112
 30
0.0
 40
9.0
  0
LINE
  5
66A8C
  8
S-OBRYS
  6
CONTINUOUS
 10
24655.555062844171
 20
399154.366631852
 30
0.0
 11
24655.555062844171
 21
399180.23728637199
 31
0.0
  0
POLYLINE
  5
66A8D
  8
S-OBRYS
  6
CONTINUOUS
 66
     1
 10
0.0
 20
0.0
 30
0.0
 70
     1
  0
VERTEX
  5
6787E
  8
S-OBRYS
  6
CONTINUOUS
 10
23990.555062844171
 20
400272.30179251201
 30
0.0
  0
VERTEX
  5
6787F
  8
S-OBRYS
  6
CONTINUOUS
 10
23930.555062844171
 20
400272.30179251201
 30
0.0
  0
VERTEX
  5
67880
  8
S-OBRYS
  6
CONTINUOUS
 10
23930.555062844171
 20
400172.30179251201
 30
0.0
  0
VERTEX
  5
67881
  8
S-OBRYS
  6
CONTINUOUS
 10
23990.555062844171
 20
400172.30179251201
 30
0.0
  0
SEQEND
  5
67882
  8
S-OBRYS
  6
CONTINUOUS
  0
LINE
  5
66A8E
  8
S-OBRYS
  6
CONTINUOUS
 10
23960.555062844171
 20
400209.36646525201
 30
0.0
 11
23960.555062844171
 21
400235.23711977189
 31
0.0
  0
CIRCLE
  5
66A8F
  8
S-OBRYS
  6
CONTINUOUS
 10
23960.555062844171
 20
400222.30179251201
 30
0.0
 40
9.0
  0
LINE
  5
66A90
  8
S-OBRYS
  6
CONTINUOUS
 10
23973.4903901041
 20
400222.30179251201
 30
0.0
 11
23947.619735584241
 21
400222.30179251201
 31
0.0
  0
CIRCLE
  5
66A91
  8
S-OBRYS
  6
CONTINUOUS
 10
23545.555062844051
 20
398856.30195911211
 30
0.0
 40
76.0
  0
LINE
  5
66A92
  8
S-OBRYS
  6
CONTINUOUS
 10
23545.55506284388
 20
398939.21625947981
 30
0.0
 11
23545.55506284388
 21
398773.38765874429
 31
0.0
  0
LINE
  5
66A93
  8
S-OBRYS
  6
CONTINUOUS
 10
23462.640762476189
 20
398856.30195911211
 30
0.0
 11
23628.46936321157
 21
398856.30195911211
 31
0.0
  0
DIMENSION
  5
66A94
  8
S-OBRYS
  6
CONTINUOUS
  2
*D48
 10
24818.885416259949
 20
400387.30185471202
 30
0.0
 11
24743.885416259891
 21
399637.30190691201
 31
0.0
 70
     0
 13
24445.555062844171
 23
398887.301959112
 33
0.0
 14
24100.555062844171
 24
400387.30185471202
 34
0.0
 50
90.0
  0
DIMENSION
  5
66A95
  8
S-OBRYS
  6
CONTINUOUS
  2
*D49
 10
24611.637388678591
 20
400272.30179251201
 30
0.0
 11
24611.63738867853
 21
399850.15893536923
 31
0.0
 70
   128
 13
23990.555062844171
 23
400172.30179251201
 33
0.0
 14
23990.555062844171
 24
400272.30179251201
 34
0.0
 50
90.0
  0
DIMENSION
  5
66A96
  8
S-OBRYS
  6
CONTINUOUS
  2
*D50
 10
23990.555062844171
 20
400508.3698255698
 30
0.0
 11
24278.412205701308
 21
400583.3698255698
 31
0.0
 70
     0
 13
23930.555062844171
 23
400272.30179251201
 33
0.0
 14
23990.555062844171
 24
400272.30179251201
 34
0.0
  0
DIMENSION
  5
66A97
  8
S-OBRYS
  6
CONTINUOUS
  2
*D51
 10
24922.705184998798
 20
398856.30195911211
 30
0.0
 11
24847.70518499874
 21
398579.87338768347
 31
0.0
 70
     0
 13
24677.172787551452
 23
398917.301959112
 33
0.0
 14
24268.46957281185
 24
398856.30195911211
 34
0.0
 50
90.0
  0
DIMENSION
  5
66A98
  8
S-OBRYS
  6
CONTINUOUS
  2
*D52
 10
23615.565093393609
 20
398885.87552200962
 30
0.0
 11
23070.199572256039
 21
398655.50279663061
 31
0.0
 70
   131
 15
23475.54503229438
 25
398826.7283962142
 35
0.0
 40
0.0
  0
DIMENSION
  5
66A99
  8
S-OBRYS
  6
CONTINUOUS
  2
*D53
 10
25096.743201425648
 20
399232.30179251212
 30
0.0
 11
25096.74320142559
 21
399059.801875812
 31
0.0
 70
   128
 13
24698.705062844161
 23
398887.301959112
 33
0.0
 14
24698.705062844161
 24
399232.30179251212
 34
0.0
 50
90.0
  0
DIMENSION
  5
66A9A
  8
S-OBRYS
  6
CONTINUOUS
  2
*D54
 10
23969.399783742108
 20
400220.63718678162
 30
0.0
 11
23343.636151206931
 21
400338.40797236742
 31
0.0
 70
   131
 15
23951.710341946171
 25
400223.96639824199
 35
0.0
 40
0.0
  0
DIMENSION
  5
66A9B
  8
S-OBRYS
  6
CONTINUOUS
  2
*D55
 10
24375.555062844171
 20
398428.5123789963
 30
0.0
 11
23960.555062844171
 21
398503.5123789963
 31
0.0
 70
     0
 13
23545.555062844171
 23
398852.00618262042
 33
0.0
 14
24375.555062844171
 24
398852.00618262042
 34
0.0
  0
CIRCLE
  5
66A9C
  8
S-OBRYS
  6
CONTINUOUS
 10
24375.55506284388
 20
398856.30195911211
 30
0.0
 40
76.0
  0
LINE
  5
66A9D
  8
S-OBRYS
  6
CONTINUOUS
 10
23265.555062844171
 20
398887.301959112
 30
0.0
 11
23265.555062844171
 21
398969.23552825721
 31
0.0
  0
LINE
  5
66A9E
  8
S-OBRYS
  6
CONTINUOUS
 10
24655.555062844171
 20
398887.301959112
 30
0.0
 11
24655.555062844171
 21
398969.23552825721
 31
0.0
  0
DIMENSION
  5
66A9F
  8
S-OBRYS
  6
CONTINUOUS
  2
*D56
 10
24655.55506284416
 20
398250.14944655221
 30
0.0
 11
23960.555062844171
 21
398325.14944655221
 31
0.0
 70
     0
 13
23265.555062844171
 23
398887.301959112
 33
0.0
 14
24655.55506284416
 24
398887.301959112
 34
0.0
  0
DIMENSION
  5
66AA0
  8
S-OBRYS
  6
CONTINUOUS
  2
*D57
 10
23136.17167329037
 20
399167.301959112
 30
0.0
 11
23061.171673290311
 21
399694.80187581212
 31
0.0
 70
     0
 13
23947.619735584241
 23
400222.30179251201
 33
0.0
 14
23252.619735584249
 24
399167.301959112
 34
0.0
 50
90.0
  0
DIMENSION
  5
66AA1
  8
S-OBRYS
  6
CONTINUOUS
  2
*D58
 10
23136.313237315338
 20
398917.301959112
 30
0.0
 11
23136.31323731528
 21
399042.30195911211
 31
0.0
 70
   128
 13
23170.04098622315
 23
399167.301959112
 33
0.0
 14
23252.619735584249
 24
398917.301959112
 34
0.0
 50
90.0
  0
LINE
  5
66AA2
  8
S-OBRYS
  6
CONTINUOUS
 10
24275.55506284388
 20
398856.30195911211
 30
0.0
 11
24475.55506284388
 21
398856.30195911211
 31
0.0
  0
LINE
  5
66AA3
  8
S-OBRYS
  6
CONTINUOUS
 10
24375.55506284388
 20
398756.301959112
 30
0.0
 11
24375.55506284388
 21
398956.301959112
 31
0.0
  0
LINE
  5
66AA4
  8
S-OBRYS
  6
CONTINUOUS
 10
23960.555062844171
 20
398887.301959112
 30
0.0
 11
23960.555062844171
 21
400209.36646525201
 31
0.0
  0
LINE
  5
66AA5
  8
S-OBRYS
  6
CONTINUOUS
 10
23960.555062844171
 20
399548.33421218209
 30
0.0
 11
23878.124084018931
 21
399548.33421218209
 31
0.0
  0
CIRCLE
  5
66AA6
  8
S-OBRYS
  6
CONTINUOUS
 10
23960.555062844171
 20
399548.33421218209
 30
0.0
 40
177.5
  0
LINE
  5
66AA7
  8
S-OBRYS
  6
CONTINUOUS
 10
23713.53383065353
 20
399548.33421218209
 30
0.0
 11
24222.266948428241
 21
399548.33421218209
 31
0.0
  0
LINE
  5
66AA8
  8
S-OBRYS
  6
CONTINUOUS
 10
23713.53383065353
 20
399137.33421218197
 30
0.0
 11
24222.266948428241
 21
399137.33421218197
 31
0.0
  0
LINE
  5
66AA9
  8
S-OBRYS
  6
CONTINUOUS
 10
23960.555062844171
 20
399448.33421218209
 30
0.0
 11
23960.555062844171
 21
399648.33421218197
 31
0.0
  0
DIMENSION
  5
66AAA
  8
S-OBRYS
  6
CONTINUOUS
  2
*D59
 10
24279.065794374441
 20
399137.33421218197
 30
0.0
 11
24204.065794374379
 21
399342.83421218197
 31
0.0
 70
     0
 13
24170.876807990309
 23
399548.33421218209
 33
0.0
 14
24170.876807990309
 24
399137.33421218197
 34
0.0
 50
90.0
  0
DIMENSION
  5
66AAB
  8
S-OBRYS
  6
CONTINUOUS
  2
*D60
 10
23305.555062844171
 20
399397.3578402889
 30
0.0
 11
23595.316967606072
 21
399472.35784028878
 31
0.0
 70
     0
 13
23225.555062844171
 23
399232.30179251212
 33
0.0
 14
23305.555062844171
 24
399232.30179251212
 34
0.0
  0
LINE
  5
66AAC
  8
S-OBRYS
  6
CONTINUOUS
 10
26194.79771147927
 20
397544.05929442291
 30
0.0
 11
26194.79771147927
 21
398427.47596181772
 31
0.0
  0
LINE
  5
66AAD
  8
S-OBRYS
  6
CONTINUOUS
 10
26194.79771147927
 20
397544.05929442291
 30
0.0
 11
26295.842594175861
 21
397615.01845132938
 31
0.0
  0
LINE
  5
66AAE
  8
S-OBRYS
  6
CONTINUOUS
 10
26194.79771147927
 20
397669.05929442297
 30
0.0
 11
26295.842594175861
 21
397740.0184513295
 31
0.0
  0
LINE
  5
66AAF
  8
S-OBRYS
  6
CONTINUOUS
 10
26194.79771147927
 20
397794.05929442291
 30
0.0
 11
26295.842594175861
 21
397865.01845132938
 31
0.0
  0
LINE
  5
66AB0
  8
S-OBRYS
  6
CONTINUOUS
 10
26194.79771147927
 20
397919.05929442297
 30
0.0
 11
26295.842594175861
 21
397990.01845132938
 31
0.0
  0
LINE
  5
66AB1
  8
S-OBRYS
  6
CONTINUOUS
 10
26194.79771147927
 20
398044.05929442297
 30
0.0
 11
26295.842594175861
 21
398115.01845132938
 31
0.0
  0
LINE
  5
66AB2
  8
S-OBRYS
  6
CONTINUOUS
 10
26194.79771147927
 20
398169.05929442291
 30
0.0
 11
26295.842594175861
 21
398240.01845132938
 31
0.0
  0
LINE
  5
66AB3
  8
S-OBRYS
  6
CONTINUOUS
 10
26194.79771147927
 20
398294.05929442297
 30
0.0
 11
26295.842594175861
 21
398365.01845132938
 31
0.0
  0
LINE
  5
66AB4
  8
S-OBRYS
  6
CONTINUOUS
 10
26194.79771147927
 20
398419.05929442291
 30
0.0
 11
26295.842594175861
 21
398490.01845132938
 31
0.0
  0
LINE
  5
66AB5
  8
S-OBRYS
  6
CONTINUOUS
 10
24375.176367938609
 20
400972.30179251212
 30
0.0
 11
25258.593035333412
 21
400972.30179251212
 31
0.0
  0
LINE
  5
66AB6
  8
S-OBRYS
  6
CONTINUOUS
 10
24375.176367938609
 20
400972.30179251212
 30
0.0
 11
24446.135524845071
 21
401073.34667520848
 31
0.0
  0
LINE
  5
66AB7
  8
S-OBRYS
  6
CONTINUOUS
 10
24500.176367938609
 20
400972.30179251212
 30
0.0
 11
24571.135524845071
 21
401073.34667520848
 31
0.0
  0
LINE
  5
66AB8
  8
S-OBRYS
  6
CONTINUOUS
 10
24625.176367938609
 20
400972.30179251212
 30
0.0
 11
24696.135524845071
 21
401073.34667520848
 31
0.0
  0
LINE
  5
66AB9
  8
S-OBRYS
  6
CONTINUOUS
 10
24750.176367938599
 20
400972.30179251212
 30
0.0
 11
24821.135524845071
 21
401073.34667520848
 31
0.0
  0
LINE
  5
66ABA
  8
S-OBRYS
  6
CONTINUOUS
 10
24875.176367938609
 20
400972.30179251212
 30
0.0
 11
24946.135524845071
 21
401073.34667520848
 31
0.0
  0
LINE
  5
66ABB
  8
S-OBRYS
  6
CONTINUOUS
 10
25000.176367938609
 20
400972.30179251212
 30
0.0
 11
25071.135524845071
 21
401073.34667520848
 31
0.0
  0
LINE
  5
66ABC
  8
S-OBRYS
  6
CONTINUOUS
 10
25125.176367938609
 20
400972.30179251212
 30
0.0
 11
25196.135524845071
 21
401073.34667520848
 31
0.0
  0
LINE
  5
66ABD
  8
S-OBRYS
  6
CONTINUOUS
 10
25250.176367938609
 20
400972.30179251212
 30
0.0
 11
25321.135524845071
 21
401073.34667520848
 31
0.0
  0
DIMENSION
  5
66ABE
  8
S-OBRYS
  6
CONTINUOUS
  2
*D61
 10
25066.527643538691
 20
400972.30179251212
 30
0.0
 11
24991.527643538629
 21
400622.30179251201
 31
0.0
 70
     0
 13
24495.17846348614
 23
400272.30179251201
 33
0.0
 14
24500.176367938609
 24
400972.30179251212
 34
0.0
 50
90.0
  0
DIMENSION
  5
66ABF
  8
S-OBRYS
  6
CONTINUOUS
  2
*D62
 10
26194.79771147927
 20
397975.12778750161
 30
0.0
 11
25445.176387161719
 21
398050.12778750161
 31
0.0
 70
     0
  1
1500
 13
24695.555062844171
 23
398887.301959112
 33
0.0
 14
26194.79771147927
 24
398237.59975336143
 34
0.0
  0
DIMENSION
  5
66AC0
  8
S-OBRYS
  6
CONTINUOUS
  2
*D63
 10
22860.44942847846
 20
398187.301959112
 30
0.0
 11
22785.449428478401
 21
398537.30195911211
 31
0.0
 70
     0
 13
23225.555062844171
 23
398887.301959112
 33
0.0
 14
22948.725112347842
 24
398187.301959112
 34
0.0
 50
90.0
  0
LINE
  5
66AC1
  8
S-OBRYS
  6
CONTINUOUS
 10
22408.685676171299
 20
398187.301959112
 30
0.0
 11
23292.102343566112
 21
398187.301959112
 31
0.0
  0
LINE
  5
66AC2
  8
S-OBRYS
  6
CONTINUOUS
 10
22408.685676171299
 20
398187.301959112
 30
0.0
 11
22479.64483307776
 21
398086.25707641541
 31
0.0
  0
LINE
  5
66AC3
  8
S-OBRYS
  6
CONTINUOUS
 10
22533.685676171299
 20
398187.301959112
 30
0.0
 11
22604.644833077771
 21
398086.25707641541
 31
0.0
  0
LINE
  5
66AC4
  8
S-OBRYS
  6
CONTINUOUS
 10
22658.685676171299
 20
398187.301959112
 30
0.0
 11
22729.64483307776
 21
398086.25707641541
 31
0.0
  0
LINE
  5
66AC5
  8
S-OBRYS
  6
CONTINUOUS
 10
22783.685676171299
 20
398187.301959112
 30
0.0
 11
22854.644833077771
 21
398086.25707641541
 31
0.0
  0
LINE
  5
66AC6
  8
S-OBRYS
  6
CONTINUOUS
 10
22908.685676171299
 20
398187.301959112
 30
0.0
 11
22979.64483307776
 21
398086.25707641541
 31
0.0
  0
LINE
  5
66AC7
  8
S-OBRYS
  6
CONTINUOUS
 10
23033.685676171299
 20
398187.301959112
 30
0.0
 11
23104.64483307776
 21
398086.25707641541
 31
0.0
  0
LINE
  5
66AC8
  8
S-OBRYS
  6
CONTINUOUS
 10
23158.685676171299
 20
398187.301959112
 30
0.0
 11
23229.644833077771
 21
398086.25707641541
 31
0.0
  0
LINE
  5
66AC9
  8
S-OBRYS
  6
CONTINUOUS
 10
23283.685676171299
 20
398187.301959112
 30
0.0
 11
23354.64483307776
 21
398086.25707641541
 31
0.0
  0
LINE
  5
66ACA
  8
S-OBRYS
  6
CONTINUOUS
 10
22625.555062844171
 20
397027.76914566051
 30
0.0
 11
22625.555062844171
 21
397911.18581305532
 31
0.0
  0
LINE
  5
66ACB
  8
S-OBRYS
  6
CONTINUOUS
 10
22625.555062844171
 20
397027.76914566051
 30
0.0
 11
22524.510180147579
 21
397098.72830256697
 31
0.0
  0
LINE
  5
66ACC
  8
S-OBRYS
  6
CONTINUOUS
 10
22625.555062844171
 20
397152.76914566063
 30
0.0
 11
22524.510180147579
 21
397223.72830256697
 31
0.0
  0
LINE
  5
66ACD
  8
S-OBRYS
  6
CONTINUOUS
 10
22625.555062844171
 20
397277.76914566051
 30
0.0
 11
22524.510180147579
 21
397348.72830256697
 31
0.0
  0
LINE
  5
66ACE
  8
S-OBRYS
  6
CONTINUOUS
 10
22625.555062844171
 20
397402.76914566051
 30
0.0
 11
22524.510180147579
 21
397473.72830256697
 31
0.0
  0
LINE
  5
66ACF
  8
S-OBRYS
  6
CONTINUOUS
 10
22625.555062844171
 20
397527.76914566063
 30
0.0
 11
22524.510180147579
 21
397598.72830256697
 31
0.0
  0
LINE
  5
66AD0
  8
S-OBRYS
  6
CONTINUOUS
 10
22625.555062844171
 20
397652.76914566051
 30
0.0
 11
22524.510180147579
 21
397723.72830256697
 31
0.0
  0
LINE
  5
66AD1
  8
S-OBRYS
  6
CONTINUOUS
 10
22625.555062844171
 20
397777.76914566051
 30
0.0
 11
22524.510180147579
 21
397848.72830256697
 31
0.0
  0
LINE
  5
66AD2
  8
S-OBRYS
  6
CONTINUOUS
 10
22625.555062844171
 20
397902.76914566051
 30
0.0
 11
22524.510180147579
 21
397973.72830256697
 31
0.0
  0
DIMENSION
  5
66AD3
  8
S-OBRYS
  6
CONTINUOUS
  2
*D64
 10
22625.555062844171
 20
397680.3976001651
 30
0.0
 11
22925.555062844171
 21
397755.3976001651
 31
0.0
 70
     0
 13
23225.555062844171
 23
398887.301959112
 33
0.0
 14
22625.555062844171
 24
397707.11561550968
 34
0.0
  0
VIEWPORT
  5
1FAB5
 67
     1
  8
0
  6
ČERCHOVANÁ
 10
12.669026204836801
 20
9.4585013259736659
 30
0.0
 40
41.707206501782828
 41
24.2248555085413
 68
     1
 69
     1
1001
ACAD
1000
MVIEW
1002
{
1070
    16
1010
0.0
1020
0.0
1030
0.0
1010
0.0
1020
0.0
1030
1.0
1040
0.0
1040
24.2248555085413
1040
12.669026204836801
1040
9.4585013259736659
1040
50.0
1040
0.0
1040
0.0
1070
     0
1070
   100
1070
     1
1070
     1
1070
     0
1070
     0
1070
     0
1070
     0
1040
0.0
1040
0.0
1040
0.0
1040
10.0
1040
10.0
1040
10.0
1040
10.0
1070
     0
1002
{
1002
}
1002
}
  0
VIEWPORT
  5
1FAB7
 67
     1
  8
2-VZT
  6
ČERCHOVANÁ
 10
5.24999976158142
 20
3.99999976158142
 30
0.0
 40
8.3999996185302717
 41
6.3999996185302717
 68
     2
 69
     2
1001
ACAD
1000
MVIEW
1002
{
1070
    16
1010
0.0
1020
0.0
1030
0.0
1010
0.0
1020
0.0
1030
1.0
1040
0.0
1040
517776.44812413253
1040
-335493.7046016907
1040
-205251.99203018961
1040
50.0
1040
0.0
1040
0.0
1070
     0
1070
   100
1070
     1
1070
     0
1070
     0
1070
     0
1070
     0
1070
     0
1040
0.0
1040
0.0
1040
0.0
1040
1.0
1040
1.0
1040
1.0
1040
1.0
1070
     0
1002
{
1002
}
1002
}
  0
ENDSEC
  0
EOF
