  0
SECTION
  2
HEADER
  9
$ACADVER
  1
AC1009
  9
$INSBASE
 10
0.0
 20
0.0
 30
0.0
  9
$EXTMIN
 10
15019.10840295573
 20
393677.27371462289
 30
0.0
  9
$EXTMAX
 10
41441.990530354647
 20
408527.27371462289
 30
0.0
  9
$LIMMIN
 10
-127022.6804658414
 20
-67144.462473645661
  9
$LIMMAX
 10
-873.19720690528334
 20
6755.1563308572058
  9
$ORTHOMODE
 70
     1
  9
$REGENMODE
 70
     1
  9
$FILLMODE
 70
     1
  9
$QTEXTMODE
 70
     0
  9
$MIRRTEXT
 70
     0
  9
$DRAGMODE
 70
     2
  9
$LTSCALE
 40
50.0
  9
$OSMODE
 70
   679
  9
$ATTMODE
 70
     1
  9
$TEXTSIZE
 40
200.0
  9
$TRACEWID
 40
10.0
  9
$TEXTSTYLE
  7
R
  9
$CLAYER
  8
S-OBRYS
  9
$CELTYPE
  6
CONTINUOUS
  9
$CECOLOR
 62
   256
  9
$DIMSCALE
 40
50.0
  9
$DIMASZ
 40
2.0
  9
$DIMEXO
 40
0.063
  9
$DIMDLI
 40
5.0
  9
$DIMRND
 40
0.0
  9
$DIMDLE
 40
0.0
  9
$DIMEXE
 40
0.2
  9
$DIMTP
 40
0.0
  9
$DIMTM
 40
0.0
  9
$DIMTXT
 40
2.0
  9
$DIMCEN
 40
2.0
  9
$DIMTSZ
 40
0.0
  9
$DIMTOL
 70
     0
  9
$DIMLIM
 70
     0
  9
$DIMTIH
 70
     0
  9
$DIMTOH
 70
     0
  9
$DIMSE1
 70
     0
  9
$DIMSE2
 70
     0
  9
$DIMTAD
 70
     1
  9
$DIMZIN
 70
    12
  9
$DIMBLK
  1

  9
$DIMASO
 70
     1
  9
$DIMSHO
 70
     0
  9
$DIMPOST
  1

  9
$DIMAPOST
  1

  9
$DIMALT
 70
     0
  9
$DIMALTD
 70
     2
  9
$DIMALTF
 40
25.399999999999999
  9
$DIMLFAC
 40
1.0
  9
$DIMTOFL
 70
     1
  9
$DIMTVP
 40
0.0
  9
$DIMTIX
 70
     0
  9
$DIMSOXD
 70
     0
  9
$DIMSAH
 70
     1
  9
$DIMBLK1
  1
OPEN
  9
$DIMBLK2
  1
OPEN
  9
$DIMSTYLE
  2
EMBABA
  9
$DIMCLRD
 70
     0
  9
$DIMCLRE
 70
     0
  9
$DIMCLRT
 70
     7
  9
$DIMTFAC
 40
1.0
  9
$DIMGAP
 40
0.5
  9
$LUNITS
 70
     2
  9
$LUPREC
 70
     0
  9
$SKETCHINC
 40
10.0
  9
$FILLETRAD
 40
400.0
  9
$AUNITS
 70
     0
  9
$AUPREC
 70
     4
  9
$MENU
  1
ACAD
  9
$ELEVATION
 40
0.0
  9
$PELEVATION
 40
0.0
  9
$THICKNESS
 40
0.0
  9
$LIMCHECK
 70
     0
  9
$BLIPMODE
 70
     0
  9
$CHAMFERA
 40
0.0
  9
$CHAMFERB
 40
0.0
  9
$SKPOLY
 70
     0
  9
$TDCREATE
 40
2450205.720229167
  9
$TDUPDATE
 40
2453528.5054633222
  9
$TDINDWG
 40
42.380766134300004
  9
$TDUSRTIMER
 40
42.380766134300004
  9
$USRTIMER
 70
     1
  9
$ANGBASE
 50
0.0
  9
$ANGDIR
 70
     0
  9
$PDMODE
 70
     2
  9
$PDSIZE
 40
-5.0
  9
$PLINEWID
 40
0.0
  9
$COORDS
 70
     0
  9
$SPLFRAME
 70
     0
  9
$SPLINETYPE
 70
     6
  9
$SPLINESEGS
 70
     8
  9
$ATTDIA
 70
     0
  9
$ATTREQ
 70
     1
  9
$HANDLING
 70
     1
  9
$HANDSEED
  5
685D4
  9
$SURFTAB1
 70
    18
  9
$SURFTAB2
 70
    18
  9
$SURFTYPE
 70
     6
  9
$SURFU
 70
    18
  9
$SURFV
 70
    18
  9
$UCSNAME
  2

  9
$UCSORG
 10
0.0
 20
0.0
 30
0.0
  9
$UCSXDIR
 10
1.0
 20
0.0
 30
0.0
  9
$UCSYDIR
 10
0.0
 20
1.0
 30
0.0
  9
$PUCSNAME
  2

  9
$PUCSORG
 10
0.0
 20
0.0
 30
0.0
  9
$PUCSXDIR
 10
1.0
 20
0.0
 30
0.0
  9
$PUCSYDIR
 10
0.0
 20
1.0
 30
0.0
  9
$USERI1
 70
     0
  9
$USERI2
 70
     0
  9
$USERI3
 70
     0
  9
$USERI4
 70
     0
  9
$USERI5
 70
     0
  9
$USERR1
 40
0.0
  9
$USERR2
 40
50.0
  9
$USERR3
 40
0.0
  9
$USERR4
 40
0.0
  9
$USERR5
 40
0.0
  9
$WORLDVIEW
 70
     1
  9
$SHADEDGE
 70
     3
  9
$SHADEDIF
 70
    70
  9
$TILEMODE
 70
     1
  9
$MAXACTVP
 70
    16
  9
$PLIMCHECK
 70
     0
  9
$PEXTMIN
 10
1.049999952316284
 20
0.7999999523162842
 30
0.0
  9
$PEXTMAX
 10
9.4499995708465558
 20
7.1999995708465558
 30
0.0
  9
$PLIMMIN
 10
-0.2500002402958907
 20
-0.2499999962453767
  9
$PLIMMAX
 10
10.74999951940821
 20
8.2499997634587316
  9
$UNITMODE
 70
     0
  9
$VISRETAIN
 70
     0
  9
$PLINEGEN
 70
     0
  9
$PSLTSCALE
 70
     1
  0
ENDSEC
  0
SECTION
  2
TABLES
  0
TABLE
  2
VPORT
 70
     4
  0
VPORT
  2
*ACTIVE
 70
     0
 10
0.0
 20
0.0
 11
1.0
 21
1.0
 12
23182.485760730939
 22
402475.64113050018
 13
0.0
 23
0.0
 14
1.0
 24
1.0
 15
1.0
 25
1.0
 16
0.0
 26
0.0
 36
1.0
 17
0.0
 27
0.0
 37
0.0
 40
32200.47783108888
 41
1.6116303219106951
 42
50.0
 43
0.0
 44
0.0
 50
0.0
 51
0.0
 71
     0
 72
   100
 73
     1
 74
     0
 75
     0
 76
     1
 77
     0
 78
     0
  0
ENDTAB
  0
TABLE
  2
LTYPE
 70
     3
  0
LTYPE
  2
CONTINUOUS
 70
     0
  3
Solid line
 72
    65
 73
     0
 40
0.0
  0
LTYPE
  2
ČERCHOVANÁ
 70
     0
  3
Čerchovaná __ . __ . __ . __ . __ . __ . __ . _
 72
    65
 73
     4
 40
1.0
 49
0.5
 49
-0.25
 49
0.0
 49
-0.25
  0
ENDTAB
  0
TABLE
  2
LAYER
 70
    16
  0
LAYER
  2
0
 70
     0
 62
     7
  6
CONTINUOUS
  0
LAYER
  2
RAZ
 70
     0
 62
     7
  6
CONTINUOUS
  0
LAYER
  2
KOTY
 70
     0
 62
     2
  6
CONTINUOUS
  0
LAYER
  2
DEFPOINTS
 70
     0
 62
     7
  6
CONTINUOUS
  0
LAYER
  2
2-VZT
 70
     0
 62
     4
  6
CONTINUOUS
  0
LAYER
  2
OBRYS
 70
     0
 62
     7
  6
CONTINUOUS
  0
LAYER
  2
S-OBRYS
 70
     0
 62
     7
  6
CONTINUOUS
  0
ENDTAB
  0
TABLE
  2
STYLE
 70
     7
  0
STYLE
  2
STANDARD
 70
     0
 40
0.0
 41
0.8
 50
0.0
 71
     0
 42
200.0
  3
ROMANS.SHX
  4

  0
STYLE
  2
R
 70
     0
 40
0.0
 41
1.0
 50
0.0
 71
     0
 42
200.0
  3
romans.shx
  4

  0
STYLE
  2
ROMANS
 70
     0
 40
0.0
 41
0.8
 50
0.0
 71
     0
 42
300.0
  3
ROMANS.shx
  4

  0
STYLE
  2
R08
 70
     0
 40
0.0
 41
0.8
 50
0.0
 71
     0
 42
800.0
  3
ROMANS.shx
  4

  0
STYLE
  2
ROMANT
 70
     0
 40
0.0
 41
0.7
 50
0.0
 71
     0
 42
3.0
  3
romant
  4

  0
STYLE
  2
CYRILLIC
 70
     0
 40
2.2999999999999989
 41
0.7
 50
0.0
 71
     0
 42
2.2999999999999989
  3
cyrillic
  4

  0
ENDTAB
  0
TABLE
  2
VIEW
 70
     0
  0
ENDTAB
  0
TABLE
  2
UCS
 70
     0
  0
ENDTAB
  0
TABLE
  2
APPID
 70
     6
  0
APPID
  2
ACAD
 70
     0
  0
APPID
  2
PHOENIX7010
 70
     0
  0
APPID
  2
CONTENTBLOCKICON
 70
     0
  0
APPID
  2
CONTENTLONGBLOCKNAME
 70
     0
  0
APPID
  2
ACAD_DSTYLE_DIMTEXT_FILL
 70
     0
  0
APPID
  2
DCO15
 70
     0
  0
ENDTAB
  0
TABLE
  2
DIMSTYLE
 70
     5
  0
DIMSTYLE
  2
STANDARD
 70
     0
  3

  4

  5

  6
OPEN
  7
OPEN
 40
1.0
 41
80.0
 42
1.0
 43
0.0
 44
1.0
 45
0.0
 46
0.8
 47
0.0
 48
0.0
140
70.0
141
-3.0
142
0.0
143
0.0394
144
1.0
145
1.0
146
0.5
147
1.0
 71
     0
 72
     0
 73
     0
 74
     0
 75
     0
 76
     0
 77
     0
 78
     8
170
     0
171
     2
172
     1
173
     1
174
     0
175
     0
176
     7
177
     7
178
     2
  0
DIMSTYLE
  2
EMBABA
 70
     0
  3

  4

  5

  6
OPEN
  7
OPEN
 40
50.0
 41
2.0
 42
0.063
 43
5.0
 44
0.2
 45
0.0
 46
0.0
 47
0.0
 48
0.0
140
2.0
141
2.0
142
0.0
143
25.399999999999999
144
1.0
145
0.0
146
1.0
147
0.5
 71
     0
 72
     0
 73
     0
 74
     0
 75
     0
 76
     0
 77
     1
 78
    12
170
     0
171
     2
172
     1
173
     1
174
     0
175
     0
176
     0
177
     0
178
     7
  0
ENDTAB
  0
ENDSEC
  0
SECTION
  2
BLOCKS
  0
BLOCK
  8
0
  2
$MODEL_SPACE
 70
     0
 10
0.0
 20
0.0
 30
0.0
  3
$MODEL_SPACE
  1

  0
ENDBLK
  5
9
  8
0
  0
BLOCK
 67
     1
  8
0
  2
$PAPER_SPACE
 70
     0
 10
0.0
 20
0.0
 30
0.0
  3
$PAPER_SPACE
  1

  0
ENDBLK
  5
E
 67
     1
  8
0
  0
BLOCK
  8
0
  2
_OPEN
 70
     0
 10
0.0
 20
0.0
 30
0.0
  3
_OPEN
  1

  0
LINE
  5
28
  8
0
  6
BYBLOCK
 62
     0
 10
-1.0
 20
0.1666666666666666
 30
0.0
 11
0.0
 21
0.0
 31
0.0
  0
LINE
  5
29
  8
0
  6
BYBLOCK
 62
     0
 10
0.0
 20
0.0
 30
0.0
 11
-1.0
 21
-0.1666666666666666
 31
0.0
  0
LINE
  5
2A
  8
0
  6
BYBLOCK
 62
     0
 10
0.0
 20
0.0
 30
0.0
 11
-1.0
 21
0.0
 31
0.0
  0
ENDBLK
  5
2C
  8
0
  0
BLOCK
  8
0
  2
*D115
 70
     1
 10
0.0
 20
0.0
 30
0.0
  3
*D115
  1

  0
LINE
  5
67787
  8
S-OBRYS
  6
CONTINUOUS
 62
     0
 10
21175.089292323551
 20
398858.75065718248
 30
0.0
 11
21175.089292323551
 21
397957.13761091093
 31
0.0
  0
LINE
  5
67788
  8
S-OBRYS
  6
CONTINUOUS
 62
     0
 10
20275.089292323551
 20
398857.43397310638
 30
0.0
 11
20275.089292323551
 21
397957.13761091093
 31
0.0
  0
LINE
  5
67789
  8
S-OBRYS
  6
CONTINUOUS
 62
     0
 10
21075.089292323551
 20
397967.13761091093
 30
0.0
 11
20375.089292323551
 21
397967.13761091093
 31
0.0
  0
INSERT
  5
6778A
  8
S-OBRYS
  6
CONTINUOUS
 62
     0
  2
_OPEN
 10
21175.089292323551
 20
397967.13761091093
 30
0.0
 41
100.0
 42
100.0
 43
100.0
  0
INSERT
  5
6778B
  8
S-OBRYS
  6
CONTINUOUS
 62
     0
  2
_OPEN
 10
20275.089292323551
 20
397967.13761091093
 30
0.0
 41
100.0
 42
100.0
 43
100.0
 50
180.0
  0
INSERT
  5
6778C
  8
S-OBRYS
  6
CONTINUOUS
  2
*U231
 10
0.0
 20
0.0
 30
0.0
  0
POINT
  5
6778D
  8
DEFPOINTS
  6
CONTINUOUS
 62
     0
 10
21175.089292323551
 20
398861.90065718262
 30
0.0
  0
POINT
  5
6778E
  8
DEFPOINTS
  6
CONTINUOUS
 62
     0
 10
20275.089292323551
 20
398860.5839731064
 30
0.0
  0
POINT
  5
6778F
  8
DEFPOINTS
  6
CONTINUOUS
 62
     0
 10
20275.089292323551
 20
397967.13761091093
 30
0.0
  0
ENDBLK
  5
67565
  8
0
  0
BLOCK
  8
0
  2
*D116
 70
     1
 10
0.0
 20
0.0
 30
0.0
  3
*D116
  1

  0
LINE
  5
67790
  8
S-OBRYS
  6
CONTINUOUS
 62
     0
 10
22145.089292323551
 20
398757.34730524977
 30
0.0
 11
22145.089292323551
 21
397957.13761091093
 31
0.0
  0
LINE
  5
67791
  8
S-OBRYS
  6
CONTINUOUS
 62
     0
 10
22745.089292323551
 20
398025.23986261571
 30
0.0
 11
22745.089292323551
 21
397957.13761091093
 31
0.0
  0
LINE
  5
67792
  8
S-OBRYS
  6
CONTINUOUS
 62
     0
 10
22245.089292323551
 20
397967.13761091093
 30
0.0
 11
22645.089292323551
 21
397967.13761091093
 31
0.0
  0
INSERT
  5
67793
  8
S-OBRYS
  6
CONTINUOUS
 62
     0
  2
_OPEN
 10
22145.089292323551
 20
397967.13761091093
 30
0.0
 41
100.0
 42
100.0
 43
100.0
 50
180.0
  0
INSERT
  5
67794
  8
S-OBRYS
  6
CONTINUOUS
 62
     0
  2
_OPEN
 10
22745.089292323551
 20
397967.13761091093
 30
0.0
 41
100.0
 42
100.0
 43
100.0
  0
INSERT
  5
67795
  8
S-OBRYS
  6
CONTINUOUS
  2
*U232
 10
0.0
 20
0.0
 30
0.0
  0
POINT
  5
67796
  8
DEFPOINTS
  6
CONTINUOUS
 62
     0
 10
22145.089292323551
 20
398760.49730524991
 30
0.0
  0
POINT
  5
67797
  8
DEFPOINTS
  6
CONTINUOUS
 62
     0
 10
22745.089292323551
 20
398028.38986261567
 30
0.0
  0
POINT
  5
67798
  8
DEFPOINTS
  6
CONTINUOUS
 62
     0
 10
22745.089292323551
 20
397967.13761091093
 30
0.0
  0
ENDBLK
  5
67571
  8
0
  0
BLOCK
  8
0
  2
*D117
 70
     1
 10
0.0
 20
0.0
 30
0.0
  3
*D117
  1

  0
LINE
  5
67799
  8
S-OBRYS
  6
CONTINUOUS
 62
     0
 10
22456.498138567378
 20
399271.01626882132
 30
0.0
 11
22632.652072896159
 21
399271.01626882132
 31
0.0
  0
LINE
  5
6779A
  8
S-OBRYS
  6
CONTINUOUS
 62
     0
 10
22728.89856545932
 20
398571.0162688212
 30
0.0
 11
22612.652072896159
 21
398571.0162688212
 31
0.0
  0
LINE
  5
6779B
  8
S-OBRYS
  6
CONTINUOUS
 62
     0
 10
22622.652072896159
 20
399171.01626882132
 30
0.0
 11
22622.652072896159
 21
398671.01626882132
 31
0.0
  0
INSERT
  5
6779C
  8
S-OBRYS
  6
CONTINUOUS
 62
     0
  2
_OPEN
 10
22622.652072896159
 20
399271.01626882132
 30
0.0
 41
100.0
 42
100.0
 43
100.0
 50
90.0
  0
INSERT
  5
6779D
  8
S-OBRYS
  6
CONTINUOUS
 62
     0
  2
_OPEN
 10
22622.652072896159
 20
398571.0162688212
 30
0.0
 41
100.0
 42
100.0
 43
100.0
 50
270.0
  0
INSERT
  5
6779E
  8
S-OBRYS
  6
CONTINUOUS
  2
*U233
 10
0.0
 20
0.0
 30
0.0
  0
POINT
  5
6779F
  8
DEFPOINTS
  6
CONTINUOUS
 62
     0
 10
22453.34813856738
 20
399271.01626882132
 30
0.0
  0
POINT
  5
677A0
  8
DEFPOINTS
  6
CONTINUOUS
 62
     0
 10
22732.048565459321
 20
398571.0162688212
 30
0.0
  0
POINT
  5
677A1
  8
DEFPOINTS
  6
CONTINUOUS
 62
     0
 10
22622.652072896159
 20
398571.0162688212
 30
0.0
  0
ENDBLK
  5
6757D
  8
0
  0
BLOCK
  8
0
  2
*D118
 70
     1
 10
0.0
 20
0.0
 30
0.0
  3
*D118
  1

  0
LINE
  5
677A2
  8
S-OBRYS
  6
CONTINUOUS
 62
     0
 10
22115.084951571549
 20
400656.01610222133
 30
0.0
 11
22705.649110671598
 21
400656.01610222133
 31
0.0
  0
LINE
  5
677A3
  8
S-OBRYS
  6
CONTINUOUS
 62
     0
 10
22260.18022193569
 20
401356.01610222133
 30
0.0
 11
22705.649110671598
 21
401356.01610222133
 31
0.0
  0
LINE
  5
677A4
  8
S-OBRYS
  6
CONTINUOUS
 62
     0
 10
22695.649110671598
 20
400756.01610222133
 30
0.0
 11
22695.649110671598
 21
401256.01610222133
 31
0.0
  0
INSERT
  5
677A5
  8
S-OBRYS
  6
CONTINUOUS
 62
     0
  2
_OPEN
 10
22695.649110671598
 20
400656.01610222133
 30
0.0
 41
100.0
 42
100.0
 43
100.0
 50
270.0
  0
INSERT
  5
677A6
  8
S-OBRYS
  6
CONTINUOUS
 62
     0
  2
_OPEN
 10
22695.649110671598
 20
401356.01610222133
 30
0.0
 41
100.0
 42
100.0
 43
100.0
 50
90.0
  0
INSERT
  5
677A7
  8
S-OBRYS
  6
CONTINUOUS
  2
*U234
 10
0.0
 20
0.0
 30
0.0
  0
POINT
  5
677A8
  8
DEFPOINTS
  6
CONTINUOUS
 62
     0
 10
22111.934951571551
 20
400656.01610222133
 30
0.0
  0
POINT
  5
677A9
  8
DEFPOINTS
  6
CONTINUOUS
 62
     0
 10
22257.030221935689
 20
401356.01610222133
 30
0.0
  0
POINT
  5
677AA
  8
DEFPOINTS
  6
CONTINUOUS
 62
     0
 10
22695.649110671598
 20
401356.01610222133
 30
0.0
  0
ENDBLK
  5
67589
  8
0
  0
BLOCK
  8
0
  2
*D119
 70
     1
 10
0.0
 20
0.0
 30
0.0
  3
*D119
  1

  0
LINE
  5
677AB
  8
S-OBRYS
  6
CONTINUOUS
 62
     0
 10
22148.239292323549
 20
399271.01626882132
 30
0.0
 11
22528.41964573933
 21
399271.01626882132
 31
0.0
  0
LINE
  5
677AC
  8
S-OBRYS
  6
CONTINUOUS
 62
     0
 10
21803.239292323549
 20
400771.01616442128
 30
0.0
 11
22528.41964573933
 21
400771.01616442128
 31
0.0
  0
LINE
  5
677AD
  8
S-OBRYS
  6
CONTINUOUS
 62
     0
 10
22518.41964573933
 20
399371.01626882132
 30
0.0
 11
22518.41964573933
 21
400671.01616442128
 31
0.0
  0
INSERT
  5
677AE
  8
S-OBRYS
  6
CONTINUOUS
 62
     0
  2
_OPEN
 10
22518.41964573933
 20
399271.01626882132
 30
0.0
 41
100.0
 42
100.0
 43
100.0
 50
270.0
  0
INSERT
  5
677AF
  8
S-OBRYS
  6
CONTINUOUS
 62
     0
  2
_OPEN
 10
22518.41964573933
 20
400771.01616442128
 30
0.0
 41
100.0
 42
100.0
 43
100.0
 50
90.0
  0
INSERT
  5
677B0
  8
S-OBRYS
  6
CONTINUOUS
  2
*U235
 10
0.0
 20
0.0
 30
0.0
  0
POINT
  5
677B1
  8
DEFPOINTS
  6
CONTINUOUS
 62
     0
 10
22145.089292323551
 20
399271.01626882132
 30
0.0
  0
POINT
  5
677B2
  8
DEFPOINTS
  6
CONTINUOUS
 62
     0
 10
21800.089292323551
 20
400771.01616442128
 30
0.0
  0
POINT
  5
677B3
  8
DEFPOINTS
  6
CONTINUOUS
 62
     0
 10
22518.41964573933
 20
400771.01616442128
 30
0.0
  0
ENDBLK
  5
67595
  8
0
  0
BLOCK
  8
0
  2
*D120
 70
     1
 10
0.0
 20
0.0
 30
0.0
  3
*D120
  1

  0
LINE
  5
677B4
  8
S-OBRYS
  6
CONTINUOUS
 62
     0
 10
21175.089292323551
 20
399267.86626882129
 30
0.0
 11
21175.089292323551
 21
397957.13761091093
 31
0.0
  0
LINE
  5
677B5
  8
S-OBRYS
  6
CONTINUOUS
 62
     0
 10
22145.089292323551
 20
399267.86626882129
 30
0.0
 11
22145.089292323551
 21
397957.13761091093
 31
0.0
  0
LINE
  5
677B6
  8
S-OBRYS
  6
CONTINUOUS
 62
     0
 10
21275.089292323551
 20
397967.13761091093
 30
0.0
 11
22045.089292323551
 21
397967.13761091093
 31
0.0
  0
INSERT
  5
677B7
  8
S-OBRYS
  6
CONTINUOUS
 62
     0
  2
_OPEN
 10
21175.089292323551
 20
397967.13761091093
 30
0.0
 41
100.0
 42
100.0
 43
100.0
 50
180.0
  0
INSERT
  5
677B8
  8
S-OBRYS
  6
CONTINUOUS
 62
     0
  2
_OPEN
 10
22145.089292323551
 20
397967.13761091093
 30
0.0
 41
100.0
 42
100.0
 43
100.0
  0
INSERT
  5
677B9
  8
S-OBRYS
  6
CONTINUOUS
  2
*U236
 10
0.0
 20
0.0
 30
0.0
  0
POINT
  5
677BA
  8
DEFPOINTS
  6
CONTINUOUS
 62
     0
 10
21175.089292323551
 20
399271.01626882132
 30
0.0
  0
POINT
  5
677BB
  8
DEFPOINTS
  6
CONTINUOUS
 62
     0
 10
22145.089292323551
 20
399271.01626882132
 30
0.0
  0
POINT
  5
677BC
  8
DEFPOINTS
  6
CONTINUOUS
 62
     0
 10
22145.089292323551
 20
397967.13761091093
 30
0.0
  0
ENDBLK
  5
675A1
  8
0
  0
BLOCK
  8
0
  2
*D121
 70
     1
 10
0.0
 20
0.0
 30
0.0
  3
*D121
  1

  0
LINE
  5
677BD
  8
S-OBRYS
  6
CONTINUOUS
 62
     0
 10
21199.003965063621
 20
399301.01626882132
 30
0.0
 11
21008.035678852812
 21
399301.01626882132
 31
0.0
  0
LINE
  5
677BE
  8
S-OBRYS
  6
CONTINUOUS
 62
     0
 10
21199.003965063621
 20
399551.0162688212
 30
0.0
 11
21008.035678852812
 21
399551.0162688212
 31
0.0
  0
LINE
  5
677BF
  8
S-OBRYS
  6
CONTINUOUS
 62
     0
 10
21018.035678852812
 20
399401.0162688212
 30
0.0
 11
21018.035678852812
 21
399451.01626882132
 31
0.0
  0
LINE
  5
677C0
  8
S-OBRYS
  6
CONTINUOUS
 62
     0
 10
21018.035678852812
 20
399551.0162688212
 30
0.0
 11
21018.035678852812
 21
399906.73055453558
 31
0.0
  0
INSERT
  5
677C1
  8
S-OBRYS
  6
CONTINUOUS
 62
     0
  2
_OPEN
 10
21018.035678852812
 20
399301.01626882132
 30
0.0
 41
100.0
 42
100.0
 43
100.0
 50
270.0
  0
INSERT
  5
677C2
  8
S-OBRYS
  6
CONTINUOUS
 62
     0
  2
_OPEN
 10
21018.035678852812
 20
399551.0162688212
 30
0.0
 41
100.0
 42
100.0
 43
100.0
 50
90.0
  0
INSERT
  5
677C3
  8
S-OBRYS
  6
CONTINUOUS
  2
*U237
 10
0.0
 20
0.0
 30
0.0
  0
POINT
  5
677C4
  8
DEFPOINTS
  6
CONTINUOUS
 62
     0
 10
21202.153965063619
 20
399301.01626882132
 30
0.0
  0
POINT
  5
677C5
  8
DEFPOINTS
  6
CONTINUOUS
 62
     0
 10
21202.153965063619
 20
399551.0162688212
 30
0.0
  0
POINT
  5
677C6
  8
DEFPOINTS
  6
CONTINUOUS
 62
     0
 10
21018.035678852812
 20
399551.0162688212
 30
0.0
  0
ENDBLK
  5
675AE
  8
0
  0
BLOCK
  8
0
  2
*D122
 70
     1
 10
0.0
 20
0.0
 30
0.0
  3
*D122
  1

  0
LINE
  5
677C7
  8
S-OBRYS
  6
CONTINUOUS
 62
     0
 10
21171.93929232355
 20
399271.01626882132
 30
0.0
 11
20738.73205255991
 21
399271.01626882132
 31
0.0
  0
LINE
  5
677C8
  8
S-OBRYS
  6
CONTINUOUS
 62
     0
 10
21199.003965063621
 20
399301.01626882132
 30
0.0
 11
20738.73205255991
 21
399301.01626882132
 31
0.0
  0
LINE
  5
677C9
  8
S-OBRYS
  6
CONTINUOUS
 62
     0
 10
20748.73205255991
 20
399171.01626882132
 30
0.0
 11
20748.73205255991
 21
399071.01626882132
 31
0.0
  0
LINE
  5
677CA
  8
S-OBRYS
  6
CONTINUOUS
 62
     0
 10
20748.73205255991
 20
399401.0162688212
 30
0.0
 11
20748.73205255991
 21
399680.5400783451
 31
0.0
  0
LINE
  5
677CB
  8
S-OBRYS
  6
CONTINUOUS
 62
     0
 10
20748.73205255991
 20
399271.01626882132
 30
0.0
 11
20748.73205255991
 21
399301.01626882132
 31
0.0
  0
INSERT
  5
677CC
  8
S-OBRYS
  6
CONTINUOUS
 62
     0
  2
_OPEN
 10
20748.73205255991
 20
399271.01626882132
 30
0.0
 41
100.0
 42
100.0
 43
100.0
 50
90.0
  0
INSERT
  5
677CD
  8
S-OBRYS
  6
CONTINUOUS
 62
     0
  2
_OPEN
 10
20748.73205255991
 20
399301.01626882132
 30
0.0
 41
100.0
 42
100.0
 43
100.0
 50
270.0
  0
INSERT
  5
677CE
  8
S-OBRYS
  6
CONTINUOUS
  2
*U238
 10
0.0
 20
0.0
 30
0.0
  0
POINT
  5
677CF
  8
DEFPOINTS
  6
CONTINUOUS
 62
     0
 10
21175.089292323551
 20
399271.01626882132
 30
0.0
  0
POINT
  5
677D0
  8
DEFPOINTS
  6
CONTINUOUS
 62
     0
 10
21202.153965063619
 20
399301.01626882132
 30
0.0
  0
POINT
  5
677D1
  8
DEFPOINTS
  6
CONTINUOUS
 62
     0
 10
20748.73205255991
 20
399301.01626882132
 30
0.0
  0
ENDBLK
  5
675BC
  8
0
  0
BLOCK
  8
0
  2
*D123
 70
     1
 10
0.0
 20
0.0
 30
0.0
  3
*D123
  1

  0
LINE
  5
677D2
  8
S-OBRYS
  6
CONTINUOUS
 62
     0
 10
21693.239292323549
 20
400556.01610222121
 30
0.0
 11
22260.788650596529
 21
400556.01610222121
 31
0.0
  0
LINE
  5
677D3
  8
S-OBRYS
  6
CONTINUOUS
 62
     0
 10
21693.239292323549
 20
400656.01610222133
 30
0.0
 11
22260.788650596529
 21
400656.01610222133
 31
0.0
  0
LINE
  5
677D4
  8
S-OBRYS
  6
CONTINUOUS
 62
     0
 10
22250.788650596529
 20
400756.01610222133
 30
0.0
 11
22250.788650596529
 21
400856.01610222121
 31
0.0
  0
LINE
  5
677D5
  8
S-OBRYS
  6
CONTINUOUS
 62
     0
 10
22250.788650596529
 20
400456.01610222133
 30
0.0
 11
22250.788650596529
 21
400111.73038793559
 31
0.0
  0
LINE
  5
677D6
  8
S-OBRYS
  6
CONTINUOUS
 62
     0
 10
22250.788650596529
 20
400656.01610222133
 30
0.0
 11
22250.788650596529
 21
400556.01610222121
 31
0.0
  0
INSERT
  5
677D7
  8
S-OBRYS
  6
CONTINUOUS
 62
     0
  2
_OPEN
 10
22250.788650596529
 20
400656.01610222133
 30
0.0
 41
100.0
 42
100.0
 43
100.0
 50
270.0
  0
INSERT
  5
677D8
  8
S-OBRYS
  6
CONTINUOUS
 62
     0
  2
_OPEN
 10
22250.788650596529
 20
400556.01610222121
 30
0.0
 41
100.0
 42
100.0
 43
100.0
 50
90.0
  0
INSERT
  5
677D9
  8
S-OBRYS
  6
CONTINUOUS
  2
*U239
 10
0.0
 20
0.0
 30
0.0
  0
POINT
  5
677DA
  8
DEFPOINTS
  6
CONTINUOUS
 62
     0
 10
21690.089292323551
 20
400556.01610222121
 30
0.0
  0
POINT
  5
677DB
  8
DEFPOINTS
  6
CONTINUOUS
 62
     0
 10
21690.089292323551
 20
400656.01610222133
 30
0.0
  0
POINT
  5
677DC
  8
DEFPOINTS
  6
CONTINUOUS
 62
     0
 10
22250.788650596529
 20
400656.01610222133
 30
0.0
  0
ENDBLK
  5
675CA
  8
0
  0
BLOCK
  8
0
  2
*D124
 70
     1
 10
0.0
 20
0.0
 30
0.0
  3
*D124
  1

  0
LINE
  5
677DD
  8
S-OBRYS
  6
CONTINUOUS
 62
     0
 10
21630.089292323551
 20
400659.16610222129
 30
0.0
 11
21630.089292323551
 21
400902.08413527912
 31
0.0
  0
LINE
  5
677DE
  8
S-OBRYS
  6
CONTINUOUS
 62
     0
 10
21690.089292323551
 20
400659.16610222129
 30
0.0
 11
21690.089292323551
 21
400902.08413527912
 31
0.0
  0
LINE
  5
677DF
  8
S-OBRYS
  6
CONTINUOUS
 62
     0
 10
21530.089292323551
 20
400892.08413527912
 30
0.0
 11
21430.089292323551
 21
400892.08413527912
 31
0.0
  0
LINE
  5
677E0
  8
S-OBRYS
  6
CONTINUOUS
 62
     0
 10
21790.089292323551
 20
400892.08413527912
 30
0.0
 11
22065.803578037841
 21
400892.08413527912
 31
0.0
  0
LINE
  5
677E1
  8
S-OBRYS
  6
CONTINUOUS
 62
     0
 10
21630.089292323551
 20
400892.08413527912
 30
0.0
 11
21690.089292323551
 21
400892.08413527912
 31
0.0
  0
INSERT
  5
677E2
  8
S-OBRYS
  6
CONTINUOUS
 62
     0
  2
_OPEN
 10
21630.089292323551
 20
400892.08413527912
 30
0.0
 41
100.0
 42
100.0
 43
100.0
  0
INSERT
  5
677E3
  8
S-OBRYS
  6
CONTINUOUS
 62
     0
  2
_OPEN
 10
21690.089292323551
 20
400892.08413527912
 30
0.0
 41
100.0
 42
100.0
 43
100.0
 50
180.0
  0
INSERT
  5
677E4
  8
S-OBRYS
  6
CONTINUOUS
  2
*U240
 10
0.0
 20
0.0
 30
0.0
  0
POINT
  5
677E5
  8
DEFPOINTS
  6
CONTINUOUS
 62
     0
 10
21630.089292323551
 20
400656.01610222133
 30
0.0
  0
POINT
  5
677E6
  8
DEFPOINTS
  6
CONTINUOUS
 62
     0
 10
21690.089292323551
 20
400656.01610222133
 30
0.0
  0
POINT
  5
677E7
  8
DEFPOINTS
  6
CONTINUOUS
 62
     0
 10
21690.089292323551
 20
400892.08413527912
 30
0.0
  0
ENDBLK
  5
675D8
  8
0
  0
BLOCK
  8
0
  2
*D125
 70
     1
 10
0.0
 20
0.0
 30
0.0
  3
*D125
  1

  0
LINE
  5
677E8
  8
S-OBRYS
  6
CONTINUOUS
 62
     0
 10
21215.089292323551
 20
399291.2309415614
 30
0.0
 11
21215.089292323551
 21
399449.20681075088
 31
0.0
  0
LINE
  5
677E9
  8
S-OBRYS
  6
CONTINUOUS
 62
     0
 10
22105.089292323551
 20
399291.2309415614
 30
0.0
 11
22105.089292323551
 21
399449.20681075088
 31
0.0
  0
LINE
  5
677EA
  8
S-OBRYS
  6
CONTINUOUS
 62
     0
 10
21315.089292323551
 20
399439.20681075088
 30
0.0
 11
22005.089292323551
 21
399439.20681075088
 31
0.0
  0
INSERT
  5
677EB
  8
S-OBRYS
  6
CONTINUOUS
 62
     0
  2
_OPEN
 10
21215.089292323551
 20
399439.20681075088
 30
0.0
 41
100.0
 42
100.0
 43
100.0
 50
180.0
  0
INSERT
  5
677EC
  8
S-OBRYS
  6
CONTINUOUS
 62
     0
  2
_OPEN
 10
22105.089292323551
 20
399439.20681075088
 30
0.0
 41
100.0
 42
100.0
 43
100.0
  0
INSERT
  5
677ED
  8
S-OBRYS
  6
CONTINUOUS
  2
*U241
 10
0.0
 20
0.0
 30
0.0
  0
POINT
  5
677EE
  8
DEFPOINTS
  6
CONTINUOUS
 62
     0
 10
21215.089292323551
 20
399288.08094156132
 30
0.0
  0
POINT
  5
677EF
  8
DEFPOINTS
  6
CONTINUOUS
 62
     0
 10
22105.089292323551
 20
399288.08094156132
 30
0.0
  0
POINT
  5
677F0
  8
DEFPOINTS
  6
CONTINUOUS
 62
     0
 10
22105.089292323551
 20
399439.20681075088
 30
0.0
  0
ENDBLK
  5
675E4
  8
0
  0
BLOCK
  8
0
  2
*D126
 70
     1
 10
0.0
 20
0.0
 30
0.0
  3
*D126
  1

  0
LINE
  5
677F1
  8
S-OBRYS
  6
CONTINUOUS
 62
     0
 10
21660.089292323551
 20
399128.48655363772
 30
0.0
 11
21660.089292323551
 21
398985.39380196098
 31
0.0
  0
LINE
  5
677F2
  8
S-OBRYS
  6
CONTINUOUS
 62
     0
 10
21885.08950192355
 20
399153.95196845348
 30
0.0
 11
21885.08950192355
 21
398985.39380196098
 31
0.0
  0
LINE
  5
677F3
  8
S-OBRYS
  6
CONTINUOUS
 62
     0
 10
21560.089292323551
 20
398995.39380196098
 30
0.0
 11
21460.089292323551
 21
398995.39380196098
 31
0.0
  0
LINE
  5
677F4
  8
S-OBRYS
  6
CONTINUOUS
 62
     0
 10
21985.08950192355
 20
398995.39380196098
 30
0.0
 11
22427.627418867502
 21
398995.39380196098
 31
0.0
  0
LINE
  5
677F5
  8
S-OBRYS
  6
CONTINUOUS
 62
     0
 10
21660.089292323551
 20
398995.39380196098
 30
0.0
 11
21885.08950192355
 21
398995.39380196098
 31
0.0
  0
INSERT
  5
677F6
  8
S-OBRYS
  6
CONTINUOUS
 62
     0
  2
_OPEN
 10
21660.089292323551
 20
398995.39380196098
 30
0.0
 41
100.0
 42
100.0
 43
100.0
  0
INSERT
  5
677F7
  8
S-OBRYS
  6
CONTINUOUS
 62
     0
  2
_OPEN
 10
21885.08950192355
 20
398995.39380196098
 30
0.0
 41
100.0
 42
100.0
 43
100.0
 50
180.0
  0
INSERT
  5
677F8
  8
S-OBRYS
  6
CONTINUOUS
  2
*U242
 10
0.0
 20
0.0
 30
0.0
  0
POINT
  5
677F9
  8
DEFPOINTS
  6
CONTINUOUS
 62
     0
 10
21660.089292323551
 20
399131.63655363768
 30
0.0
  0
POINT
  5
677FA
  8
DEFPOINTS
  6
CONTINUOUS
 62
     0
 10
21885.08950192355
 20
399157.10196845361
 30
0.0
  0
POINT
  5
677FB
  8
DEFPOINTS
  6
CONTINUOUS
 62
     0
 10
21885.08950192355
 20
398995.39380196098
 30
0.0
  0
ENDBLK
  5
675F2
  8
0
  0
BLOCK
  8
0
  2
*D127
 70
     1
 10
0.0
 20
0.0
 30
0.0
  3
*D127
  1

  0
LINE
  5
677FC
  8
S-OBRYS
  6
CONTINUOUS
 62
     0
 10
21644.003965063621
 20
400606.01610222133
 30
0.0
 11
21103.707011525628
 21
400606.01610222133
 31
0.0
  0
LINE
  5
677FD
  8
S-OBRYS
  6
CONTINUOUS
 62
     0
 10
21195.853965063619
 20
399551.0162688212
 30
0.0
 11
21103.707011525628
 21
399551.0162688212
 31
0.0
  0
LINE
  5
677FE
  8
S-OBRYS
  6
CONTINUOUS
 62
     0
 10
21113.707011525628
 20
400506.01610222133
 30
0.0
 11
21113.707011525628
 21
399651.01626882132
 31
0.0
  0
INSERT
  5
677FF
  8
S-OBRYS
  6
CONTINUOUS
 62
     0
  2
_OPEN
 10
21113.707011525628
 20
400606.01610222133
 30
0.0
 41
100.0
 42
100.0
 43
100.0
 50
90.0
  0
INSERT
  5
67800
  8
S-OBRYS
  6
CONTINUOUS
 62
     0
  2
_OPEN
 10
21113.707011525628
 20
399551.0162688212
 30
0.0
 41
100.0
 42
100.0
 43
100.0
 50
270.0
  0
INSERT
  5
67801
  8
S-OBRYS
  6
CONTINUOUS
  2
*U243
 10
0.0
 20
0.0
 30
0.0
  0
POINT
  5
67802
  8
DEFPOINTS
  6
CONTINUOUS
 62
     0
 10
21647.153965063619
 20
400606.01610222133
 30
0.0
  0
POINT
  5
67803
  8
DEFPOINTS
  6
CONTINUOUS
 62
     0
 10
21199.003965063621
 20
399551.0162688212
 30
0.0
  0
POINT
  5
67804
  8
DEFPOINTS
  6
CONTINUOUS
 62
     0
 10
21113.707011525628
 20
399551.0162688212
 30
0.0
  0
ENDBLK
  5
675FE
  8
0
  0
BLOCK
  8
0
  2
*D128
 70
     1
 10
0.0
 20
0.0
 30
0.0
  3
*D128
  1

  0
LINE
  5
67805
  8
S-OBRYS
  6
CONTINUOUS
 62
     0
 10
22121.174619583478
 20
399301.01626882132
 30
0.0
 11
22690.880748015079
 21
399301.01626882132
 31
0.0
  0
LINE
  5
67806
  8
S-OBRYS
  6
CONTINUOUS
 62
     0
 10
21971.153802291228
 20
399240.01626882132
 30
0.0
 11
22690.880748015079
 21
399240.01626882132
 31
0.0
  0
LINE
  5
67807
  8
S-OBRYS
  6
CONTINUOUS
 62
     0
 10
22680.880748015079
 20
399140.01626882132
 30
0.0
 11
22680.880748015079
 21
399040.01626882132
 31
0.0
  0
LINE
  5
67808
  8
S-OBRYS
  6
CONTINUOUS
 62
     0
 10
22680.880748015079
 20
399401.0162688212
 30
0.0
 11
22680.880748015079
 21
399653.87341167842
 31
0.0
  0
LINE
  5
67809
  8
S-OBRYS
  6
CONTINUOUS
 62
     0
 10
22680.880748015079
 20
399240.01626882132
 30
0.0
 11
22680.880748015079
 21
399301.01626882132
 31
0.0
  0
INSERT
  5
6780A
  8
S-OBRYS
  6
CONTINUOUS
 62
     0
  2
_OPEN
 10
22680.880748015079
 20
399240.01626882132
 30
0.0
 41
100.0
 42
100.0
 43
100.0
 50
90.0
  0
INSERT
  5
6780B
  8
S-OBRYS
  6
CONTINUOUS
 62
     0
  2
_OPEN
 10
22680.880748015079
 20
399301.01626882132
 30
0.0
 41
100.0
 42
100.0
 43
100.0
 50
270.0
  0
INSERT
  5
6780C
  8
S-OBRYS
  6
CONTINUOUS
  2
*U244
 10
0.0
 20
0.0
 30
0.0
  0
POINT
  5
6780D
  8
DEFPOINTS
  6
CONTINUOUS
 62
     0
 10
22118.024619583481
 20
399301.01626882132
 30
0.0
  0
POINT
  5
6780E
  8
DEFPOINTS
  6
CONTINUOUS
 62
     0
 10
21968.00380229123
 20
399240.01626882132
 30
0.0
  0
POINT
  5
6780F
  8
DEFPOINTS
  6
CONTINUOUS
 62
     0
 10
22680.880748015079
 20
399240.01626882132
 30
0.0
  0
ENDBLK
  5
6760C
  8
0
  0
BLOCK
  8
0
  2
*D129
 70
     1
 10
0.0
 20
0.0
 30
0.0
  3
*D129
  1

  0
LINE
  5
67810
  8
S-OBRYS
  6
CONTINUOUS
 62
     0
 10
21255.03616206424
 20
398973.86980482301
 30
0.0
 11
21722.961010124651
 21
399171.5301231636
 31
0.0
  0
LINE
  5
67811
  8
S-OBRYS
  6
CONTINUOUS
 62
     0
 10
22047.217993722468
 20
399308.5024144788
 30
0.0
 11
22139.336454971839
 21
399347.41499723872
 31
0.0
  0
INSERT
  5
67812
  8
S-OBRYS
  6
CONTINUOUS
  2
*U245
 10
0.0
 20
0.0
 30
0.0
  0
LINE
  5
67813
  8
S-OBRYS
  6
CONTINUOUS
 62
     0
 10
21955.09953247313
 20
399269.58983171883
 30
0.0
 11
21815.079471373989
 21
399210.44270592357
 31
0.0
  0
INSERT
  5
67814
  8
S-OBRYS
  6
CONTINUOUS
 62
     0
  2
_OPEN
 10
21955.09953247313
 20
399269.58983171883
 30
0.0
 41
100.0
 42
100.0
 43
100.0
 50
202.9001167740453
  0
INSERT
  5
67815
  8
S-OBRYS
  6
CONTINUOUS
 62
     0
  2
_OPEN
 10
21815.079471373989
 20
399210.44270592357
 30
0.0
 41
100.0
 42
100.0
 43
100.0
 50
22.900116774045301
  0
POINT
  5
67816
  8
DEFPOINTS
  6
CONTINUOUS
 62
     0
 10
21815.079471373989
 20
399210.44270592357
 30
0.0
  0
POINT
  5
67817
  8
DEFPOINTS
  6
CONTINUOUS
 62
     0
 10
21955.09953247313
 20
399269.58983171883
 30
0.0
  0
ENDBLK
  5
67617
  8
0
  0
BLOCK
  8
0
  2
*D130
 70
     1
 10
0.0
 20
0.0
 30
0.0
  3
*D130
  1

  0
LINE
  5
67818
  8
S-OBRYS
  6
CONTINUOUS
 62
     0
 10
22151.389292323551
 20
399271.01626882132
 30
0.0
 11
22324.584317584751
 21
399271.01626882132
 31
0.0
  0
LINE
  5
67819
  8
S-OBRYS
  6
CONTINUOUS
 62
     0
 10
22151.389292323551
 20
399616.01610222133
 30
0.0
 11
22324.584317584751
 21
399616.01610222133
 31
0.0
  0
LINE
  5
6781A
  8
S-OBRYS
  6
CONTINUOUS
 62
     0
 10
22314.584317584751
 20
399371.01626882132
 30
0.0
 11
22314.584317584751
 21
399516.01610222133
 31
0.0
  0
INSERT
  5
6781B
  8
S-OBRYS
  6
CONTINUOUS
 62
     0
  2
_OPEN
 10
22314.584317584751
 20
399271.01626882132
 30
0.0
 41
100.0
 42
100.0
 43
100.0
 50
270.0
  0
INSERT
  5
6781C
  8
S-OBRYS
  6
CONTINUOUS
 62
     0
  2
_OPEN
 10
22314.584317584751
 20
399616.01610222133
 30
0.0
 41
100.0
 42
100.0
 43
100.0
 50
90.0
  0
INSERT
  5
6781D
  8
S-OBRYS
  6
CONTINUOUS
  2
*U246
 10
0.0
 20
0.0
 30
0.0
  0
POINT
  5
6781E
  8
DEFPOINTS
  6
CONTINUOUS
 62
     0
 10
22148.239292323549
 20
399271.01626882132
 30
0.0
  0
POINT
  5
6781F
  8
DEFPOINTS
  6
CONTINUOUS
 62
     0
 10
22148.239292323549
 20
399616.01610222133
 30
0.0
  0
POINT
  5
67820
  8
DEFPOINTS
  6
CONTINUOUS
 62
     0
 10
22314.584317584751
 20
399616.01610222133
 30
0.0
  0
ENDBLK
  5
67623
  8
0
  0
BLOCK
  8
0
  2
*D131
 70
     1
 10
0.0
 20
0.0
 30
0.0
  3
*D131
  1

  0
LINE
  5
67821
  8
S-OBRYS
  6
CONTINUOUS
 62
     0
 10
18588.51803714324
 20
399271.01626882132
 30
0.0
 11
18968.69839055902
 21
399271.01626882132
 31
0.0
  0
LINE
  5
67822
  8
S-OBRYS
  6
CONTINUOUS
 62
     0
 10
18243.51803714324
 20
400771.01616442128
 30
0.0
 11
18968.69839055902
 21
400771.01616442128
 31
0.0
  0
LINE
  5
67823
  8
S-OBRYS
  6
CONTINUOUS
 62
     0
 10
18958.69839055902
 20
399371.01626882132
 30
0.0
 11
18958.69839055902
 21
400671.01616442128
 31
0.0
  0
INSERT
  5
67824
  8
S-OBRYS
  6
CONTINUOUS
 62
     0
  2
_OPEN
 10
18958.69839055902
 20
399271.01626882132
 30
0.0
 41
100.0
 42
100.0
 43
100.0
 50
270.0
  0
INSERT
  5
67825
  8
S-OBRYS
  6
CONTINUOUS
 62
     0
  2
_OPEN
 10
18958.69839055902
 20
400771.01616442128
 30
0.0
 41
100.0
 42
100.0
 43
100.0
 50
90.0
  0
INSERT
  5
67826
  8
S-OBRYS
  6
CONTINUOUS
  2
*U247
 10
0.0
 20
0.0
 30
0.0
  0
POINT
  5
67827
  8
DEFPOINTS
  6
CONTINUOUS
 62
     0
 10
18585.368037143238
 20
399271.01626882132
 30
0.0
  0
POINT
  5
67828
  8
DEFPOINTS
  6
CONTINUOUS
 62
     0
 10
18240.368037143238
 20
400771.01616442128
 30
0.0
  0
POINT
  5
67829
  8
DEFPOINTS
  6
CONTINUOUS
 62
     0
 10
18958.69839055902
 20
400771.01616442128
 30
0.0
  0
ENDBLK
  5
6762F
  8
0
  0
BLOCK
  8
0
  2
*D132
 70
     1
 10
0.0
 20
0.0
 30
0.0
  3
*D132
  1

  0
LINE
  5
6782A
  8
S-OBRYS
  6
CONTINUOUS
 62
     0
 10
17615.368037143238
 20
399267.86626882129
 30
0.0
 11
17615.368037143238
 21
398760.49730524991
 31
0.0
  0
LINE
  5
6782B
  8
S-OBRYS
  6
CONTINUOUS
 62
     0
 10
18585.368037143238
 20
399267.86626882129
 30
0.0
 11
18585.368037143238
 21
398760.49730524991
 31
0.0
  0
LINE
  5
6782C
  8
S-OBRYS
  6
CONTINUOUS
 62
     0
 10
17715.368037143238
 20
398770.49730524991
 30
0.0
 11
18485.368037143238
 21
398770.49730524991
 31
0.0
  0
INSERT
  5
6782D
  8
S-OBRYS
  6
CONTINUOUS
 62
     0
  2
_OPEN
 10
17615.368037143238
 20
398770.49730524991
 30
0.0
 41
100.0
 42
100.0
 43
100.0
 50
180.0
  0
INSERT
  5
6782E
  8
S-OBRYS
  6
CONTINUOUS
 62
     0
  2
_OPEN
 10
18585.368037143238
 20
398770.49730524991
 30
0.0
 41
100.0
 42
100.0
 43
100.0
  0
INSERT
  5
6782F
  8
S-OBRYS
  6
CONTINUOUS
  2
*U248
 10
0.0
 20
0.0
 30
0.0
  0
POINT
  5
67830
  8
DEFPOINTS
  6
CONTINUOUS
 62
     0
 10
17615.368037143238
 20
399271.01626882132
 30
0.0
  0
POINT
  5
67831
  8
DEFPOINTS
  6
CONTINUOUS
 62
     0
 10
18585.368037143238
 20
399271.01626882132
 30
0.0
  0
POINT
  5
67832
  8
DEFPOINTS
  6
CONTINUOUS
 62
     0
 10
18585.368037143238
 20
398770.49730524991
 30
0.0
  0
ENDBLK
  5
6763B
  8
0
  0
BLOCK
  8
0
  2
*D133
 70
     1
 10
0.0
 20
0.0
 30
0.0
  3
*D133
  1

  0
LINE
  5
67833
  8
S-OBRYS
  6
CONTINUOUS
 62
     0
 10
17639.282709883311
 20
399301.01626882132
 30
0.0
 11
17448.314423672498
 21
399301.01626882132
 31
0.0
  0
LINE
  5
67834
  8
S-OBRYS
  6
CONTINUOUS
 62
     0
 10
17639.282709883311
 20
399551.0162688212
 30
0.0
 11
17448.314423672498
 21
399551.0162688212
 31
0.0
  0
LINE
  5
67835
  8
S-OBRYS
  6
CONTINUOUS
 62
     0
 10
17458.314423672498
 20
399401.0162688212
 30
0.0
 11
17458.314423672498
 21
399451.01626882132
 31
0.0
  0
LINE
  5
67836
  8
S-OBRYS
  6
CONTINUOUS
 62
     0
 10
17458.314423672498
 20
399551.0162688212
 30
0.0
 11
17458.314423672498
 21
399906.73055453558
 31
0.0
  0
INSERT
  5
67837
  8
S-OBRYS
  6
CONTINUOUS
 62
     0
  2
_OPEN
 10
17458.314423672498
 20
399301.01626882132
 30
0.0
 41
100.0
 42
100.0
 43
100.0
 50
270.0
  0
INSERT
  5
67838
  8
S-OBRYS
  6
CONTINUOUS
 62
     0
  2
_OPEN
 10
17458.314423672498
 20
399551.0162688212
 30
0.0
 41
100.0
 42
100.0
 43
100.0
 50
90.0
  0
INSERT
  5
67839
  8
S-OBRYS
  6
CONTINUOUS
  2
*U249
 10
0.0
 20
0.0
 30
0.0
  0
POINT
  5
6783A
  8
DEFPOINTS
  6
CONTINUOUS
 62
     0
 10
17642.432709883309
 20
399301.01626882132
 30
0.0
  0
POINT
  5
6783B
  8
DEFPOINTS
  6
CONTINUOUS
 62
     0
 10
17642.432709883309
 20
399551.0162688212
 30
0.0
  0
POINT
  5
6783C
  8
DEFPOINTS
  6
CONTINUOUS
 62
     0
 10
17458.314423672498
 20
399551.0162688212
 30
0.0
  0
ENDBLK
  5
67648
  8
0
  0
BLOCK
  8
0
  2
*D134
 70
     1
 10
0.0
 20
0.0
 30
0.0
  3
*D134
  1

  0
LINE
  5
6783D
  8
S-OBRYS
  6
CONTINUOUS
 62
     0
 10
17612.218037143241
 20
399271.01626882132
 30
0.0
 11
17230.092800914092
 21
399271.01626882132
 31
0.0
  0
LINE
  5
6783E
  8
S-OBRYS
  6
CONTINUOUS
 62
     0
 10
17639.282709883311
 20
399301.01626882132
 30
0.0
 11
17230.092800914092
 21
399301.01626882132
 31
0.0
  0
LINE
  5
6783F
  8
S-OBRYS
  6
CONTINUOUS
 62
     0
 10
17240.092800914092
 20
399401.0162688212
 30
0.0
 11
17240.092800914092
 21
399501.01626882132
 31
0.0
  0
LINE
  5
67840
  8
S-OBRYS
  6
CONTINUOUS
 62
     0
 10
17240.092800914092
 20
399171.01626882132
 30
0.0
 11
17240.092800914092
 21
398891.49245929747
 31
0.0
  0
LINE
  5
67841
  8
S-OBRYS
  6
CONTINUOUS
 62
     0
 10
17240.092800914092
 20
399301.01626882132
 30
0.0
 11
17240.092800914092
 21
399271.01626882132
 31
0.0
  0
INSERT
  5
67842
  8
S-OBRYS
  6
CONTINUOUS
 62
     0
  2
_OPEN
 10
17240.092800914092
 20
399301.01626882132
 30
0.0
 41
100.0
 42
100.0
 43
100.0
 50
270.0
  0
INSERT
  5
67843
  8
S-OBRYS
  6
CONTINUOUS
 62
     0
  2
_OPEN
 10
17240.092800914092
 20
399271.01626882132
 30
0.0
 41
100.0
 42
100.0
 43
100.0
 50
90.0
  0
INSERT
  5
67844
  8
S-OBRYS
  6
CONTINUOUS
  2
*U250
 10
0.0
 20
0.0
 30
0.0
  0
POINT
  5
67845
  8
DEFPOINTS
  6
CONTINUOUS
 62
     0
 10
17615.368037143238
 20
399271.01626882132
 30
0.0
  0
POINT
  5
67846
  8
DEFPOINTS
  6
CONTINUOUS
 62
     0
 10
17642.432709883309
 20
399301.01626882132
 30
0.0
  0
POINT
  5
67847
  8
DEFPOINTS
  6
CONTINUOUS
 62
     0
 10
17240.092800914092
 20
399301.01626882132
 30
0.0
  0
ENDBLK
  5
67656
  8
0
  0
BLOCK
  8
0
  2
*D135
 70
     1
 10
0.0
 20
0.0
 30
0.0
  3
*D135
  1

  0
LINE
  5
67848
  8
S-OBRYS
  6
CONTINUOUS
 62
     0
 10
18133.51803714324
 20
400556.01610222121
 30
0.0
 11
18701.067395416219
 21
400556.01610222121
 31
0.0
  0
LINE
  5
67849
  8
S-OBRYS
  6
CONTINUOUS
 62
     0
 10
18133.51803714324
 20
400656.01610222133
 30
0.0
 11
18701.067395416219
 21
400656.01610222133
 31
0.0
  0
LINE
  5
6784A
  8
S-OBRYS
  6
CONTINUOUS
 62
     0
 10
18691.067395416208
 20
400756.01610222133
 30
0.0
 11
18691.067395416208
 21
400856.01610222121
 31
0.0
  0
LINE
  5
6784B
  8
S-OBRYS
  6
CONTINUOUS
 62
     0
 10
18691.067395416208
 20
400456.01610222133
 30
0.0
 11
18691.067395416208
 21
400111.73038793559
 31
0.0
  0
LINE
  5
6784C
  8
S-OBRYS
  6
CONTINUOUS
 62
     0
 10
18691.067395416208
 20
400656.01610222133
 30
0.0
 11
18691.067395416208
 21
400556.01610222121
 31
0.0
  0
INSERT
  5
6784D
  8
S-OBRYS
  6
CONTINUOUS
 62
     0
  2
_OPEN
 10
18691.067395416208
 20
400656.01610222133
 30
0.0
 41
100.0
 42
100.0
 43
100.0
 50
270.0
  0
INSERT
  5
6784E
  8
S-OBRYS
  6
CONTINUOUS
 62
     0
  2
_OPEN
 10
18691.067395416208
 20
400556.01610222121
 30
0.0
 41
100.0
 42
100.0
 43
100.0
 50
90.0
  0
INSERT
  5
6784F
  8
S-OBRYS
  6
CONTINUOUS
  2
*U251
 10
0.0
 20
0.0
 30
0.0
  0
POINT
  5
67850
  8
DEFPOINTS
  6
CONTINUOUS
 62
     0
 10
18130.368037143238
 20
400556.01610222121
 30
0.0
  0
POINT
  5
67851
  8
DEFPOINTS
  6
CONTINUOUS
 62
     0
 10
18130.368037143238
 20
400656.01610222133
 30
0.0
  0
POINT
  5
67852
  8
DEFPOINTS
  6
CONTINUOUS
 62
     0
 10
18691.067395416208
 20
400656.01610222133
 30
0.0
  0
ENDBLK
  5
67664
  8
0
  0
BLOCK
  8
0
  2
*D136
 70
     1
 10
0.0
 20
0.0
 30
0.0
  3
*D136
  1

  0
LINE
  5
67853
  8
S-OBRYS
  6
CONTINUOUS
 62
     0
 10
18070.368037143238
 20
400659.16610222129
 30
0.0
 11
18070.368037143238
 21
400902.08413527912
 31
0.0
  0
LINE
  5
67854
  8
S-OBRYS
  6
CONTINUOUS
 62
     0
 10
18130.368037143238
 20
400659.16610222129
 30
0.0
 11
18130.368037143238
 21
400902.08413527912
 31
0.0
  0
LINE
  5
67855
  8
S-OBRYS
  6
CONTINUOUS
 62
     0
 10
17970.368037143238
 20
400892.08413527912
 30
0.0
 11
17870.368037143238
 21
400892.08413527912
 31
0.0
  0
LINE
  5
67856
  8
S-OBRYS
  6
CONTINUOUS
 62
     0
 10
18230.368037143238
 20
400892.08413527912
 30
0.0
 11
18506.082322857528
 21
400892.08413527912
 31
0.0
  0
LINE
  5
67857
  8
S-OBRYS
  6
CONTINUOUS
 62
     0
 10
18070.368037143238
 20
400892.08413527912
 30
0.0
 11
18130.368037143238
 21
400892.08413527912
 31
0.0
  0
INSERT
  5
67858
  8
S-OBRYS
  6
CONTINUOUS
 62
     0
  2
_OPEN
 10
18070.368037143238
 20
400892.08413527912
 30
0.0
 41
100.0
 42
100.0
 43
100.0
  0
INSERT
  5
67859
  8
S-OBRYS
  6
CONTINUOUS
 62
     0
  2
_OPEN
 10
18130.368037143238
 20
400892.08413527912
 30
0.0
 41
100.0
 42
100.0
 43
100.0
 50
180.0
  0
INSERT
  5
6785A
  8
S-OBRYS
  6
CONTINUOUS
  2
*U252
 10
0.0
 20
0.0
 30
0.0
  0
POINT
  5
6785B
  8
DEFPOINTS
  6
CONTINUOUS
 62
     0
 10
18070.368037143238
 20
400656.01610222133
 30
0.0
  0
POINT
  5
6785C
  8
DEFPOINTS
  6
CONTINUOUS
 62
     0
 10
18130.368037143238
 20
400656.01610222133
 30
0.0
  0
POINT
  5
6785D
  8
DEFPOINTS
  6
CONTINUOUS
 62
     0
 10
18130.368037143238
 20
400892.08413527912
 30
0.0
  0
ENDBLK
  5
67672
  8
0
  0
BLOCK
  8
0
  2
*D137
 70
     1
 10
0.0
 20
0.0
 30
0.0
  3
*D137
  1

  0
LINE
  5
6785E
  8
S-OBRYS
  6
CONTINUOUS
 62
     0
 10
16754.295279324469
 20
404998.08931223338
 30
0.0
 11
16754.295279324469
 21
405219.18369228212
 31
0.0
  0
LINE
  5
6785F
  8
S-OBRYS
  6
CONTINUOUS
 62
     0
 10
16989.295477024469
 20
404998.08931223338
 30
0.0
 11
16989.295477024469
 21
405219.18369228212
 31
0.0
  0
LINE
  5
67860
  8
S-OBRYS
  6
CONTINUOUS
 62
     0
 10
16654.295279324469
 20
405209.18369228201
 30
0.0
 11
16554.295279324469
 21
405209.18369228201
 31
0.0
  0
LINE
  5
67861
  8
S-OBRYS
  6
CONTINUOUS
 62
     0
 10
17089.295477024469
 20
405209.18369228201
 30
0.0
 11
17445.009762738751
 21
405209.18369228201
 31
0.0
  0
LINE
  5
67862
  8
S-OBRYS
  6
CONTINUOUS
 62
     0
 10
16754.295279324469
 20
405209.18369228201
 30
0.0
 11
16989.295477024469
 21
405209.18369228201
 31
0.0
  0
INSERT
  5
67863
  8
S-OBRYS
  6
CONTINUOUS
 62
     0
  2
_OPEN
 10
16754.295279324469
 20
405209.18369228201
 30
0.0
 41
100.0
 42
100.0
 43
100.0
  0
INSERT
  5
67864
  8
S-OBRYS
  6
CONTINUOUS
 62
     0
  2
_OPEN
 10
16989.295477024469
 20
405209.18369228201
 30
0.0
 41
100.0
 42
100.0
 43
100.0
 50
180.0
  0
INSERT
  5
67865
  8
S-OBRYS
  6
CONTINUOUS
  2
*U253
 10
0.0
 20
0.0
 30
0.0
  0
POINT
  5
67866
  8
DEFPOINTS
  6
CONTINUOUS
 62
     0
 10
16754.295279324469
 20
404994.93931223347
 30
0.0
  0
POINT
  5
67867
  8
DEFPOINTS
  6
CONTINUOUS
 62
     0
 10
16989.295477024469
 20
404994.93931223347
 30
0.0
  0
POINT
  5
67868
  8
DEFPOINTS
  6
CONTINUOUS
 62
     0
 10
16989.295477024469
 20
405209.18369228201
 30
0.0
  0
ENDBLK
  5
67680
  8
0
  0
BLOCK
  8
0
  2
*D138
 70
     1
 10
0.0
 20
0.0
 30
0.0
  3
*D138
  1

  0
LINE
  5
67869
  8
S-OBRYS
  6
CONTINUOUS
 62
     0
 10
16989.295477024469
 20
403441.78931223339
 30
0.0
 11
16989.295477024469
 21
403184.94627626182
 31
0.0
  0
LINE
  5
6786A
  8
S-OBRYS
  6
CONTINUOUS
 62
     0
 10
17214.295477024469
 20
403441.78931223339
 30
0.0
 11
17214.295477024469
 21
403184.94627626182
 31
0.0
  0
LINE
  5
6786B
  8
S-OBRYS
  6
CONTINUOUS
 62
     0
 10
16889.295477024469
 20
403194.94627626188
 30
0.0
 11
16789.295477024469
 21
403194.94627626188
 31
0.0
  0
LINE
  5
6786C
  8
S-OBRYS
  6
CONTINUOUS
 62
     0
 10
17314.295477024469
 20
403194.94627626188
 30
0.0
 11
17670.009762738751
 21
403194.94627626188
 31
0.0
  0
LINE
  5
6786D
  8
S-OBRYS
  6
CONTINUOUS
 62
     0
 10
16989.295477024469
 20
403194.94627626188
 30
0.0
 11
17214.295477024469
 21
403194.94627626188
 31
0.0
  0
INSERT
  5
6786E
  8
S-OBRYS
  6
CONTINUOUS
 62
     0
  2
_OPEN
 10
16989.295477024469
 20
403194.94627626188
 30
0.0
 41
100.0
 42
100.0
 43
100.0
  0
INSERT
  5
6786F
  8
S-OBRYS
  6
CONTINUOUS
 62
     0
  2
_OPEN
 10
17214.295477024469
 20
403194.94627626188
 30
0.0
 41
100.0
 42
100.0
 43
100.0
 50
180.0
  0
INSERT
  5
67870
  8
S-OBRYS
  6
CONTINUOUS
  2
*U254
 10
0.0
 20
0.0
 30
0.0
  0
POINT
  5
67871
  8
DEFPOINTS
  6
CONTINUOUS
 62
     0
 10
16989.295477024469
 20
403444.93931223347
 30
0.0
  0
POINT
  5
67872
  8
DEFPOINTS
  6
CONTINUOUS
 62
     0
 10
17214.295477024469
 20
403444.93931223347
 30
0.0
  0
POINT
  5
67873
  8
DEFPOINTS
  6
CONTINUOUS
 62
     0
 10
17214.295477024469
 20
403194.94627626188
 30
0.0
  0
ENDBLK
  5
6768E
  8
0
  0
BLOCK
  8
0
  2
*D139
 70
     1
 10
0.0
 20
0.0
 30
0.0
  3
*D139
  1

  0
LINE
  5
67874
  8
S-OBRYS
  6
CONTINUOUS
 62
     0
 10
17142.445405624469
 20
404994.93931223347
 30
0.0
 11
17933.880777670602
 21
404994.93931223347
 31
0.0
  0
LINE
  5
67875
  8
S-OBRYS
  6
CONTINUOUS
 62
     0
 10
17479.94539102447
 20
403444.93931223347
 30
0.0
 11
17933.880777670602
 21
403444.93931223347
 31
0.0
  0
LINE
  5
67876
  8
S-OBRYS
  6
CONTINUOUS
 62
     0
 10
17923.880777670602
 20
404894.93931223347
 30
0.0
 11
17923.880777670602
 21
403544.93931223347
 31
0.0
  0
INSERT
  5
67877
  8
S-OBRYS
  6
CONTINUOUS
 62
     0
  2
_OPEN
 10
17923.880777670602
 20
404994.93931223347
 30
0.0
 41
100.0
 42
100.0
 43
100.0
 50
90.0
  0
INSERT
  5
67878
  8
S-OBRYS
  6
CONTINUOUS
 62
     0
  2
_OPEN
 10
17923.880777670602
 20
403444.93931223347
 30
0.0
 41
100.0
 42
100.0
 43
100.0
 50
270.0
  0
INSERT
  5
67879
  8
S-OBRYS
  6
CONTINUOUS
  2
*U255
 10
0.0
 20
0.0
 30
0.0
  0
POINT
  5
6787A
  8
DEFPOINTS
  6
CONTINUOUS
 62
     0
 10
17139.295405624471
 20
404994.93931223347
 30
0.0
  0
POINT
  5
6787B
  8
DEFPOINTS
  6
CONTINUOUS
 62
     0
 10
17476.795391024469
 20
403444.93931223347
 30
0.0
  0
POINT
  5
6787C
  8
DEFPOINTS
  6
CONTINUOUS
 62
     0
 10
17923.880777670602
 20
403444.93931223347
 30
0.0
  0
ENDBLK
  5
6769A
  8
0
  0
BLOCK
  8
0
  2
*D140
 70
     1
 10
0.0
 20
0.0
 30
0.0
  3
*D140
  1

  0
LINE
  5
6787D
  8
S-OBRYS
  6
CONTINUOUS
 62
     0
 10
17205.950250624472
 20
404919.93951183348
 30
0.0
 11
17739.0776421788
 21
404919.93951183348
 31
0.0
  0
LINE
  5
6787E
  8
S-OBRYS
  6
CONTINUOUS
 62
     0
 10
17467.445555724469
 20
404655.29481633339
 30
0.0
 11
17739.0776421788
 21
404655.29481633339
 31
0.0
  0
LINE
  5
6787F
  8
S-OBRYS
  6
CONTINUOUS
 62
     0
 10
17729.0776421788
 20
404819.93951183342
 30
0.0
 11
17729.0776421788
 21
404755.29481633339
 31
0.0
  0
INSERT
  5
67880
  8
S-OBRYS
  6
CONTINUOUS
 62
     0
  2
_OPEN
 10
17729.0776421788
 20
404919.93951183348
 30
0.0
 41
100.0
 42
100.0
 43
100.0
 50
90.0
  0
INSERT
  5
67881
  8
S-OBRYS
  6
CONTINUOUS
 62
     0
  2
_OPEN
 10
17729.0776421788
 20
404655.29481633339
 30
0.0
 41
100.0
 42
100.0
 43
100.0
 50
270.0
  0
INSERT
  5
67882
  8
S-OBRYS
  6
CONTINUOUS
  2
*U256
 10
0.0
 20
0.0
 30
0.0
  0
POINT
  5
67883
  8
DEFPOINTS
  6
CONTINUOUS
 62
     0
 10
17202.80025062447
 20
404919.93951183348
 30
0.0
  0
POINT
  5
67884
  8
DEFPOINTS
  6
CONTINUOUS
 62
     0
 10
17464.295555724471
 20
404655.29481633339
 30
0.0
  0
POINT
  5
67885
  8
DEFPOINTS
  6
CONTINUOUS
 62
     0
 10
17729.0776421788
 20
404655.29481633339
 30
0.0
  0
ENDBLK
  5
676A6
  8
0
  0
BLOCK
  8
0
  2
*D141
 70
     1
 10
0.0
 20
0.0
 30
0.0
  3
*D141
  1

  0
LINE
  5
67886
  8
S-OBRYS
  6
CONTINUOUS
 62
     0
 10
17467.445555724469
 20
404655.29481633339
 30
0.0
 11
17739.0776421788
 21
404655.29481633339
 31
0.0
  0
LINE
  5
67887
  8
S-OBRYS
  6
CONTINUOUS
 62
     0
 10
17483.095391024479
 20
403444.93931223347
 30
0.0
 11
17739.0776421788
 21
403444.93931223347
 31
0.0
  0
LINE
  5
67888
  8
S-OBRYS
  6
CONTINUOUS
 62
     0
 10
17729.0776421788
 20
404555.29481633351
 30
0.0
 11
17729.0776421788
 21
403544.93931223347
 31
0.0
  0
INSERT
  5
67889
  8
S-OBRYS
  6
CONTINUOUS
 62
     0
  2
_OPEN
 10
17729.0776421788
 20
404655.29481633339
 30
0.0
 41
100.0
 42
100.0
 43
100.0
 50
90.0
  0
INSERT
  5
6788A
  8
S-OBRYS
  6
CONTINUOUS
 62
     0
  2
_OPEN
 10
17729.0776421788
 20
403444.93931223347
 30
0.0
 41
100.0
 42
100.0
 43
100.0
 50
270.0
  0
INSERT
  5
6788B
  8
S-OBRYS
  6
CONTINUOUS
  2
*U257
 10
0.0
 20
0.0
 30
0.0
  0
POINT
  5
6788C
  8
DEFPOINTS
  6
CONTINUOUS
 62
     0
 10
17464.295555724471
 20
404655.29481633339
 30
0.0
  0
POINT
  5
6788D
  8
DEFPOINTS
  6
CONTINUOUS
 62
     0
 10
17479.945391024481
 20
403444.93931223347
 30
0.0
  0
POINT
  5
6788E
  8
DEFPOINTS
  6
CONTINUOUS
 62
     0
 10
17729.0776421788
 20
403444.93931223347
 30
0.0
  0
ENDBLK
  5
676B2
  8
0
  0
BLOCK
  8
0
  2
*D142
 70
     1
 10
0.0
 20
0.0
 30
0.0
  3
*D142
  1

  0
LINE
  5
6788F
  8
S-OBRYS
  6
CONTINUOUS
 62
     0
 10
23389.421455246698
 20
405010.4065549603
 30
0.0
 11
23389.421455246698
 21
405249.77927096171
 31
0.0
  0
LINE
  5
67890
  8
S-OBRYS
  6
CONTINUOUS
 62
     0
 10
23669.421455246698
 20
405010.4065549603
 30
0.0
 11
23669.421455246698
 21
405249.77927096171
 31
0.0
  0
LINE
  5
67891
  8
S-OBRYS
  6
CONTINUOUS
 62
     0
 10
23489.421455246698
 20
405239.77927096171
 30
0.0
 11
23569.421455246698
 21
405239.77927096171
 31
0.0
  0
INSERT
  5
67892
  8
S-OBRYS
  6
CONTINUOUS
 62
     0
  2
_OPEN
 10
23389.421455246698
 20
405239.77927096171
 30
0.0
 41
100.0
 42
100.0
 43
100.0
 50
180.0
  0
INSERT
  5
67893
  8
S-OBRYS
  6
CONTINUOUS
 62
     0
  2
_OPEN
 10
23669.421455246698
 20
405239.77927096171
 30
0.0
 41
100.0
 42
100.0
 43
100.0
  0
INSERT
  5
67894
  8
S-OBRYS
  6
CONTINUOUS
  2
*U258
 10
0.0
 20
0.0
 30
0.0
  0
POINT
  5
67895
  8
DEFPOINTS
  6
CONTINUOUS
 62
     0
 10
23389.421455246698
 20
405007.25655496027
 30
0.0
  0
POINT
  5
67896
  8
DEFPOINTS
  6
CONTINUOUS
 62
     0
 10
23669.421455246698
 20
405007.25655496027
 30
0.0
  0
POINT
  5
67897
  8
DEFPOINTS
  6
CONTINUOUS
 62
     0
 10
23669.421455246698
 20
405239.77927096171
 30
0.0
  0
ENDBLK
  5
676BE
  8
0
  0
BLOCK
  8
0
  2
*D143
 70
     1
 10
0.0
 20
0.0
 30
0.0
  3
*D143
  1

  0
LINE
  5
67898
  8
S-OBRYS
  6
CONTINUOUS
 62
     0
 10
23386.2714552467
 20
405007.25655496027
 30
0.0
 11
22869.798564570581
 21
405007.25655496027
 31
0.0
  0
LINE
  5
67899
  8
S-OBRYS
  6
CONTINUOUS
 62
     0
 10
23041.2714552467
 20
403507.25665936031
 30
0.0
 11
22869.798564570581
 21
403507.25665936031
 31
0.0
  0
LINE
  5
6789A
  8
S-OBRYS
  6
CONTINUOUS
 62
     0
 10
22879.798564570581
 20
404907.25655496027
 30
0.0
 11
22879.798564570581
 21
403607.25665936031
 31
0.0
  0
INSERT
  5
6789B
  8
S-OBRYS
  6
CONTINUOUS
 62
     0
  2
_OPEN
 10
22879.798564570581
 20
405007.25655496027
 30
0.0
 41
100.0
 42
100.0
 43
100.0
 50
90.0
  0
INSERT
  5
6789C
  8
S-OBRYS
  6
CONTINUOUS
 62
     0
  2
_OPEN
 10
22879.798564570581
 20
403507.25665936031
 30
0.0
 41
100.0
 42
100.0
 43
100.0
 50
270.0
  0
INSERT
  5
6789D
  8
S-OBRYS
  6
CONTINUOUS
  2
*U259
 10
0.0
 20
0.0
 30
0.0
  0
POINT
  5
6789E
  8
DEFPOINTS
  6
CONTINUOUS
 62
     0
 10
23389.421455246698
 20
405007.25655496027
 30
0.0
  0
POINT
  5
6789F
  8
DEFPOINTS
  6
CONTINUOUS
 62
     0
 10
23044.421455246698
 20
403507.25665936031
 30
0.0
  0
POINT
  5
678A0
  8
DEFPOINTS
  6
CONTINUOUS
 62
     0
 10
22879.798564570581
 20
403507.25665936031
 30
0.0
  0
ENDBLK
  5
676CA
  8
0
  0
BLOCK
  8
0
  2
*D144
 70
     1
 10
0.0
 20
0.0
 30
0.0
  3
*D144
  1

  0
LINE
  5
678A1
  8
S-OBRYS
  6
CONTINUOUS
 62
     0
 10
23044.421455246698
 20
403504.10665936029
 30
0.0
 11
23044.421455246698
 21
403047.46680694621
 31
0.0
  0
LINE
  5
678A2
  8
S-OBRYS
  6
CONTINUOUS
 62
     0
 10
24014.421455246698
 20
403504.10665936029
 30
0.0
 11
24014.421455246698
 21
403047.46680694621
 31
0.0
  0
LINE
  5
678A3
  8
S-OBRYS
  6
CONTINUOUS
 62
     0
 10
23144.421455246698
 20
403057.46680694621
 30
0.0
 11
23914.421455246698
 21
403057.46680694621
 31
0.0
  0
INSERT
  5
678A4
  8
S-OBRYS
  6
CONTINUOUS
 62
     0
  2
_OPEN
 10
23044.421455246698
 20
403057.46680694621
 30
0.0
 41
100.0
 42
100.0
 43
100.0
 50
180.0
  0
INSERT
  5
678A5
  8
S-OBRYS
  6
CONTINUOUS
 62
     0
  2
_OPEN
 10
24014.421455246698
 20
403057.46680694621
 30
0.0
 41
100.0
 42
100.0
 43
100.0
  0
INSERT
  5
678A6
  8
S-OBRYS
  6
CONTINUOUS
  2
*U260
 10
0.0
 20
0.0
 30
0.0
  0
POINT
  5
678A7
  8
DEFPOINTS
  6
CONTINUOUS
 62
     0
 10
23044.421455246698
 20
403507.25665936031
 30
0.0
  0
POINT
  5
678A8
  8
DEFPOINTS
  6
CONTINUOUS
 62
     0
 10
24014.421455246698
 20
403507.25665936031
 30
0.0
  0
POINT
  5
678A9
  8
DEFPOINTS
  6
CONTINUOUS
 62
     0
 10
24014.421455246698
 20
403057.46680694621
 30
0.0
  0
ENDBLK
  5
676D6
  8
0
  0
BLOCK
  8
0
  2
*D145
 70
     1
 10
0.0
 20
0.0
 30
0.0
  3
*D145
  1

  0
LINE
  5
678AA
  8
S-OBRYS
  6
CONTINUOUS
 62
     0
 10
20570.253334167301
 20
404987.95216793352
 30
0.0
 11
20570.253334167301
 21
405277.5875280943
 31
0.0
  0
LINE
  5
678AB
  8
S-OBRYS
  6
CONTINUOUS
 62
     0
 10
20722.253262767299
 20
404987.95216793352
 30
0.0
 11
20722.253262767299
 21
405277.5875280943
 31
0.0
  0
LINE
  5
678AC
  8
S-OBRYS
  6
CONTINUOUS
 62
     0
 10
20470.253334167301
 20
405267.5875280943
 30
0.0
 11
20370.253334167301
 21
405267.5875280943
 31
0.0
  0
LINE
  5
678AD
  8
S-OBRYS
  6
CONTINUOUS
 62
     0
 10
20822.253262767299
 20
405267.5875280943
 30
0.0
 11
21250.348500862539
 21
405267.5875280943
 31
0.0
  0
LINE
  5
678AE
  8
S-OBRYS
  6
CONTINUOUS
 62
     0
 10
20570.253334167301
 20
405267.5875280943
 30
0.0
 11
20722.253262767299
 21
405267.5875280943
 31
0.0
  0
INSERT
  5
678AF
  8
S-OBRYS
  6
CONTINUOUS
 62
     0
  2
_OPEN
 10
20570.253334167301
 20
405267.5875280943
 30
0.0
 41
100.0
 42
100.0
 43
100.0
  0
INSERT
  5
678B0
  8
S-OBRYS
  6
CONTINUOUS
 62
     0
  2
_OPEN
 10
20722.253262767299
 20
405267.5875280943
 30
0.0
 41
100.0
 42
100.0
 43
100.0
 50
180.0
  0
INSERT
  5
678B1
  8
S-OBRYS
  6
CONTINUOUS
  2
*U261
 10
0.0
 20
0.0
 30
0.0
  0
POINT
  5
678B2
  8
DEFPOINTS
  6
CONTINUOUS
 62
     0
 10
20570.253334167301
 20
404984.80216793338
 30
0.0
  0
POINT
  5
678B3
  8
DEFPOINTS
  6
CONTINUOUS
 62
     0
 10
20722.253262767299
 20
404984.80216793338
 30
0.0
  0
POINT
  5
678B4
  8
DEFPOINTS
  6
CONTINUOUS
 62
     0
 10
20722.253262767299
 20
405267.5875280943
 30
0.0
  0
ENDBLK
  5
676E4
  8
0
  0
BLOCK
  8
0
  2
*D146
 70
     1
 10
0.0
 20
0.0
 30
0.0
  3
*D146
  1

  0
LINE
  5
678B5
  8
S-OBRYS
  6
CONTINUOUS
 62
     0
 10
20366.253429367309
 20
404987.95216793352
 30
0.0
 11
20366.253429367309
 21
405171.5228070856
 31
0.0
  0
LINE
  5
678B6
  8
S-OBRYS
  6
CONTINUOUS
 62
     0
 10
20116.252938767309
 20
404987.95216793352
 30
0.0
 11
20116.252938767309
 21
405171.5228070856
 31
0.0
  0
LINE
  5
678B7
  8
S-OBRYS
  6
CONTINUOUS
 62
     0
 10
20266.253429367309
 20
405161.5228070856
 30
0.0
 11
20216.252938767309
 21
405161.5228070856
 31
0.0
  0
LINE
  5
678B8
  8
S-OBRYS
  6
CONTINUOUS
 62
     0
 10
20116.252938767309
 20
405161.5228070856
 30
0.0
 11
19688.157700672069
 21
405161.5228070856
 31
0.0
  0
INSERT
  5
678B9
  8
S-OBRYS
  6
CONTINUOUS
 62
     0
  2
_OPEN
 10
20366.253429367309
 20
405161.5228070856
 30
0.0
 41
100.0
 42
100.0
 43
100.0
  0
INSERT
  5
678BA
  8
S-OBRYS
  6
CONTINUOUS
 62
     0
  2
_OPEN
 10
20116.252938767309
 20
405161.5228070856
 30
0.0
 41
100.0
 42
100.0
 43
100.0
 50
180.0
  0
INSERT
  5
678BB
  8
S-OBRYS
  6
CONTINUOUS
  2
*U262
 10
0.0
 20
0.0
 30
0.0
  0
POINT
  5
678BC
  8
DEFPOINTS
  6
CONTINUOUS
 62
     0
 10
20366.253429367309
 20
404984.80216793349
 30
0.0
  0
POINT
  5
678BD
  8
DEFPOINTS
  6
CONTINUOUS
 62
     0
 10
20116.252938767309
 20
404984.80216793338
 30
0.0
  0
POINT
  5
678BE
  8
DEFPOINTS
  6
CONTINUOUS
 62
     0
 10
20116.252938767309
 20
405161.5228070856
 30
0.0
  0
ENDBLK
  5
676F1
  8
0
  0
BLOCK
  8
0
  2
*D147
 70
     1
 10
0.0
 20
0.0
 30
0.0
  3
*D147
  1

  0
LINE
  5
678BF
  8
S-OBRYS
  6
CONTINUOUS
 62
     0
 10
20241.253184067311
 20
405034.52920206363
 30
0.0
 11
20241.253184067311
 21
405489.71697011159
 31
0.0
  0
LINE
  5
678C0
  8
S-OBRYS
  6
CONTINUOUS
 62
     0
 10
20645.252993667302
 20
405034.52920206363
 30
0.0
 11
20645.252993667302
 21
405489.71697011159
 31
0.0
  0
LINE
  5
678C1
  8
S-OBRYS
  6
CONTINUOUS
 62
     0
 10
20341.253184067311
 20
405479.71697011159
 30
0.0
 11
20545.252993667302
 21
405479.71697011159
 31
0.0
  0
INSERT
  5
678C2
  8
S-OBRYS
  6
CONTINUOUS
 62
     0
  2
_OPEN
 10
20241.253184067311
 20
405479.71697011159
 30
0.0
 41
100.0
 42
100.0
 43
100.0
 50
180.0
  0
INSERT
  5
678C3
  8
S-OBRYS
  6
CONTINUOUS
 62
     0
  2
_OPEN
 10
20645.252993667302
 20
405479.71697011159
 30
0.0
 41
100.0
 42
100.0
 43
100.0
  0
INSERT
  5
678C4
  8
S-OBRYS
  6
CONTINUOUS
  2
*U263
 10
0.0
 20
0.0
 30
0.0
  0
POINT
  5
678C5
  8
DEFPOINTS
  6
CONTINUOUS
 62
     0
 10
20241.253184067311
 20
405031.37920206349
 30
0.0
  0
POINT
  5
678C6
  8
DEFPOINTS
  6
CONTINUOUS
 62
     0
 10
20645.252993667302
 20
405031.37920206349
 30
0.0
  0
POINT
  5
678C7
  8
DEFPOINTS
  6
CONTINUOUS
 62
     0
 10
20645.252993667302
 20
405479.71697011159
 30
0.0
  0
ENDBLK
  5
676FD
  8
0
  0
BLOCK
  8
0
  2
*D148
 70
     1
 10
0.0
 20
0.0
 30
0.0
  3
*D148
  1

  0
LINE
  5
678C8
  8
S-OBRYS
  6
CONTINUOUS
 62
     0
 10
20845.253508067301
 20
403431.65169923328
 30
0.0
 11
20845.253508067301
 21
403242.7273483242
 31
0.0
  0
LINE
  5
678C9
  8
S-OBRYS
  6
CONTINUOUS
 62
     0
 10
21045.2534128673
 20
403706.65187313338
 30
0.0
 11
21045.2534128673
 21
403242.7273483242
 31
0.0
  0
LINE
  5
678CA
  8
S-OBRYS
  6
CONTINUOUS
 62
     0
 10
20745.253508067301
 20
403252.7273483242
 30
0.0
 11
20645.253508067301
 21
403252.7273483242
 31
0.0
  0
LINE
  5
678CB
  8
S-OBRYS
  6
CONTINUOUS
 62
     0
 10
21145.2534128673
 20
403252.7273483242
 30
0.0
 11
21500.96769858159
 21
403252.7273483242
 31
0.0
  0
LINE
  5
678CC
  8
S-OBRYS
  6
CONTINUOUS
 62
     0
 10
20845.253508067301
 20
403252.7273483242
 30
0.0
 11
21045.2534128673
 21
403252.7273483242
 31
0.0
  0
INSERT
  5
678CD
  8
S-OBRYS
  6
CONTINUOUS
 62
     0
  2
_OPEN
 10
20845.253508067301
 20
403252.7273483242
 30
0.0
 41
100.0
 42
100.0
 43
100.0
  0
INSERT
  5
678CE
  8
S-OBRYS
  6
CONTINUOUS
 62
     0
  2
_OPEN
 10
21045.2534128673
 20
403252.7273483242
 30
0.0
 41
100.0
 42
100.0
 43
100.0
 50
180.0
  0
INSERT
  5
678CF
  8
S-OBRYS
  6
CONTINUOUS
  2
*U264
 10
0.0
 20
0.0
 30
0.0
  0
POINT
  5
678D0
  8
DEFPOINTS
  6
CONTINUOUS
 62
     0
 10
20845.253508067301
 20
403434.80169923347
 30
0.0
  0
POINT
  5
678D1
  8
DEFPOINTS
  6
CONTINUOUS
 62
     0
 10
21045.2534128673
 20
403709.8018731334
 30
0.0
  0
POINT
  5
678D2
  8
DEFPOINTS
  6
CONTINUOUS
 62
     0
 10
21045.2534128673
 20
403252.7273483242
 30
0.0
  0
ENDBLK
  5
6770B
  8
0
  0
BLOCK
  8
0
  2
*D149
 70
     1
 10
0.0
 20
0.0
 30
0.0
  3
*D149
  1

  0
LINE
  5
678D3
  8
S-OBRYS
  6
CONTINUOUS
 62
     0
 10
20845.253508067301
 20
403428.50169923343
 30
0.0
 11
20845.253508067301
 21
403242.7273483242
 31
0.0
  0
LINE
  5
678D4
  8
S-OBRYS
  6
CONTINUOUS
 62
     0
 10
20545.2533460673
 20
403431.65169923328
 30
0.0
 11
20545.2533460673
 21
403242.7273483242
 31
0.0
  0
LINE
  5
678D5
  8
S-OBRYS
  6
CONTINUOUS
 62
     0
 10
20745.253508067301
 20
403252.7273483242
 30
0.0
 11
20645.2533460673
 21
403252.7273483242
 31
0.0
  0
INSERT
  5
678D6
  8
S-OBRYS
  6
CONTINUOUS
 62
     0
  2
_OPEN
 10
20845.253508067301
 20
403252.7273483242
 30
0.0
 41
100.0
 42
100.0
 43
100.0
  0
INSERT
  5
678D7
  8
S-OBRYS
  6
CONTINUOUS
 62
     0
  2
_OPEN
 10
20545.2533460673
 20
403252.7273483242
 30
0.0
 41
100.0
 42
100.0
 43
100.0
 50
180.0
  0
INSERT
  5
678D8
  8
S-OBRYS
  6
CONTINUOUS
  2
*U265
 10
0.0
 20
0.0
 30
0.0
  0
POINT
  5
678D9
  8
DEFPOINTS
  6
CONTINUOUS
 62
     0
 10
20845.253508067301
 20
403431.65169923328
 30
0.0
  0
POINT
  5
678DA
  8
DEFPOINTS
  6
CONTINUOUS
 62
     0
 10
20545.2533460673
 20
403434.80169923347
 30
0.0
  0
POINT
  5
678DB
  8
DEFPOINTS
  6
CONTINUOUS
 62
     0
 10
20545.2533460673
 20
403252.7273483242
 30
0.0
  0
ENDBLK
  5
67717
  8
0
  0
BLOCK
  8
0
  2
*D150
 70
     1
 10
0.0
 20
0.0
 30
0.0
  3
*D150
  1

  0
LINE
  5
678DC
  8
S-OBRYS
  6
CONTINUOUS
 62
     0
 10
21045.2534128673
 20
403706.65187313338
 30
0.0
 11
21045.2534128673
 21
403039.78884518781
 31
0.0
  0
LINE
  5
678DD
  8
S-OBRYS
  6
CONTINUOUS
 62
     0
 10
19290.04068276472
 20
403938.48681753932
 30
0.0
 11
19290.04068276472
 21
403039.78884518781
 31
0.0
  0
LINE
  5
678DE
  8
S-OBRYS
  6
CONTINUOUS
 62
     0
 10
20945.2534128673
 20
403049.78884518793
 30
0.0
 11
19390.04068276472
 21
403049.78884518793
 31
0.0
  0
INSERT
  5
678DF
  8
S-OBRYS
  6
CONTINUOUS
 62
     0
  2
_OPEN
 10
21045.2534128673
 20
403049.78884518793
 30
0.0
 41
100.0
 42
100.0
 43
100.0
  0
INSERT
  5
678E0
  8
S-OBRYS
  6
CONTINUOUS
 62
     0
  2
_OPEN
 10
19290.04068276472
 20
403049.78884518793
 30
0.0
 41
100.0
 42
100.0
 43
100.0
 50
180.0
  0
INSERT
  5
678E1
  8
S-OBRYS
  6
CONTINUOUS
  2
*U266
 10
0.0
 20
0.0
 30
0.0
  0
POINT
  5
678E2
  8
DEFPOINTS
  6
CONTINUOUS
 62
     0
 10
21045.2534128673
 20
403709.8018731334
 30
0.0
  0
POINT
  5
678E3
  8
DEFPOINTS
  6
CONTINUOUS
 62
     0
 10
19290.04068276472
 20
403941.6368175394
 30
0.0
  0
POINT
  5
678E4
  8
DEFPOINTS
  6
CONTINUOUS
 62
     0
 10
19290.04068276472
 20
403049.78884518793
 30
0.0
  0
ENDBLK
  5
67723
  8
0
  0
BLOCK
  8
0
  2
*D151
 70
     1
 10
0.0
 20
0.0
 30
0.0
  3
*D151
  1

  0
LINE
  5
678E5
  8
S-OBRYS
  6
CONTINUOUS
 62
     0
 10
19490.253053167289
 20
403428.50169923343
 30
0.0
 11
19490.253053167289
 21
403242.7273483242
 31
0.0
  0
LINE
  5
678E6
  8
S-OBRYS
  6
CONTINUOUS
 62
     0
 10
20545.2533460673
 20
403428.50169923343
 30
0.0
 11
20545.2533460673
 21
403242.7273483242
 31
0.0
  0
LINE
  5
678E7
  8
S-OBRYS
  6
CONTINUOUS
 62
     0
 10
19590.253053167289
 20
403252.7273483242
 30
0.0
 11
20445.2533460673
 21
403252.7273483242
 31
0.0
  0
INSERT
  5
678E8
  8
S-OBRYS
  6
CONTINUOUS
 62
     0
  2
_OPEN
 10
19490.253053167289
 20
403252.7273483242
 30
0.0
 41
100.0
 42
100.0
 43
100.0
 50
180.0
  0
INSERT
  5
678E9
  8
S-OBRYS
  6
CONTINUOUS
 62
     0
  2
_OPEN
 10
20545.2533460673
 20
403252.7273483242
 30
0.0
 41
100.0
 42
100.0
 43
100.0
  0
INSERT
  5
678EA
  8
S-OBRYS
  6
CONTINUOUS
  2
*U267
 10
0.0
 20
0.0
 30
0.0
  0
POINT
  5
678EB
  8
DEFPOINTS
  6
CONTINUOUS
 62
     0
 10
19490.253053167289
 20
403431.65169923339
 30
0.0
  0
POINT
  5
678EC
  8
DEFPOINTS
  6
CONTINUOUS
 62
     0
 10
20545.2533460673
 20
403431.65169923328
 30
0.0
  0
POINT
  5
678ED
  8
DEFPOINTS
  6
CONTINUOUS
 62
     0
 10
20545.2533460673
 20
403252.7273483242
 30
0.0
  0
ENDBLK
  5
6772F
  8
0
  0
BLOCK
  8
0
  2
*D152
 70
     1
 10
0.0
 20
0.0
 30
0.0
  3
*D152
  1

  0
LINE
  5
678EE
  8
S-OBRYS
  6
CONTINUOUS
 62
     0
 10
19286.890682764719
 20
403938.48681753932
 30
0.0
 11
19157.605556692641
 21
403938.48681753932
 31
0.0
  0
LINE
  5
678EF
  8
S-OBRYS
  6
CONTINUOUS
 62
     0
 10
19462.103053167291
 20
403431.65169923339
 30
0.0
 11
19157.605556692641
 21
403431.65169923339
 31
0.0
  0
LINE
  5
678F0
  8
S-OBRYS
  6
CONTINUOUS
 62
     0
 10
19167.60555669263
 20
403838.48681753932
 30
0.0
 11
19167.60555669263
 21
403531.65169923339
 31
0.0
  0
INSERT
  5
678F1
  8
S-OBRYS
  6
CONTINUOUS
 62
     0
  2
_OPEN
 10
19167.60555669263
 20
403938.48681753932
 30
0.0
 41
100.0
 42
100.0
 43
100.0
 50
90.0
  0
INSERT
  5
678F2
  8
S-OBRYS
  6
CONTINUOUS
 62
     0
  2
_OPEN
 10
19167.60555669263
 20
403431.65169923339
 30
0.0
 41
100.0
 42
100.0
 43
100.0
 50
270.0
  0
INSERT
  5
678F3
  8
S-OBRYS
  6
CONTINUOUS
  2
*U268
 10
0.0
 20
0.0
 30
0.0
  0
POINT
  5
678F4
  8
DEFPOINTS
  6
CONTINUOUS
 62
     0
 10
19290.04068276472
 20
403938.48681753932
 30
0.0
  0
POINT
  5
678F5
  8
DEFPOINTS
  6
CONTINUOUS
 62
     0
 10
19465.253053167289
 20
403431.65169923339
 30
0.0
  0
POINT
  5
678F6
  8
DEFPOINTS
  6
CONTINUOUS
 62
     0
 10
19167.60555669263
 20
403431.65169923339
 30
0.0
  0
ENDBLK
  5
6773B
  8
0
  0
BLOCK
  8
0
  2
*D153
 70
     1
 10
0.0
 20
0.0
 30
0.0
  3
*D153
  1

  0
LINE
  5
678F7
  8
S-OBRYS
  6
CONTINUOUS
 62
     0
 10
17655.368037143238
 20
399291.2309415614
 30
0.0
 11
17655.368037143238
 21
399449.20681075088
 31
0.0
  0
LINE
  5
678F8
  8
S-OBRYS
  6
CONTINUOUS
 62
     0
 10
18545.368037143238
 20
399291.2309415614
 30
0.0
 11
18545.368037143238
 21
399449.20681075088
 31
0.0
  0
LINE
  5
678F9
  8
S-OBRYS
  6
CONTINUOUS
 62
     0
 10
17755.368037143238
 20
399439.20681075088
 30
0.0
 11
18445.368037143238
 21
399439.20681075088
 31
0.0
  0
INSERT
  5
678FA
  8
S-OBRYS
  6
CONTINUOUS
 62
     0
  2
_OPEN
 10
17655.368037143238
 20
399439.20681075088
 30
0.0
 41
100.0
 42
100.0
 43
100.0
 50
180.0
  0
INSERT
  5
678FB
  8
S-OBRYS
  6
CONTINUOUS
 62
     0
  2
_OPEN
 10
18545.368037143238
 20
399439.20681075088
 30
0.0
 41
100.0
 42
100.0
 43
100.0
  0
INSERT
  5
678FC
  8
S-OBRYS
  6
CONTINUOUS
  2
*U269
 10
0.0
 20
0.0
 30
0.0
  0
POINT
  5
678FD
  8
DEFPOINTS
  6
CONTINUOUS
 62
     0
 10
17655.368037143238
 20
399288.08094156132
 30
0.0
  0
POINT
  5
678FE
  8
DEFPOINTS
  6
CONTINUOUS
 62
     0
 10
18545.368037143238
 20
399288.08094156132
 30
0.0
  0
POINT
  5
678FF
  8
DEFPOINTS
  6
CONTINUOUS
 62
     0
 10
18545.368037143238
 20
399439.20681075088
 30
0.0
  0
ENDBLK
  5
67747
  8
0
  0
BLOCK
  8
0
  2
*D154
 70
     1
 10
0.0
 20
0.0
 30
0.0
  3
*D154
  1

  0
LINE
  5
67900
  8
S-OBRYS
  6
CONTINUOUS
 62
     0
 10
18100.368037143238
 20
399128.48655363772
 30
0.0
 11
18100.368037143238
 21
398985.39380196098
 31
0.0
  0
LINE
  5
67901
  8
S-OBRYS
  6
CONTINUOUS
 62
     0
 10
18325.368246743241
 20
399153.95196845348
 30
0.0
 11
18325.368246743241
 21
398985.39380196098
 31
0.0
  0
LINE
  5
67902
  8
S-OBRYS
  6
CONTINUOUS
 62
     0
 10
18000.368037143238
 20
398995.39380196098
 30
0.0
 11
17900.368037143238
 21
398995.39380196098
 31
0.0
  0
LINE
  5
67903
  8
S-OBRYS
  6
CONTINUOUS
 62
     0
 10
18425.368246743241
 20
398995.39380196098
 30
0.0
 11
18867.906163687188
 21
398995.39380196098
 31
0.0
  0
LINE
  5
67904
  8
S-OBRYS
  6
CONTINUOUS
 62
     0
 10
18100.368037143238
 20
398995.39380196098
 30
0.0
 11
18325.368246743241
 21
398995.39380196098
 31
0.0
  0
INSERT
  5
67905
  8
S-OBRYS
  6
CONTINUOUS
 62
     0
  2
_OPEN
 10
18100.368037143238
 20
398995.39380196098
 30
0.0
 41
100.0
 42
100.0
 43
100.0
  0
INSERT
  5
67906
  8
S-OBRYS
  6
CONTINUOUS
 62
     0
  2
_OPEN
 10
18325.368246743241
 20
398995.39380196098
 30
0.0
 41
100.0
 42
100.0
 43
100.0
 50
180.0
  0
INSERT
  5
67907
  8
S-OBRYS
  6
CONTINUOUS
  2
*U270
 10
0.0
 20
0.0
 30
0.0
  0
POINT
  5
67908
  8
DEFPOINTS
  6
CONTINUOUS
 62
     0
 10
18100.368037143238
 20
399131.63655363768
 30
0.0
  0
POINT
  5
67909
  8
DEFPOINTS
  6
CONTINUOUS
 62
     0
 10
18325.368246743241
 20
399157.10196845361
 30
0.0
  0
POINT
  5
6790A
  8
DEFPOINTS
  6
CONTINUOUS
 62
     0
 10
18325.368246743241
 20
398995.39380196098
 30
0.0
  0
ENDBLK
  5
67755
  8
0
  0
BLOCK
  8
0
  2
*D155
 70
     1
 10
0.0
 20
0.0
 30
0.0
  3
*D155
  1

  0
LINE
  5
6790B
  8
S-OBRYS
  6
CONTINUOUS
 62
     0
 10
18084.282709883311
 20
400606.01610222133
 30
0.0
 11
17543.985756345319
 21
400606.01610222133
 31
0.0
  0
LINE
  5
6790C
  8
S-OBRYS
  6
CONTINUOUS
 62
     0
 10
17636.132709883299
 20
399551.0162688212
 30
0.0
 11
17543.985756345319
 21
399551.0162688212
 31
0.0
  0
LINE
  5
6790D
  8
S-OBRYS
  6
CONTINUOUS
 62
     0
 10
17553.985756345319
 20
400506.01610222133
 30
0.0
 11
17553.985756345319
 21
399651.01626882132
 31
0.0
  0
INSERT
  5
6790E
  8
S-OBRYS
  6
CONTINUOUS
 62
     0
  2
_OPEN
 10
17553.985756345319
 20
400606.01610222133
 30
0.0
 41
100.0
 42
100.0
 43
100.0
 50
90.0
  0
INSERT
  5
6790F
  8
S-OBRYS
  6
CONTINUOUS
 62
     0
  2
_OPEN
 10
17553.985756345319
 20
399551.0162688212
 30
0.0
 41
100.0
 42
100.0
 43
100.0
 50
270.0
  0
INSERT
  5
67910
  8
S-OBRYS
  6
CONTINUOUS
  2
*U271
 10
0.0
 20
0.0
 30
0.0
  0
POINT
  5
67911
  8
DEFPOINTS
  6
CONTINUOUS
 62
     0
 10
18087.432709883309
 20
400606.01610222133
 30
0.0
  0
POINT
  5
67912
  8
DEFPOINTS
  6
CONTINUOUS
 62
     0
 10
17639.282709883311
 20
399551.0162688212
 30
0.0
  0
POINT
  5
67913
  8
DEFPOINTS
  6
CONTINUOUS
 62
     0
 10
17553.985756345319
 20
399551.0162688212
 30
0.0
  0
ENDBLK
  5
67761
  8
0
  0
BLOCK
  8
0
  2
*D156
 70
     1
 10
0.0
 20
0.0
 30
0.0
  3
*D156
  1

  0
LINE
  5
67914
  8
S-OBRYS
  6
CONTINUOUS
 62
     0
 10
18561.453364403169
 20
399301.01626882132
 30
0.0
 11
19072.51815929787
 21
399301.01626882132
 31
0.0
  0
LINE
  5
67915
  8
S-OBRYS
  6
CONTINUOUS
 62
     0
 10
18411.432547110919
 20
399240.01626882132
 30
0.0
 11
19072.51815929787
 21
399240.01626882132
 31
0.0
  0
LINE
  5
67916
  8
S-OBRYS
  6
CONTINUOUS
 62
     0
 10
19062.51815929787
 20
399401.0162688212
 30
0.0
 11
19062.51815929787
 21
399501.01626882132
 31
0.0
  0
LINE
  5
67917
  8
S-OBRYS
  6
CONTINUOUS
 62
     0
 10
19062.51815929787
 20
399140.01626882132
 30
0.0
 11
19062.51815929787
 21
398887.1591259641
 31
0.0
  0
LINE
  5
67918
  8
S-OBRYS
  6
CONTINUOUS
 62
     0
 10
19062.51815929787
 20
399301.01626882132
 30
0.0
 11
19062.51815929787
 21
399240.01626882132
 31
0.0
  0
INSERT
  5
67919
  8
S-OBRYS
  6
CONTINUOUS
 62
     0
  2
_OPEN
 10
19062.51815929787
 20
399301.01626882132
 30
0.0
 41
100.0
 42
100.0
 43
100.0
 50
270.0
  0
INSERT
  5
6791A
  8
S-OBRYS
  6
CONTINUOUS
 62
     0
  2
_OPEN
 10
19062.51815929787
 20
399240.01626882132
 30
0.0
 41
100.0
 42
100.0
 43
100.0
 50
90.0
  0
INSERT
  5
6791B
  8
S-OBRYS
  6
CONTINUOUS
  2
*U272
 10
0.0
 20
0.0
 30
0.0
  0
POINT
  5
6791C
  8
DEFPOINTS
  6
CONTINUOUS
 62
     0
 10
18558.30336440316
 20
399301.01626882132
 30
0.0
  0
POINT
  5
6791D
  8
DEFPOINTS
  6
CONTINUOUS
 62
     0
 10
18408.282547110921
 20
399240.01626882132
 30
0.0
  0
POINT
  5
6791E
  8
DEFPOINTS
  6
CONTINUOUS
 62
     0
 10
19062.51815929787
 20
399240.01626882132
 30
0.0
  0
ENDBLK
  5
6776F
  8
0
  0
BLOCK
  8
0
  2
*D157
 70
     1
 10
0.0
 20
0.0
 30
0.0
  3
*D157
  1

  0
LINE
  5
6791F
  8
S-OBRYS
  6
CONTINUOUS
 62
     0
 10
17695.314906883868
 20
398973.86980482342
 30
0.0
 11
18163.239754944341
 21
399171.53012316377
 31
0.0
  0
LINE
  5
67920
  8
S-OBRYS
  6
CONTINUOUS
 62
     0
 10
18487.496738542159
 20
399308.50241447892
 30
0.0
 11
18579.615199791529
 21
399347.41499723878
 31
0.0
  0
INSERT
  5
67921
  8
S-OBRYS
  6
CONTINUOUS
  2
*U273
 10
0.0
 20
0.0
 30
0.0
  0
LINE
  5
67922
  8
S-OBRYS
  6
CONTINUOUS
 62
     0
 10
18395.378277292792
 20
399269.58983171888
 30
0.0
 11
18255.358216193708
 21
399210.44270592381
 31
0.0
  0
INSERT
  5
67923
  8
S-OBRYS
  6
CONTINUOUS
 62
     0
  2
_OPEN
 10
18395.378277292792
 20
399269.58983171888
 30
0.0
 41
100.0
 42
100.0
 43
100.0
 50
202.90011677402941
  0
INSERT
  5
67924
  8
S-OBRYS
  6
CONTINUOUS
 62
     0
  2
_OPEN
 10
18255.358216193708
 20
399210.44270592381
 30
0.0
 41
100.0
 42
100.0
 43
100.0
 50
22.900116774029389
  0
POINT
  5
67925
  8
DEFPOINTS
  6
CONTINUOUS
 62
     0
 10
18255.358216193708
 20
399210.44270592381
 30
0.0
  0
POINT
  5
67926
  8
DEFPOINTS
  6
CONTINUOUS
 62
     0
 10
18395.378277292792
 20
399269.58983171888
 30
0.0
  0
ENDBLK
  5
6777A
  8
0
  0
BLOCK
  8
0
  2
*D158
 70
     1
 10
0.0
 20
0.0
 30
0.0
  3
*D158
  1

  0
LINE
  5
67927
  8
S-OBRYS
  6
CONTINUOUS
 62
     0
 10
18591.66803714323
 20
399271.01626882132
 30
0.0
 11
18764.863062404442
 21
399271.01626882132
 31
0.0
  0
LINE
  5
67928
  8
S-OBRYS
  6
CONTINUOUS
 62
     0
 10
18591.66803714323
 20
399616.01610222133
 30
0.0
 11
18764.863062404442
 21
399616.01610222133
 31
0.0
  0
LINE
  5
67929
  8
S-OBRYS
  6
CONTINUOUS
 62
     0
 10
18754.863062404442
 20
399371.01626882132
 30
0.0
 11
18754.863062404442
 21
399516.01610222133
 31
0.0
  0
INSERT
  5
6792A
  8
S-OBRYS
  6
CONTINUOUS
 62
     0
  2
_OPEN
 10
18754.863062404442
 20
399271.01626882132
 30
0.0
 41
100.0
 42
100.0
 43
100.0
 50
270.0
  0
INSERT
  5
6792B
  8
S-OBRYS
  6
CONTINUOUS
 62
     0
  2
_OPEN
 10
18754.863062404442
 20
399616.01610222133
 30
0.0
 41
100.0
 42
100.0
 43
100.0
 50
90.0
  0
INSERT
  5
6792C
  8
S-OBRYS
  6
CONTINUOUS
  2
*U274
 10
0.0
 20
0.0
 30
0.0
  0
POINT
  5
6792D
  8
DEFPOINTS
  6
CONTINUOUS
 62
     0
 10
18588.51803714324
 20
399271.01626882132
 30
0.0
  0
POINT
  5
6792E
  8
DEFPOINTS
  6
CONTINUOUS
 62
     0
 10
18588.51803714324
 20
399616.01610222133
 30
0.0
  0
POINT
  5
6792F
  8
DEFPOINTS
  6
CONTINUOUS
 62
     0
 10
18754.863062404442
 20
399616.01610222133
 30
0.0
  0
ENDBLK
  5
67786
  8
0
  0
BLOCK
  8
0
  2
*U159
 70
     1
 10
0.0
 20
0.0
 30
0.0
  3
*U159
  1

  0
TEXT
  5
680FF
  8
OBRYS
  6
CONTINUOUS
 62
     0
 10
53781.570090742498
 20
418691.9589554423
 30
0.0
 40
20.0
  1
630
  7
R
  0
ENDBLK
  5
68101
  8
0
  0
BLOCK
  8
0
  2
*U160
 70
     1
 10
0.0
 20
0.0
 30
0.0
  3
*U160
  1

  0
TEXT
  5
68103
  8
OBRYS
  6
CONTINUOUS
 62
     0
 10
54092.567471157206
 20
417799.17374273902
 30
0.0
 40
20.0
  1
200
  7
R
  0
ENDBLK
  5
68105
  8
0
  0
BLOCK
  8
0
  2
*U161
 70
     1
 10
0.0
 20
0.0
 30
0.0
  3
*U161
  1

  0
TEXT
  5
68107
  8
OBRYS
  6
CONTINUOUS
 62
     0
 10
54318.659400656987
 20
419262.12896489177
 30
0.0
 40
20.0
  1
170
  7
R
  0
ENDBLK
  5
68109
  8
0
  0
BLOCK
  8
0
  2
*U162
 70
     1
 10
0.0
 20
0.0
 30
0.0
  3
*U162
  1

  0
TEXT
  5
6810B
  8
OBRYS
  6
CONTINUOUS
 62
     0
 10
54111.040353037934
 20
419340.8954821162
 30
0.0
 40
20.0
  1
\U+2205200 
  7
R
  0
ENDBLK
  5
6810D
  8
0
  0
BLOCK
  8
0
  2
*U163
 70
     1
 10
0.0
 20
0.0
 30
0.0
  3
*U163
  1

  0
TEXT
  5
6810F
  8
OBRYS
  6
CONTINUOUS
 62
     0
 10
54265.087972085566
 20
419394.03528485057
 30
0.0
 40
20.0
  1
290
  7
R
  0
ENDBLK
  5
68111
  8
0
  0
BLOCK
  8
0
  2
*U164
 70
     1
 10
0.0
 20
0.0
 30
0.0
  3
*U164
  1

  0
TEXT
  5
68113
  8
OBRYS
  6
CONTINUOUS
 62
     0
 10
53789.611781609361
 20
419394.03528485057
 30
0.0
 40
20.0
  1
660
  7
R
  0
ENDBLK
  5
68115
  8
0
  0
BLOCK
  8
0
  2
*U165
 70
     1
 10
0.0
 20
0.0
 30
0.0
  3
*U165
  1

  0
TEXT
  5
68117
  8
OBRYS
  6
CONTINUOUS
 62
     0
 10
53935.087972085559
 20
419427.4730794116
 30
0.0
 40
20.0
  1
950
  7
R
  0
ENDBLK
  5
68119
  8
0
  0
BLOCK
  8
0
  2
*U166
 70
     1
 10
0.0
 20
0.0
 30
0.0
  3
*U166
  1

  0
TEXT
  5
6811B
  8
OBRYS
  6
CONTINUOUS
 62
     0
 10
54032.835591133182
 20
419471.58830739441
 30
0.0
 40
20.0
  1
1280
  7
R
  0
ENDBLK
  5
6811D
  8
0
  0
BLOCK
  8
0
  2
*U167
 70
     1
 10
0.0
 20
0.0
 30
0.0
  3
*U167
  1

  0
TEXT
  5
6811F
  8
OBRYS
  6
CONTINUOUS
 62
     0
 10
53443.061781609373
 20
419394.03528485057
 30
0.0
 40
20.0
  1
53
  7
R
  0
ENDBLK
  5
68121
  8
0
  0
BLOCK
  8
0
  2
*U168
 70
     1
 10
0.0
 20
0.0
 30
0.0
  3
*U168
  1

  0
TEXT
  5
68123
  8
OBRYS
  6
CONTINUOUS
 62
     0
 10
54083.519852109581
 20
418489.13388385531
 30
0.0
 40
20.0
  1
\U+2205320 
  7
R
  0
ENDBLK
  5
68125
  8
0
  0
BLOCK
  8
0
  2
*U169
 70
     1
 10
0.0
 20
0.0
 30
0.0
  3
*U169
  1

  0
TEXT
  5
68127
  8
OBRYS
  6
CONTINUOUS
 62
     0
 10
54340.510505482511
 20
418158.09293980722
 30
0.0
 40
20.0
  1
250
 50
90.0
  7
R
  0
ENDBLK
  5
68129
  8
0
  0
BLOCK
  8
0
  2
*U170
 70
     1
 10
0.0
 20
0.0
 30
0.0
  3
*U170
  1

  0
TEXT
  5
6812B
  8
OBRYS
  6
CONTINUOUS
 62
     0
 10
54392.279767837987
 20
418058.09293980722
 30
0.0
 40
20.0
  1
450
 50
90.0
  7
R
  0
ENDBLK
  5
6812D
  8
0
  0
BLOCK
  8
0
  2
*U171
 70
     1
 10
0.0
 20
0.0
 30
0.0
  3
*U171
  1

  0
TEXT
  5
6812F
  8
OBRYS
  6
CONTINUOUS
 62
     0
 10
53775.087972085559
 20
419258.7165206169
 30
0.0
 40
20.0
  1
400
  7
R
  0
ENDBLK
  5
68131
  8
0
  0
BLOCK
  8
0
  2
*U172
 70
     1
 10
0.0
 20
0.0
 30
0.0
  3
*U172
  1

  0
TEXT
  5
68133
  8
OBRYS
  6
CONTINUOUS
 62
     0
 10
53536.295003642757
 20
419006.49974429869
 30
0.0
 40
20.0
  1
\U+2205200 
 50
90.0
  7
R
  0
ENDBLK
  5
68135
  8
0
  0
BLOCK
  8
0
  2
*U173
 70
     1
 10
0.0
 20
0.0
 30
0.0
  3
*U173
  1

  0
TEXT
  5
68137
  8
OBRYS
  6
CONTINUOUS
 62
     0
 10
53519.206376203983
 20
418811.83849281509
 30
0.0
 40
20.0
  1
85
  7
R
  0
ENDBLK
  5
68139
  8
0
  0
BLOCK
  8
0
  2
*U174
 70
     1
 10
0.0
 20
0.0
 30
0.0
  3
*U174
  1

  0
TEXT
  5
6813B
  8
OBRYS
  6
CONTINUOUS
 62
     0
 10
53783.821966531163
 20
418813.69658931479
 30
0.0
 40
20.0
  1
425
  7
R
  0
ENDBLK
  5
6813D
  8
0
  0
BLOCK
  8
0
  2
*U175
 70
     1
 10
0.0
 20
0.0
 30
0.0
  3
*U175
  1

  0
TEXT
  5
6813F
  8
OBRYS
  6
CONTINUOUS
 62
     0
 10
53784.710579215942
 20
418781.74646200961
 30
0.0
 40
20.0
  1
540
  7
R
  0
ENDBLK
  5
68141
  8
0
  0
BLOCK
  8
0
  2
*U176
 70
     1
 10
0.0
 20
0.0
 30
0.0
  3
*U176
  1

  0
TEXT
  5
68143
  8
OBRYS
  6
CONTINUOUS
 62
     0
 10
53389.377286413132
 20
419006.49974429869
 30
0.0
 40
20.0
  1
\U+2205320 
 50
90.0
  7
R
  0
ENDBLK
  5
68145
  8
0
  0
BLOCK
  8
0
  2
*U177
 70
     1
 10
0.0
 20
0.0
 30
0.0
  3
*U177
  1

  0
TEXT
  5
68147
  8
OBRYS
  6
CONTINUOUS
 62
     0
 10
54773.535565245511
 20
419006.02355382248
 30
0.0
 40
20.0
  1
\U+2205204 
 50
90.0
  7
R
  0
ENDBLK
  5
68149
  8
0
  0
BLOCK
  8
0
  2
*U178
 70
     1
 10
0.0
 20
0.0
 30
0.0
  3
*U178
  1

  0
TEXT
  5
6814B
  8
OBRYS
  6
CONTINUOUS
 62
     0
 10
54090.461575494359
 20
418951.30462969252
 30
0.0
 40
20.0
  1
30°
 50
14.21296581918755
  7
R
  0
ENDBLK
  5
6814D
  8
0
  0
BLOCK
  8
0
  2
*U179
 70
     1
 10
0.0
 20
0.0
 30
0.0
  3
*U179
  1

  0
TEXT
  5
6814F
  8
OBRYS
  6
CONTINUOUS
 62
     0
 10
54155.41494711212
 20
419060.965576766
 30
0.0
 40
20.0
  1
\U+2205190 
 50
90.0
  7
R
  0
ENDBLK
  5
68151
  8
0
  0
BLOCK
  8
0
  2
*U180
 70
     1
 10
0.0
 20
0.0
 30
0.0
  3
*U180
  1

  0
TEXT
  5
68153
  8
OBRYS
  6
CONTINUOUS
 62
     0
 10
54092.567471157206
 20
417757.43414554867
 30
0.0
 40
20.0
  1
240
  7
R
  0
ENDBLK
  5
68155
  8
0
  0
BLOCK
  8
0
  2
*U181
 70
     1
 10
0.0
 20
0.0
 30
0.0
  3
*U181
  1

  0
TEXT
  5
68157
  8
OBRYS
  6
CONTINUOUS
 62
     0
 10
54092.567471157206
 20
417721.98256377911
 30
0.0
 40
20.0
  1
280
  7
R
  0
ENDBLK
  5
68159
  8
0
  0
BLOCK
  8
0
  2
*U182
 70
     1
 10
0.0
 20
0.0
 30
0.0
  3
*U182
  1

  0
TEXT
  5
6815B
  8
OBRYS
  6
CONTINUOUS
 62
     0
 10
53501.158928332428
 20
418739.0382974635
 30
0.0
 40
20.0
  1
125
  7
R
  0
ENDBLK
  5
6815D
  8
0
  0
BLOCK
  8
0
  2
*U183
 70
     1
 10
0.0
 20
0.0
 30
0.0
  3
*U183
  1

  0
TEXT
  5
6815F
  8
OBRYS
  6
CONTINUOUS
 62
     0
 10
53782.93489390325
 20
418739.0382974635
 30
0.0
 40
20.0
  1
465
  7
R
  0
ENDBLK
  5
68161
  8
0
  0
BLOCK
  8
0
  2
*U184
 70
     1
 10
0.0
 20
0.0
 30
0.0
  3
*U184
  1

  0
TEXT
  5
68163
  8
OBRYS
  6
CONTINUOUS
 62
     0
 10
54074.958099501229
 20
418892.16879077727
 30
0.0
 40
20.0
  1
\U+220512
  7
R
  0
ENDBLK
  5
68165
  8
0
  0
BLOCK
  8
0
  2
*U185
 70
     1
 10
0.0
 20
0.0
 30
0.0
  3
*U185
  1

  0
TEXT
  5
681AC
  8
OBRYS
  6
CONTINUOUS
 10
244.7773670885494
 20
2722.3050639908138
 30
0.0
 40
100.0
  1
Prosévačka mouky PM10
  7
R
  0
ENDBLK
  5
681AE
  8
0
  0
BLOCK
  8
0
  2
*U186
 70
     1
 10
0.0
 20
0.0
 30
0.0
  3
*U186
  1

  0
TEXT
  5
681B0
  8
OBRYS
  6
CONTINUOUS
 10
17497.652955793172
 20
407003.07159746467
 30
0.0
 40
400.0
  1
Odkaménkovač OV3
  7
R
  0
ENDBLK
  5
681B2
  8
0
  0
BLOCK
  8
0
  2
*U187
 70
     1
 10
0.0
 20
0.0
 30
0.0
  3
*U187
  1

  0
TEXT
  5
681B4
  8
S-OBRYS
  6
CONTINUOUS
 62
     7
 10
34946.559613363766
 20
399862.920978526
 30
0.0
 40
100.0
  1
1500
 50
90.0
 41
0.8
  0
ENDBLK
  5
681B6
  8
0
  0
BLOCK
  8
0
  2
*U188
 70
     1
 10
0.0
 20
0.0
 30
0.0
  3
*U188
  1

  0
TEXT
  5
681B8
  8
S-OBRYS
  6
CONTINUOUS
 62
     7
 10
33998.94354566234
 20
398795.49730524991
 30
0.0
 40
100.0
  1
970
 41
0.8
  0
ENDBLK
  5
681BA
  8
0
  0
BLOCK
  8
0
  2
*U189
 70
     1
 10
0.0
 20
0.0
 30
0.0
  3
*U189
  1

  0
TEXT
  5
681BC
  8
S-OBRYS
  6
CONTINUOUS
 62
     7
 10
33446.175646477248
 20
399664.58769739268
 30
0.0
 40
100.0
  1
250
 50
90.0
 41
0.8
  0
ENDBLK
  5
681BE
  8
0
  0
BLOCK
  8
0
  2
*U190
 70
     1
 10
0.0
 20
0.0
 30
0.0
  3
*U190
  1

  0
TEXT
  5
681C0
  8
S-OBRYS
  6
CONTINUOUS
 62
     7
 10
33227.954023718848
 20
398905.06388786889
 30
0.0
 40
100.0
  1
30
 50
90.0
 41
0.8
  0
ENDBLK
  5
681C2
  8
0
  0
BLOCK
  8
0
  2
*U191
 70
     1
 10
0.0
 20
0.0
 30
0.0
  3
*U191
  1

  0
TEXT
  5
681C4
  8
S-OBRYS
  6
CONTINUOUS
 62
     7
 10
34678.928618220969
 20
400113.87324507837
 30
0.0
 40
100.0
  1
100
 50
90.0
 41
0.8
  0
ENDBLK
  5
681C6
  8
0
  0
BLOCK
  8
0
  2
*U192
 70
     1
 10
0.0
 20
0.0
 30
0.0
  3
*U192
  1

  0
TEXT
  5
681C8
  8
S-OBRYS
  6
CONTINUOUS
 62
     7
 10
34352.991164709958
 20
400917.08413527912
 30
0.0
 40
100.0
  1
60
 41
0.8
  0
ENDBLK
  5
681CA
  8
0
  0
BLOCK
  8
0
  2
*U193
 70
     1
 10
0.0
 20
0.0
 30
0.0
  3
*U193
  1

  0
TEXT
  5
681CC
  8
S-OBRYS
  6
CONTINUOUS
 62
     7
 10
34221.76547020804
 20
399464.20681075088
 30
0.0
 40
100.0
  1
890
 41
0.8
  0
ENDBLK
  5
681CE
  8
0
  0
BLOCK
  8
0
  2
*U194
 70
     1
 10
0.0
 20
0.0
 30
0.0
  3
*U194
  1

  0
TEXT
  5
681D0
  8
S-OBRYS
  6
CONTINUOUS
 62
     7
 10
34638.624529349152
 20
399020.39380196098
 30
0.0
 40
100.0
  1
225
 41
0.8
  0
ENDBLK
  5
681D2
  8
0
  0
BLOCK
  8
0
  2
*U195
 70
     1
 10
0.0
 20
0.0
 30
0.0
  3
*U195
  1

  0
TEXT
  5
681D4
  8
S-OBRYS
  6
CONTINUOUS
 62
     7
 10
33541.846979150083
 20
400115.2259749613
 30
0.0
 40
100.0
  1
1055
 50
90.0
 41
0.8
  0
ENDBLK
  5
681D6
  8
0
  0
BLOCK
  8
0
  2
*U196
 70
     1
 10
0.0
 20
0.0
 30
0.0
  3
*U196
  1

  0
TEXT
  5
681D8
  8
S-OBRYS
  6
CONTINUOUS
 62
     7
 10
35050.379382102619
 20
398896.92103072599
 30
0.0
 40
100.0
  1
61
 50
90.0
 41
0.8
  0
ENDBLK
  5
681DA
  8
0
  0
BLOCK
  8
0
  2
*U197
 70
     1
 10
0.0
 20
0.0
 30
0.0
  3
*U197
  1

  0
TEXT
  5
681DC
  8
S-OBRYS
  6
CONTINUOUS
 62
     7
 10
33710.949775168272
 20
399002.18041351018
 30
0.0
 40
100.0
  1
\U+2205152
 50
22.900116774025069
 41
0.8
  0
ENDBLK
  5
681DE
  8
0
  0
BLOCK
  8
0
  2
*U198
 70
     1
 10
0.0
 20
0.0
 30
0.0
  3
*U198
  1

  0
TEXT
  5
681E0
  8
S-OBRYS
  6
CONTINUOUS
 62
     7
 10
34742.724285209188
 20
399329.23047123553
 30
0.0
 40
100.0
  1
345
 50
90.0
 41
0.8
  0
ENDBLK
  5
681E2
  8
0
  0
BLOCK
  8
0
  2
*U199
 70
     1
 10
0.0
 20
0.0
 30
0.0
  3
*U199
  1

  0
TEXT
  5
681E4
  8
S-OBRYS
  6
CONTINUOUS
 62
     7
 10
38506.280868544083
 20
399862.920978526
 30
0.0
 40
100.0
  1
1500
 50
90.0
 41
0.8
  0
ENDBLK
  5
681E6
  8
0
  0
BLOCK
  8
0
  2
*U200
 70
     1
 10
0.0
 20
0.0
 30
0.0
  3
*U200
  1

  0
TEXT
  5
681E8
  8
S-OBRYS
  6
CONTINUOUS
 62
     7
 10
37558.664800842649
 20
397992.13761091093
 30
0.0
 40
100.0
  1
970
 41
0.8
  0
ENDBLK
  5
681EA
  8
0
  0
BLOCK
  8
0
  2
*U201
 70
     1
 10
0.0
 20
0.0
 30
0.0
  3
*U201
  1

  0
TEXT
  5
681EC
  8
S-OBRYS
  6
CONTINUOUS
 62
     7
 10
37005.896901657557
 20
399664.58769739268
 30
0.0
 40
100.0
  1
250
 50
90.0
 41
0.8
  0
ENDBLK
  5
681EE
  8
0
  0
BLOCK
  8
0
  2
*U202
 70
     1
 10
0.0
 20
0.0
 30
0.0
  3
*U202
  1

  0
TEXT
  5
681F0
  8
S-OBRYS
  6
CONTINUOUS
 62
     7
 10
36736.59327536467
 20
399514.58769739268
 30
0.0
 40
100.0
  1
30
 50
90.0
 41
0.8
  0
ENDBLK
  5
681F2
  8
0
  0
BLOCK
  8
0
  2
*U203
 70
     1
 10
0.0
 20
0.0
 30
0.0
  3
*U203
  1

  0
TEXT
  5
681F4
  8
S-OBRYS
  6
CONTINUOUS
 62
     7
 10
38238.649873401278
 20
400113.87324507837
 30
0.0
 40
100.0
  1
100
 50
90.0
 41
0.8
  0
ENDBLK
  5
681F6
  8
0
  0
BLOCK
  8
0
  2
*U204
 70
     1
 10
0.0
 20
0.0
 30
0.0
  3
*U204
  1

  0
TEXT
  5
681F8
  8
S-OBRYS
  6
CONTINUOUS
 62
     7
 10
37912.712419890267
 20
400917.08413527912
 30
0.0
 40
100.0
  1
60
 41
0.8
  0
ENDBLK
  5
681FA
  8
0
  0
BLOCK
  8
0
  2
*U205
 70
     1
 10
0.0
 20
0.0
 30
0.0
  3
*U205
  1

  0
TEXT
  5
681FC
  8
S-OBRYS
  6
CONTINUOUS
 62
     7
 10
37781.486725388342
 20
399464.20681075088
 30
0.0
 40
100.0
  1
890
 41
0.8
  0
ENDBLK
  5
681FE
  8
0
  0
BLOCK
  8
0
  2
*U206
 70
     1
 10
0.0
 20
0.0
 30
0.0
  3
*U206
  1

  0
TEXT
  5
68200
  8
S-OBRYS
  6
CONTINUOUS
 62
     7
 10
38198.345784529462
 20
399020.39380196098
 30
0.0
 40
100.0
  1
225
 41
0.8
  0
ENDBLK
  5
68202
  8
0
  0
BLOCK
  8
0
  2
*U207
 70
     1
 10
0.0
 20
0.0
 30
0.0
  3
*U207
  1

  0
TEXT
  5
68204
  8
S-OBRYS
  6
CONTINUOUS
 62
     7
 10
37101.568234330392
 20
400115.2259749613
 30
0.0
 40
100.0
  1
1055
 50
90.0
 41
0.8
  0
ENDBLK
  5
68206
  8
0
  0
BLOCK
  8
0
  2
*U208
 70
     1
 10
0.0
 20
0.0
 30
0.0
  3
*U208
  1

  0
TEXT
  5
68208
  8
S-OBRYS
  6
CONTINUOUS
 62
     7
 10
38668.741970819829
 20
399510.77817358321
 30
0.0
 40
100.0
  1
61
 50
90.0
 41
0.8
  0
ENDBLK
  5
6820A
  8
0
  0
BLOCK
  8
0
  2
*U209
 70
     1
 10
0.0
 20
0.0
 30
0.0
  3
*U209
  1

  0
TEXT
  5
6820C
  8
S-OBRYS
  6
CONTINUOUS
 62
     7
 10
37270.671030348567
 20
399002.18041351018
 30
0.0
 40
100.0
  1
\U+2205152
 50
22.900116774025069
 41
0.8
  0
ENDBLK
  5
6820E
  8
0
  0
BLOCK
  8
0
  2
*U210
 70
     1
 10
0.0
 20
0.0
 30
0.0
  3
*U210
  1

  0
TEXT
  5
68210
  8
S-OBRYS
  6
CONTINUOUS
 62
     7
 10
38302.445540389497
 20
399329.23047123553
 30
0.0
 40
100.0
  1
345
 50
90.0
 41
0.8
  0
ENDBLK
  5
68212
  8
0
  0
BLOCK
  8
0
  2
*U211
 70
     1
 10
0.0
 20
0.0
 30
0.0
  3
*U211
  1

  0
TEXT
  5
68214
  8
S-OBRYS
  6
CONTINUOUS
 62
     7
 10
36623.664800842649
 20
397992.13761091093
 30
0.0
 40
100.0
  1
900
 41
0.8
  0
ENDBLK
  5
68216
  8
0
  0
BLOCK
  8
0
  2
*U212
 70
     1
 10
0.0
 20
0.0
 30
0.0
  3
*U212
  1

  0
TEXT
  5
68218
  8
S-OBRYS
  6
CONTINUOUS
 62
     7
 10
38341.760038937893
 20
397992.13761091093
 30
0.0
 40
100.0
  1
600
 41
0.8
  0
ENDBLK
  5
6821A
  8
0
  0
BLOCK
  8
0
  2
*U213
 70
     1
 10
0.0
 20
0.0
 30
0.0
  3
*U213
  1

  0
TEXT
  5
6821C
  8
S-OBRYS
  6
CONTINUOUS
 62
     7
 10
38610.513295700912
 20
398806.73055453552
 30
0.0
 40
100.0
  1
700
 50
90.0
 41
0.8
  0
ENDBLK
  5
6821E
  8
0
  0
BLOCK
  8
0
  2
*U214
 70
     1
 10
0.0
 20
0.0
 30
0.0
  3
*U214
  1

  0
TEXT
  5
68220
  8
S-OBRYS
  6
CONTINUOUS
 62
     7
 10
38683.510333476348
 20
400891.73038793547
 30
0.0
 40
100.0
  1
700
 50
90.0
 41
0.8
  0
ENDBLK
  5
68222
  8
0
  0
BLOCK
  8
0
  2
*U215
 70
     1
 10
0.0
 20
0.0
 30
0.0
  3
*U215
  1

  0
TEXT
  5
68224
  8
S-OBRYS
  6
CONTINUOUS
 62
     7
 10
33215.728128400711
 20
405234.18369228212
 30
0.0
 40
100.0
  1
235
 41
0.8
  0
ENDBLK
  5
68226
  8
0
  0
BLOCK
  8
0
  2
*U216
 70
     1
 10
0.0
 20
0.0
 30
0.0
  3
*U216
  1

  0
TEXT
  5
68228
  8
S-OBRYS
  6
CONTINUOUS
 62
     7
 10
33440.728128400711
 20
403219.94627626182
 30
0.0
 40
100.0
  1
225
 41
0.8
  0
ENDBLK
  5
6822A
  8
0
  0
BLOCK
  8
0
  2
*U217
 70
     1
 10
0.0
 20
0.0
 30
0.0
  3
*U217
  1

  0
TEXT
  5
6822C
  8
S-OBRYS
  6
CONTINUOUS
 62
     7
 10
33911.742000475351
 20
403898.73879806022
 30
0.0
 40
100.0
  1
1550
 50
90.0
 41
0.8
  0
ENDBLK
  5
6822E
  8
0
  0
BLOCK
  8
0
  2
*U218
 70
     1
 10
0.0
 20
0.0
 30
0.0
  3
*U218
  1

  0
TEXT
  5
68230
  8
S-OBRYS
  6
CONTINUOUS
 62
     7
 10
33716.938864983553
 20
404673.33144979773
 30
0.0
 40
100.0
  1
265
 50
90.0
 41
0.8
  0
ENDBLK
  5
68232
  8
0
  0
BLOCK
  8
0
  2
*U219
 70
     1
 10
0.0
 20
0.0
 30
0.0
  3
*U219
  1

  0
TEXT
  5
68234
  8
S-OBRYS
  6
CONTINUOUS
 62
     7
 10
33716.938864983553
 20
403892.0218261882
 30
0.0
 40
100.0
  1
1210
 50
90.0
 41
0.8
  0
ENDBLK
  5
68236
  8
0
  0
BLOCK
  8
0
  2
*U220
 70
     1
 10
0.0
 20
0.0
 30
0.0
  3
*U220
  1

  0
TEXT
  5
68238
  8
S-OBRYS
  6
CONTINUOUS
 62
     7
 10
39427.9969637658
 20
405264.77927096171
 30
0.0
 40
100.0
  1
280
 41
0.8
  0
ENDBLK
  5
6823A
  8
0
  0
BLOCK
  8
0
  2
*U221
 70
     1
 10
0.0
 20
0.0
 30
0.0
  3
*U221
  1

  0
TEXT
  5
6823C
  8
S-OBRYS
  6
CONTINUOUS
 62
     7
 10
38867.659787375327
 20
404099.16136906511
 30
0.0
 40
100.0
  1
1500
 50
90.0
 41
0.8
  0
ENDBLK
  5
6823E
  8
0
  0
BLOCK
  8
0
  2
*U222
 70
     1
 10
0.0
 20
0.0
 30
0.0
  3
*U222
  1

  0
TEXT
  5
68240
  8
S-OBRYS
  6
CONTINUOUS
 62
     7
 10
39427.9969637658
 20
403082.46680694621
 30
0.0
 40
100.0
  1
970
 41
0.8
  0
ENDBLK
  5
68242
  8
0
  0
BLOCK
  8
0
  2
*U223
 70
     1
 10
0.0
 20
0.0
 30
0.0
  3
*U223
  1

  0
TEXT
  5
68244
  8
S-OBRYS
  6
CONTINUOUS
 62
     7
 10
36948.685914143542
 20
405292.5875280943
 30
0.0
 40
100.0
  1
\U+2205152
 41
0.8
  0
ENDBLK
  5
68246
  8
0
  0
BLOCK
  8
0
  2
*U224
 70
     1
 10
0.0
 20
0.0
 30
0.0
  3
*U224
  1

  0
TEXT
  5
68248
  8
S-OBRYS
  6
CONTINUOUS
 62
     7
 10
35714.590352048319
 20
405186.52280708548
 30
0.0
 40
100.0
  1
\U+2205250
 41
0.8
  0
ENDBLK
  5
6824A
  8
0
  0
BLOCK
  8
0
  2
*U225
 70
     1
 10
0.0
 20
0.0
 30
0.0
  3
*U225
  1

  0
TEXT
  5
6824C
  8
S-OBRYS
  6
CONTINUOUS
 62
     7
 10
36339.923835481641
 20
405504.71697011159
 30
0.0
 40
100.0
  1
404
 41
0.8
  0
ENDBLK
  5
6824E
  8
0
  0
BLOCK
  8
0
  2
*U226
 70
     1
 10
0.0
 20
0.0
 30
0.0
  3
*U226
  1

  0
TEXT
  5
68250
  8
S-OBRYS
  6
CONTINUOUS
 62
     7
 10
37271.686064243542
 20
403277.72734832409
 30
0.0
 40
100.0
  1
200
 41
0.8
  0
ENDBLK
  5
68252
  8
0
  0
BLOCK
  8
0
  2
*U227
 70
     1
 10
0.0
 20
0.0
 30
0.0
  3
*U227
  1

  0
TEXT
  5
68254
  8
S-OBRYS
  6
CONTINUOUS
 62
     7
 10
36593.828935586404
 20
403277.72734832409
 30
0.0
 40
100.0
  1
300
 41
0.8
  0
ENDBLK
  5
68256
  8
0
  0
BLOCK
  8
0
  2
*U228
 70
     1
 10
0.0
 20
0.0
 30
0.0
  3
*U228
  1

  0
TEXT
  5
68258
  8
S-OBRYS
  6
CONTINUOUS
 62
     7
 10
36022.41303252559
 20
403074.78884518793
 30
0.0
 40
100.0
  1
1780
 41
0.8
  0
ENDBLK
  5
6825A
  8
0
  0
BLOCK
  8
0
  2
*U229
 70
     1
 10
0.0
 20
0.0
 30
0.0
  3
*U229
  1

  0
TEXT
  5
6825C
  8
S-OBRYS
  6
CONTINUOUS
 62
     7
 10
35872.519184326877
 20
403277.72734832409
 30
0.0
 40
100.0
  1
1055
 41
0.8
  0
ENDBLK
  5
6825E
  8
0
  0
BLOCK
  8
0
  2
*U230
 70
     1
 10
0.0
 20
0.0
 30
0.0
  3
*U230
  1

  0
TEXT
  5
68260
  8
S-OBRYS
  6
CONTINUOUS
 62
     7
 10
35155.466779497387
 20
403570.78354410059
 30
0.0
 40
100.0
  1
500
 50
90.0
 41
0.8
  0
ENDBLK
  5
68262
  8
0
  0
BLOCK
  8
0
  2
*U231
 70
     1
 10
0.0
 20
0.0
 30
0.0
  3
*U231
  1

  0
TEXT
  5
68525
  8
S-OBRYS
  6
CONTINUOUS
 62
     7
 10
20610.803578037841
 20
397992.13761091093
 30
0.0
 40
100.0
  1
900
 41
0.8
  0
ENDBLK
  5
68527
  8
0
  0
BLOCK
  8
0
  2
*U232
 70
     1
 10
0.0
 20
0.0
 30
0.0
  3
*U232
  1

  0
TEXT
  5
68529
  8
S-OBRYS
  6
CONTINUOUS
 62
     7
 10
22328.898816133071
 20
397992.13761091093
 30
0.0
 40
100.0
  1
600
 41
0.8
  0
ENDBLK
  5
6852B
  8
0
  0
BLOCK
  8
0
  2
*U233
 70
     1
 10
0.0
 20
0.0
 30
0.0
  3
*U233
  1

  0
TEXT
  5
6852D
  8
S-OBRYS
  6
CONTINUOUS
 62
     7
 10
22597.6520728961
 20
398806.73055453552
 30
0.0
 40
100.0
  1
700
 50
90.0
 41
0.8
  0
ENDBLK
  5
6852F
  8
0
  0
BLOCK
  8
0
  2
*U234
 70
     1
 10
0.0
 20
0.0
 30
0.0
  3
*U234
  1

  0
TEXT
  5
68531
  8
S-OBRYS
  6
CONTINUOUS
 62
     7
 10
22670.64911067154
 20
400891.73038793547
 30
0.0
 40
100.0
  1
700
 50
90.0
 41
0.8
  0
ENDBLK
  5
68533
  8
0
  0
BLOCK
  8
0
  2
*U235
 70
     1
 10
0.0
 20
0.0
 30
0.0
  3
*U235
  1

  0
TEXT
  5
68535
  8
S-OBRYS
  6
CONTINUOUS
 62
     7
 10
22493.419645739272
 20
399862.920978526
 30
0.0
 40
100.0
  1
1500
 50
90.0
 41
0.8
  0
ENDBLK
  5
68537
  8
0
  0
BLOCK
  8
0
  2
*U236
 70
     1
 10
0.0
 20
0.0
 30
0.0
  3
*U236
  1

  0
TEXT
  5
68539
  8
S-OBRYS
  6
CONTINUOUS
 62
     7
 10
21545.803578037841
 20
397992.13761091093
 30
0.0
 40
100.0
  1
970
 41
0.8
  0
ENDBLK
  5
6853B
  8
0
  0
BLOCK
  8
0
  2
*U237
 70
     1
 10
0.0
 20
0.0
 30
0.0
  3
*U237
  1

  0
TEXT
  5
6853D
  8
S-OBRYS
  6
CONTINUOUS
 62
     7
 10
20993.03567885275
 20
399664.58769739268
 30
0.0
 40
100.0
  1
250
 50
90.0
 41
0.8
  0
ENDBLK
  5
6853F
  8
0
  0
BLOCK
  8
0
  2
*U238
 70
     1
 10
0.0
 20
0.0
 30
0.0
  3
*U238
  1

  0
TEXT
  5
68541
  8
S-OBRYS
  6
CONTINUOUS
 62
     7
 10
20723.732052559852
 20
399514.58769739268
 30
0.0
 40
100.0
  1
30
 50
90.0
 41
0.8
  0
ENDBLK
  5
68543
  8
0
  0
BLOCK
  8
0
  2
*U239
 70
     1
 10
0.0
 20
0.0
 30
0.0
  3
*U239
  1

  0
TEXT
  5
68545
  8
S-OBRYS
  6
CONTINUOUS
 62
     7
 10
22225.78865059646
 20
400113.87324507837
 30
0.0
 40
100.0
  1
100
 50
90.0
 41
0.8
  0
ENDBLK
  5
68547
  8
0
  0
BLOCK
  8
0
  2
*U240
 70
     1
 10
0.0
 20
0.0
 30
0.0
  3
*U240
  1

  0
TEXT
  5
68549
  8
S-OBRYS
  6
CONTINUOUS
 62
     7
 10
21899.85119708546
 20
400917.08413527912
 30
0.0
 40
100.0
  1
60
 41
0.8
  0
ENDBLK
  5
6854B
  8
0
  0
BLOCK
  8
0
  2
*U241
 70
     1
 10
0.0
 20
0.0
 30
0.0
  3
*U241
  1

  0
TEXT
  5
6854D
  8
S-OBRYS
  6
CONTINUOUS
 62
     7
 10
21768.625502583531
 20
399464.20681075088
 30
0.0
 40
100.0
  1
890
 41
0.8
  0
ENDBLK
  5
6854F
  8
0
  0
BLOCK
  8
0
  2
*U242
 70
     1
 10
0.0
 20
0.0
 30
0.0
  3
*U242
  1

  0
TEXT
  5
68551
  8
S-OBRYS
  6
CONTINUOUS
 62
     7
 10
22185.484561724639
 20
399020.39380196098
 30
0.0
 40
100.0
  1
225
 41
0.8
  0
ENDBLK
  5
68553
  8
0
  0
BLOCK
  8
0
  2
*U243
 70
     1
 10
0.0
 20
0.0
 30
0.0
  3
*U243
  1

  0
TEXT
  5
68555
  8
S-OBRYS
  6
CONTINUOUS
 62
     7
 10
21088.70701152557
 20
400115.2259749613
 30
0.0
 40
100.0
  1
1055
 50
90.0
 41
0.8
  0
ENDBLK
  5
68557
  8
0
  0
BLOCK
  8
0
  2
*U244
 70
     1
 10
0.0
 20
0.0
 30
0.0
  3
*U244
  1

  0
TEXT
  5
68559
  8
S-OBRYS
  6
CONTINUOUS
 62
     7
 10
22655.880748015021
 20
399510.77817358321
 30
0.0
 40
100.0
  1
61
 50
90.0
 41
0.8
  0
ENDBLK
  5
6855B
  8
0
  0
BLOCK
  8
0
  2
*U245
 70
     1
 10
0.0
 20
0.0
 30
0.0
  3
*U245
  1

  0
TEXT
  5
6855D
  8
S-OBRYS
  6
CONTINUOUS
 62
     7
 10
21257.809807543821
 20
399002.18041350989
 30
0.0
 40
100.0
  1
\U+2205152
 50
22.900116774045301
 41
0.8
  0
ENDBLK
  5
6855F
  8
0
  0
BLOCK
  8
0
  2
*U246
 70
     1
 10
0.0
 20
0.0
 30
0.0
  3
*U246
  1

  0
TEXT
  5
68561
  8
S-OBRYS
  6
CONTINUOUS
 62
     7
 10
22289.584317584679
 20
399329.23047123553
 30
0.0
 40
100.0
  1
345
 50
90.0
 41
0.8
  0
ENDBLK
  5
68563
  8
0
  0
BLOCK
  8
0
  2
*U247
 70
     1
 10
0.0
 20
0.0
 30
0.0
  3
*U247
  1

  0
TEXT
  5
68565
  8
S-OBRYS
  6
CONTINUOUS
 62
     7
 10
18933.698390558959
 20
399862.920978526
 30
0.0
 40
100.0
  1
1500
 50
90.0
 41
0.8
  0
ENDBLK
  5
68567
  8
0
  0
BLOCK
  8
0
  2
*U248
 70
     1
 10
0.0
 20
0.0
 30
0.0
  3
*U248
  1

  0
TEXT
  5
68569
  8
S-OBRYS
  6
CONTINUOUS
 62
     7
 10
17986.082322857528
 20
398795.49730524991
 30
0.0
 40
100.0
  1
970
 41
0.8
  0
ENDBLK
  5
6856B
  8
0
  0
BLOCK
  8
0
  2
*U249
 70
     1
 10
0.0
 20
0.0
 30
0.0
  3
*U249
  1

  0
TEXT
  5
6856D
  8
S-OBRYS
  6
CONTINUOUS
 62
     7
 10
17433.314423672429
 20
399664.58769739268
 30
0.0
 40
100.0
  1
250
 50
90.0
 41
0.8
  0
ENDBLK
  5
6856F
  8
0
  0
BLOCK
  8
0
  2
*U250
 70
     1
 10
0.0
 20
0.0
 30
0.0
  3
*U250
  1

  0
TEXT
  5
68571
  8
S-OBRYS
  6
CONTINUOUS
 62
     7
 10
17215.09280091403
 20
398905.06388786889
 30
0.0
 40
100.0
  1
30
 50
90.0
 41
0.8
  0
ENDBLK
  5
68573
  8
0
  0
BLOCK
  8
0
  2
*U251
 70
     1
 10
0.0
 20
0.0
 30
0.0
  3
*U251
  1

  0
TEXT
  5
68575
  8
S-OBRYS
  6
CONTINUOUS
 62
     7
 10
18666.06739541615
 20
400113.87324507837
 30
0.0
 40
100.0
  1
100
 50
90.0
 41
0.8
  0
ENDBLK
  5
68577
  8
0
  0
BLOCK
  8
0
  2
*U252
 70
     1
 10
0.0
 20
0.0
 30
0.0
  3
*U252
  1

  0
TEXT
  5
68579
  8
S-OBRYS
  6
CONTINUOUS
 62
     7
 10
18340.12994190515
 20
400917.08413527912
 30
0.0
 40
100.0
  1
60
 41
0.8
  0
ENDBLK
  5
6857B
  8
0
  0
BLOCK
  8
0
  2
*U253
 70
     1
 10
0.0
 20
0.0
 30
0.0
  3
*U253
  1

  0
TEXT
  5
6857D
  8
S-OBRYS
  6
CONTINUOUS
 62
     7
 10
17202.866905595889
 20
405234.18369228212
 30
0.0
 40
100.0
  1
235
 41
0.8
  0
ENDBLK
  5
6857F
  8
0
  0
BLOCK
  8
0
  2
*U254
 70
     1
 10
0.0
 20
0.0
 30
0.0
  3
*U254
  1

  0
TEXT
  5
68581
  8
S-OBRYS
  6
CONTINUOUS
 62
     7
 10
17427.866905595889
 20
403219.94627626182
 30
0.0
 40
100.0
  1
225
 41
0.8
  0
ENDBLK
  5
68583
  8
0
  0
BLOCK
  8
0
  2
*U255
 70
     1
 10
0.0
 20
0.0
 30
0.0
  3
*U255
  1

  0
TEXT
  5
68585
  8
S-OBRYS
  6
CONTINUOUS
 62
     7
 10
17898.880777670529
 20
403898.73879806022
 30
0.0
 40
100.0
  1
1550
 50
90.0
 41
0.8
  0
ENDBLK
  5
68587
  8
0
  0
BLOCK
  8
0
  2
*U256
 70
     1
 10
0.0
 20
0.0
 30
0.0
  3
*U256
  1

  0
TEXT
  5
68589
  8
S-OBRYS
  6
CONTINUOUS
 62
     7
 10
17704.077642178741
 20
404673.33144979773
 30
0.0
 40
100.0
  1
265
 50
90.0
 41
0.8
  0
ENDBLK
  5
6858B
  8
0
  0
BLOCK
  8
0
  2
*U257
 70
     1
 10
0.0
 20
0.0
 30
0.0
  3
*U257
  1

  0
TEXT
  5
6858D
  8
S-OBRYS
  6
CONTINUOUS
 62
     7
 10
17704.077642178741
 20
403892.0218261882
 30
0.0
 40
100.0
  1
1210
 50
90.0
 41
0.8
  0
ENDBLK
  5
6858F
  8
0
  0
BLOCK
  8
0
  2
*U258
 70
     1
 10
0.0
 20
0.0
 30
0.0
  3
*U258
  1

  0
TEXT
  5
68591
  8
S-OBRYS
  6
CONTINUOUS
 62
     7
 10
23415.135740960988
 20
405264.77927096171
 30
0.0
 40
100.0
  1
280
 41
0.8
  0
ENDBLK
  5
68593
  8
0
  0
BLOCK
  8
0
  2
*U259
 70
     1
 10
0.0
 20
0.0
 30
0.0
  3
*U259
  1

  0
TEXT
  5
68595
  8
S-OBRYS
  6
CONTINUOUS
 62
     7
 10
22854.798564570508
 20
404099.16136906511
 30
0.0
 40
100.0
  1
1500
 50
90.0
 41
0.8
  0
ENDBLK
  5
68597
  8
0
  0
BLOCK
  8
0
  2
*U260
 70
     1
 10
0.0
 20
0.0
 30
0.0
  3
*U260
  1

  0
TEXT
  5
68599
  8
S-OBRYS
  6
CONTINUOUS
 62
     7
 10
23415.135740960988
 20
403082.46680694621
 30
0.0
 40
100.0
  1
970
 41
0.8
  0
ENDBLK
  5
6859B
  8
0
  0
BLOCK
  8
0
  2
*U261
 70
     1
 10
0.0
 20
0.0
 30
0.0
  3
*U261
  1

  0
TEXT
  5
6859D
  8
S-OBRYS
  6
CONTINUOUS
 62
     7
 10
20935.82469133873
 20
405292.5875280943
 30
0.0
 40
100.0
  1
\U+2205152
 41
0.8
  0
ENDBLK
  5
6859F
  8
0
  0
BLOCK
  8
0
  2
*U262
 70
     1
 10
0.0
 20
0.0
 30
0.0
  3
*U262
  1

  0
TEXT
  5
685A1
  8
S-OBRYS
  6
CONTINUOUS
 62
     7
 10
19701.7291292435
 20
405186.52280708548
 30
0.0
 40
100.0
  1
\U+2205250
 41
0.8
  0
ENDBLK
  5
685A3
  8
0
  0
BLOCK
  8
0
  2
*U263
 70
     1
 10
0.0
 20
0.0
 30
0.0
  3
*U263
  1

  0
TEXT
  5
685A5
  8
S-OBRYS
  6
CONTINUOUS
 62
     7
 10
20327.062612676829
 20
405504.71697011159
 30
0.0
 40
100.0
  1
404
 41
0.8
  0
ENDBLK
  5
685A7
  8
0
  0
BLOCK
  8
0
  2
*U264
 70
     1
 10
0.0
 20
0.0
 30
0.0
  3
*U264
  1

  0
TEXT
  5
685A9
  8
S-OBRYS
  6
CONTINUOUS
 62
     7
 10
21258.824841438731
 20
403277.72734832409
 30
0.0
 40
100.0
  1
200
 41
0.8
  0
ENDBLK
  5
685AB
  8
0
  0
BLOCK
  8
0
  2
*U265
 70
     1
 10
0.0
 20
0.0
 30
0.0
  3
*U265
  1

  0
TEXT
  5
685AD
  8
S-OBRYS
  6
CONTINUOUS
 62
     7
 10
20580.967712781588
 20
403277.72734832409
 30
0.0
 40
100.0
  1
300
 41
0.8
  0
ENDBLK
  5
685AF
  8
0
  0
BLOCK
  8
0
  2
*U266
 70
     1
 10
0.0
 20
0.0
 30
0.0
  3
*U266
  1

  0
TEXT
  5
685B1
  8
S-OBRYS
  6
CONTINUOUS
 62
     7
 10
20009.551809720779
 20
403074.78884518793
 30
0.0
 40
100.0
  1
1780
 41
0.8
  0
ENDBLK
  5
685B3
  8
0
  0
BLOCK
  8
0
  2
*U267
 70
     1
 10
0.0
 20
0.0
 30
0.0
  3
*U267
  1

  0
TEXT
  5
685B5
  8
S-OBRYS
  6
CONTINUOUS
 62
     7
 10
19859.657961522062
 20
403277.72734832409
 30
0.0
 40
100.0
  1
1055
 41
0.8
  0
ENDBLK
  5
685B7
  8
0
  0
BLOCK
  8
0
  2
*U268
 70
     1
 10
0.0
 20
0.0
 30
0.0
  3
*U268
  1

  0
TEXT
  5
685B9
  8
S-OBRYS
  6
CONTINUOUS
 62
     7
 10
19142.605556692572
 20
403570.78354410059
 30
0.0
 40
100.0
  1
500
 50
90.0
 41
0.8
  0
ENDBLK
  5
685BB
  8
0
  0
BLOCK
  8
0
  2
*U269
 70
     1
 10
0.0
 20
0.0
 30
0.0
  3
*U269
  1

  0
TEXT
  5
685BD
  8
S-OBRYS
  6
CONTINUOUS
 62
     7
 10
18208.904247403221
 20
399464.20681075088
 30
0.0
 40
100.0
  1
890
 41
0.8
  0
ENDBLK
  5
685BF
  8
0
  0
BLOCK
  8
0
  2
*U270
 70
     1
 10
0.0
 20
0.0
 30
0.0
  3
*U270
  1

  0
TEXT
  5
685C1
  8
S-OBRYS
  6
CONTINUOUS
 62
     7
 10
18625.76330654433
 20
399020.39380196098
 30
0.0
 40
100.0
  1
225
 41
0.8
  0
ENDBLK
  5
685C3
  8
0
  0
BLOCK
  8
0
  2
*U271
 70
     1
 10
0.0
 20
0.0
 30
0.0
  3
*U271
  1

  0
TEXT
  5
685C5
  8
S-OBRYS
  6
CONTINUOUS
 62
     7
 10
17528.985756345261
 20
400115.2259749613
 30
0.0
 40
100.0
  1
1055
 50
90.0
 41
0.8
  0
ENDBLK
  5
685C7
  8
0
  0
BLOCK
  8
0
  2
*U272
 70
     1
 10
0.0
 20
0.0
 30
0.0
  3
*U272
  1

  0
TEXT
  5
685C9
  8
S-OBRYS
  6
CONTINUOUS
 62
     7
 10
19037.518159297812
 20
398896.92103072599
 30
0.0
 40
100.0
  1
61
 50
90.0
 41
0.8
  0
ENDBLK
  5
685CB
  8
0
  0
BLOCK
  8
0
  2
*U273
 70
     1
 10
0.0
 20
0.0
 30
0.0
  3
*U273
  1

  0
TEXT
  5
685CD
  8
S-OBRYS
  6
CONTINUOUS
 62
     7
 10
17698.088552363461
 20
399002.18041351018
 30
0.0
 40
100.0
  1
\U+2205152
 50
22.900116774029399
 41
0.8
  0
ENDBLK
  5
685CF
  8
0
  0
BLOCK
  8
0
  2
*U274
 70
     1
 10
0.0
 20
0.0
 30
0.0
  3
*U274
  1

  0
TEXT
  5
685D1
  8
S-OBRYS
  6
CONTINUOUS
 62
     7
 10
18729.86306240438
 20
399329.23047123553
 30
0.0
 40
100.0
  1
345
 50
90.0
 41
0.8
  0
ENDBLK
  5
685D3
  8
0
  0
ENDSEC
  0
SECTION
  2
ENTITIES
  0
TEXT
  5
2F7A5
  8
KOTY
 10
-393803.77638965531
 20
-299016.15321175661
 30
0.0
 40
150.0
  1

 41
0.7
  7
ROMANT
  0
TEXT
  5
3AD8B
  8
KOTY
 10
-14797.18019204357
 20
454294.55370899959
 30
0.0
 40
150.0
  1

 41
0.7
  7
ROMANT
  0
TEXT
  5
404AD
  8
KOTY
 10
44010.2314385153
 20
465617.23741859582
 30
0.0
 40
92.0
  1

 41
0.7
  7
CYRILLIC
  0
TEXT
  5
404B4
  8
KOTY
 10
39575.071591094718
 20
465613.29777162091
 30
0.0
 40
92.0
  1

 41
0.7
  7
CYRILLIC
  0
TEXT
  5
40B14
  8
KOTY
 10
5856.0590664841584
 20
486921.1132385282
 30
0.0
 40
150.0
  1

 41
0.7
  7
ROMANT
  0
TEXT
  5
40BFC
  8
KOTY
 10
8767.7265956277752
 20
466337.2608060218
 30
0.0
 40
150.0
  1

 41
0.7
  7
ROMANS
  0
TEXT
  5
51A7C
  8
KOTY
 10
-47677.341387967608
 20
395133.71812193602
 30
0.0
 40
150.0
  1

 41
0.7
  7
ROMANS
  0
TEXT
  5
51A94
  8
KOTY
 10
-45176.819295693742
 20
395133.7181219359
 30
0.0
 40
150.0
  1

 41
0.7
  7
ROMANS
  0
TEXT
  5
51A9B
  8
KOTY
 10
-48084.423320344351
 20
397411.27855615731
 30
0.0
 40
150.0
  1

 41
0.7
  7
ROMANT
  0
TEXT
  5
51B05
  8
RAZ
 62
     6
 10
-47365.887544580757
 20
392999.37567832542
 30
0.0
 40
193.54103193599991
  1

 41
0.8
  7
R08
  0
TEXT
  5
51B06
  8
RAZ
 62
     1
 10
-47245.037660778231
 20
393401.77274166199
 30
0.0
 40
125.41458869452801
  1

  7
ROMANS
  0
TEXT
  5
58307
  8
KOTY
 10
22966.528519463162
 20
383405.87475258159
 30
0.0
 40
150.0
  1

 41
0.7
  7
ROMANS
  0
TEXT
  5
58308
  8
KOTY
 10
22966.528519463169
 20
383855.87475258159
 30
0.0
 40
150.0
  1

 41
0.7
  7
ROMANS
  0
TEXT
  5
58315
  8
KOTY
 10
25467.050611737021
 20
383855.87475258141
 30
0.0
 40
150.0
  1

 41
0.7
  7
ROMANS
  0
TEXT
  5
58316
  8
KOTY
 10
25467.050611737021
 20
383405.87475258141
 30
0.0
 40
150.0
  1

 41
0.7
  7
ROMANS
  0
TEXT
  5
5833F
  8
KOTY
 10
22966.528519463162
 20
385205.87475258153
 30
0.0
 40
150.0
  1

 41
0.7
  7
ROMANS
  0
TEXT
  5
58340
  8
KOTY
 10
22966.528519463169
 20
385655.87475258159
 30
0.0
 40
150.0
  1

 41
0.7
  7
ROMANS
  0
TEXT
  5
58354
  8
KOTY
 10
25467.050611737021
 20
385655.87475258141
 30
0.0
 40
150.0
  1

 41
0.7
  7
ROMANS
  0
TEXT
  5
58355
  8
KOTY
 10
25467.050611737021
 20
385205.87475258141
 30
0.0
 40
150.0
  1

 41
0.7
  7
ROMANS
  0
TEXT
  5
58397
  8
KOTY
 10
25467.050611737039
 20
390605.87475258129
 30
0.0
 40
150.0
  1

 41
0.7
  7
ROMANS
  0
TEXT
  5
58398
  8
KOTY
 10
25467.050611737039
 20
391055.87475258141
 30
0.0
 40
150.0
  1

 41
0.7
  7
ROMANS
  0
TEXT
  5
583C1
  8
KOTY
 10
25467.050611737031
 20
389255.87475258141
 30
0.0
 40
150.0
  1

 41
0.7
  7
ROMANS
  0
TEXT
  5
58C84
  8
KOTY
 10
22966.52851946322
 20
387905.87475258153
 30
0.0
 40
150.0
  1

 41
0.7
  7
ROMANS
  0
LINE
  5
65FDC
  8
S-OBRYS
  6
CONTINUOUS
 10
15019.10840295573
 20
393677.27371462289
 30
0.0
 11
25519.108402955739
 21
393677.27371462289
 31
0.0
  0
LINE
  5
65FDD
  8
S-OBRYS
  6
CONTINUOUS
 10
25519.108402955739
 20
393677.27371462289
 30
0.0
 11
25519.108402955739
 21
408527.27371462289
 31
0.0
  0
LINE
  5
65FDE
  8
S-OBRYS
  6
CONTINUOUS
 10
25519.108402955739
 20
408527.27371462289
 30
0.0
 11
15019.108402955741
 21
408527.27371462289
 31
0.0
  0
LINE
  5
65FDF
  8
S-OBRYS
  6
CONTINUOUS
 10
15019.108402955741
 20
408527.27371462289
 30
0.0
 11
15019.10840295573
 21
393677.27371462289
 31
0.0
  0
INSERT
  5
66743
  8
S-OBRYS
  6
CONTINUOUS
  2
*U186
 10
0.0
 20
0.0
 30
0.0
  0
LINE
  5
673B8
  8
S-OBRYS
  6
CONTINUOUS
 10
23791.204472446701
 20
403797.25652386033
 30
0.0
 11
23879.42159344671
 21
403507.25665936031
 31
0.0
  0
LINE
  5
673B9
  8
S-OBRYS
  6
CONTINUOUS
 10
23835.671693646698
 20
403432.2563902603
 30
0.0
 11
23623.171636046711
 21
403432.2563902603
 31
0.0
  0
LINE
  5
673BA
  8
S-OBRYS
  6
CONTINUOUS
 10
23460.143044146709
 20
403797.25652386033
 30
0.0
 11
24014.421455246698
 21
403797.25652386033
 31
0.0
  0
LINE
  5
673BB
  8
S-OBRYS
  6
CONTINUOUS
 10
23498.922410020681
 20
403857.25649276032
 30
0.0
 11
24014.421455246698
 21
403857.25649276032
 31
0.0
  0
LINE
  5
673BC
  8
S-OBRYS
  6
CONTINUOUS
 10
24014.421455246698
 20
403707.25656416029
 30
0.0
 11
23529.421455246698
 21
403707.25656416029
 31
0.0
  0
LINE
  5
673BD
  8
S-OBRYS
  6
CONTINUOUS
 10
24014.421455246698
 20
403797.25652386033
 30
0.0
 11
23529.421455246698
 21
403797.25652386033
 31
0.0
  0
LINE
  5
673BE
  8
S-OBRYS
  6
CONTINUOUS
 10
24014.421455246698
 20
403507.25665936031
 30
0.0
 11
23529.421455246698
 21
403507.25665936031
 31
0.0
  0
LINE
  5
673BF
  8
S-OBRYS
  6
CONTINUOUS
 10
23669.421455246698
 20
405007.25655496027
 30
0.0
 11
23985.279954246711
 21
403857.25649276032
 31
0.0
  0
LINE
  5
673C0
  8
S-OBRYS
  6
CONTINUOUS
 10
23400.171535946709
 20
404070.19528456032
 30
0.0
 11
23196.08878434671
 21
403762.53420316032
 31
0.0
  0
CIRCLE
  5
673C1
  8
S-OBRYS
  6
CONTINUOUS
 10
23529.421455246698
 20
404084.13945276028
 30
0.0
 40
130.00000416
  0
LINE
  5
673C2
  8
S-OBRYS
  6
CONTINUOUS
 10
23257.292052846711
 20
403857.25649276032
 30
0.0
 11
23419.916405996089
 21
404967.25657146028
 31
0.0
  0
LINE
  5
673C3
  8
S-OBRYS
  6
CONTINUOUS
 10
23801.550857646711
 20
403857.25649276032
 30
0.0
 11
23638.926504497322
 21
404967.25657146028
 31
0.0
  0
LINE
  5
673C4
  8
S-OBRYS
  6
CONTINUOUS
 10
23389.421455246698
 20
405007.25655496027
 30
0.0
 11
23073.562956246711
 21
403857.25649276032
 31
0.0
  0
LINE
  5
673C5
  8
S-OBRYS
  6
CONTINUOUS
 10
23529.421455246698
 20
405169.75631886028
 30
0.0
 11
23529.421455246698
 21
403219.7566501603
 31
0.0
  0
LINE
  5
673C6
  8
S-OBRYS
  6
CONTINUOUS
 10
23219.121358756671
 20
403797.25652386033
 30
0.0
 11
23044.421455246698
 21
403797.25652386033
 31
0.0
  0
LINE
  5
673C7
  8
S-OBRYS
  6
CONTINUOUS
 10
23258.921513827649
 20
403857.25649276032
 30
0.0
 11
23044.421455246698
 21
403857.25649276032
 31
0.0
  0
LINE
  5
673C8
  8
S-OBRYS
  6
CONTINUOUS
 10
23044.421455246698
 20
403707.25656416029
 30
0.0
 11
23529.421455246698
 21
403707.25656416029
 31
0.0
  0
LINE
  5
673C9
  8
S-OBRYS
  6
CONTINUOUS
 10
23044.421455246698
 20
403507.25665936031
 30
0.0
 11
23529.421455246698
 21
403507.25665936031
 31
0.0
  0
LINE
  5
673CA
  8
S-OBRYS
  6
CONTINUOUS
 10
23139.42133354671
 20
403797.25652386033
 30
0.0
 11
23139.42133354671
 21
403507.25665936031
 31
0.0
  0
LINE
  5
673CB
  8
S-OBRYS
  6
CONTINUOUS
 10
23114.42134544671
 20
403797.25652386033
 30
0.0
 11
23114.42134544671
 21
403507.25665936031
 31
0.0
  0
LINE
  5
673CC
  8
S-OBRYS
  6
CONTINUOUS
 10
23044.421455246698
 20
403857.25649276032
 30
0.0
 11
23044.421455246698
 21
403507.25665936031
 31
0.0
  0
LINE
  5
673CD
  8
S-OBRYS
  6
CONTINUOUS
 10
23114.42134544671
 20
403758.4664947603
 30
0.0
 11
23044.421455246698
 21
403758.4664947603
 31
0.0
  0
LINE
  5
673CE
  8
S-OBRYS
  6
CONTINUOUS
 10
23804.421629146698
 20
403507.25665936031
 30
0.0
 11
23804.421629146698
 21
403332.25643786031
 31
0.0
  0
LINE
  5
673CF
  8
S-OBRYS
  6
CONTINUOUS
 10
23654.421700546711
 20
403332.25643786031
 30
0.0
 11
23654.421700546711
 21
403507.25665936031
 31
0.0
  0
POLYLINE
  5
673D0
  8
S-OBRYS
  6
CONTINUOUS
 66
     1
 10
0.0
 20
0.0
 30
0.0
 70
     1
  0
VERTEX
  5
68263
  8
S-OBRYS
  6
CONTINUOUS
 10
23629.4214076467
 20
403357.25673076027
 30
0.0
  0
VERTEX
  5
68264
  8
S-OBRYS
  6
CONTINUOUS
 10
23626.01409924671
 20
403379.90372636029
 30
0.0
  0
VERTEX
  5
68265
  8
S-OBRYS
  6
CONTINUOUS
 10
23616.024088746712
 20
403401.00649086031
 30
0.0
  0
VERTEX
  5
68266
  8
S-OBRYS
  6
CONTINUOUS
 10
23600.132070746709
 20
403419.12856536033
 30
0.0
  0
VERTEX
  5
68267
  8
S-OBRYS
  6
CONTINUOUS
 10
23579.42143144671
 20
403433.03396046028
 30
0.0
  0
VERTEX
  5
68268
  8
S-OBRYS
  6
CONTINUOUS
 10
23555.303471046711
 20
403441.77556096017
 30
0.0
  0
VERTEX
  5
68269
  8
S-OBRYS
  6
CONTINUOUS
 10
23529.421455246698
 20
403444.75684786029
 30
0.0
  0
VERTEX
  5
6826A
  8
S-OBRYS
  6
CONTINUOUS
 10
23503.539439446711
 20
403441.77556096017
 30
0.0
  0
VERTEX
  5
6826B
  8
S-OBRYS
  6
CONTINUOUS
 10
23479.421479046709
 20
403433.03396046028
 30
0.0
  0
VERTEX
  5
6826C
  8
S-OBRYS
  6
CONTINUOUS
 10
23458.710839746709
 20
403419.12856536033
 30
0.0
  0
VERTEX
  5
6826D
  8
S-OBRYS
  6
CONTINUOUS
 10
23442.81882174671
 20
403401.00649086031
 30
0.0
  0
VERTEX
  5
6826E
  8
S-OBRYS
  6
CONTINUOUS
 10
23432.828811246702
 20
403379.90372636029
 30
0.0
  0
VERTEX
  5
6826F
  8
S-OBRYS
  6
CONTINUOUS
 10
23429.421502846712
 20
403357.25673076027
 30
0.0
  0
VERTEX
  5
68270
  8
S-OBRYS
  6
CONTINUOUS
 10
23432.828811246702
 20
403334.60973516031
 30
0.0
  0
VERTEX
  5
68271
  8
S-OBRYS
  6
CONTINUOUS
 10
23442.81882174671
 20
403313.50637376029
 30
0.0
  0
VERTEX
  5
68272
  8
S-OBRYS
  6
CONTINUOUS
 10
23458.710839746709
 20
403295.38490886032
 30
0.0
  0
VERTEX
  5
68273
  8
S-OBRYS
  6
CONTINUOUS
 10
23479.421479046709
 20
403281.47950106038
 30
0.0
  0
VERTEX
  5
68274
  8
S-OBRYS
  6
CONTINUOUS
 10
23503.539439446711
 20
403272.73791326029
 30
0.0
  0
VERTEX
  5
68275
  8
S-OBRYS
  6
CONTINUOUS
 10
23529.421455246698
 20
403269.75662636018
 30
0.0
  0
VERTEX
  5
68276
  8
S-OBRYS
  6
CONTINUOUS
 10
23555.303471046711
 20
403272.73791326029
 30
0.0
  0
VERTEX
  5
68277
  8
S-OBRYS
  6
CONTINUOUS
 10
23579.42143144671
 20
403281.47950106038
 30
0.0
  0
VERTEX
  5
68278
  8
S-OBRYS
  6
CONTINUOUS
 10
23600.132070746709
 20
403295.38490886032
 30
0.0
  0
VERTEX
  5
68279
  8
S-OBRYS
  6
CONTINUOUS
 10
23616.024088746712
 20
403313.50637376029
 30
0.0
  0
VERTEX
  5
6827A
  8
S-OBRYS
  6
CONTINUOUS
 10
23626.01409924671
 20
403334.60973516031
 30
0.0
  0
VERTEX
  5
6827B
  8
S-OBRYS
  6
CONTINUOUS
 10
23629.4214076467
 20
403357.25673076027
 30
0.0
  0
SEQEND
  5
6827C
  8
S-OBRYS
  6
CONTINUOUS
  0
LINE
  5
673D1
  8
S-OBRYS
  6
CONTINUOUS
 10
23429.421502846712
 20
403507.25665936031
 30
0.0
 11
23429.421502846712
 21
403357.25673076027
 31
0.0
  0
LINE
  5
673D2
  8
S-OBRYS
  6
CONTINUOUS
 10
23629.42171244671
 20
403507.25665936031
 30
0.0
 11
23629.42171244671
 21
403357.25673076027
 31
0.0
  0
LINE
  5
673D3
  8
S-OBRYS
  6
CONTINUOUS
 10
23685.671460246711
 20
403357.25673076027
 30
0.0
 11
23373.171450246711
 21
403357.25673076027
 31
0.0
  0
LINE
  5
673D4
  8
S-OBRYS
  6
CONTINUOUS
 10
23804.421629146698
 20
403332.25643786031
 30
0.0
 11
23654.421700546711
 21
403332.25643786031
 31
0.0
  0
LINE
  5
673D5
  8
S-OBRYS
  6
CONTINUOUS
 10
23566.837115746712
 20
403959.64001926029
 30
0.0
 11
23362.754364146709
 21
403651.97893786029
 31
0.0
  0
LINE
  5
673D6
  8
S-OBRYS
  6
CONTINUOUS
 10
23460.143044146709
 20
403507.25665936031
 30
0.0
 11
23460.143044146709
 21
403797.25652386033
 31
0.0
  0
LINE
  5
673D7
  8
S-OBRYS
  6
CONTINUOUS
 10
23279.421574246709
 20
403824.95908163697
 30
0.0
 11
23279.421574246709
 21
403589.55404668348
 31
0.0
  0
CIRCLE
  5
673D8
  8
S-OBRYS
  6
CONTINUOUS
 10
23279.421574246709
 20
403707.25656416029
 30
0.0
 40
99.999999643999985
  0
LINE
  5
673D9
  8
S-OBRYS
  6
CONTINUOUS
 10
23679.421383846711
 20
403857.25649276032
 30
0.0
 11
23679.421383846711
 21
403507.25665936031
 31
0.0
  0
POLYLINE
  5
673DA
  8
S-OBRYS
  6
CONTINUOUS
 66
     1
 10
0.0
 20
0.0
 30
0.0
 70
     1
  0
VERTEX
  5
6827D
  8
S-OBRYS
  6
CONTINUOUS
 10
23804.421629146698
 20
403707.25656416029
 30
0.0
  0
VERTEX
  5
6827E
  8
S-OBRYS
  6
CONTINUOUS
 10
23800.30093634671
 20
403723.43290976027
 30
0.0
  0
VERTEX
  5
6827F
  8
S-OBRYS
  6
CONTINUOUS
 10
23788.22045504671
 20
403738.50647626031
 30
0.0
  0
VERTEX
  5
68280
  8
S-OBRYS
  6
CONTINUOUS
 10
23769.002878546711
 20
403751.45081156032
 30
0.0
  0
VERTEX
  5
68281
  8
S-OBRYS
  6
CONTINUOUS
 10
23743.958389646708
 20
403761.38298626023
 30
0.0
  0
VERTEX
  5
68282
  8
S-OBRYS
  6
CONTINUOUS
 10
23714.793195246712
 20
403767.62654756033
 30
0.0
  0
VERTEX
  5
68283
  8
S-OBRYS
  6
CONTINUOUS
 10
23683.495137446709
 20
403769.75638836029
 30
0.0
  0
VERTEX
  5
68284
  8
S-OBRYS
  6
CONTINUOUS
 10
23652.197092346709
 20
403767.62654756033
 30
0.0
  0
VERTEX
  5
68285
  8
S-OBRYS
  6
CONTINUOUS
 10
23623.031897946701
 20
403761.38298626023
 30
0.0
  0
VERTEX
  5
68286
  8
S-OBRYS
  6
CONTINUOUS
 10
23597.987396346711
 20
403751.45081156032
 30
0.0
  0
VERTEX
  5
68287
  8
S-OBRYS
  6
CONTINUOUS
 10
23578.769819846711
 20
403738.50647626031
 30
0.0
  0
VERTEX
  5
68288
  8
S-OBRYS
  6
CONTINUOUS
 10
23566.68935124671
 20
403723.43290976027
 30
0.0
  0
VERTEX
  5
68289
  8
S-OBRYS
  6
CONTINUOUS
 10
23562.5686584467
 20
403707.25656416029
 30
0.0
  0
VERTEX
  5
6828A
  8
S-OBRYS
  6
CONTINUOUS
 10
23566.68935124671
 20
403691.08023126028
 30
0.0
  0
VERTEX
  5
6828B
  8
S-OBRYS
  6
CONTINUOUS
 10
23578.769819846711
 20
403676.00665206031
 30
0.0
  0
VERTEX
  5
6828C
  8
S-OBRYS
  6
CONTINUOUS
 10
23597.987396346711
 20
403663.0623167603
 30
0.0
  0
VERTEX
  5
6828D
  8
S-OBRYS
  6
CONTINUOUS
 10
23623.031897946701
 20
403653.1301420604
 30
0.0
  0
VERTEX
  5
6828E
  8
S-OBRYS
  6
CONTINUOUS
 10
23652.197092346709
 20
403646.8865807603
 30
0.0
  0
VERTEX
  5
6828F
  8
S-OBRYS
  6
CONTINUOUS
 10
23683.495137446709
 20
403644.75675266032
 30
0.0
  0
VERTEX
  5
68290
  8
S-OBRYS
  6
CONTINUOUS
 10
23714.793195246712
 20
403646.8865807603
 30
0.0
  0
VERTEX
  5
68291
  8
S-OBRYS
  6
CONTINUOUS
 10
23743.958389646708
 20
403653.1301420604
 30
0.0
  0
VERTEX
  5
68292
  8
S-OBRYS
  6
CONTINUOUS
 10
23769.002878546711
 20
403663.0623167603
 30
0.0
  0
VERTEX
  5
68293
  8
S-OBRYS
  6
CONTINUOUS
 10
23788.22045504671
 20
403676.00665206031
 30
0.0
  0
VERTEX
  5
68294
  8
S-OBRYS
  6
CONTINUOUS
 10
23800.30093634671
 20
403691.08023126028
 30
0.0
  0
VERTEX
  5
68295
  8
S-OBRYS
  6
CONTINUOUS
 10
23804.421629146698
 20
403707.25656416029
 30
0.0
  0
SEQEND
  5
68296
  8
S-OBRYS
  6
CONTINUOUS
  0
LINE
  5
673DB
  8
S-OBRYS
  6
CONTINUOUS
 10
23769.421648346699
 20
403367.25672346028
 30
0.0
 11
23689.42168134671
 21
403367.25672346028
 31
0.0
  0
LINE
  5
673DC
  8
S-OBRYS
  6
CONTINUOUS
 10
23689.42168134671
 20
403367.25672346028
 30
0.0
 11
23689.42168134671
 21
403507.25665936031
 31
0.0
  0
LINE
  5
673DD
  8
S-OBRYS
  6
CONTINUOUS
 10
23769.421648346699
 20
403507.25665936031
 30
0.0
 11
23769.421648346699
 21
403367.25672346028
 31
0.0
  0
LINE
  5
673DE
  8
S-OBRYS
  6
CONTINUOUS
 10
23404.4215147467
 20
404344.75641946029
 30
0.0
 11
23504.421467146709
 21
404832.25633346027
 31
0.0
  0
LINE
  5
673DF
  8
S-OBRYS
  6
CONTINUOUS
 10
23654.421395746711
 20
404344.75641946029
 30
0.0
 11
23554.42144334671
 21
404832.25633346027
 31
0.0
  0
LINE
  5
673E0
  8
S-OBRYS
  6
CONTINUOUS
 10
23479.421479046709
 20
405107.25650736032
 30
0.0
 11
23529.421455246698
 21
405107.25650736032
 31
0.0
  0
LINE
  5
673E1
  8
S-OBRYS
  6
CONTINUOUS
 10
23419.916405996089
 20
404967.25657146028
 30
0.0
 11
23638.926504497322
 21
404967.25657146028
 31
0.0
  0
LINE
  5
673E2
  8
S-OBRYS
  6
CONTINUOUS
 10
23479.421479046709
 20
405107.25650736032
 30
0.0
 11
23479.421479046709
 21
405007.25655496027
 31
0.0
  0
LINE
  5
673E3
  8
S-OBRYS
  6
CONTINUOUS
 10
23638.926504497322
 20
404967.25657146028
 30
0.0
 11
23529.421455246698
 21
404967.25657146028
 31
0.0
  0
LINE
  5
673E4
  8
S-OBRYS
  6
CONTINUOUS
 10
23579.42143144671
 20
405107.25650736032
 30
0.0
 11
23579.42143144671
 21
405007.25655496027
 31
0.0
  0
LINE
  5
673E5
  8
S-OBRYS
  6
CONTINUOUS
 10
23579.42143144671
 20
405107.25650736032
 30
0.0
 11
23529.421455246698
 21
405107.25650736032
 31
0.0
  0
LINE
  5
673E6
  8
S-OBRYS
  6
CONTINUOUS
 10
23919.421576946701
 20
403797.25652386033
 30
0.0
 11
23919.421576946701
 21
403507.25665936031
 31
0.0
  0
LINE
  5
673E7
  8
S-OBRYS
  6
CONTINUOUS
 10
23944.421565046709
 20
403797.25652386033
 30
0.0
 11
23944.421565046709
 21
403507.25665936031
 31
0.0
  0
LINE
  5
673E8
  8
S-OBRYS
  6
CONTINUOUS
 10
24014.421455246698
 20
403857.25649276032
 30
0.0
 11
24014.421455246698
 21
403507.25665936031
 31
0.0
  0
LINE
  5
673E9
  8
S-OBRYS
  6
CONTINUOUS
 10
24014.421455246698
 20
403758.4664947603
 30
0.0
 11
23944.421565046709
 21
403758.4664947603
 31
0.0
  0
LINE
  5
673EA
  8
S-OBRYS
  6
CONTINUOUS
 10
20366.253429367309
 20
404984.80216793338
 30
0.0
 11
20116.252938767309
 21
404984.80216793338
 31
0.0
  0
LINE
  5
673EB
  8
S-OBRYS
  6
CONTINUOUS
 10
20378.753264667299
 20
404684.80110423343
 30
0.0
 11
20128.75338366731
 21
404684.80110423343
 31
0.0
  0
LINE
  5
673EC
  8
S-OBRYS
  6
CONTINUOUS
 10
20116.252938767309
 20
404659.80262743338
 30
0.0
 11
20366.253429367309
 21
404659.80262743338
 31
0.0
  0
LINE
  5
673ED
  8
S-OBRYS
  6
CONTINUOUS
 10
20372.503048567309
 20
404634.8017249335
 30
0.0
 11
20122.503167567302
 21
404634.8017249335
 31
0.0
  0
LINE
  5
673EE
  8
S-OBRYS
  6
CONTINUOUS
 10
20128.75338366731
 20
404609.8020416334
 30
0.0
 11
20372.503048567309
 21
404609.8020416334
 31
0.0
  0
LINE
  5
673EF
  8
S-OBRYS
  6
CONTINUOUS
 10
20360.003200567298
 20
404584.80235833343
 30
0.0
 11
20116.252938767309
 21
404584.80235833343
 31
0.0
  0
LINE
  5
673F0
  8
S-OBRYS
  6
CONTINUOUS
 10
20122.503167567302
 20
404559.80146853341
 30
0.0
 11
20366.253429367309
 21
404559.80146853341
 31
0.0
  0
LINE
  5
673F1
  8
S-OBRYS
  6
CONTINUOUS
 10
20372.503048567309
 20
404534.80177253328
 30
0.0
 11
20128.75338366731
 21
404534.80177253328
 31
0.0
  0
LINE
  5
673F2
  8
S-OBRYS
  6
CONTINUOUS
 10
20116.252938767309
 20
404509.80208923342
 30
0.0
 11
20372.503048567309
 21
404509.80208923342
 31
0.0
  0
LINE
  5
673F3
  8
S-OBRYS
  6
CONTINUOUS
 10
20116.252938767309
 20
404709.80199403339
 30
0.0
 11
20366.253429367309
 21
404709.80199403339
 31
0.0
  0
LINE
  5
673F4
  8
S-OBRYS
  6
CONTINUOUS
 10
20495.2530650673
 20
404484.80119943339
 30
0.0
 11
20245.253184067311
 21
404484.80119943339
 31
0.0
  0
LINE
  5
673F5
  8
S-OBRYS
  6
CONTINUOUS
 10
19313.379110367299
 20
404260.03051613341
 30
0.0
 11
20520.253357967322
 21
404159.8016589334
 31
0.0
  0
LINE
  5
673F6
  8
S-OBRYS
  6
CONTINUOUS
 10
20515.895581567311
 20
404109.99123023351
 30
0.0
 11
19309.022540467289
 21
404210.2212939334
 31
0.0
  0
LINE
  5
673F7
  8
S-OBRYS
  6
CONTINUOUS
 10
19515.253638967301
 20
403584.8016278334
 30
0.0
 11
20520.253357967322
 21
403584.8016278334
 31
0.0
  0
LINE
  5
673F8
  8
S-OBRYS
  6
CONTINUOUS
 10
20520.253357967322
 20
403534.8016516334
 30
0.0
 11
19515.253638967301
 21
403534.8016516334
 31
0.0
  0
POLYLINE
  5
673F9
  8
S-OBRYS
  6
CONTINUOUS
 66
     1
 10
0.0
 20
0.0
 30
0.0
  0
VERTEX
  5
68297
  8
S-OBRYS
  6
CONTINUOUS
 10
20116.016159967301
 20
404710.80363033339
 30
0.0
  0
VERTEX
  5
68298
  8
S-OBRYS
  6
CONTINUOUS
 10
20118.778829067302
 20
404708.04096123338
 30
0.0
  0
VERTEX
  5
68299
  8
S-OBRYS
  6
CONTINUOUS
 10
20118.778829067302
 20
404702.5156230334
 30
0.0
  0
VERTEX
  5
6829A
  8
S-OBRYS
  6
CONTINUOUS
 10
20122.646080667299
 20
404699.75416043343
 30
0.0
  0
VERTEX
  5
6829B
  8
S-OBRYS
  6
CONTINUOUS
 10
20124.303557667299
 20
404695.88568963337
 30
0.0
  0
VERTEX
  5
6829C
  8
S-OBRYS
  6
CONTINUOUS
 10
20125.408749767299
 20
404691.46735963342
 30
0.0
  0
VERTEX
  5
6829D
  8
S-OBRYS
  6
CONTINUOUS
 10
20125.408749767299
 20
404685.94202143338
 30
0.0
  0
VERTEX
  5
6829E
  8
S-OBRYS
  6
CONTINUOUS
 10
20124.303557667299
 20
404677.65401413338
 30
0.0
  0
VERTEX
  5
6829F
  8
S-OBRYS
  6
CONTINUOUS
 10
20122.646080667299
 20
404673.78674983338
 30
0.0
  0
VERTEX
  5
682A0
  8
S-OBRYS
  6
CONTINUOUS
 10
20119.884021167309
 20
404671.02408073342
 30
0.0
  0
VERTEX
  5
682A1
  8
S-OBRYS
  6
CONTINUOUS
 10
20118.778829067302
 20
404665.49994903349
 30
0.0
  0
VERTEX
  5
682A2
  8
S-OBRYS
  6
CONTINUOUS
 10
20116.016159967301
 20
404661.0791933334
 30
0.0
  0
VERTEX
  5
682A3
  8
S-OBRYS
  6
CONTINUOUS
 10
20114.358670267298
 20
404657.2107352335
 30
0.0
  0
VERTEX
  5
682A4
  8
S-OBRYS
  6
CONTINUOUS
 10
20114.358670267298
 20
404652.79239253339
 30
0.0
  0
VERTEX
  5
682A5
  8
S-OBRYS
  6
CONTINUOUS
 10
20111.596610767301
 20
404650.0285169335
 30
0.0
  0
VERTEX
  5
682A6
  8
S-OBRYS
  6
CONTINUOUS
 10
20111.596610767301
 20
404644.50438523339
 30
0.0
  0
VERTEX
  5
682A7
  8
S-OBRYS
  6
CONTINUOUS
 10
20114.358670267298
 20
404641.74171613337
 30
0.0
  0
VERTEX
  5
682A8
  8
S-OBRYS
  6
CONTINUOUS
 10
20118.778829067302
 20
404640.63713363343
 30
0.0
  0
VERTEX
  5
682A9
  8
S-OBRYS
  6
CONTINUOUS
 10
20118.778829067302
 20
404636.21637793339
 30
0.0
  0
VERTEX
  5
682AA
  8
S-OBRYS
  6
CONTINUOUS
 10
20122.646080667299
 20
404633.45491533348
 30
0.0
  0
VERTEX
  5
682AB
  8
S-OBRYS
  6
CONTINUOUS
 10
20125.408749767299
 20
404629.58644453337
 30
0.0
  0
VERTEX
  5
682AC
  8
S-OBRYS
  6
CONTINUOUS
 10
20128.17141886731
 20
404627.92957713339
 30
0.0
  0
VERTEX
  5
682AD
  8
S-OBRYS
  6
CONTINUOUS
 10
20129.828908567299
 20
404624.06110633339
 30
0.0
  0
VERTEX
  5
682AE
  8
S-OBRYS
  6
CONTINUOUS
 10
20129.828908567299
 20
404619.64155713329
 30
0.0
  0
VERTEX
  5
682AF
  8
S-OBRYS
  6
CONTINUOUS
 10
20128.17141886731
 20
404616.87888803351
 30
0.0
  0
VERTEX
  5
682B0
  8
S-OBRYS
  6
CONTINUOUS
 10
20128.17141886731
 20
404611.35354983341
 30
0.0
  0
VERTEX
  5
682B1
  8
S-OBRYS
  6
CONTINUOUS
 10
20125.408749767299
 20
404607.48750473338
 30
0.0
  0
VERTEX
  5
682B2
  8
S-OBRYS
  6
CONTINUOUS
 10
20124.303557667299
 20
404603.0667490334
 30
0.0
  0
VERTEX
  5
682B3
  8
S-OBRYS
  6
CONTINUOUS
 10
20122.646080667299
 20
404600.30407993338
 30
0.0
  0
VERTEX
  5
682B4
  8
S-OBRYS
  6
CONTINUOUS
 10
20119.884021167309
 20
404596.43682833348
 30
0.0
  0
VERTEX
  5
682B5
  8
S-OBRYS
  6
CONTINUOUS
 10
20118.778829067302
 20
404592.0160726335
 30
0.0
  0
VERTEX
  5
682B6
  8
S-OBRYS
  6
CONTINUOUS
 10
20116.016159967301
 20
404588.15002753341
 30
0.0
  0
VERTEX
  5
682B7
  8
S-OBRYS
  6
CONTINUOUS
 10
20114.358670267298
 20
404583.72927183338
 30
0.0
  0
VERTEX
  5
682B8
  8
S-OBRYS
  6
CONTINUOUS
 10
20111.596610767301
 20
404578.20392093342
 30
0.0
  0
VERTEX
  5
682B9
  8
S-OBRYS
  6
CONTINUOUS
 10
20111.596610767301
 20
404571.57400023349
 30
0.0
  0
VERTEX
  5
682BA
  8
S-OBRYS
  6
CONTINUOUS
 10
20114.358670267298
 20
404569.91712013329
 30
0.0
  0
VERTEX
  5
682BB
  8
S-OBRYS
  6
CONTINUOUS
 10
20116.016159967301
 20
404566.0486620334
 30
0.0
  0
VERTEX
  5
682BC
  8
S-OBRYS
  6
CONTINUOUS
 10
20118.778829067302
 20
404561.6303193334
 30
0.0
  0
VERTEX
  5
682BD
  8
S-OBRYS
  6
CONTINUOUS
 10
20119.884021167309
 20
404557.76186123339
 30
0.0
  0
VERTEX
  5
682BE
  8
S-OBRYS
  6
CONTINUOUS
 10
20124.303557667299
 20
404554.99919213337
 30
0.0
  0
VERTEX
  5
682BF
  8
S-OBRYS
  6
CONTINUOUS
 10
20128.17141886731
 20
404549.47506043338
 30
0.0
  0
VERTEX
  5
682C0
  8
S-OBRYS
  6
CONTINUOUS
 10
20128.17141886731
 20
404534.00361563341
 30
0.0
  0
VERTEX
  5
682C1
  8
S-OBRYS
  6
CONTINUOUS
 10
20125.408749767299
 20
404528.47948393342
 30
0.0
  0
VERTEX
  5
682C2
  8
S-OBRYS
  6
CONTINUOUS
 10
20124.303557667299
 20
404524.6122323334
 30
0.0
  0
VERTEX
  5
682C3
  8
S-OBRYS
  6
CONTINUOUS
 10
20122.646080667299
 20
404521.84956323338
 30
0.0
  0
VERTEX
  5
682C4
  8
S-OBRYS
  6
CONTINUOUS
 10
20119.884021167309
 20
404520.19147663342
 30
0.0
  0
VERTEX
  5
682C5
  8
S-OBRYS
  6
CONTINUOUS
 10
20116.016159967301
 20
404516.32543153339
 30
0.0
  0
VERTEX
  5
682C6
  8
S-OBRYS
  6
CONTINUOUS
 10
20116.016159967301
 20
404511.90467583342
 30
0.0
  0
VERTEX
  5
682C7
  8
S-OBRYS
  6
CONTINUOUS
 10
20111.596610767301
 20
404508.03621773329
 30
0.0
  0
VERTEX
  5
682C8
  8
S-OBRYS
  6
CONTINUOUS
 10
20111.596610767301
 20
404496.98795433342
 30
0.0
  0
VERTEX
  5
682C9
  8
S-OBRYS
  6
CONTINUOUS
 10
20114.358670267298
 20
404495.32986773329
 30
0.0
  0
VERTEX
  5
682CA
  8
S-OBRYS
  6
CONTINUOUS
 10
20116.016159967301
 20
404491.46261613339
 30
0.0
  0
VERTEX
  5
682CB
  8
S-OBRYS
  6
CONTINUOUS
 10
20118.778829067302
 20
404488.69994703343
 30
0.0
  0
VERTEX
  5
682CC
  8
S-OBRYS
  6
CONTINUOUS
 10
20119.884021167309
 20
404484.28039783338
 30
0.0
  0
SEQEND
  5
682CD
  8
S-OBRYS
  6
CONTINUOUS
  0
LINE
  5
673FA
  8
S-OBRYS
  6
CONTINUOUS
 10
20241.253184067311
 20
404434.80182013341
 30
0.0
 11
20241.253184067311
 21
405031.37920206349
 31
0.0
  0
LINE
  5
673FB
  8
S-OBRYS
  6
CONTINUOUS
 10
19446.503863167291
 20
404416.05175603338
 30
0.0
 11
20091.253255467309
 21
404484.80119943339
 31
0.0
  0
POLYLINE
  5
673FC
  8
S-OBRYS
  6
CONTINUOUS
 66
     1
 10
0.0
 20
0.0
 30
0.0
 70
     1
  0
VERTEX
  5
682CE
  8
S-OBRYS
  6
CONTINUOUS
 10
19477.753510767299
 20
403831.65210573352
 30
0.0
  0
VERTEX
  5
682CF
  8
S-OBRYS
  6
CONTINUOUS
 10
19477.753510767299
 20
403931.65205813339
 30
0.0
  0
VERTEX
  5
682D0
  8
S-OBRYS
  6
CONTINUOUS
 10
19502.753194067311
 20
403931.65205813339
 30
0.0
  0
VERTEX
  5
682D1
  8
S-OBRYS
  6
CONTINUOUS
 10
19502.753194067311
 20
403831.65210573352
 30
0.0
  0
VERTEX
  5
682D2
  8
S-OBRYS
  6
CONTINUOUS
 10
19477.753510767299
 20
403831.65210573352
 30
0.0
  0
SEQEND
  5
682D3
  8
S-OBRYS
  6
CONTINUOUS
  0
LINE
  5
673FD
  8
S-OBRYS
  6
CONTINUOUS
 10
19465.253053167289
 20
403431.65169923339
 30
0.0
 11
19465.253053167289
 21
403831.65210573352
 31
0.0
  0
LINE
  5
673FE
  8
S-OBRYS
  6
CONTINUOUS
 10
19515.253638967301
 20
403831.65210573352
 30
0.0
 11
19515.253638967301
 21
403456.65138253348
 31
0.0
  0
LINE
  5
673FF
  8
S-OBRYS
  6
CONTINUOUS
 10
19565.253615167308
 20
403431.65169923339
 30
0.0
 11
19465.253053167289
 21
403431.65169923339
 31
0.0
  0
LINE
  5
67400
  8
S-OBRYS
  6
CONTINUOUS
 10
19565.253615167308
 20
403456.65138253348
 30
0.0
 11
19515.253638967301
 21
403456.65138253348
 31
0.0
  0
LINE
  5
67401
  8
S-OBRYS
  6
CONTINUOUS
 10
19565.253615167308
 20
403456.65138253348
 30
0.0
 11
19565.253615167308
 21
403431.65169923339
 31
0.0
  0
LINE
  5
67402
  8
S-OBRYS
  6
CONTINUOUS
 10
19465.253053167289
 20
403831.65210573352
 30
0.0
 11
19515.253638967301
 21
403831.65210573352
 31
0.0
  0
LINE
  5
67403
  8
S-OBRYS
  6
CONTINUOUS
 10
19309.022540467289
 20
404210.2212939334
 30
0.0
 11
19313.379719967281
 21
404260.03051613341
 31
0.0
  0
LINE
  5
67404
  8
S-OBRYS
  6
CONTINUOUS
 10
19515.253638967301
 20
404150.40203973348
 30
0.0
 11
19465.253053167289
 21
404150.40203973348
 31
0.0
  0
LINE
  5
67405
  8
S-OBRYS
  6
CONTINUOUS
 10
19471.95202376731
 20
404125.40113723348
 30
0.0
 11
19515.253638967301
 21
404150.40203973348
 31
0.0
  0
LINE
  5
67406
  8
S-OBRYS
  6
CONTINUOUS
 10
19515.253638967301
 20
404100.4014539335
 30
0.0
 11
19471.95202376731
 21
404125.40113723348
 31
0.0
  0
LINE
  5
67407
  8
S-OBRYS
  6
CONTINUOUS
 10
19471.95202376731
 20
404075.40177063341
 30
0.0
 11
19515.253638967301
 21
404100.4014539335
 31
0.0
  0
POLYLINE
  5
67408
  8
S-OBRYS
  6
CONTINUOUS
 66
     1
 10
0.0
 20
0.0
 30
0.0
 70
     1
  0
VERTEX
  5
682D4
  8
S-OBRYS
  6
CONTINUOUS
 10
19465.253053167311
 20
403931.65205813339
 30
0.0
  0
VERTEX
  5
682D5
  8
S-OBRYS
  6
CONTINUOUS
 10
19465.253053167311
 20
403981.65264393343
 30
0.0
  0
VERTEX
  5
682D6
  8
S-OBRYS
  6
CONTINUOUS
 10
19515.253638967301
 20
403981.65264393343
 30
0.0
  0
VERTEX
  5
682D7
  8
S-OBRYS
  6
CONTINUOUS
 10
19515.253638967301
 20
403931.65205813339
 30
0.0
  0
VERTEX
  5
682D8
  8
S-OBRYS
  6
CONTINUOUS
 10
19465.253053167311
 20
403931.65205813339
 30
0.0
  0
SEQEND
  5
682D9
  8
S-OBRYS
  6
CONTINUOUS
  0
LINE
  5
67409
  8
S-OBRYS
  6
CONTINUOUS
 10
19471.95202376731
 20
404025.39997833339
 30
0.0
 11
19515.253638967301
 21
404050.40086813353
 31
0.0
  0
LINE
  5
6740A
  8
S-OBRYS
  6
CONTINUOUS
 10
19515.253638967301
 20
404000.40029503353
 30
0.0
 11
19471.95202376731
 21
404025.39997833339
 31
0.0
  0
LINE
  5
6740B
  8
S-OBRYS
  6
CONTINUOUS
 10
19471.503281967311
 20
403981.65264393343
 30
0.0
 11
19515.253638967301
 21
404000.40029503353
 31
0.0
  0
LINE
  5
6740C
  8
S-OBRYS
  6
CONTINUOUS
 10
19515.253638967301
 20
404050.40086813353
 30
0.0
 11
19471.95202376731
 21
404075.40177063341
 31
0.0
  0
LINE
  5
6740D
  8
S-OBRYS
  6
CONTINUOUS
 10
19290.04068276472
 20
403941.6368175394
 30
0.0
 11
19321.135947245541
 21
404045.34965467412
 31
0.0
  0
LINE
  5
6740E
  8
S-OBRYS
  6
CONTINUOUS
 10
19280.008293390529
 20
404068.85117684782
 30
0.0
 11
19290.04068276472
 21
403941.6368175394
 31
0.0
  0
LINE
  5
6740F
  8
S-OBRYS
  6
CONTINUOUS
 10
19337.823459966148
 20
404053.67067639448
 30
0.0
 11
19330.878643567288
 21
404039.78239828628
 31
0.0
  0
LINE
  5
67410
  8
S-OBRYS
  6
CONTINUOUS
 10
19377.753810167309
 20
404203.5514063334
 30
0.0
 11
19330.63524166249
 21
404057.77823070448
 31
0.0
  0
LINE
  5
67411
  8
S-OBRYS
  6
CONTINUOUS
 10
19284.213811708101
 20
404084.3047685239
 30
0.0
 11
19318.378808267309
 21
404209.80102553341
 31
0.0
  0
LINE
  5
67412
  8
S-OBRYS
  6
CONTINUOUS
 10
19330.878643567288
 20
404039.78239828628
 30
0.0
 11
19267.917598300759
 21
404075.76014714182
 31
0.0
  0
LINE
  5
67413
  8
S-OBRYS
  6
CONTINUOUS
 10
19465.253053167289
 20
404150.40203973348
 30
0.0
 11
19465.253053167289
 21
404197.24644595309
 31
0.0
  0
LINE
  5
67414
  8
S-OBRYS
  6
CONTINUOUS
 10
19515.166386221488
 20
404193.10117434518
 30
0.0
 11
19515.253638967301
 21
404150.40203973348
 31
0.0
  0
LINE
  5
67415
  8
S-OBRYS
  6
CONTINUOUS
 10
19360.38994074224
 20
404256.12634648709
 30
0.0
 11
19446.503863167291
 21
404416.05175603338
 31
0.0
  0
LINE
  5
67416
  8
S-OBRYS
  6
CONTINUOUS
 10
20091.253255467309
 20
404484.80119943339
 30
0.0
 11
20245.253184067311
 21
404484.80119943339
 31
0.0
  0
LINE
  5
67417
  8
S-OBRYS
  6
CONTINUOUS
 10
20116.252938767309
 20
404984.80216793338
 30
0.0
 11
20116.252938767309
 21
404709.80199403339
 31
0.0
  0
LINE
  5
67418
  8
S-OBRYS
  6
CONTINUOUS
 10
20720.253262767299
 20
404459.80272263341
 30
0.0
 11
20720.253262767299
 21
404684.80110423343
 31
0.0
  0
POLYLINE
  5
67419
  8
S-OBRYS
  6
CONTINUOUS
 66
     1
 10
0.0
 20
0.0
 30
0.0
  0
VERTEX
  5
682DA
  8
S-OBRYS
  6
CONTINUOUS
 10
20365.7453404673
 20
404710.80363033339
 30
0.0
  0
VERTEX
  5
682DB
  8
S-OBRYS
  6
CONTINUOUS
 10
20367.402830167299
 20
404706.93637873337
 30
0.0
  0
VERTEX
  5
682DC
  8
S-OBRYS
  6
CONTINUOUS
 10
20370.165499267299
 20
404704.17370963353
 30
0.0
  0
VERTEX
  5
682DD
  8
S-OBRYS
  6
CONTINUOUS
 10
20374.032750867311
 20
404699.75416043343
 30
0.0
  0
VERTEX
  5
682DE
  8
S-OBRYS
  6
CONTINUOUS
 10
20375.690227867311
 20
404695.88568963337
 30
0.0
  0
VERTEX
  5
682DF
  8
S-OBRYS
  6
CONTINUOUS
 10
20376.7954199673
 20
404691.46735963342
 30
0.0
  0
VERTEX
  5
682E0
  8
S-OBRYS
  6
CONTINUOUS
 10
20376.7954199673
 20
404683.17813313327
 30
0.0
  0
VERTEX
  5
682E1
  8
S-OBRYS
  6
CONTINUOUS
 10
20375.690227867311
 20
404679.3121007334
 30
0.0
  0
VERTEX
  5
682E2
  8
S-OBRYS
  6
CONTINUOUS
 10
20374.032750867311
 20
404674.89133233338
 30
0.0
  0
VERTEX
  5
682E3
  8
S-OBRYS
  6
CONTINUOUS
 10
20371.270678667312
 20
404671.02408073342
 30
0.0
  0
VERTEX
  5
682E4
  8
S-OBRYS
  6
CONTINUOUS
 10
20370.165499267299
 20
404666.60453153338
 30
0.0
  0
VERTEX
  5
682E5
  8
S-OBRYS
  6
CONTINUOUS
 10
20365.7453404673
 20
404662.73607343342
 30
0.0
  0
VERTEX
  5
682E6
  8
S-OBRYS
  6
CONTINUOUS
 10
20364.6407579673
 20
404658.31652423338
 30
0.0
  0
VERTEX
  5
682E7
  8
S-OBRYS
  6
CONTINUOUS
 10
20364.6407579673
 20
404652.79239253339
 30
0.0
  0
VERTEX
  5
682E8
  8
S-OBRYS
  6
CONTINUOUS
 10
20365.7453404673
 20
404646.16247183341
 30
0.0
  0
VERTEX
  5
682E9
  8
S-OBRYS
  6
CONTINUOUS
 10
20365.7453404673
 20
404641.74171613337
 30
0.0
  0
VERTEX
  5
682EA
  8
S-OBRYS
  6
CONTINUOUS
 10
20370.165499267299
 20
404640.63713363343
 30
0.0
  0
VERTEX
  5
682EB
  8
S-OBRYS
  6
CONTINUOUS
 10
20370.165499267299
 20
404636.21637793339
 30
0.0
  0
VERTEX
  5
682EC
  8
S-OBRYS
  6
CONTINUOUS
 10
20374.032750867311
 20
404632.34911363339
 30
0.0
  0
VERTEX
  5
682ED
  8
S-OBRYS
  6
CONTINUOUS
 10
20374.032750867311
 20
404627.92957713339
 30
0.0
  0
VERTEX
  5
682EE
  8
S-OBRYS
  6
CONTINUOUS
 10
20375.690227867311
 20
404625.16690803342
 30
0.0
  0
VERTEX
  5
682EF
  8
S-OBRYS
  6
CONTINUOUS
 10
20375.690227867311
 20
404619.64155713329
 30
0.0
  0
VERTEX
  5
682F0
  8
S-OBRYS
  6
CONTINUOUS
 10
20374.032750867311
 20
404613.01163643331
 30
0.0
  0
VERTEX
  5
682F1
  8
S-OBRYS
  6
CONTINUOUS
 10
20374.032750867311
 20
404608.5920872335
 30
0.0
  0
VERTEX
  5
682F2
  8
S-OBRYS
  6
CONTINUOUS
 10
20371.270678667312
 20
404604.72362913343
 30
0.0
  0
VERTEX
  5
682F3
  8
S-OBRYS
  6
CONTINUOUS
 10
20370.165499267299
 20
404600.30407993338
 30
0.0
  0
VERTEX
  5
682F4
  8
S-OBRYS
  6
CONTINUOUS
 10
20367.402830167299
 20
404596.43682833348
 30
0.0
  0
VERTEX
  5
682F5
  8
S-OBRYS
  6
CONTINUOUS
 10
20364.6407579673
 20
404592.0160726335
 30
0.0
  0
VERTEX
  5
682F6
  8
S-OBRYS
  6
CONTINUOUS
 10
20361.87808886731
 20
404588.15002753341
 30
0.0
  0
VERTEX
  5
682F7
  8
S-OBRYS
  6
CONTINUOUS
 10
20361.87808886731
 20
404571.57400023349
 30
0.0
  0
VERTEX
  5
682F8
  8
S-OBRYS
  6
CONTINUOUS
 10
20364.6407579673
 20
404567.15445103339
 30
0.0
  0
VERTEX
  5
682F9
  8
S-OBRYS
  6
CONTINUOUS
 10
20365.7453404673
 20
404563.28719943343
 30
0.0
  0
VERTEX
  5
682FA
  8
S-OBRYS
  6
CONTINUOUS
 10
20370.165499267299
 20
404558.86644373339
 30
0.0
  0
VERTEX
  5
682FB
  8
S-OBRYS
  6
CONTINUOUS
 10
20371.270678667312
 20
404554.99919213337
 30
0.0
  0
VERTEX
  5
682FC
  8
S-OBRYS
  6
CONTINUOUS
 10
20374.032750867311
 20
404550.57964293339
 30
0.0
  0
VERTEX
  5
682FD
  8
S-OBRYS
  6
CONTINUOUS
 10
20375.690227867311
 20
404546.71117213339
 30
0.0
  0
VERTEX
  5
682FE
  8
S-OBRYS
  6
CONTINUOUS
 10
20376.7954199673
 20
404542.29284213338
 30
0.0
  0
VERTEX
  5
682FF
  8
S-OBRYS
  6
CONTINUOUS
 10
20376.7954199673
 20
404525.7168148334
 30
0.0
  0
VERTEX
  5
68300
  8
S-OBRYS
  6
CONTINUOUS
 10
20375.690227867311
 20
404521.84956323338
 30
0.0
  0
VERTEX
  5
68301
  8
S-OBRYS
  6
CONTINUOUS
 10
20374.032750867311
 20
404517.43001403339
 30
0.0
  0
VERTEX
  5
68302
  8
S-OBRYS
  6
CONTINUOUS
 10
20371.270678667312
 20
404513.56155593338
 30
0.0
  0
VERTEX
  5
68303
  8
S-OBRYS
  6
CONTINUOUS
 10
20370.165499267299
 20
404509.1420067334
 30
0.0
  0
VERTEX
  5
68304
  8
S-OBRYS
  6
CONTINUOUS
 10
20370.165499267299
 20
404503.61787503341
 30
0.0
  0
VERTEX
  5
68305
  8
S-OBRYS
  6
CONTINUOUS
 10
20367.402830167299
 20
404500.85399943328
 30
0.0
  0
VERTEX
  5
68306
  8
S-OBRYS
  6
CONTINUOUS
 10
20370.165499267299
 20
404496.98795433342
 30
0.0
  0
VERTEX
  5
68307
  8
S-OBRYS
  6
CONTINUOUS
 10
20370.165499267299
 20
404492.56719863339
 30
0.0
  0
VERTEX
  5
68308
  8
S-OBRYS
  6
CONTINUOUS
 10
20371.270678667312
 20
404488.69994703343
 30
0.0
  0
VERTEX
  5
68309
  8
S-OBRYS
  6
CONTINUOUS
 10
20371.270678667312
 20
404484.28039783338
 30
0.0
  0
SEQEND
  5
6830A
  8
S-OBRYS
  6
CONTINUOUS
  0
LINE
  5
6741A
  8
S-OBRYS
  6
CONTINUOUS
 10
20645.252993667302
 20
404434.80182013341
 30
0.0
 11
20645.252993667302
 21
405031.37920206349
 31
0.0
  0
POLYLINE
  5
6741B
  8
S-OBRYS
  6
CONTINUOUS
 66
     1
 10
0.0
 20
0.0
 30
0.0
 70
     1
  0
VERTEX
  5
6830B
  8
S-OBRYS
  6
CONTINUOUS
 10
20395.253112667298
 20
404984.80216793338
 30
0.0
  0
VERTEX
  5
6830C
  8
S-OBRYS
  6
CONTINUOUS
 10
20395.253112667298
 20
404534.80177253328
 30
0.0
  0
VERTEX
  5
6830D
  8
S-OBRYS
  6
CONTINUOUS
 10
20445.25308886731
 20
404534.80177253328
 30
0.0
  0
VERTEX
  5
6830E
  8
S-OBRYS
  6
CONTINUOUS
 10
20445.25308886731
 20
404984.80216793338
 30
0.0
  0
VERTEX
  5
6830F
  8
S-OBRYS
  6
CONTINUOUS
 10
20395.253112667298
 20
404984.80216793338
 30
0.0
  0
SEQEND
  5
68310
  8
S-OBRYS
  6
CONTINUOUS
  0
LINE
  5
6741C
  8
S-OBRYS
  6
CONTINUOUS
 10
20570.253334167301
 20
403459.80138253327
 30
0.0
 11
20570.253334167301
 21
404934.8015821334
 31
0.0
  0
LINE
  5
6741D
  8
S-OBRYS
  6
CONTINUOUS
 10
20520.253357967322
 20
404934.8015821334
 30
0.0
 11
20520.253357967322
 21
403434.80169923347
 31
0.0
  0
LINE
  5
6741E
  8
S-OBRYS
  6
CONTINUOUS
 10
20870.253191367301
 20
403534.8016516334
 30
0.0
 11
20995.253436667299
 21
403534.8016516334
 31
0.0
  0
LINE
  5
6741F
  8
S-OBRYS
  6
CONTINUOUS
 10
20845.253508067301
 20
403484.80167543341
 30
0.0
 11
20995.253436667299
 21
403484.80167543341
 31
0.0
  0
LINE
  5
67420
  8
S-OBRYS
  6
CONTINUOUS
 10
21007.753271967322
 20
403847.30134413339
 30
0.0
 11
20871.866074825852
 21
403989.3660569989
 31
0.0
  0
LINE
  5
67421
  8
S-OBRYS
  6
CONTINUOUS
 10
21045.2534128673
 20
403709.8018731334
 30
0.0
 11
20845.253508067301
 21
403709.8018731334
 31
0.0
  0
LINE
  5
67422
  8
S-OBRYS
  6
CONTINUOUS
 10
21057.385659367301
 20
403896.93373153341
 30
0.0
 11
20870.25380096729
 21
403709.8018731334
 31
0.0
  0
LINE
  5
67423
  8
S-OBRYS
  6
CONTINUOUS
 10
20915.964428367301
 20
404038.35558483342
 30
0.0
 11
21057.385659367301
 21
403896.93373153341
 31
0.0
  0
LINE
  5
67424
  8
S-OBRYS
  6
CONTINUOUS
 10
20795.252922267311
 20
403759.80184933328
 30
0.0
 11
21020.25311996731
 21
404009.80112073349
 31
0.0
  0
LINE
  5
67425
  8
S-OBRYS
  6
CONTINUOUS
 10
20883.72269709524
 20
404002.5377579818
 30
0.0
 11
21020.25311996731
 21
403859.80180173338
 31
0.0
  0
LINE
  5
67426
  8
S-OBRYS
  6
CONTINUOUS
 10
20645.252993667302
 20
403434.80169923347
 30
0.0
 11
20645.252993667302
 21
404093.32618697238
 31
0.0
  0
LINE
  5
67427
  8
S-OBRYS
  6
CONTINUOUS
 10
20845.253508067301
 20
404071.71567101422
 30
0.0
 11
20845.253508067301
 21
403434.80169923347
 31
0.0
  0
LINE
  5
67428
  8
S-OBRYS
  6
CONTINUOUS
 10
20620.25331036729
 20
403434.80169923347
 30
0.0
 11
20520.253357967322
 21
403434.80169923347
 31
0.0
  0
LINE
  5
67429
  8
S-OBRYS
  6
CONTINUOUS
 10
20620.25331036729
 20
403459.80138253327
 30
0.0
 11
20570.253334167301
 21
403459.80138253327
 31
0.0
  0
LINE
  5
6742A
  8
S-OBRYS
  6
CONTINUOUS
 10
20570.253334167301
 20
403584.8016278334
 30
0.0
 11
20645.252993667302
 21
403584.8016278334
 31
0.0
  0
LINE
  5
6742B
  8
S-OBRYS
  6
CONTINUOUS
 10
20645.252993667302
 20
403534.8016516334
 30
0.0
 11
20570.253334167301
 21
403534.8016516334
 31
0.0
  0
LINE
  5
6742C
  8
S-OBRYS
  6
CONTINUOUS
 10
20520.253357967322
 20
403434.80169923347
 30
0.0
 11
20570.253334167301
 21
403434.80169923347
 31
0.0
  0
LINE
  5
6742D
  8
S-OBRYS
  6
CONTINUOUS
 10
20845.253508067301
 20
403434.80169923347
 30
0.0
 11
20645.252993667302
 21
403434.80169923347
 31
0.0
  0
LINE
  5
6742E
  8
S-OBRYS
  6
CONTINUOUS
 10
20845.253508067301
 20
403434.80169923347
 30
0.0
 11
20645.252993667302
 21
403434.80169923347
 31
0.0
  0
LINE
  5
6742F
  8
S-OBRYS
  6
CONTINUOUS
 10
20620.25331036729
 20
403459.80138253327
 30
0.0
 11
20620.25331036729
 21
403434.80169923347
 31
0.0
  0
LINE
  5
67430
  8
S-OBRYS
  6
CONTINUOUS
 10
20645.252993667302
 20
403584.8016278334
 30
0.0
 11
20645.252993667302
 21
403534.8016516334
 31
0.0
  0
POLYLINE
  5
67431
  8
S-OBRYS
  6
CONTINUOUS
 66
     1
 10
0.0
 20
0.0
 30
0.0
 70
     1
  0
VERTEX
  5
68311
  8
S-OBRYS
  6
CONTINUOUS
 10
20845.253508067301
 20
403584.8016278334
 30
0.0
  0
VERTEX
  5
68312
  8
S-OBRYS
  6
CONTINUOUS
 10
20845.253508067301
 20
403534.8016516334
 30
0.0
  0
VERTEX
  5
68313
  8
S-OBRYS
  6
CONTINUOUS
 10
20870.253191367301
 20
403534.8016516334
 30
0.0
  0
VERTEX
  5
68314
  8
S-OBRYS
  6
CONTINUOUS
 10
20870.253191367301
 20
403584.8016278334
 30
0.0
  0
VERTEX
  5
68315
  8
S-OBRYS
  6
CONTINUOUS
 10
20845.253508067301
 20
403584.8016278334
 30
0.0
  0
SEQEND
  5
68316
  8
S-OBRYS
  6
CONTINUOUS
  0
LINE
  5
67432
  8
S-OBRYS
  6
CONTINUOUS
 10
20570.253334167301
 20
404459.80272263341
 30
0.0
 11
20720.253262767299
 21
404459.80272263341
 31
0.0
  0
LINE
  5
67433
  8
S-OBRYS
  6
CONTINUOUS
 10
20570.063177067292
 20
404151.66019693337
 30
0.0
 11
20823.469464767299
 21
404123.63865023339
 31
0.0
  0
LINE
  5
67434
  8
S-OBRYS
  6
CONTINUOUS
 10
20821.577621967299
 20
404073.82822153339
 30
0.0
 11
20570.253334167301
 21
404101.61964423337
 31
0.0
  0
LINE
  5
67435
  8
S-OBRYS
  6
CONTINUOUS
 10
20520.253357967322
 20
404459.80272263341
 30
0.0
 11
20820.2532151673
 21
404259.80161133339
 31
0.0
  0
LINE
  5
67436
  8
S-OBRYS
  6
CONTINUOUS
 10
20470.25338176731
 20
404234.80191533337
 30
0.0
 11
20720.253262767299
 21
404259.80161133339
 31
0.0
  0
LINE
  5
67437
  8
S-OBRYS
  6
CONTINUOUS
 10
20495.2530650673
 20
404484.80119943339
 30
0.0
 11
20467.224863567291
 21
404164.44042283349
 31
0.0
  0
LINE
  5
67438
  8
S-OBRYS
  6
CONTINUOUS
 10
20570.253334167301
 20
404459.80272263341
 30
0.0
 11
20470.25338176731
 21
404234.80191533337
 31
0.0
  0
LINE
  5
67439
  8
S-OBRYS
  6
CONTINUOUS
 10
20495.2530650673
 20
404484.80119943339
 30
0.0
 11
20520.253357967322
 21
404459.80272263341
 31
0.0
  0
LINE
  5
6743A
  8
S-OBRYS
  6
CONTINUOUS
 10
20820.2532151673
 20
404122.30151803338
 30
0.0
 11
20820.2532151673
 21
404459.80272263341
 31
0.0
  0
LINE
  5
6743B
  8
S-OBRYS
  6
CONTINUOUS
 10
20845.253508067301
 20
403959.80175413343
 30
0.0
 11
20915.964428367301
 21
404038.35558483342
 31
0.0
  0
LINE
  5
6743C
  8
S-OBRYS
  6
CONTINUOUS
 10
20859.315748167301
 20
404120.7391132334
 30
0.0
 11
20823.469464767299
 21
404123.63865023339
 31
0.0
  0
LINE
  5
6743D
  8
S-OBRYS
  6
CONTINUOUS
 10
20821.577621967299
 20
404073.82822153339
 30
0.0
 11
20856.19093856731
 21
404070.73974663328
 31
0.0
  0
LINE
  5
6743E
  8
S-OBRYS
  6
CONTINUOUS
 10
20856.19093856731
 20
404070.73974663328
 30
0.0
 11
20859.315748167301
 21
404120.7391132334
 31
0.0
  0
LINE
  5
6743F
  8
S-OBRYS
  6
CONTINUOUS
 10
20820.2532151673
 20
404459.80272263341
 30
0.0
 11
20720.253262767299
 21
404459.80272263341
 31
0.0
  0
LINE
  5
67440
  8
S-OBRYS
  6
CONTINUOUS
 10
20720.253262767299
 20
404259.80161133339
 30
0.0
 11
20720.253262767299
 21
404459.80272263341
 31
0.0
  0
LINE
  5
67441
  8
S-OBRYS
  6
CONTINUOUS
 10
20995.253436667299
 20
403484.80167543341
 30
0.0
 11
20995.253436667299
 21
403534.8016516334
 31
0.0
  0
LINE
  5
67442
  8
S-OBRYS
  6
CONTINUOUS
 10
20995.253436667299
 20
403534.8016516334
 30
0.0
 11
21045.2534128673
 21
403709.8018731334
 31
0.0
  0
LINE
  5
67443
  8
S-OBRYS
  6
CONTINUOUS
 10
20970.253143767299
 20
403809.80182553339
 30
0.0
 11
21020.25311996731
 21
403709.8018731334
 31
0.0
  0
LINE
  5
67444
  8
S-OBRYS
  6
CONTINUOUS
 10
20722.253262767299
 20
404984.80216793338
 30
0.0
 11
20570.253334167301
 21
404984.80216793338
 31
0.0
  0
LINE
  5
67445
  8
S-OBRYS
  6
CONTINUOUS
 10
20720.253262767299
 20
404684.80110423343
 30
0.0
 11
20570.253334167301
 21
404684.80110423343
 31
0.0
  0
LINE
  5
67446
  8
S-OBRYS
  6
CONTINUOUS
 10
20726.503478867311
 20
404884.8010090334
 30
0.0
 11
20576.50295336729
 21
404884.8010090334
 31
0.0
  0
LINE
  5
67447
  8
S-OBRYS
  6
CONTINUOUS
 10
20576.50295336729
 20
404859.80253223341
 30
0.0
 11
20714.00303396731
 21
404859.80253223341
 31
0.0
  0
LINE
  5
67448
  8
S-OBRYS
  6
CONTINUOUS
 10
20720.253262767299
 20
404834.80162973341
 30
0.0
 11
20582.753169467309
 21
404834.80162973341
 31
0.0
  0
LINE
  5
67449
  8
S-OBRYS
  6
CONTINUOUS
 10
20576.50295336729
 20
404809.80194643338
 30
0.0
 11
20714.00303396731
 21
404809.80194643338
 31
0.0
  0
LINE
  5
6744A
  8
S-OBRYS
  6
CONTINUOUS
 10
20714.00303396731
 20
404784.8022631334
 30
0.0
 11
20576.50295336729
 21
404784.8022631334
 31
0.0
  0
LINE
  5
6744B
  8
S-OBRYS
  6
CONTINUOUS
 10
20714.00303396731
 20
404734.80167733342
 30
0.0
 11
20576.50295336729
 21
404734.80167733342
 31
0.0
  0
LINE
  5
6744C
  8
S-OBRYS
  6
CONTINUOUS
 10
20576.50295336729
 20
404709.80199403339
 30
0.0
 11
20726.503478867311
 21
404709.80199403339
 31
0.0
  0
LINE
  5
6744D
  8
S-OBRYS
  6
CONTINUOUS
 10
20570.253334167301
 20
404909.80189883342
 30
0.0
 11
20722.253262767299
 21
404909.80189883342
 31
0.0
  0
POLYLINE
  5
6744E
  8
S-OBRYS
  6
CONTINUOUS
 66
     1
 10
0.0
 20
0.0
 30
0.0
 70
     1
  0
VERTEX
  5
68317
  8
S-OBRYS
  6
CONTINUOUS
 10
20445.25308886731
 20
404959.80127813329
 30
0.0
  0
VERTEX
  5
68318
  8
S-OBRYS
  6
CONTINUOUS
 10
20445.25308886731
 20
404934.8015821334
 30
0.0
  0
VERTEX
  5
68319
  8
S-OBRYS
  6
CONTINUOUS
 10
20595.253017467301
 20
404934.8015821334
 30
0.0
  0
VERTEX
  5
6831A
  8
S-OBRYS
  6
CONTINUOUS
 10
20595.253017467301
 20
404959.80127813329
 30
0.0
  0
VERTEX
  5
6831B
  8
S-OBRYS
  6
CONTINUOUS
 10
20445.25308886731
 20
404959.80127813329
 30
0.0
  0
SEQEND
  5
6831C
  8
S-OBRYS
  6
CONTINUOUS
  0
LINE
  5
6744F
  8
S-OBRYS
  6
CONTINUOUS
 10
20570.253334167301
 20
404934.8015821334
 30
0.0
 11
20570.253334167301
 21
404909.80189883342
 31
0.0
  0
LINE
  5
67450
  8
S-OBRYS
  6
CONTINUOUS
 10
20366.253429367309
 20
404709.80199403339
 30
0.0
 11
20366.253429367309
 21
404934.8015821334
 31
0.0
  0
POLYLINE
  5
67451
  8
S-OBRYS
  6
CONTINUOUS
 66
     1
 10
0.0
 20
0.0
 30
0.0
  0
VERTEX
  5
6831D
  8
S-OBRYS
  6
CONTINUOUS
 10
20570.974579867299
 20
404909.94360543328
 30
0.0
  0
VERTEX
  5
6831E
  8
S-OBRYS
  6
CONTINUOUS
 10
20572.600573567299
 20
404907.23301903339
 30
0.0
  0
VERTEX
  5
6831F
  8
S-OBRYS
  6
CONTINUOUS
 10
20575.311159967299
 20
404905.6064157334
 30
0.0
  0
VERTEX
  5
68320
  8
S-OBRYS
  6
CONTINUOUS
 10
20576.395155767299
 20
404901.81305273343
 30
0.0
  0
VERTEX
  5
68321
  8
S-OBRYS
  6
CONTINUOUS
 10
20576.395155767299
 20
404897.47586303338
 30
0.0
  0
VERTEX
  5
68322
  8
S-OBRYS
  6
CONTINUOUS
 10
20575.311159967299
 20
404890.97068173339
 30
0.0
  0
VERTEX
  5
68323
  8
S-OBRYS
  6
CONTINUOUS
 10
20575.311159967299
 20
404874.70835713338
 30
0.0
  0
VERTEX
  5
68324
  8
S-OBRYS
  6
CONTINUOUS
 10
20572.600573567299
 20
404873.08175383328
 30
0.0
  0
VERTEX
  5
68325
  8
S-OBRYS
  6
CONTINUOUS
 10
20572.600573567299
 20
404862.24182123342
 30
0.0
  0
VERTEX
  5
68326
  8
S-OBRYS
  6
CONTINUOUS
 10
20575.311159967299
 20
404858.44601983338
 30
0.0
  0
VERTEX
  5
68327
  8
S-OBRYS
  6
CONTINUOUS
 10
20575.311159967299
 20
404854.11004933342
 30
0.0
  0
VERTEX
  5
68328
  8
S-OBRYS
  6
CONTINUOUS
 10
20579.105742167299
 20
404853.02484703338
 30
0.0
  0
VERTEX
  5
68329
  8
S-OBRYS
  6
CONTINUOUS
 10
20580.731735867299
 20
404850.31546713342
 30
0.0
  0
VERTEX
  5
6832A
  8
S-OBRYS
  6
CONTINUOUS
 10
20581.815731667299
 20
404845.97827743337
 30
0.0
  0
VERTEX
  5
6832B
  8
S-OBRYS
  6
CONTINUOUS
 10
20581.815731667299
 20
404829.71715933341
 30
0.0
  0
VERTEX
  5
6832C
  8
S-OBRYS
  6
CONTINUOUS
 10
20580.731735867299
 20
404824.29597383342
 30
0.0
  0
VERTEX
  5
6832D
  8
S-OBRYS
  6
CONTINUOUS
 10
20579.105742167299
 20
404821.58538743341
 30
0.0
  0
VERTEX
  5
6832E
  8
S-OBRYS
  6
CONTINUOUS
 10
20576.395155767299
 20
404817.79080523341
 30
0.0
  0
VERTEX
  5
6832F
  8
S-OBRYS
  6
CONTINUOUS
 10
20575.311159967299
 20
404813.45361553342
 30
0.0
  0
VERTEX
  5
68330
  8
S-OBRYS
  6
CONTINUOUS
 10
20575.311159967299
 20
404808.0336492334
 30
0.0
  0
VERTEX
  5
68331
  8
S-OBRYS
  6
CONTINUOUS
 10
20572.600573567299
 20
404804.2390670334
 30
0.0
  0
VERTEX
  5
68332
  8
S-OBRYS
  6
CONTINUOUS
 10
20572.600573567299
 20
404793.39669603342
 30
0.0
  0
VERTEX
  5
68333
  8
S-OBRYS
  6
CONTINUOUS
 10
20575.311159967299
 20
404791.77131193352
 30
0.0
  0
VERTEX
  5
68334
  8
S-OBRYS
  6
CONTINUOUS
 10
20576.395155767299
 20
404787.9767297334
 30
0.0
  0
VERTEX
  5
68335
  8
S-OBRYS
  6
CONTINUOUS
 10
20579.105742167299
 20
404785.2661433334
 30
0.0
  0
VERTEX
  5
68336
  8
S-OBRYS
  6
CONTINUOUS
 10
20579.105742167299
 20
404780.92895363341
 30
0.0
  0
VERTEX
  5
68337
  8
S-OBRYS
  6
CONTINUOUS
 10
20581.815731667299
 20
404777.1355779334
 30
0.0
  0
VERTEX
  5
68338
  8
S-OBRYS
  6
CONTINUOUS
 10
20581.815731667299
 20
404772.79838823341
 30
0.0
  0
VERTEX
  5
68339
  8
S-OBRYS
  6
CONTINUOUS
 10
20584.52631806731
 20
404769.00380603329
 30
0.0
  0
VERTEX
  5
6833A
  8
S-OBRYS
  6
CONTINUOUS
 10
20584.52631806731
 20
404764.66783553339
 30
0.0
  0
VERTEX
  5
6833B
  8
S-OBRYS
  6
CONTINUOUS
 10
20586.15231176731
 20
404760.87325333338
 30
0.0
  0
VERTEX
  5
6833C
  8
S-OBRYS
  6
CONTINUOUS
 10
20584.52631806731
 20
404756.53606363339
 30
0.0
  0
VERTEX
  5
6833D
  8
S-OBRYS
  6
CONTINUOUS
 10
20581.815731667299
 20
404752.7426879335
 30
0.0
  0
VERTEX
  5
6833E
  8
S-OBRYS
  6
CONTINUOUS
 10
20581.815731667299
 20
404748.40549823339
 30
0.0
  0
VERTEX
  5
6833F
  8
S-OBRYS
  6
CONTINUOUS
 10
20580.731735867299
 20
404742.98432543338
 30
0.0
  0
VERTEX
  5
68340
  8
S-OBRYS
  6
CONTINUOUS
 10
20579.105742167299
 20
404740.27494553349
 30
0.0
  0
VERTEX
  5
68341
  8
S-OBRYS
  6
CONTINUOUS
 10
20576.395155767299
 20
404736.47914413339
 30
0.0
  0
VERTEX
  5
68342
  8
S-OBRYS
  6
CONTINUOUS
 10
20575.311159967299
 20
404732.14317363338
 30
0.0
  0
VERTEX
  5
68343
  8
S-OBRYS
  6
CONTINUOUS
 10
20572.600573567299
 20
404728.34859143337
 30
0.0
  0
VERTEX
  5
68344
  8
S-OBRYS
  6
CONTINUOUS
 10
20570.974579867299
 20
404724.01140173338
 30
0.0
  0
VERTEX
  5
68345
  8
S-OBRYS
  6
CONTINUOUS
 10
20570.974579867299
 20
404718.59143543342
 30
0.0
  0
VERTEX
  5
68346
  8
S-OBRYS
  6
CONTINUOUS
 10
20572.600573567299
 20
404714.79685323348
 30
0.0
  0
VERTEX
  5
68347
  8
S-OBRYS
  6
CONTINUOUS
 10
20575.311159967299
 20
404712.08625413338
 30
0.0
  0
VERTEX
  5
68348
  8
S-OBRYS
  6
CONTINUOUS
 10
20575.311159967299
 20
404707.75028363342
 30
0.0
  0
VERTEX
  5
68349
  8
S-OBRYS
  6
CONTINUOUS
 10
20579.105742167299
 20
404706.66508133331
 30
0.0
  0
VERTEX
  5
6834A
  8
S-OBRYS
  6
CONTINUOUS
 10
20579.105742167299
 20
404691.48673983337
 30
0.0
  0
VERTEX
  5
6834B
  8
S-OBRYS
  6
CONTINUOUS
 10
20576.395155767299
 20
404687.69336413348
 30
0.0
  0
SEQEND
  5
6834C
  8
S-OBRYS
  6
CONTINUOUS
  0
POLYLINE
  5
67452
  8
S-OBRYS
  6
CONTINUOUS
 66
     1
 10
0.0
 20
0.0
 30
0.0
 70
     1
  0
VERTEX
  5
6834D
  8
S-OBRYS
  6
CONTINUOUS
 10
20395.253112667298
 20
404959.80127813329
 30
0.0
  0
VERTEX
  5
6834E
  8
S-OBRYS
  6
CONTINUOUS
 10
20395.253112667298
 20
404934.8015821334
 30
0.0
  0
VERTEX
  5
6834F
  8
S-OBRYS
  6
CONTINUOUS
 10
20270.253476967311
 20
404934.8015821334
 30
0.0
  0
VERTEX
  5
68350
  8
S-OBRYS
  6
CONTINUOUS
 10
20270.253476967311
 20
404959.80127813329
 30
0.0
  0
VERTEX
  5
68351
  8
S-OBRYS
  6
CONTINUOUS
 10
20395.253112667298
 20
404959.80127813329
 30
0.0
  0
SEQEND
  5
68352
  8
S-OBRYS
  6
CONTINUOUS
  0
LINE
  5
67453
  8
S-OBRYS
  6
CONTINUOUS
 10
20366.253429367309
 20
404959.80127813329
 30
0.0
 11
20366.253429367309
 21
404984.80216793338
 31
0.0
  0
LINE
  5
67454
  8
S-OBRYS
  6
CONTINUOUS
 10
20570.253334167301
 20
404934.8015821334
 30
0.0
 11
20520.253357967322
 21
404934.8015821334
 31
0.0
  0
LINE
  5
67455
  8
S-OBRYS
  6
CONTINUOUS
 10
20570.253334167301
 20
404984.80216793338
 30
0.0
 11
20570.253334167301
 21
404959.80127813329
 31
0.0
  0
LINE
  5
67456
  8
S-OBRYS
  6
CONTINUOUS
 10
20722.253262767299
 20
404909.80189883342
 30
0.0
 11
20722.253262767299
 21
404984.80216793338
 31
0.0
  0
POLYLINE
  5
67457
  8
S-OBRYS
  6
CONTINUOUS
 66
     1
 10
0.0
 20
0.0
 30
0.0
  0
VERTEX
  5
68353
  8
S-OBRYS
  6
CONTINUOUS
 10
20722.253262767299
 20
404909.80189883342
 30
0.0
  0
VERTEX
  5
68354
  8
S-OBRYS
  6
CONTINUOUS
 10
20722.755531067301
 20
404905.6064157334
 30
0.0
  0
VERTEX
  5
68355
  8
S-OBRYS
  6
CONTINUOUS
 10
20725.465520567301
 20
404902.8958293334
 30
0.0
  0
VERTEX
  5
68356
  8
S-OBRYS
  6
CONTINUOUS
 10
20729.802100667301
 20
404899.10245363339
 30
0.0
  0
VERTEX
  5
68357
  8
S-OBRYS
  6
CONTINUOUS
 10
20730.886693367309
 20
404894.76527663338
 30
0.0
  0
VERTEX
  5
68358
  8
S-OBRYS
  6
CONTINUOUS
 10
20729.802100667301
 20
404889.3452976335
 30
0.0
  0
VERTEX
  5
68359
  8
S-OBRYS
  6
CONTINUOUS
 10
20727.092111167301
 20
404882.8389098334
 30
0.0
  0
VERTEX
  5
6835A
  8
S-OBRYS
  6
CONTINUOUS
 10
20727.092111167301
 20
404878.5029393335
 30
0.0
  0
VERTEX
  5
6835B
  8
S-OBRYS
  6
CONTINUOUS
 10
20722.755531067301
 20
404874.70835713338
 30
0.0
  0
VERTEX
  5
6835C
  8
S-OBRYS
  6
CONTINUOUS
 10
20721.670925667309
 20
404870.37116743339
 30
0.0
  0
VERTEX
  5
6835D
  8
S-OBRYS
  6
CONTINUOUS
 10
20718.960948867301
 20
404866.57779173338
 30
0.0
  0
VERTEX
  5
6835E
  8
S-OBRYS
  6
CONTINUOUS
 10
20716.250349767299
 20
404862.24182123342
 30
0.0
  0
VERTEX
  5
6835F
  8
S-OBRYS
  6
CONTINUOUS
 10
20713.539763367309
 20
404856.82063573343
 30
0.0
  0
VERTEX
  5
68360
  8
S-OBRYS
  6
CONTINUOUS
 10
20711.913769667299
 20
404854.11004933342
 30
0.0
  0
VERTEX
  5
68361
  8
S-OBRYS
  6
CONTINUOUS
 10
20711.913769667299
 20
404848.68886383338
 30
0.0
  0
VERTEX
  5
68362
  8
S-OBRYS
  6
CONTINUOUS
 10
20713.539763367309
 20
404845.97827743337
 30
0.0
  0
VERTEX
  5
68363
  8
S-OBRYS
  6
CONTINUOUS
 10
20717.334345567298
 20
404840.55709193338
 30
0.0
  0
VERTEX
  5
68364
  8
S-OBRYS
  6
CONTINUOUS
 10
20718.960948867301
 20
404837.84772473341
 30
0.0
  0
VERTEX
  5
68365
  8
S-OBRYS
  6
CONTINUOUS
 10
20721.670925667309
 20
404834.05312983342
 30
0.0
  0
VERTEX
  5
68366
  8
S-OBRYS
  6
CONTINUOUS
 10
20721.670925667309
 20
404829.71715933341
 30
0.0
  0
VERTEX
  5
68367
  8
S-OBRYS
  6
CONTINUOUS
 10
20718.960948867301
 20
404825.92135793337
 30
0.0
  0
VERTEX
  5
68368
  8
S-OBRYS
  6
CONTINUOUS
 10
20718.960948867301
 20
404821.58538743341
 30
0.0
  0
VERTEX
  5
68369
  8
S-OBRYS
  6
CONTINUOUS
 10
20717.334345567298
 20
404817.79080523341
 30
0.0
  0
VERTEX
  5
6836A
  8
S-OBRYS
  6
CONTINUOUS
 10
20716.250349767299
 20
404813.45361553342
 30
0.0
  0
VERTEX
  5
6836B
  8
S-OBRYS
  6
CONTINUOUS
 10
20713.539763367309
 20
404809.66023983341
 30
0.0
  0
VERTEX
  5
6836C
  8
S-OBRYS
  6
CONTINUOUS
 10
20711.913769667299
 20
404805.3230501333
 30
0.0
  0
VERTEX
  5
6836D
  8
S-OBRYS
  6
CONTINUOUS
 10
20711.913769667299
 20
404791.77131193352
 30
0.0
  0
VERTEX
  5
6836E
  8
S-OBRYS
  6
CONTINUOUS
 10
20713.539763367309
 20
404787.9767297334
 30
0.0
  0
VERTEX
  5
6836F
  8
S-OBRYS
  6
CONTINUOUS
 10
20716.250349767299
 20
404785.2661433334
 30
0.0
  0
VERTEX
  5
68370
  8
S-OBRYS
  6
CONTINUOUS
 10
20718.960948867301
 20
404780.92895363341
 30
0.0
  0
VERTEX
  5
68371
  8
S-OBRYS
  6
CONTINUOUS
 10
20722.755531067301
 20
404779.8461770335
 30
0.0
  0
VERTEX
  5
68372
  8
S-OBRYS
  6
CONTINUOUS
 10
20725.465520567301
 20
404775.50898733339
 30
0.0
  0
VERTEX
  5
68373
  8
S-OBRYS
  6
CONTINUOUS
 10
20725.465520567301
 20
404759.2466500334
 30
0.0
  0
VERTEX
  5
68374
  8
S-OBRYS
  6
CONTINUOUS
 10
20722.755531067301
 20
404756.53606363339
 30
0.0
  0
VERTEX
  5
68375
  8
S-OBRYS
  6
CONTINUOUS
 10
20721.670925667309
 20
404752.7426879335
 30
0.0
  0
VERTEX
  5
68376
  8
S-OBRYS
  6
CONTINUOUS
 10
20718.960948867301
 20
404748.40549823339
 30
0.0
  0
VERTEX
  5
68377
  8
S-OBRYS
  6
CONTINUOUS
 10
20718.960948867301
 20
404742.98432543338
 30
0.0
  0
VERTEX
  5
68378
  8
S-OBRYS
  6
CONTINUOUS
 10
20717.334345567298
 20
404740.27494553349
 30
0.0
  0
VERTEX
  5
68379
  8
S-OBRYS
  6
CONTINUOUS
 10
20717.334345567298
 20
404734.85376003338
 30
0.0
  0
VERTEX
  5
6837A
  8
S-OBRYS
  6
CONTINUOUS
 10
20718.960948867301
 20
404732.14317363338
 30
0.0
  0
VERTEX
  5
6837B
  8
S-OBRYS
  6
CONTINUOUS
 10
20718.960948867301
 20
404726.7219881335
 30
0.0
  0
VERTEX
  5
6837C
  8
S-OBRYS
  6
CONTINUOUS
 10
20721.670925667309
 20
404724.01140173338
 30
0.0
  0
VERTEX
  5
6837D
  8
S-OBRYS
  6
CONTINUOUS
 10
20722.755531067301
 20
404720.21802603343
 30
0.0
  0
VERTEX
  5
6837E
  8
S-OBRYS
  6
CONTINUOUS
 10
20725.465520567301
 20
404718.59143543342
 30
0.0
  0
VERTEX
  5
6837F
  8
S-OBRYS
  6
CONTINUOUS
 10
20727.092111167301
 20
404715.88083633338
 30
0.0
  0
VERTEX
  5
68380
  8
S-OBRYS
  6
CONTINUOUS
 10
20727.092111167301
 20
404710.46087003342
 30
0.0
  0
VERTEX
  5
68381
  8
S-OBRYS
  6
CONTINUOUS
 10
20725.465520567301
 20
404706.66508133331
 30
0.0
  0
VERTEX
  5
68382
  8
S-OBRYS
  6
CONTINUOUS
 10
20725.465520567301
 20
404702.32909813349
 30
0.0
  0
VERTEX
  5
68383
  8
S-OBRYS
  6
CONTINUOUS
 10
20722.755531067301
 20
404699.61851173342
 30
0.0
  0
VERTEX
  5
68384
  8
S-OBRYS
  6
CONTINUOUS
 10
20722.755531067301
 20
404694.19732623338
 30
0.0
  0
VERTEX
  5
68385
  8
S-OBRYS
  6
CONTINUOUS
 10
20721.670925667309
 20
404690.40395053342
 30
0.0
  0
VERTEX
  5
68386
  8
S-OBRYS
  6
CONTINUOUS
 10
20721.670925667309
 20
404686.06677353341
 30
0.0
  0
SEQEND
  5
68387
  8
S-OBRYS
  6
CONTINUOUS
  0
LINE
  5
67458
  8
S-OBRYS
  6
CONTINUOUS
 10
20589.003398267301
 20
404759.80137333338
 30
0.0
 11
20726.503478867311
 21
404759.80137333338
 31
0.0
  0
LINE
  5
67459
  8
S-OBRYS
  6
CONTINUOUS
 10
17178.94051302447
 20
404869.93893873342
 30
0.0
 11
17414.295579524482
 21
404634.5838722334
 31
0.0
  0
LINE
  5
6745A
  8
S-OBRYS
  6
CONTINUOUS
 10
17199.650250624469
 20
404919.93951183348
 30
0.0
 11
17464.295555724471
 21
404655.29481633339
 31
0.0
  0
LINE
  5
6745B
  8
S-OBRYS
  6
CONTINUOUS
 10
17364.29560332447
 20
404469.94033563352
 30
0.0
 11
16854.295536524471
 21
404469.94033563352
 31
0.0
  0
LINE
  5
6745C
  8
S-OBRYS
  6
CONTINUOUS
 10
17364.29560332447
 20
404094.9390028335
 30
0.0
 11
16614.295350724471
 21
404094.9390028335
 31
0.0
  0
LINE
  5
6745D
  8
S-OBRYS
  6
CONTINUOUS
 10
16914.295512724471
 20
404269.9392243335
 30
0.0
 11
17364.29560332447
 21
404269.9392243335
 31
0.0
  0
LINE
  5
6745E
  8
S-OBRYS
  6
CONTINUOUS
 10
17314.295322324469
 20
404369.93917673349
 30
0.0
 11
17039.295453224469
 21
404369.93917673349
 31
0.0
  0
LINE
  5
6745F
  8
S-OBRYS
  6
CONTINUOUS
 10
17254.292506915379
 20
403844.92448844388
 30
0.0
 11
17389.29559142447
 21
403844.93971873343
 31
0.0
  0
POLYLINE
  5
67460
  8
S-OBRYS
  6
CONTINUOUS
 66
     1
 10
0.0
 20
0.0
 30
0.0
 70
     1
  0
VERTEX
  5
68388
  8
S-OBRYS
  6
CONTINUOUS
 10
17414.295579524471
 20
403519.93958133348
 30
0.0
  0
VERTEX
  5
68389
  8
S-OBRYS
  6
CONTINUOUS
 10
17414.295579524471
 20
403569.93955753348
 30
0.0
  0
VERTEX
  5
6838A
  8
S-OBRYS
  6
CONTINUOUS
 10
17264.295453224469
 20
403569.93955753348
 30
0.0
  0
VERTEX
  5
6838B
  8
S-OBRYS
  6
CONTINUOUS
 10
17264.295453224469
 20
403519.93958133348
 30
0.0
  0
VERTEX
  5
6838C
  8
S-OBRYS
  6
CONTINUOUS
 10
17414.295579524471
 20
403519.93958133348
 30
0.0
  0
SEQEND
  5
6838D
  8
S-OBRYS
  6
CONTINUOUS
  0
LINE
  5
67461
  8
S-OBRYS
  6
CONTINUOUS
 10
17289.295441324459
 20
404019.93873373338
 30
0.0
 11
17239.295465124462
 21
403769.93946233339
 31
0.0
  0
LINE
  5
67462
  8
S-OBRYS
  6
CONTINUOUS
 10
17264.295453224469
 20
403894.93909803341
 30
0.0
 11
17389.29559142447
 21
403894.93909803341
 31
0.0
  0
LINE
  5
67463
  8
S-OBRYS
  6
CONTINUOUS
 10
17264.295453224469
 20
403769.93946233339
 30
0.0
 11
17414.295579524482
 21
403769.93946233339
 31
0.0
  0
LINE
  5
67464
  8
S-OBRYS
  6
CONTINUOUS
 10
17414.295579524482
 20
403719.9394861334
 30
0.0
 11
17264.295453224469
 21
403769.93946233339
 31
0.0
  0
LINE
  5
67465
  8
S-OBRYS
  6
CONTINUOUS
 10
17303.499293624471
 20
403782.88016543339
 30
0.0
 11
17351.795450524471
 21
403769.93946233339
 31
0.0
  0
LINE
  5
67466
  8
S-OBRYS
  6
CONTINUOUS
 10
17400.091924924469
 20
403808.7621812335
 30
0.0
 11
17303.499293624471
 21
403782.88016543339
 31
0.0
  0
LINE
  5
67467
  8
S-OBRYS
  6
CONTINUOUS
 10
17303.499293624471
 20
403834.64420973341
 30
0.0
 11
17400.091924924469
 21
403808.7621812335
 31
0.0
  0
LINE
  5
67468
  8
S-OBRYS
  6
CONTINUOUS
 10
17364.29560332447
 20
403844.93971873343
 30
0.0
 11
17303.499293624471
 21
403834.64420973341
 31
0.0
  0
LINE
  5
67469
  8
S-OBRYS
  6
CONTINUOUS
 10
17389.29559142447
 20
404069.93931953341
 30
0.0
 11
16589.295667424471
 21
404069.93931953341
 31
0.0
  0
LINE
  5
6746A
  8
S-OBRYS
  6
CONTINUOUS
 10
17389.29559142447
 20
404019.93873373338
 30
0.0
 11
16589.295667424471
 21
404019.93873373338
 31
0.0
  0
POLYLINE
  5
6746B
  8
S-OBRYS
  6
CONTINUOUS
 66
     1
 10
0.0
 20
0.0
 30
0.0
 70
     1
  0
VERTEX
  5
6838E
  8
S-OBRYS
  6
CONTINUOUS
 10
16654.295326924472
 20
404694.93871723348
 30
0.0
  0
VERTEX
  5
6838F
  8
S-OBRYS
  6
CONTINUOUS
 10
16654.295326924472
 20
404444.9394331334
 30
0.0
  0
VERTEX
  5
68390
  8
S-OBRYS
  6
CONTINUOUS
 10
16854.295536524471
 20
404444.9394331334
 30
0.0
  0
VERTEX
  5
68391
  8
S-OBRYS
  6
CONTINUOUS
 10
16854.295536524471
 20
404694.93871723348
 30
0.0
  0
VERTEX
  5
68392
  8
S-OBRYS
  6
CONTINUOUS
 10
16654.295326924472
 20
404694.93871723348
 30
0.0
  0
SEQEND
  5
68393
  8
S-OBRYS
  6
CONTINUOUS
  0
POLYLINE
  5
6746C
  8
S-OBRYS
  6
CONTINUOUS
 66
     1
 10
0.0
 20
0.0
 30
0.0
  0
VERTEX
  5
68394
  8
S-OBRYS
  6
CONTINUOUS
 10
16864.842081024472
 20
404719.77731373347
 30
0.0
  0
VERTEX
  5
68395
  8
S-OBRYS
  6
CONTINUOUS
 10
16868.64272112447
 20
404715.9766736335
 30
0.0
  0
VERTEX
  5
68396
  8
S-OBRYS
  6
CONTINUOUS
 10
16870.271737424471
 20
404713.26123583352
 30
0.0
  0
VERTEX
  5
68397
  8
S-OBRYS
  6
CONTINUOUS
 10
16872.986565624469
 20
404711.63342603343
 30
0.0
  0
VERTEX
  5
68398
  8
S-OBRYS
  6
CONTINUOUS
 10
16874.07237752447
 20
404707.83157943352
 30
0.0
  0
VERTEX
  5
68399
  8
S-OBRYS
  6
CONTINUOUS
 10
16875.701393824471
 20
404705.11736083339
 30
0.0
  0
VERTEX
  5
6839A
  8
S-OBRYS
  6
CONTINUOUS
 10
16875.701393824471
 20
404700.77411323349
 30
0.0
  0
VERTEX
  5
6839B
  8
S-OBRYS
  6
CONTINUOUS
 10
16872.986565624469
 20
404696.97226663347
 30
0.0
  0
VERTEX
  5
6839C
  8
S-OBRYS
  6
CONTINUOUS
 10
16870.271737424471
 20
404695.34323763341
 30
0.0
  0
VERTEX
  5
6839D
  8
S-OBRYS
  6
CONTINUOUS
 10
16868.64272112447
 20
404691.54259753349
 30
0.0
  0
VERTEX
  5
6839E
  8
S-OBRYS
  6
CONTINUOUS
 10
16868.64272112447
 20
404687.19936263352
 30
0.0
  0
VERTEX
  5
6839F
  8
S-OBRYS
  6
CONTINUOUS
 10
16870.271737424471
 20
404684.48392483348
 30
0.0
  0
VERTEX
  5
683A0
  8
S-OBRYS
  6
CONTINUOUS
 10
16870.271737424471
 20
404679.05426843348
 30
0.0
  0
VERTEX
  5
683A1
  8
S-OBRYS
  6
CONTINUOUS
 10
16872.986565624469
 20
404676.34003713349
 30
0.0
  0
VERTEX
  5
683A2
  8
S-OBRYS
  6
CONTINUOUS
 10
16874.07237752447
 20
404672.5393970334
 30
0.0
  0
VERTEX
  5
683A3
  8
S-OBRYS
  6
CONTINUOUS
 10
16875.701393824471
 20
404668.19494293351
 30
0.0
  0
VERTEX
  5
683A4
  8
S-OBRYS
  6
CONTINUOUS
 10
16875.701393824471
 20
404662.76528653351
 30
0.0
  0
VERTEX
  5
683A5
  8
S-OBRYS
  6
CONTINUOUS
 10
16874.07237752447
 20
404656.24922133348
 30
0.0
  0
VERTEX
  5
683A6
  8
S-OBRYS
  6
CONTINUOUS
 10
16874.07237752447
 20
404651.90597373352
 30
0.0
  0
VERTEX
  5
683A7
  8
S-OBRYS
  6
CONTINUOUS
 10
16870.271737424471
 20
404650.8195522335
 30
0.0
  0
VERTEX
  5
683A8
  8
S-OBRYS
  6
CONTINUOUS
 10
16870.271737424471
 20
404646.47631733352
 30
0.0
  0
VERTEX
  5
683A9
  8
S-OBRYS
  6
CONTINUOUS
 10
16868.64272112447
 20
404642.67445803352
 30
0.0
  0
VERTEX
  5
683AA
  8
S-OBRYS
  6
CONTINUOUS
 10
16870.271737424471
 20
404638.33122313349
 30
0.0
  0
VERTEX
  5
683AB
  8
S-OBRYS
  6
CONTINUOUS
 10
16870.271737424471
 20
404627.4718976334
 30
0.0
  0
VERTEX
  5
683AC
  8
S-OBRYS
  6
CONTINUOUS
 10
16872.986565624469
 20
404623.67125753348
 30
0.0
  0
VERTEX
  5
683AD
  8
S-OBRYS
  6
CONTINUOUS
 10
16874.07237752447
 20
404618.24160113349
 30
0.0
  0
VERTEX
  5
683AE
  8
S-OBRYS
  6
CONTINUOUS
 10
16878.416222024469
 20
404613.89714703348
 30
0.0
  0
VERTEX
  5
683AF
  8
S-OBRYS
  6
CONTINUOUS
 10
16878.416222024469
 20
404603.03783423349
 30
0.0
  0
VERTEX
  5
683B0
  8
S-OBRYS
  6
CONTINUOUS
 10
16874.07237752447
 20
404601.9526319335
 30
0.0
  0
VERTEX
  5
683B1
  8
S-OBRYS
  6
CONTINUOUS
 10
16874.07237752447
 20
404585.66244353348
 30
0.0
  0
VERTEX
  5
683B2
  8
S-OBRYS
  6
CONTINUOUS
 10
16875.701393824471
 20
404581.31919593352
 30
0.0
  0
VERTEX
  5
683B3
  8
S-OBRYS
  6
CONTINUOUS
 10
16878.416222024469
 20
404578.60375813348
 30
0.0
  0
VERTEX
  5
683B4
  8
S-OBRYS
  6
CONTINUOUS
 10
16878.416222024469
 20
404573.17530823348
 30
0.0
  0
VERTEX
  5
683B5
  8
S-OBRYS
  6
CONTINUOUS
 10
16882.216862124471
 20
404569.3746681335
 30
0.0
  0
VERTEX
  5
683B6
  8
S-OBRYS
  6
CONTINUOUS
 10
16882.216862124471
 20
404558.51535533351
 30
0.0
  0
VERTEX
  5
683B7
  8
S-OBRYS
  6
CONTINUOUS
 10
16879.502033924469
 20
404556.88511983352
 30
0.0
  0
VERTEX
  5
683B8
  8
S-OBRYS
  6
CONTINUOUS
 10
16878.416222024469
 20
404553.08447973349
 30
0.0
  0
VERTEX
  5
683B9
  8
S-OBRYS
  6
CONTINUOUS
 10
16874.07237752447
 20
404550.37026113347
 30
0.0
  0
VERTEX
  5
683BA
  8
S-OBRYS
  6
CONTINUOUS
 10
16874.07237752447
 20
404546.02580703353
 30
0.0
  0
VERTEX
  5
683BB
  8
S-OBRYS
  6
CONTINUOUS
 10
16872.986565624469
 20
404542.22516693349
 30
0.0
  0
VERTEX
  5
683BC
  8
S-OBRYS
  6
CONTINUOUS
 10
16874.07237752447
 20
404537.88191933342
 30
0.0
  0
VERTEX
  5
683BD
  8
S-OBRYS
  6
CONTINUOUS
 10
16875.701393824471
 20
404534.08127923351
 30
0.0
  0
VERTEX
  5
683BE
  8
S-OBRYS
  6
CONTINUOUS
 10
16878.416222024469
 20
404532.45226293348
 30
0.0
  0
VERTEX
  5
683BF
  8
S-OBRYS
  6
CONTINUOUS
 10
16879.502033924469
 20
404528.65041633352
 30
0.0
  0
VERTEX
  5
683C0
  8
S-OBRYS
  6
CONTINUOUS
 10
16883.845878424469
 20
404528.65041633352
 30
0.0
  0
VERTEX
  5
683C1
  8
S-OBRYS
  6
CONTINUOUS
 10
16883.845878424469
 20
404524.3071687335
 30
0.0
  0
VERTEX
  5
683C2
  8
S-OBRYS
  6
CONTINUOUS
 10
16886.56070662447
 20
404520.50652863341
 30
0.0
  0
VERTEX
  5
683C3
  8
S-OBRYS
  6
CONTINUOUS
 10
16887.646518524471
 20
404516.16329373349
 30
0.0
  0
VERTEX
  5
683C4
  8
S-OBRYS
  6
CONTINUOUS
 10
16886.56070662447
 20
404512.36265363352
 30
0.0
  0
VERTEX
  5
683C5
  8
S-OBRYS
  6
CONTINUOUS
 10
16883.845878424469
 20
404508.0181995334
 30
0.0
  0
VERTEX
  5
683C6
  8
S-OBRYS
  6
CONTINUOUS
 10
16882.216862124471
 20
404504.21755943348
 30
0.0
  0
VERTEX
  5
683C7
  8
S-OBRYS
  6
CONTINUOUS
 10
16879.502033924469
 20
404501.50332813349
 30
0.0
  0
VERTEX
  5
683C8
  8
S-OBRYS
  6
CONTINUOUS
 10
16878.416222024469
 20
404496.0724652335
 30
0.0
  0
VERTEX
  5
683C9
  8
S-OBRYS
  6
CONTINUOUS
 10
16875.701393824471
 20
404493.35823393351
 30
0.0
  0
VERTEX
  5
683CA
  8
S-OBRYS
  6
CONTINUOUS
 10
16875.701393824471
 20
404483.5853299335
 30
0.0
  0
VERTEX
  5
683CB
  8
S-OBRYS
  6
CONTINUOUS
 10
16878.416222024469
 20
404479.78468983353
 30
0.0
  0
VERTEX
  5
683CC
  8
S-OBRYS
  6
CONTINUOUS
 10
16878.416222024469
 20
404475.44023573352
 30
0.0
  0
VERTEX
  5
683CD
  8
S-OBRYS
  6
CONTINUOUS
 10
16879.502033924469
 20
404471.6383891335
 30
0.0
  0
SEQEND
  5
683CE
  8
S-OBRYS
  6
CONTINUOUS
  0
POLYLINE
  5
6746D
  8
S-OBRYS
  6
CONTINUOUS
 66
     1
 10
0.0
 20
0.0
 30
0.0
  0
VERTEX
  5
683CF
  8
S-OBRYS
  6
CONTINUOUS
 10
17112.979786424468
 20
404719.77731373347
 30
0.0
  0
VERTEX
  5
683D0
  8
S-OBRYS
  6
CONTINUOUS
 10
17115.69461462447
 20
404715.9766736335
 30
0.0
  0
VERTEX
  5
683D1
  8
S-OBRYS
  6
CONTINUOUS
 10
17117.323630924471
 20
404713.26123583352
 30
0.0
  0
VERTEX
  5
683D2
  8
S-OBRYS
  6
CONTINUOUS
 10
17121.12457582447
 20
404711.63342603343
 30
0.0
  0
VERTEX
  5
683D3
  8
S-OBRYS
  6
CONTINUOUS
 10
17121.12457582447
 20
404705.11736083339
 30
0.0
  0
VERTEX
  5
683D4
  8
S-OBRYS
  6
CONTINUOUS
 10
17115.69461462447
 20
404703.48833183339
 30
0.0
  0
VERTEX
  5
683D5
  8
S-OBRYS
  6
CONTINUOUS
 10
17112.979786424468
 20
404700.77411323349
 30
0.0
  0
VERTEX
  5
683D6
  8
S-OBRYS
  6
CONTINUOUS
 10
17112.979786424468
 20
404683.39872253349
 30
0.0
  0
VERTEX
  5
683D7
  8
S-OBRYS
  6
CONTINUOUS
 10
17115.69461462447
 20
404679.05426843348
 30
0.0
  0
VERTEX
  5
683D8
  8
S-OBRYS
  6
CONTINUOUS
 10
17117.323630924471
 20
404672.5393970334
 30
0.0
  0
VERTEX
  5
683D9
  8
S-OBRYS
  6
CONTINUOUS
 10
17117.323630924471
 20
404668.19494293351
 30
0.0
  0
VERTEX
  5
683DA
  8
S-OBRYS
  6
CONTINUOUS
 10
17120.038459124469
 20
404664.39430283342
 30
0.0
  0
VERTEX
  5
683DB
  8
S-OBRYS
  6
CONTINUOUS
 10
17121.12457582447
 20
404660.04986143339
 30
0.0
  0
VERTEX
  5
683DC
  8
S-OBRYS
  6
CONTINUOUS
 10
17120.038459124469
 20
404656.24922133348
 30
0.0
  0
VERTEX
  5
683DD
  8
S-OBRYS
  6
CONTINUOUS
 10
17120.038459124469
 20
404651.90597373352
 30
0.0
  0
VERTEX
  5
683DE
  8
S-OBRYS
  6
CONTINUOUS
 10
17117.323630924471
 20
404648.10533363349
 30
0.0
  0
VERTEX
  5
683DF
  8
S-OBRYS
  6
CONTINUOUS
 10
17112.979786424468
 20
404643.76208603341
 30
0.0
  0
VERTEX
  5
683E0
  8
S-OBRYS
  6
CONTINUOUS
 10
17111.893974524472
 20
404639.96023943339
 30
0.0
  0
VERTEX
  5
683E1
  8
S-OBRYS
  6
CONTINUOUS
 10
17107.550130024469
 20
404638.33122313349
 30
0.0
  0
VERTEX
  5
683E2
  8
S-OBRYS
  6
CONTINUOUS
 10
17107.550130024469
 20
404631.81514523347
 30
0.0
  0
VERTEX
  5
683E3
  8
S-OBRYS
  6
CONTINUOUS
 10
17110.26495822447
 20
404627.4718976334
 30
0.0
  0
VERTEX
  5
683E4
  8
S-OBRYS
  6
CONTINUOUS
 10
17112.979786424468
 20
404623.67125753348
 30
0.0
  0
VERTEX
  5
683E5
  8
S-OBRYS
  6
CONTINUOUS
 10
17112.979786424468
 20
404619.32802263362
 30
0.0
  0
VERTEX
  5
683E6
  8
S-OBRYS
  6
CONTINUOUS
 10
17115.69461462447
 20
404615.52738253342
 30
0.0
  0
VERTEX
  5
683E7
  8
S-OBRYS
  6
CONTINUOUS
 10
17117.323630924471
 20
404611.18292843353
 30
0.0
  0
VERTEX
  5
683E8
  8
S-OBRYS
  6
CONTINUOUS
 10
17121.12457582447
 20
404610.09650693351
 30
0.0
  0
VERTEX
  5
683E9
  8
S-OBRYS
  6
CONTINUOUS
 10
17121.12457582447
 20
404594.8939465335
 30
0.0
  0
VERTEX
  5
683EA
  8
S-OBRYS
  6
CONTINUOUS
 10
17117.323630924471
 20
404593.80874423339
 30
0.0
  0
VERTEX
  5
683EB
  8
S-OBRYS
  6
CONTINUOUS
 10
17115.69461462447
 20
404591.09330643353
 30
0.0
  0
VERTEX
  5
683EC
  8
S-OBRYS
  6
CONTINUOUS
 10
17112.979786424468
 20
404589.4642901335
 30
0.0
  0
VERTEX
  5
683ED
  8
S-OBRYS
  6
CONTINUOUS
 10
17110.26495822447
 20
404585.66244353348
 30
0.0
  0
VERTEX
  5
683EE
  8
S-OBRYS
  6
CONTINUOUS
 10
17110.26495822447
 20
404581.31919593352
 30
0.0
  0
VERTEX
  5
683EF
  8
S-OBRYS
  6
CONTINUOUS
 10
17111.893974524472
 20
404577.51855583349
 30
0.0
  0
VERTEX
  5
683F0
  8
S-OBRYS
  6
CONTINUOUS
 10
17112.979786424468
 20
404570.45988313342
 30
0.0
  0
VERTEX
  5
683F1
  8
S-OBRYS
  6
CONTINUOUS
 10
17117.323630924471
 20
404569.3746681335
 30
0.0
  0
VERTEX
  5
683F2
  8
S-OBRYS
  6
CONTINUOUS
 10
17120.038459124469
 20
404566.6592430335
 30
0.0
  0
VERTEX
  5
683F3
  8
S-OBRYS
  6
CONTINUOUS
 10
17123.839404024471
 20
404565.0302140335
 30
0.0
  0
VERTEX
  5
683F4
  8
S-OBRYS
  6
CONTINUOUS
 10
17125.468128224471
 20
404558.51535533351
 30
0.0
  0
VERTEX
  5
683F5
  8
S-OBRYS
  6
CONTINUOUS
 10
17125.468128224471
 20
404554.1709012335
 30
0.0
  0
VERTEX
  5
683F6
  8
S-OBRYS
  6
CONTINUOUS
 10
17123.839404024471
 20
404550.37026113347
 30
0.0
  0
VERTEX
  5
683F7
  8
S-OBRYS
  6
CONTINUOUS
 10
17121.12457582447
 20
404548.74124483339
 30
0.0
  0
VERTEX
  5
683F8
  8
S-OBRYS
  6
CONTINUOUS
 10
17117.323630924471
 20
404544.94060473342
 30
0.0
  0
VERTEX
  5
683F9
  8
S-OBRYS
  6
CONTINUOUS
 10
17115.69461462447
 20
404542.22516693349
 30
0.0
  0
VERTEX
  5
683FA
  8
S-OBRYS
  6
CONTINUOUS
 10
17110.26495822447
 20
404542.22516693349
 30
0.0
  0
VERTEX
  5
683FB
  8
S-OBRYS
  6
CONTINUOUS
 10
17107.550130024469
 20
404540.59735713352
 30
0.0
  0
VERTEX
  5
683FC
  8
S-OBRYS
  6
CONTINUOUS
 10
17106.464318124468
 20
404536.79671703337
 30
0.0
  0
VERTEX
  5
683FD
  8
S-OBRYS
  6
CONTINUOUS
 10
17102.120473624469
 20
404534.08127923351
 30
0.0
  0
VERTEX
  5
683FE
  8
S-OBRYS
  6
CONTINUOUS
 10
17099.405645424471
 20
404532.45226293348
 30
0.0
  0
VERTEX
  5
683FF
  8
S-OBRYS
  6
CONTINUOUS
 10
17099.405645424471
 20
404525.93618503353
 30
0.0
  0
VERTEX
  5
68400
  8
S-OBRYS
  6
CONTINUOUS
 10
17102.120473624469
 20
404524.3071687335
 30
0.0
  0
VERTEX
  5
68401
  8
S-OBRYS
  6
CONTINUOUS
 10
17103.749489924481
 20
404520.50652863341
 30
0.0
  0
VERTEX
  5
68402
  8
S-OBRYS
  6
CONTINUOUS
 10
17106.464318124468
 20
404517.79109083349
 30
0.0
  0
VERTEX
  5
68403
  8
S-OBRYS
  6
CONTINUOUS
 10
17110.26495822447
 20
404516.16329373349
 30
0.0
  0
VERTEX
  5
68404
  8
S-OBRYS
  6
CONTINUOUS
 10
17112.979786424468
 20
404512.36265363352
 30
0.0
  0
VERTEX
  5
68405
  8
S-OBRYS
  6
CONTINUOUS
 10
17117.323630924471
 20
404509.64721583342
 30
0.0
  0
VERTEX
  5
68406
  8
S-OBRYS
  6
CONTINUOUS
 10
17121.12457582447
 20
404508.0181995334
 30
0.0
  0
VERTEX
  5
68407
  8
S-OBRYS
  6
CONTINUOUS
 10
17121.12457582447
 20
404501.50332813349
 30
0.0
  0
VERTEX
  5
68408
  8
S-OBRYS
  6
CONTINUOUS
 10
17123.839404024471
 20
404499.87310533348
 30
0.0
  0
VERTEX
  5
68409
  8
S-OBRYS
  6
CONTINUOUS
 10
17121.12457582447
 20
404497.15887403348
 30
0.0
  0
VERTEX
  5
6840A
  8
S-OBRYS
  6
CONTINUOUS
 10
17120.038459124469
 20
404493.35823393351
 30
0.0
  0
VERTEX
  5
6840B
  8
S-OBRYS
  6
CONTINUOUS
 10
17115.69461462447
 20
404493.35823393351
 30
0.0
  0
VERTEX
  5
6840C
  8
S-OBRYS
  6
CONTINUOUS
 10
17112.979786424468
 20
404491.72921763349
 30
0.0
  0
VERTEX
  5
6840D
  8
S-OBRYS
  6
CONTINUOUS
 10
17112.979786424468
 20
404485.21313973347
 30
0.0
  0
VERTEX
  5
6840E
  8
S-OBRYS
  6
CONTINUOUS
 10
17117.323630924471
 20
404485.21313973347
 30
0.0
  0
VERTEX
  5
6840F
  8
S-OBRYS
  6
CONTINUOUS
 10
17117.323630924471
 20
404480.8699048335
 30
0.0
  0
VERTEX
  5
68410
  8
S-OBRYS
  6
CONTINUOUS
 10
17120.038459124469
 20
404477.06926473352
 30
0.0
  0
VERTEX
  5
68411
  8
S-OBRYS
  6
CONTINUOUS
 10
17117.323630924471
 20
404475.44023573352
 30
0.0
  0
VERTEX
  5
68412
  8
S-OBRYS
  6
CONTINUOUS
 10
17117.323630924471
 20
404468.92417053343
 30
0.0
  0
SEQEND
  5
68413
  8
S-OBRYS
  6
CONTINUOUS
  0
LINE
  5
6746E
  8
S-OBRYS
  6
CONTINUOUS
 10
16564.29537452447
 20
403457.43975713348
 30
0.0
 11
16564.29537452447
 21
404634.5838722334
 31
0.0
  0
LINE
  5
6746F
  8
S-OBRYS
  6
CONTINUOUS
 10
16514.29539832447
 20
403457.43975713348
 30
0.0
 11
16514.29539832447
 21
404655.29481633339
 31
0.0
  0
LINE
  5
67470
  8
S-OBRYS
  6
CONTINUOUS
 10
16989.295477024469
 20
405169.93953373347
 30
0.0
 11
16989.295477024469
 21
403444.93931223347
 31
0.0
  0
LINE
  5
67471
  8
S-OBRYS
  6
CONTINUOUS
 10
17214.295477024469
 20
405169.93953373347
 30
0.0
 11
17214.295477024469
 21
403444.93931223347
 31
0.0
  0
LINE
  5
67472
  8
S-OBRYS
  6
CONTINUOUS
 10
16614.295350724471
 20
404469.94033563352
 30
0.0
 11
16664.295326924472
 21
404469.94033563352
 31
0.0
  0
LINE
  5
67473
  8
S-OBRYS
  6
CONTINUOUS
 10
16614.295350724471
 20
404444.9394331334
 30
0.0
 11
16664.295326924472
 21
404444.9394331334
 31
0.0
  0
LINE
  5
67474
  8
S-OBRYS
  6
CONTINUOUS
 10
16700.190670424468
 20
403789.35081543348
 30
0.0
 11
16627.745958824471
 21
403769.93946233339
 31
0.0
  0
LINE
  5
67475
  8
S-OBRYS
  6
CONTINUOUS
 10
16589.295667424471
 20
403844.93971873343
 30
0.0
 11
16889.295524624471
 21
403844.93971873343
 31
0.0
  0
LINE
  5
67476
  8
S-OBRYS
  6
CONTINUOUS
 10
16589.295667424471
 20
403894.93909803341
 30
0.0
 11
16889.295524624471
 21
403894.93909803341
 31
0.0
  0
POLYLINE
  5
67477
  8
S-OBRYS
  6
CONTINUOUS
 66
     1
 10
0.0
 20
0.0
 30
0.0
 70
     1
  0
VERTEX
  5
68414
  8
S-OBRYS
  6
CONTINUOUS
 10
17164.295500824472
 20
403569.93955753348
 30
0.0
  0
VERTEX
  5
68415
  8
S-OBRYS
  6
CONTINUOUS
 10
17164.295500824472
 20
403519.93958133348
 30
0.0
  0
VERTEX
  5
68416
  8
S-OBRYS
  6
CONTINUOUS
 10
16564.29537452447
 20
403519.93958133348
 30
0.0
  0
VERTEX
  5
68417
  8
S-OBRYS
  6
CONTINUOUS
 10
16564.29537452447
 20
403569.93955753348
 30
0.0
  0
VERTEX
  5
68418
  8
S-OBRYS
  6
CONTINUOUS
 10
17164.295500824472
 20
403569.93955753348
 30
0.0
  0
SEQEND
  5
68419
  8
S-OBRYS
  6
CONTINUOUS
  0
LINE
  5
67478
  8
S-OBRYS
  6
CONTINUOUS
 10
16689.295619824468
 20
403769.93946233339
 30
0.0
 11
16564.29537452447
 21
403769.93946233339
 31
0.0
  0
LINE
  5
67479
  8
S-OBRYS
  6
CONTINUOUS
 10
16564.29537452447
 20
403719.9394861334
 30
0.0
 11
16689.295619824468
 21
403769.93946233339
 31
0.0
  0
LINE
  5
6747A
  8
S-OBRYS
  6
CONTINUOUS
 10
16603.597721624468
 20
403815.23284393339
 30
0.0
 11
16700.190670424468
 21
403789.35081543348
 31
0.0
  0
LINE
  5
6747B
  8
S-OBRYS
  6
CONTINUOUS
 10
16700.190670424468
 20
403841.1148597335
 30
0.0
 11
16603.597721624468
 21
403815.23284393339
 31
0.0
  0
LINE
  5
6747C
  8
S-OBRYS
  6
CONTINUOUS
 10
16589.295667424471
 20
404094.9390028335
 30
0.0
 11
16589.295667424471
 21
403844.93971873343
 31
0.0
  0
LINE
  5
6747D
  8
S-OBRYS
  6
CONTINUOUS
 10
16576.79552732447
 20
403444.93931223347
 30
0.0
 11
16501.795563024469
 21
403444.93931223347
 31
0.0
  0
LINE
  5
6747E
  8
S-OBRYS
  6
CONTINUOUS
 10
16576.79552732447
 20
403457.43975713348
 30
0.0
 11
16501.795563024469
 21
403457.43975713348
 31
0.0
  0
LINE
  5
6747F
  8
S-OBRYS
  6
CONTINUOUS
 10
16501.795563024469
 20
403457.43975713348
 30
0.0
 11
16501.795563024469
 21
403444.93931223347
 31
0.0
  0
LINE
  5
67480
  8
S-OBRYS
  6
CONTINUOUS
 10
16576.79552732447
 20
403457.43975713348
 30
0.0
 11
16576.79552732447
 21
403444.93931223347
 31
0.0
  0
LINE
  5
67481
  8
S-OBRYS
  6
CONTINUOUS
 10
16614.295350724471
 20
404094.9390028335
 30
0.0
 11
16614.295350724471
 21
404469.94033563352
 31
0.0
  0
LINE
  5
67482
  8
S-OBRYS
  6
CONTINUOUS
 10
16614.295350724471
 20
404119.93989263353
 30
0.0
 11
16589.295667424471
 21
404094.9390028335
 31
0.0
  0
LINE
  5
67483
  8
S-OBRYS
  6
CONTINUOUS
 10
17214.295477024469
 20
403444.93931223347
 30
0.0
 11
17214.295477024469
 21
404069.93931953341
 31
0.0
  0
POLYLINE
  5
67484
  8
S-OBRYS
  6
CONTINUOUS
 66
     1
 10
0.0
 20
0.0
 30
0.0
 70
     1
  0
VERTEX
  5
6841A
  8
S-OBRYS
  6
CONTINUOUS
 10
17089.29542942447
 20
403919.93998783338
 30
0.0
  0
VERTEX
  5
6841B
  8
S-OBRYS
  6
CONTINUOUS
 10
17085.888121024469
 20
403932.88009403337
 30
0.0
  0
VERTEX
  5
6841C
  8
S-OBRYS
  6
CONTINUOUS
 10
17075.898110524471
 20
403944.93846463342
 30
0.0
  0
VERTEX
  5
6841D
  8
S-OBRYS
  6
CONTINUOUS
 10
17060.00609252448
 20
403955.2939430335
 30
0.0
  0
VERTEX
  5
6841E
  8
S-OBRYS
  6
CONTINUOUS
 10
17039.295453224469
 20
403963.24039653351
 30
0.0
  0
VERTEX
  5
6841F
  8
S-OBRYS
  6
CONTINUOUS
 10
17015.17749282447
 20
403968.23646223341
 30
0.0
  0
VERTEX
  5
68420
  8
S-OBRYS
  6
CONTINUOUS
 10
16989.295477024469
 20
403969.93936713348
 30
0.0
  0
VERTEX
  5
68421
  8
S-OBRYS
  6
CONTINUOUS
 10
16963.413461224471
 20
403968.23646223341
 30
0.0
  0
VERTEX
  5
68422
  8
S-OBRYS
  6
CONTINUOUS
 10
16939.295500824472
 20
403963.24039653351
 30
0.0
  0
VERTEX
  5
68423
  8
S-OBRYS
  6
CONTINUOUS
 10
16918.584861524469
 20
403955.2939430335
 30
0.0
  0
VERTEX
  5
68424
  8
S-OBRYS
  6
CONTINUOUS
 10
16902.692843524481
 20
403944.93846463342
 30
0.0
  0
VERTEX
  5
68425
  8
S-OBRYS
  6
CONTINUOUS
 10
16892.703137824468
 20
403932.88009403337
 30
0.0
  0
VERTEX
  5
68426
  8
S-OBRYS
  6
CONTINUOUS
 10
16889.295524624471
 20
403919.93998783338
 30
0.0
  0
VERTEX
  5
68427
  8
S-OBRYS
  6
CONTINUOUS
 10
16892.703137824468
 20
403906.99867513351
 30
0.0
  0
VERTEX
  5
68428
  8
S-OBRYS
  6
CONTINUOUS
 10
16902.692843524481
 20
403894.93909803341
 30
0.0
  0
VERTEX
  5
68429
  8
S-OBRYS
  6
CONTINUOUS
 10
16918.584861524469
 20
403884.5836196334
 30
0.0
  0
VERTEX
  5
6842A
  8
S-OBRYS
  6
CONTINUOUS
 10
16939.295500824472
 20
403876.63837263349
 30
0.0
  0
VERTEX
  5
6842B
  8
S-OBRYS
  6
CONTINUOUS
 10
16963.413461224471
 20
403871.6435261335
 30
0.0
  0
VERTEX
  5
6842C
  8
S-OBRYS
  6
CONTINUOUS
 10
16989.295477024469
 20
403869.9394147335
 30
0.0
  0
VERTEX
  5
6842D
  8
S-OBRYS
  6
CONTINUOUS
 10
17015.17749282447
 20
403871.6435261335
 30
0.0
  0
VERTEX
  5
6842E
  8
S-OBRYS
  6
CONTINUOUS
 10
17039.295453224469
 20
403876.63837263349
 30
0.0
  0
VERTEX
  5
6842F
  8
S-OBRYS
  6
CONTINUOUS
 10
17060.00609252448
 20
403884.5836196334
 30
0.0
  0
VERTEX
  5
68430
  8
S-OBRYS
  6
CONTINUOUS
 10
17075.898110524471
 20
403894.93909803341
 30
0.0
  0
VERTEX
  5
68431
  8
S-OBRYS
  6
CONTINUOUS
 10
17085.888121024469
 20
403906.99867513351
 30
0.0
  0
VERTEX
  5
68432
  8
S-OBRYS
  6
CONTINUOUS
 10
17089.29542942447
 20
403919.93998783338
 30
0.0
  0
SEQEND
  5
68433
  8
S-OBRYS
  6
CONTINUOUS
  0
LINE
  5
67485
  8
S-OBRYS
  6
CONTINUOUS
 10
16889.295524624471
 20
403719.9394861334
 30
0.0
 11
16889.295524624471
 21
403919.93998783338
 31
0.0
  0
LINE
  5
67486
  8
S-OBRYS
  6
CONTINUOUS
 10
17089.29542942447
 20
403919.93998783338
 30
0.0
 11
17089.29542942447
 21
403719.9394861334
 31
0.0
  0
LINE
  5
67487
  8
S-OBRYS
  6
CONTINUOUS
 10
17189.295488924468
 20
403769.93946233339
 30
0.0
 11
17139.29551272446
 21
404019.93873373338
 31
0.0
  0
ARC
  5
67488
  8
S-OBRYS
  6
CONTINUOUS
 10
16989.295477024469
 20
403794.93974253349
 30
0.0
 40
124.999940373
 50
216.86990400102781
 51
323.13000500088589
  0
ARC
  5
67489
  8
S-OBRYS
  6
CONTINUOUS
 10
16989.295477024469
 20
403844.93912183348
 30
0.0
 40
124.999940373
 50
216.86990400102781
 51
323.13021899950053
  0
ARC
  5
6748A
  8
S-OBRYS
  6
CONTINUOUS
 10
16989.295477024469
 20
403919.93998783338
 30
0.0
 40
124.999940373
 50
216.86990400102781
 51
323.13000500088589
  0
ARC
  5
6748B
  8
S-OBRYS
  6
CONTINUOUS
 10
16989.295477024469
 20
403944.93846463342
 30
0.0
 40
124.999940373
 50
216.86990400102781
 51
323.13021899950053
  0
ARC
  5
6748C
  8
S-OBRYS
  6
CONTINUOUS
 10
16989.295477024469
 20
403869.9394147335
 30
0.0
 40
124.999940373
 50
216.86990400102781
 51
323.13021899950053
  0
LINE
  5
6748D
  8
S-OBRYS
  6
CONTINUOUS
 10
16664.295326924472
 20
403844.93971873343
 30
0.0
 11
16700.190670424468
 21
403841.1148597335
 31
0.0
  0
POLYLINE
  5
6748E
  8
S-OBRYS
  6
CONTINUOUS
 66
     1
 10
0.0
 20
0.0
 30
0.0
 70
     1
  0
VERTEX
  5
68434
  8
S-OBRYS
  6
CONTINUOUS
 10
17164.295500824472
 20
403494.93928843341
 30
0.0
  0
VERTEX
  5
68435
  8
S-OBRYS
  6
CONTINUOUS
 10
17164.295500824472
 20
403769.93946233339
 30
0.0
  0
VERTEX
  5
68436
  8
S-OBRYS
  6
CONTINUOUS
 10
17264.295453224469
 20
403769.93946233339
 30
0.0
  0
VERTEX
  5
68437
  8
S-OBRYS
  6
CONTINUOUS
 10
17264.295453224469
 20
403494.93928843341
 30
0.0
  0
VERTEX
  5
68438
  8
S-OBRYS
  6
CONTINUOUS
 10
17164.295500824472
 20
403494.93928843341
 30
0.0
  0
SEQEND
  5
68439
  8
S-OBRYS
  6
CONTINUOUS
  0
LINE
  5
6748F
  8
S-OBRYS
  6
CONTINUOUS
 10
17164.295500824472
 20
403519.93958133348
 30
0.0
 11
17264.295453224469
 21
403519.93958133348
 31
0.0
  0
LINE
  5
67490
  8
S-OBRYS
  6
CONTINUOUS
 10
17089.29542942447
 20
403844.93971873343
 30
0.0
 11
17174.295401068241
 21
403844.93971873343
 31
0.0
  0
LINE
  5
67491
  8
S-OBRYS
  6
CONTINUOUS
 10
17264.295453224469
 20
403569.93955753348
 30
0.0
 11
17164.295500824472
 21
403569.93955753348
 31
0.0
  0
LINE
  5
67492
  8
S-OBRYS
  6
CONTINUOUS
 10
17164.295500824472
 20
403869.9394147335
 30
0.0
 11
17264.295453224469
 21
403869.9394147335
 31
0.0
  0
LINE
  5
67493
  8
S-OBRYS
  6
CONTINUOUS
 10
16883.045295824471
 20
404569.93908153352
 30
0.0
 11
17114.29541752447
 21
404569.93908153352
 31
0.0
  0
LINE
  5
67494
  8
S-OBRYS
  6
CONTINUOUS
 10
17114.29541752447
 20
404544.93938553339
 30
0.0
 11
16876.795676624472
 21
404544.93938553339
 31
0.0
  0
LINE
  5
67495
  8
S-OBRYS
  6
CONTINUOUS
 10
16889.295524624471
 20
404519.93970223347
 30
0.0
 11
17101.795569524471
 21
404519.93970223347
 31
0.0
  0
LINE
  5
67496
  8
S-OBRYS
  6
CONTINUOUS
 10
17120.54534152447
 20
404494.93881243351
 30
0.0
 11
16876.795676624472
 21
404494.93881243351
 31
0.0
  0
LINE
  5
67497
  8
S-OBRYS
  6
CONTINUOUS
 10
17114.29541752447
 20
403919.93998783338
 30
0.0
 11
16864.295536524471
 21
403919.93998783338
 31
0.0
  0
LINE
  5
67498
  8
S-OBRYS
  6
CONTINUOUS
 10
16854.295536524471
 20
404469.94033563352
 30
0.0
 11
16654.295326924472
 21
404469.94033563352
 31
0.0
  0
LINE
  5
67499
  8
S-OBRYS
  6
CONTINUOUS
 10
16914.295512724471
 20
404444.9394331334
 30
0.0
 11
16914.295512724471
 21
404269.9392243335
 31
0.0
  0
LINE
  5
6749A
  8
S-OBRYS
  6
CONTINUOUS
 10
16854.295536524471
 20
404444.9394331334
 30
0.0
 11
16914.295512724471
 21
404444.9394331334
 31
0.0
  0
LINE
  5
6749B
  8
S-OBRYS
  6
CONTINUOUS
 10
17089.29542942447
 20
403894.93909803341
 30
0.0
 11
17164.295500824472
 21
403894.93909803341
 31
0.0
  0
LINE
  5
6749C
  8
S-OBRYS
  6
CONTINUOUS
 10
17264.295453224469
 20
403882.43985963351
 30
0.0
 11
17164.295500824472
 21
403882.43985963351
 31
0.0
  0
POLYLINE
  5
6749D
  8
S-OBRYS
  6
CONTINUOUS
 66
     1
 10
0.0
 20
0.0
 30
0.0
 70
     1
  0
VERTEX
  5
6843A
  8
S-OBRYS
  6
CONTINUOUS
 10
17239.295358024468
 20
404369.93917673349
 30
0.0
  0
VERTEX
  5
6843B
  8
S-OBRYS
  6
CONTINUOUS
 10
17236.739800524469
 20
404382.8792702335
 30
0.0
  0
VERTEX
  5
6843C
  8
S-OBRYS
  6
CONTINUOUS
 10
17229.247219624471
 20
404394.93886003341
 30
0.0
  0
VERTEX
  5
6843D
  8
S-OBRYS
  6
CONTINUOUS
 10
17217.32843472447
 20
404405.2943257335
 30
0.0
  0
VERTEX
  5
6843E
  8
S-OBRYS
  6
CONTINUOUS
 10
17201.795521924469
 20
404413.24079193349
 30
0.0
  0
VERTEX
  5
6843F
  8
S-OBRYS
  6
CONTINUOUS
 10
17183.70675952447
 20
404418.23563843349
 30
0.0
  0
VERTEX
  5
68440
  8
S-OBRYS
  6
CONTINUOUS
 10
17164.295393724471
 20
404419.9385433335
 30
0.0
  0
VERTEX
  5
68441
  8
S-OBRYS
  6
CONTINUOUS
 10
17144.884027924469
 20
404418.23563843349
 30
0.0
  0
VERTEX
  5
68442
  8
S-OBRYS
  6
CONTINUOUS
 10
17126.795557624471
 20
404413.24079193349
 30
0.0
  0
VERTEX
  5
68443
  8
S-OBRYS
  6
CONTINUOUS
 10
17111.262352724469
 20
404405.2943257335
 30
0.0
  0
VERTEX
  5
68444
  8
S-OBRYS
  6
CONTINUOUS
 10
17099.343567824471
 20
404394.93886003341
 30
0.0
  0
VERTEX
  5
68445
  8
S-OBRYS
  6
CONTINUOUS
 10
17091.85098692447
 20
404382.8792702335
 30
0.0
  0
VERTEX
  5
68446
  8
S-OBRYS
  6
CONTINUOUS
 10
17089.29542942447
 20
404369.93917673349
 30
0.0
  0
VERTEX
  5
68447
  8
S-OBRYS
  6
CONTINUOUS
 10
17091.85098692447
 20
404356.99907053349
 30
0.0
  0
VERTEX
  5
68448
  8
S-OBRYS
  6
CONTINUOUS
 10
17099.343567824471
 20
404344.93827423349
 30
0.0
  0
VERTEX
  5
68449
  8
S-OBRYS
  6
CONTINUOUS
 10
17111.262352724469
 20
404334.5840150335
 30
0.0
  0
VERTEX
  5
6844A
  8
S-OBRYS
  6
CONTINUOUS
 10
17126.795557624471
 20
404326.6375488335
 30
0.0
  0
VERTEX
  5
6844B
  8
S-OBRYS
  6
CONTINUOUS
 10
17144.884027924469
 20
404321.64270233351
 30
0.0
  0
VERTEX
  5
6844C
  8
S-OBRYS
  6
CONTINUOUS
 10
17164.295393724471
 20
404319.9397974335
 30
0.0
  0
VERTEX
  5
6844D
  8
S-OBRYS
  6
CONTINUOUS
 10
17183.70675952447
 20
404321.64270233351
 30
0.0
  0
VERTEX
  5
6844E
  8
S-OBRYS
  6
CONTINUOUS
 10
17201.795229824471
 20
404326.6375488335
 30
0.0
  0
VERTEX
  5
6844F
  8
S-OBRYS
  6
CONTINUOUS
 10
17217.32843472447
 20
404334.5840150335
 30
0.0
  0
VERTEX
  5
68450
  8
S-OBRYS
  6
CONTINUOUS
 10
17229.247219624471
 20
404344.93827423349
 30
0.0
  0
VERTEX
  5
68451
  8
S-OBRYS
  6
CONTINUOUS
 10
17236.739800524469
 20
404356.99907053349
 30
0.0
  0
VERTEX
  5
68452
  8
S-OBRYS
  6
CONTINUOUS
 10
17239.295358024468
 20
404369.93917673349
 30
0.0
  0
SEQEND
  5
68453
  8
S-OBRYS
  6
CONTINUOUS
  0
POLYLINE
  5
6749E
  8
S-OBRYS
  6
CONTINUOUS
 66
     1
 10
0.0
 20
0.0
 30
0.0
 70
     1
  0
VERTEX
  5
68454
  8
S-OBRYS
  6
CONTINUOUS
 10
17214.295369924472
 20
404369.93917673349
 30
0.0
  0
VERTEX
  5
68455
  8
S-OBRYS
  6
CONTINUOUS
 10
17212.591563324469
 20
404376.40921713348
 30
0.0
  0
VERTEX
  5
68456
  8
S-OBRYS
  6
CONTINUOUS
 10
17207.596716824472
 20
404382.43841513339
 30
0.0
  0
VERTEX
  5
68457
  8
S-OBRYS
  6
CONTINUOUS
 10
17199.650860224468
 20
404387.61736083339
 30
0.0
  0
VERTEX
  5
68458
  8
S-OBRYS
  6
CONTINUOUS
 10
17189.295381824471
 20
404391.58998433349
 30
0.0
  0
VERTEX
  5
68459
  8
S-OBRYS
  6
CONTINUOUS
 10
17177.236401624468
 20
404394.0874012335
 30
0.0
  0
VERTEX
  5
6845A
  8
S-OBRYS
  6
CONTINUOUS
 10
17164.295393724471
 20
404394.93886003341
 30
0.0
  0
VERTEX
  5
6845B
  8
S-OBRYS
  6
CONTINUOUS
 10
17151.35438582447
 20
404394.0874012335
 30
0.0
  0
VERTEX
  5
6845C
  8
S-OBRYS
  6
CONTINUOUS
 10
17139.295405624471
 20
404391.58998433349
 30
0.0
  0
VERTEX
  5
6845D
  8
S-OBRYS
  6
CONTINUOUS
 10
17128.939927224481
 20
404387.61736083339
 30
0.0
  0
VERTEX
  5
6845E
  8
S-OBRYS
  6
CONTINUOUS
 10
17120.994070624471
 20
404382.43841513339
 30
0.0
  0
VERTEX
  5
6845F
  8
S-OBRYS
  6
CONTINUOUS
 10
17115.999224124469
 20
404376.40921713348
 30
0.0
  0
VERTEX
  5
68460
  8
S-OBRYS
  6
CONTINUOUS
 10
17114.29541752447
 20
404369.93917673349
 30
0.0
  0
VERTEX
  5
68461
  8
S-OBRYS
  6
CONTINUOUS
 10
17115.999224124469
 20
404363.4691236334
 30
0.0
  0
VERTEX
  5
68462
  8
S-OBRYS
  6
CONTINUOUS
 10
17120.994070624471
 20
404357.43993833341
 30
0.0
  0
VERTEX
  5
68463
  8
S-OBRYS
  6
CONTINUOUS
 10
17128.939927224481
 20
404352.26099263341
 30
0.0
  0
VERTEX
  5
68464
  8
S-OBRYS
  6
CONTINUOUS
 10
17139.295405624471
 20
404348.28835643351
 30
0.0
  0
VERTEX
  5
68465
  8
S-OBRYS
  6
CONTINUOUS
 10
17151.35438582447
 20
404345.7909395335
 30
0.0
  0
VERTEX
  5
68466
  8
S-OBRYS
  6
CONTINUOUS
 10
17164.295393724471
 20
404344.93948073348
 30
0.0
  0
VERTEX
  5
68467
  8
S-OBRYS
  6
CONTINUOUS
 10
17177.236401624468
 20
404345.7909395335
 30
0.0
  0
VERTEX
  5
68468
  8
S-OBRYS
  6
CONTINUOUS
 10
17189.295381824471
 20
404348.28835643351
 30
0.0
  0
VERTEX
  5
68469
  8
S-OBRYS
  6
CONTINUOUS
 10
17199.650860224468
 20
404352.26099263341
 30
0.0
  0
VERTEX
  5
6846A
  8
S-OBRYS
  6
CONTINUOUS
 10
17207.596716824472
 20
404357.43993833341
 30
0.0
  0
VERTEX
  5
6846B
  8
S-OBRYS
  6
CONTINUOUS
 10
17212.591563324469
 20
404363.4691236334
 30
0.0
  0
VERTEX
  5
6846C
  8
S-OBRYS
  6
CONTINUOUS
 10
17214.295369924472
 20
404369.93917673349
 30
0.0
  0
SEQEND
  5
6846D
  8
S-OBRYS
  6
CONTINUOUS
  0
LINE
  5
6749F
  8
S-OBRYS
  6
CONTINUOUS
 10
17164.295393724471
 20
404444.9394331334
 30
0.0
 11
17164.295393724471
 21
404294.93890763342
 31
0.0
  0
LINE
  5
674A0
  8
S-OBRYS
  6
CONTINUOUS
 10
16564.29537452447
 20
404634.5838722334
 30
0.0
 11
16686.17050542447
 21
404756.45869833347
 31
0.0
  0
LINE
  5
674A1
  8
S-OBRYS
  6
CONTINUOUS
 10
16514.29539832447
 20
404655.29481633339
 30
0.0
 11
16686.17050542447
 21
404827.16900903342
 31
0.0
  0
LINE
  5
674A2
  8
S-OBRYS
  6
CONTINUOUS
 10
16864.295536524471
 20
404969.9396289335
 30
0.0
 11
17114.29541752447
 21
404969.9396289335
 31
0.0
  0
LINE
  5
674A3
  8
S-OBRYS
  6
CONTINUOUS
 10
16778.940398624469
 20
404919.93951183348
 30
0.0
 11
17199.650250624469
 21
404919.93951183348
 31
0.0
  0
POLYLINE
  5
674A4
  8
S-OBRYS
  6
CONTINUOUS
 66
     1
 10
0.0
 20
0.0
 30
0.0
 70
     1
  0
VERTEX
  5
6846E
  8
S-OBRYS
  6
CONTINUOUS
 10
16864.295536524471
 20
404869.94014523341
 30
0.0
  0
VERTEX
  5
6846F
  8
S-OBRYS
  6
CONTINUOUS
 10
16864.295536524471
 20
404719.93960703351
 30
0.0
  0
VERTEX
  5
68470
  8
S-OBRYS
  6
CONTINUOUS
 10
17114.29541752447
 20
404719.93960703351
 30
0.0
  0
VERTEX
  5
68471
  8
S-OBRYS
  6
CONTINUOUS
 10
17114.29541752447
 20
404869.94014523341
 30
0.0
  0
VERTEX
  5
68472
  8
S-OBRYS
  6
CONTINUOUS
 10
16864.295536524471
 20
404869.94014523341
 30
0.0
  0
SEQEND
  5
68473
  8
S-OBRYS
  6
CONTINUOUS
  0
LINE
  5
674A5
  8
S-OBRYS
  6
CONTINUOUS
 10
17139.295405624471
 20
404819.93955943349
 30
0.0
 11
16841.085157614321
 21
404819.93955943349
 31
0.0
  0
LINE
  5
674A6
  8
S-OBRYS
  6
CONTINUOUS
 10
16839.29554842447
 20
404794.93987613352
 30
0.0
 11
17139.295405624471
 21
404794.93987613352
 31
0.0
  0
LINE
  5
674A7
  8
S-OBRYS
  6
CONTINUOUS
 10
17114.29541752447
 20
404694.93871723348
 30
0.0
 11
16870.54546052447
 21
404694.93871723348
 31
0.0
  0
LINE
  5
674A8
  8
S-OBRYS
  6
CONTINUOUS
 10
16876.795676624472
 20
404669.9402404335
 30
0.0
 11
17114.29541752447
 21
404669.9402404335
 31
0.0
  0
LINE
  5
674A9
  8
S-OBRYS
  6
CONTINUOUS
 10
17114.29541752447
 20
404644.93933793349
 30
0.0
 11
16870.54546052447
 21
404644.93933793349
 31
0.0
  0
LINE
  5
674AA
  8
S-OBRYS
  6
CONTINUOUS
 10
16876.795676624472
 20
404619.9396546334
 30
0.0
 11
17114.29541752447
 21
404619.9396546334
 31
0.0
  0
LINE
  5
674AB
  8
S-OBRYS
  6
CONTINUOUS
 10
17120.54534152447
 20
404594.93997133349
 30
0.0
 11
16876.795676624472
 21
404594.93997133349
 31
0.0
  0
POLYLINE
  5
674AC
  8
S-OBRYS
  6
CONTINUOUS
 66
     1
 10
0.0
 20
0.0
 30
0.0
 70
     1
  0
VERTEX
  5
68474
  8
S-OBRYS
  6
CONTINUOUS
 10
16864.295536524471
 20
404919.93951183348
 30
0.0
  0
VERTEX
  5
68475
  8
S-OBRYS
  6
CONTINUOUS
 10
16864.295536524471
 20
404994.93931223347
 30
0.0
  0
VERTEX
  5
68476
  8
S-OBRYS
  6
CONTINUOUS
 10
17114.29541752447
 20
404994.93931223347
 30
0.0
  0
VERTEX
  5
68477
  8
S-OBRYS
  6
CONTINUOUS
 10
17114.29541752447
 20
404919.93951183348
 30
0.0
  0
VERTEX
  5
68478
  8
S-OBRYS
  6
CONTINUOUS
 10
16864.295536524471
 20
404919.93951183348
 30
0.0
  0
SEQEND
  5
68479
  8
S-OBRYS
  6
CONTINUOUS
  0
LINE
  5
674AD
  8
S-OBRYS
  6
CONTINUOUS
 10
16754.295279324469
 20
404644.93933793349
 30
0.0
 11
16754.295279324469
 21
405169.93953373347
 31
0.0
  0
POLYLINE
  5
674AE
  8
S-OBRYS
  6
CONTINUOUS
 66
     1
 10
0.0
 20
0.0
 30
0.0
 70
     1
  0
VERTEX
  5
6847A
  8
S-OBRYS
  6
CONTINUOUS
 10
16679.295619824468
 20
404994.93931223347
 30
0.0
  0
VERTEX
  5
6847B
  8
S-OBRYS
  6
CONTINUOUS
 10
16679.295619824468
 20
404919.93951183348
 30
0.0
  0
VERTEX
  5
6847C
  8
S-OBRYS
  6
CONTINUOUS
 10
16829.29554842447
 20
404919.93951183348
 30
0.0
  0
VERTEX
  5
6847D
  8
S-OBRYS
  6
CONTINUOUS
 10
16829.29554842447
 20
404994.93931223347
 30
0.0
  0
VERTEX
  5
6847E
  8
S-OBRYS
  6
CONTINUOUS
 10
16679.295619824468
 20
404994.93931223347
 30
0.0
  0
SEQEND
  5
6847F
  8
S-OBRYS
  6
CONTINUOUS
  0
LINE
  5
674AF
  8
S-OBRYS
  6
CONTINUOUS
 10
16679.295619824468
 20
404744.93929033348
 30
0.0
 11
16829.29554842447
 21
404744.93929033348
 31
0.0
  0
LINE
  5
674B0
  8
S-OBRYS
  6
CONTINUOUS
 10
16829.29554842447
 20
404794.93987613352
 30
0.0
 11
16679.295619824468
 21
404794.93987613352
 31
0.0
  0
LINE
  5
674B1
  8
S-OBRYS
  6
CONTINUOUS
 10
16693.940129524472
 20
404844.93924273353
 30
0.0
 11
16829.29554842447
 21
404844.93924273353
 31
0.0
  0
LINE
  5
674B2
  8
S-OBRYS
  6
CONTINUOUS
 10
16829.29554842447
 20
404894.93862203351
 30
0.0
 11
16679.295619824468
 21
404894.93862203351
 31
0.0
  0
LINE
  5
674B3
  8
S-OBRYS
  6
CONTINUOUS
 10
16789.650441024471
 20
404869.93893873342
 30
0.0
 11
16823.045319624471
 21
404869.94014523341
 31
0.0
  0
LINE
  5
674B4
  8
S-OBRYS
  6
CONTINUOUS
 10
16823.045319624471
 20
404869.94014523341
 30
0.0
 11
16685.545543824472
 21
404869.94014523341
 31
0.0
  0
LINE
  5
674B5
  8
S-OBRYS
  6
CONTINUOUS
 10
16679.295619824468
 20
404819.93955943349
 30
0.0
 11
16816.795408324469
 21
404819.93955943349
 31
0.0
  0
LINE
  5
674B6
  8
S-OBRYS
  6
CONTINUOUS
 10
16829.29554842447
 20
404769.93898633349
 30
0.0
 11
16673.045391024469
 21
404769.93898633349
 31
0.0
  0
LINE
  5
674B7
  8
S-OBRYS
  6
CONTINUOUS
 10
16679.295619824468
 20
404719.93960703351
 30
0.0
 11
16829.29554842447
 21
404719.93960703351
 31
0.0
  0
POLYLINE
  5
674B8
  8
S-OBRYS
  6
CONTINUOUS
 66
     1
 10
0.0
 20
0.0
 30
0.0
  0
VERTEX
  5
68480
  8
S-OBRYS
  6
CONTINUOUS
 10
16678.99586172447
 20
404919.6863754334
 30
0.0
  0
VERTEX
  5
68481
  8
S-OBRYS
  6
CONTINUOUS
 10
16678.99586172447
 20
404916.3568799335
 30
0.0
  0
VERTEX
  5
68482
  8
S-OBRYS
  6
CONTINUOUS
 10
16681.076947224468
 20
404913.44281413348
 30
0.0
  0
VERTEX
  5
68483
  8
S-OBRYS
  6
CONTINUOUS
 10
16681.90931792447
 20
404910.11331863352
 30
0.0
  0
VERTEX
  5
68484
  8
S-OBRYS
  6
CONTINUOUS
 10
16683.15803272447
 20
404908.03133143339
 30
0.0
  0
VERTEX
  5
68485
  8
S-OBRYS
  6
CONTINUOUS
 10
16681.90931792447
 20
404905.11847213341
 30
0.0
  0
VERTEX
  5
68486
  8
S-OBRYS
  6
CONTINUOUS
 10
16681.90931792447
 20
404901.78897663351
 30
0.0
  0
VERTEX
  5
68487
  8
S-OBRYS
  6
CONTINUOUS
 10
16681.076947224468
 20
404898.87491083337
 30
0.0
  0
VERTEX
  5
68488
  8
S-OBRYS
  6
CONTINUOUS
 10
16678.99586172447
 20
404897.62740253343
 30
0.0
  0
VERTEX
  5
68489
  8
S-OBRYS
  6
CONTINUOUS
 10
16678.99586172447
 20
404885.14027993352
 30
0.0
  0
VERTEX
  5
6848A
  8
S-OBRYS
  6
CONTINUOUS
 10
16681.076947224468
 20
404882.22621413338
 30
0.0
  0
VERTEX
  5
6848B
  8
S-OBRYS
  6
CONTINUOUS
 10
16681.076947224468
 20
404878.89671863348
 30
0.0
  0
VERTEX
  5
6848C
  8
S-OBRYS
  6
CONTINUOUS
 10
16683.15803272447
 20
404876.8159379334
 30
0.0
  0
VERTEX
  5
6848D
  8
S-OBRYS
  6
CONTINUOUS
 10
16685.239118224468
 20
404873.90307863348
 30
0.0
  0
VERTEX
  5
6848E
  8
S-OBRYS
  6
CONTINUOUS
 10
16685.239118224468
 20
404848.92883343349
 30
0.0
  0
VERTEX
  5
6848F
  8
S-OBRYS
  6
CONTINUOUS
 10
16683.15803272447
 20
404847.68132513348
 30
0.0
  0
VERTEX
  5
68490
  8
S-OBRYS
  6
CONTINUOUS
 10
16681.90931792447
 20
404844.76725933352
 30
0.0
  0
VERTEX
  5
68491
  8
S-OBRYS
  6
CONTINUOUS
 10
16681.076947224468
 20
404841.43655733351
 30
0.0
  0
VERTEX
  5
68492
  8
S-OBRYS
  6
CONTINUOUS
 10
16678.99586172447
 20
404839.35577663349
 30
0.0
  0
VERTEX
  5
68493
  8
S-OBRYS
  6
CONTINUOUS
 10
16677.74714692447
 20
404836.44291733351
 30
0.0
  0
VERTEX
  5
68494
  8
S-OBRYS
  6
CONTINUOUS
 10
16675.666061424468
 20
404835.1942025334
 30
0.0
  0
VERTEX
  5
68495
  8
S-OBRYS
  6
CONTINUOUS
 10
16675.666061424468
 20
404826.86986053339
 30
0.0
  0
VERTEX
  5
68496
  8
S-OBRYS
  6
CONTINUOUS
 10
16677.74714692447
 20
404823.95700123342
 30
0.0
  0
VERTEX
  5
68497
  8
S-OBRYS
  6
CONTINUOUS
 10
16677.74714692447
 20
404820.62629923341
 30
0.0
  0
VERTEX
  5
68498
  8
S-OBRYS
  6
CONTINUOUS
 10
16678.99586172447
 20
404816.4647251335
 30
0.0
  0
VERTEX
  5
68499
  8
S-OBRYS
  6
CONTINUOUS
 10
16678.99586172447
 20
404810.22116383351
 30
0.0
  0
VERTEX
  5
6849A
  8
S-OBRYS
  6
CONTINUOUS
 10
16681.076947224468
 20
404808.13916393352
 30
0.0
  0
VERTEX
  5
6849B
  8
S-OBRYS
  6
CONTINUOUS
 10
16681.90931792447
 20
404805.22631733341
 30
0.0
  0
VERTEX
  5
6849C
  8
S-OBRYS
  6
CONTINUOUS
 10
16683.15803272447
 20
404801.89682183339
 30
0.0
  0
VERTEX
  5
6849D
  8
S-OBRYS
  6
CONTINUOUS
 10
16683.15803272447
 20
404797.73524773342
 30
0.0
  0
VERTEX
  5
6849E
  8
S-OBRYS
  6
CONTINUOUS
 10
16681.90931792447
 20
404795.65326053352
 30
0.0
  0
VERTEX
  5
6849F
  8
S-OBRYS
  6
CONTINUOUS
 10
16681.076947224468
 20
404792.74040123349
 30
0.0
  0
VERTEX
  5
684A0
  8
S-OBRYS
  6
CONTINUOUS
 10
16678.99586172447
 20
404791.49047993351
 30
0.0
  0
VERTEX
  5
684A1
  8
S-OBRYS
  6
CONTINUOUS
 10
16677.74714692447
 20
404788.57762063341
 30
0.0
  0
VERTEX
  5
684A2
  8
S-OBRYS
  6
CONTINUOUS
 10
16675.666061424468
 20
404786.4968399335
 30
0.0
  0
VERTEX
  5
684A3
  8
S-OBRYS
  6
CONTINUOUS
 10
16674.833678024472
 20
404783.16734443349
 30
0.0
  0
VERTEX
  5
684A4
  8
S-OBRYS
  6
CONTINUOUS
 10
16672.75259252447
 20
404779.00456383353
 30
0.0
  0
VERTEX
  5
684A5
  8
S-OBRYS
  6
CONTINUOUS
 10
16672.75259252447
 20
404766.51864773349
 30
0.0
  0
VERTEX
  5
684A6
  8
S-OBRYS
  6
CONTINUOUS
 10
16674.833678024472
 20
404763.60458193341
 30
0.0
  0
VERTEX
  5
684A7
  8
S-OBRYS
  6
CONTINUOUS
 10
16675.666061424468
 20
404760.27508643339
 30
0.0
  0
VERTEX
  5
684A8
  8
S-OBRYS
  6
CONTINUOUS
 10
16677.74714692447
 20
404758.19308653352
 30
0.0
  0
VERTEX
  5
684A9
  8
S-OBRYS
  6
CONTINUOUS
 10
16678.99586172447
 20
404755.28023993352
 30
0.0
  0
VERTEX
  5
684AA
  8
S-OBRYS
  6
CONTINUOUS
 10
16681.076947224468
 20
404751.95073173352
 30
0.0
  0
VERTEX
  5
684AB
  8
S-OBRYS
  6
CONTINUOUS
 10
16681.90931792447
 20
404749.03666593338
 30
0.0
  0
VERTEX
  5
684AC
  8
S-OBRYS
  6
CONTINUOUS
 10
16683.15803272447
 20
404745.70717043348
 30
0.0
  0
VERTEX
  5
684AD
  8
S-OBRYS
  6
CONTINUOUS
 10
16681.076947224468
 20
404742.79432383348
 30
0.0
  0
VERTEX
  5
684AE
  8
S-OBRYS
  6
CONTINUOUS
 10
16678.99586172447
 20
404741.5444025335
 30
0.0
  0
VERTEX
  5
684AF
  8
S-OBRYS
  6
CONTINUOUS
 10
16678.99586172447
 20
404736.5507625335
 30
0.0
  0
VERTEX
  5
684B0
  8
S-OBRYS
  6
CONTINUOUS
 10
16677.74714692447
 20
404733.22126703348
 30
0.0
  0
VERTEX
  5
684B1
  8
S-OBRYS
  6
CONTINUOUS
 10
16677.74714692447
 20
404720.73413173342
 30
0.0
  0
VERTEX
  5
684B2
  8
S-OBRYS
  6
CONTINUOUS
 10
16678.99586172447
 20
404717.82006593351
 30
0.0
  0
VERTEX
  5
684B3
  8
S-OBRYS
  6
CONTINUOUS
 10
16688.152574424468
 20
404710.32900903351
 30
0.0
  0
VERTEX
  5
684B4
  8
S-OBRYS
  6
CONTINUOUS
 10
16686.07148892447
 20
404707.41614973341
 30
0.0
  0
VERTEX
  5
684B5
  8
S-OBRYS
  6
CONTINUOUS
 10
16685.239118224468
 20
404704.08544773352
 30
0.0
  0
VERTEX
  5
684B6
  8
S-OBRYS
  6
CONTINUOUS
 10
16683.15803272447
 20
404702.00465433352
 30
0.0
  0
VERTEX
  5
684B7
  8
S-OBRYS
  6
CONTINUOUS
 10
16681.90931792447
 20
404699.09058853349
 30
0.0
  0
VERTEX
  5
684B8
  8
S-OBRYS
  6
CONTINUOUS
 10
16681.076947224468
 20
404695.76109303342
 30
0.0
  0
SEQEND
  5
684B9
  8
S-OBRYS
  6
CONTINUOUS
  0
LINE
  5
674B9
  8
S-OBRYS
  6
CONTINUOUS
 10
16768.940398624469
 20
404919.93951183348
 30
0.0
 11
16676.17050542447
 21
404826.1891786335
 31
0.0
  0
LINE
  5
674BA
  8
S-OBRYS
  6
CONTINUOUS
 10
16789.650441024471
 20
404869.93893873342
 30
0.0
 11
16676.17050542447
 21
404756.45869833347
 31
0.0
  0
LINE
  5
674BB
  8
S-OBRYS
  6
CONTINUOUS
 10
16679.295619824468
 20
404844.93924273353
 30
0.0
 11
16693.940129524472
 21
404844.93924273353
 31
0.0
  0
POLYLINE
  5
674BC
  8
S-OBRYS
  6
CONTINUOUS
 66
     1
 10
0.0
 20
0.0
 30
0.0
  0
VERTEX
  5
684BA
  8
S-OBRYS
  6
CONTINUOUS
 10
16828.83409392447
 20
404919.6863754334
 30
0.0
  0
VERTEX
  5
684BB
  8
S-OBRYS
  6
CONTINUOUS
 10
16829.666464624472
 20
404916.3568799335
 30
0.0
  0
VERTEX
  5
684BC
  8
S-OBRYS
  6
CONTINUOUS
 10
16831.747550124481
 20
404914.27609923342
 30
0.0
  0
VERTEX
  5
684BD
  8
S-OBRYS
  6
CONTINUOUS
 10
16832.99626492447
 20
404910.11331863352
 30
0.0
  0
VERTEX
  5
684BE
  8
S-OBRYS
  6
CONTINUOUS
 10
16832.99626492447
 20
404901.78897663351
 30
0.0
  0
VERTEX
  5
684BF
  8
S-OBRYS
  6
CONTINUOUS
 10
16831.747550124481
 20
404898.87491083337
 30
0.0
  0
VERTEX
  5
684C0
  8
S-OBRYS
  6
CONTINUOUS
 10
16829.666464624472
 20
404897.62740253343
 30
0.0
  0
VERTEX
  5
684C1
  8
S-OBRYS
  6
CONTINUOUS
 10
16828.83409392447
 20
404894.71333673352
 30
0.0
  0
VERTEX
  5
684C2
  8
S-OBRYS
  6
CONTINUOUS
 10
16826.753008424472
 20
404891.38263473351
 30
0.0
  0
VERTEX
  5
684C3
  8
S-OBRYS
  6
CONTINUOUS
 10
16824.671922924481
 20
404888.46977543342
 30
0.0
  0
VERTEX
  5
684C4
  8
S-OBRYS
  6
CONTINUOUS
 10
16822.590837424468
 20
404886.38899473351
 30
0.0
  0
VERTEX
  5
684C5
  8
S-OBRYS
  6
CONTINUOUS
 10
16822.590837424468
 20
404883.0594992335
 30
0.0
  0
VERTEX
  5
684C6
  8
S-OBRYS
  6
CONTINUOUS
 10
16821.342122624472
 20
404880.14543343341
 30
0.0
  0
VERTEX
  5
684C7
  8
S-OBRYS
  6
CONTINUOUS
 10
16821.342122624472
 20
404872.65315733349
 30
0.0
  0
VERTEX
  5
684C8
  8
S-OBRYS
  6
CONTINUOUS
 10
16822.590837424468
 20
404869.74029803352
 30
0.0
  0
VERTEX
  5
684C9
  8
S-OBRYS
  6
CONTINUOUS
 10
16822.590837424468
 20
404858.0852540335
 30
0.0
  0
VERTEX
  5
684CA
  8
S-OBRYS
  6
CONTINUOUS
 10
16824.671922924481
 20
404853.92367993342
 30
0.0
  0
VERTEX
  5
684CB
  8
S-OBRYS
  6
CONTINUOUS
 10
16825.504293624472
 20
404851.00961413339
 30
0.0
  0
VERTEX
  5
684CC
  8
S-OBRYS
  6
CONTINUOUS
 10
16825.504293624472
 20
404842.68647863349
 30
0.0
  0
VERTEX
  5
684CD
  8
S-OBRYS
  6
CONTINUOUS
 10
16824.671922924481
 20
404839.35577663349
 30
0.0
  0
VERTEX
  5
684CE
  8
S-OBRYS
  6
CONTINUOUS
 10
16822.590837424468
 20
404835.1942025334
 30
0.0
  0
VERTEX
  5
684CF
  8
S-OBRYS
  6
CONTINUOUS
 10
16821.342122624472
 20
404828.95064123342
 30
0.0
  0
VERTEX
  5
684D0
  8
S-OBRYS
  6
CONTINUOUS
 10
16819.26103712447
 20
404826.86986053339
 30
0.0
  0
VERTEX
  5
684D1
  8
S-OBRYS
  6
CONTINUOUS
 10
16818.428666424468
 20
404823.95700123342
 30
0.0
  0
VERTEX
  5
684D2
  8
S-OBRYS
  6
CONTINUOUS
 10
16816.347568224472
 20
404822.70707993349
 30
0.0
  0
VERTEX
  5
684D3
  8
S-OBRYS
  6
CONTINUOUS
 10
16816.347568224472
 20
404808.13916393352
 30
0.0
  0
VERTEX
  5
684D4
  8
S-OBRYS
  6
CONTINUOUS
 10
16819.26103712447
 20
404805.22631733341
 30
0.0
  0
VERTEX
  5
684D5
  8
S-OBRYS
  6
CONTINUOUS
 10
16821.342122624472
 20
404803.97760253341
 30
0.0
  0
VERTEX
  5
684D6
  8
S-OBRYS
  6
CONTINUOUS
 10
16822.590837424468
 20
404801.06353673351
 30
0.0
  0
VERTEX
  5
684D7
  8
S-OBRYS
  6
CONTINUOUS
 10
16822.590837424468
 20
404797.73524773342
 30
0.0
  0
VERTEX
  5
684D8
  8
S-OBRYS
  6
CONTINUOUS
 10
16825.504293624472
 20
404795.65326053352
 30
0.0
  0
VERTEX
  5
684D9
  8
S-OBRYS
  6
CONTINUOUS
 10
16826.753008424472
 20
404792.74040123349
 30
0.0
  0
VERTEX
  5
684DA
  8
S-OBRYS
  6
CONTINUOUS
 10
16828.83409392447
 20
404791.49047993351
 30
0.0
  0
VERTEX
  5
684DB
  8
S-OBRYS
  6
CONTINUOUS
 10
16828.83409392447
 20
404786.4968399335
 30
0.0
  0
VERTEX
  5
684DC
  8
S-OBRYS
  6
CONTINUOUS
 10
16829.666464624472
 20
404783.16734443349
 30
0.0
  0
VERTEX
  5
684DD
  8
S-OBRYS
  6
CONTINUOUS
 10
16829.666464624472
 20
404779.00456383353
 30
0.0
  0
VERTEX
  5
684DE
  8
S-OBRYS
  6
CONTINUOUS
 10
16831.747550124481
 20
404776.92378313339
 30
0.0
  0
VERTEX
  5
684DF
  8
S-OBRYS
  6
CONTINUOUS
 10
16829.666464624472
 20
404772.76100253349
 30
0.0
  0
VERTEX
  5
684E0
  8
S-OBRYS
  6
CONTINUOUS
 10
16829.666464624472
 20
404764.43786703353
 30
0.0
  0
VERTEX
  5
684E1
  8
S-OBRYS
  6
CONTINUOUS
 10
16828.83409392447
 20
404760.27508643339
 30
0.0
  0
VERTEX
  5
684E2
  8
S-OBRYS
  6
CONTINUOUS
 10
16828.83409392447
 20
404755.28023993352
 30
0.0
  0
VERTEX
  5
684E3
  8
S-OBRYS
  6
CONTINUOUS
 10
16826.753008424472
 20
404754.03152513341
 30
0.0
  0
VERTEX
  5
684E4
  8
S-OBRYS
  6
CONTINUOUS
 10
16825.504293624472
 20
404751.95073173352
 30
0.0
  0
VERTEX
  5
684E5
  8
S-OBRYS
  6
CONTINUOUS
 10
16825.504293624472
 20
404747.78917033342
 30
0.0
  0
VERTEX
  5
684E6
  8
S-OBRYS
  6
CONTINUOUS
 10
16826.753008424472
 20
404745.70717043348
 30
0.0
  0
VERTEX
  5
684E7
  8
S-OBRYS
  6
CONTINUOUS
 10
16828.83409392447
 20
404742.79432383348
 30
0.0
  0
VERTEX
  5
684E8
  8
S-OBRYS
  6
CONTINUOUS
 10
16829.666464624472
 20
404739.4636091335
 30
0.0
  0
VERTEX
  5
684E9
  8
S-OBRYS
  6
CONTINUOUS
 10
16831.747550124481
 20
404736.5507625335
 30
0.0
  0
VERTEX
  5
684EA
  8
S-OBRYS
  6
CONTINUOUS
 10
16831.747550124481
 20
404724.06484643352
 30
0.0
  0
VERTEX
  5
684EB
  8
S-OBRYS
  6
CONTINUOUS
 10
16832.99626492447
 20
404720.73413173342
 30
0.0
  0
VERTEX
  5
684EC
  8
S-OBRYS
  6
CONTINUOUS
 10
16832.99626492447
 20
404716.57257033349
 30
0.0
  0
VERTEX
  5
684ED
  8
S-OBRYS
  6
CONTINUOUS
 10
16831.747550124481
 20
404713.65850453341
 30
0.0
  0
VERTEX
  5
684EE
  8
S-OBRYS
  6
CONTINUOUS
 10
16831.747550124481
 20
404710.32900903351
 30
0.0
  0
VERTEX
  5
684EF
  8
S-OBRYS
  6
CONTINUOUS
 10
16829.666464624472
 20
404707.41614973341
 30
0.0
  0
VERTEX
  5
684F0
  8
S-OBRYS
  6
CONTINUOUS
 10
16829.666464624472
 20
404704.08544773352
 30
0.0
  0
VERTEX
  5
684F1
  8
S-OBRYS
  6
CONTINUOUS
 10
16828.83409392447
 20
404701.1713819335
 30
0.0
  0
VERTEX
  5
684F2
  8
S-OBRYS
  6
CONTINUOUS
 10
16828.83409392447
 20
404697.84309293347
 30
0.0
  0
SEQEND
  5
684F3
  8
S-OBRYS
  6
CONTINUOUS
  0
LINE
  5
674BD
  8
S-OBRYS
  6
CONTINUOUS
 10
16679.295619824468
 20
404969.9396289335
 30
0.0
 11
16829.29554842447
 21
404969.9396289335
 31
0.0
  0
LINE
  5
674BE
  8
S-OBRYS
  6
CONTINUOUS
 10
16689.295619824468
 20
404994.93931223347
 30
0.0
 11
16664.295326924472
 21
404994.93931223347
 31
0.0
  0
LINE
  5
674BF
  8
S-OBRYS
  6
CONTINUOUS
 10
16864.295536524471
 20
404994.93931223347
 30
0.0
 11
16829.29554842447
 21
404994.93931223347
 31
0.0
  0
LINE
  5
674C0
  8
S-OBRYS
  6
CONTINUOUS
 10
17142.445405624469
 20
404994.93931223347
 30
0.0
 11
17114.29541752447
 21
404994.93931223347
 31
0.0
  0
LINE
  5
674C1
  8
S-OBRYS
  6
CONTINUOUS
 10
17414.295579524482
 20
404634.5838722334
 30
0.0
 11
17414.295579524482
 21
403457.43975713348
 31
0.0
  0
LINE
  5
674C2
  8
S-OBRYS
  6
CONTINUOUS
 10
17464.295555724471
 20
404655.29481633339
 30
0.0
 11
17464.295555724471
 21
403457.43975713348
 31
0.0
  0
LINE
  5
674C3
  8
S-OBRYS
  6
CONTINUOUS
 10
17389.29559142447
 20
403844.93971873343
 30
0.0
 11
17389.29559142447
 21
404094.9390028335
 31
0.0
  0
LINE
  5
674C4
  8
S-OBRYS
  6
CONTINUOUS
 10
17476.795391024469
 20
403444.93931223347
 30
0.0
 11
17401.795426724471
 21
403444.93931223347
 31
0.0
  0
LINE
  5
674C5
  8
S-OBRYS
  6
CONTINUOUS
 10
17476.795391024469
 20
403457.43975713348
 30
0.0
 11
17401.795426724471
 21
403457.43975713348
 31
0.0
  0
LINE
  5
674C6
  8
S-OBRYS
  6
CONTINUOUS
 10
17401.795426724471
 20
403457.43975713348
 30
0.0
 11
17401.795426724471
 21
403444.93931223347
 31
0.0
  0
LINE
  5
674C7
  8
S-OBRYS
  6
CONTINUOUS
 10
17476.795391024469
 20
403457.43975713348
 30
0.0
 11
17476.795391024469
 21
403444.93931223347
 31
0.0
  0
LINE
  5
674C8
  8
S-OBRYS
  6
CONTINUOUS
 10
17364.29560332447
 20
404469.94033563352
 30
0.0
 11
17364.29560332447
 21
404094.9390028335
 31
0.0
  0
LINE
  5
674C9
  8
S-OBRYS
  6
CONTINUOUS
 10
17364.29560332447
 20
404119.93989263353
 30
0.0
 11
17389.29559142447
 21
404094.9390028335
 31
0.0
  0
LINE
  5
674CA
  8
S-OBRYS
  6
CONTINUOUS
 10
23389.421455246698
 20
405007.25655496027
 30
0.0
 11
23669.421455246698
 21
405007.25655496027
 31
0.0
  0
LINE
  5
674CB
  8
S-OBRYS
  6
CONTINUOUS
 10
23638.926504497322
 20
404967.2565714604
 30
0.0
 11
23943.798626049509
 21
403857.25649276032
 31
0.0
  0
LINE
  5
674CC
  8
S-OBRYS
  6
CONTINUOUS
 10
23419.916405996089
 20
404967.25657146028
 30
0.0
 11
23115.044284443909
 21
403857.25649276032
 31
0.0
  0
LINE
  5
674CD
  8
S-OBRYS
  6
CONTINUOUS
 10
23404.4215147467
 20
404344.75641946029
 30
0.0
 11
23654.421395746711
 21
404344.75641946029
 31
0.0
  0
LINE
  5
674CE
  8
S-OBRYS
  6
CONTINUOUS
 10
23504.421467146709
 20
404832.25633346027
 30
0.0
 11
23554.42144334671
 21
404832.25633346027
 31
0.0
  0
LINE
  5
674CF
  8
S-OBRYS
  6
CONTINUOUS
 10
19337.823459966148
 20
404053.67067639448
 30
0.0
 11
19274.862414699612
 21
404089.64842525002
 31
0.0
  0
LINE
  5
674D0
  8
S-OBRYS
  6
CONTINUOUS
 10
19274.862414699612
 20
404089.64842525002
 30
0.0
 11
19267.917598300759
 21
404075.76014714182
 31
0.0
  0
POLYLINE
  5
674D1
  8
S-OBRYS
  6
CONTINUOUS
 66
     1
 10
0.0
 20
0.0
 30
0.0
 70
     1
  0
VERTEX
  5
684F4
  8
S-OBRYS
  6
CONTINUOUS
 10
17615.368037143238
 20
399271.01626882132
 30
0.0
  0
VERTEX
  5
684F5
  8
S-OBRYS
  6
CONTINUOUS
 10
18585.368037143238
 20
399271.01626882132
 30
0.0
  0
VERTEX
  5
684F6
  8
S-OBRYS
  6
CONTINUOUS
 10
18585.368037143238
 20
399616.01610222133
 30
0.0
  0
VERTEX
  5
684F7
  8
S-OBRYS
  6
CONTINUOUS
 10
18556.226536143229
 20
399616.01610222133
 30
0.0
  0
VERTEX
  5
684F8
  8
S-OBRYS
  6
CONTINUOUS
 10
18240.368037143238
 20
400771.01616442128
 30
0.0
  0
VERTEX
  5
684F9
  8
S-OBRYS
  6
CONTINUOUS
 10
17960.368037143238
 20
400771.01616442128
 30
0.0
  0
VERTEX
  5
684FA
  8
S-OBRYS
  6
CONTINUOUS
 10
17644.50953814324
 20
399616.01610222133
 30
0.0
  0
VERTEX
  5
684FB
  8
S-OBRYS
  6
CONTINUOUS
 10
17615.368037143238
 20
399616.01610222133
 30
0.0
  0
SEQEND
  5
684FC
  8
S-OBRYS
  6
CONTINUOUS
  0
POLYLINE
  5
674D2
  8
S-OBRYS
  6
CONTINUOUS
 66
     1
 10
0.0
 20
0.0
 30
0.0
 70
     1
  0
VERTEX
  5
684FD
  8
S-OBRYS
  6
CONTINUOUS
 10
17615.368037143238
 20
399271.01626882132
 30
0.0
  0
VERTEX
  5
684FE
  8
S-OBRYS
  6
CONTINUOUS
 10
17695.368037143238
 20
399271.01626882132
 30
0.0
  0
VERTEX
  5
684FF
  8
S-OBRYS
  6
CONTINUOUS
 10
17695.368037143238
 20
399616.01610222133
 30
0.0
  0
VERTEX
  5
68500
  8
S-OBRYS
  6
CONTINUOUS
 10
17615.368037143238
 20
399616.01610222133
 30
0.0
  0
SEQEND
  5
68501
  8
S-OBRYS
  6
CONTINUOUS
  0
POLYLINE
  5
674D3
  8
S-OBRYS
  6
CONTINUOUS
 66
     1
 10
0.0
 20
0.0
 30
0.0
 70
     1
  0
VERTEX
  5
68502
  8
S-OBRYS
  6
CONTINUOUS
 10
18505.368037143238
 20
399271.01626882132
 30
0.0
  0
VERTEX
  5
68503
  8
S-OBRYS
  6
CONTINUOUS
 10
18585.368037143238
 20
399271.01626882132
 30
0.0
  0
VERTEX
  5
68504
  8
S-OBRYS
  6
CONTINUOUS
 10
18585.368037143238
 20
399616.01610222133
 30
0.0
  0
VERTEX
  5
68505
  8
S-OBRYS
  6
CONTINUOUS
 10
18505.368037143238
 20
399616.01610222133
 30
0.0
  0
SEQEND
  5
68506
  8
S-OBRYS
  6
CONTINUOUS
  0
LINE
  5
674D4
  8
S-OBRYS
  6
CONTINUOUS
 10
17668.303364403171
 20
399301.01626882132
 30
0.0
 11
17642.432709883309
 21
399301.01626882132
 31
0.0
  0
LINE
  5
674D5
  8
S-OBRYS
  6
CONTINUOUS
 10
17655.368037143238
 20
399288.08094156132
 30
0.0
 11
17655.368037143238
 21
399313.9515960812
 31
0.0
  0
CIRCLE
  5
674D6
  8
S-OBRYS
  6
CONTINUOUS
 10
17655.368037143238
 20
399301.01626882132
 30
0.0
 40
9.0
  0
LINE
  5
674D7
  8
S-OBRYS
  6
CONTINUOUS
 10
17655.368037143238
 20
399538.08094156132
 30
0.0
 11
17655.368037143238
 21
399563.9515960812
 31
0.0
  0
CIRCLE
  5
674D8
  8
S-OBRYS
  6
CONTINUOUS
 10
17655.368037143238
 20
399551.0162688212
 30
0.0
 40
9.0
  0
LINE
  5
674D9
  8
S-OBRYS
  6
CONTINUOUS
 10
17668.303364403171
 20
399551.0162688212
 30
0.0
 11
17642.432709883309
 21
399551.0162688212
 31
0.0
  0
LINE
  5
674DA
  8
S-OBRYS
  6
CONTINUOUS
 10
18545.368037143238
 20
399288.08094156132
 30
0.0
 11
18545.368037143238
 21
399313.9515960812
 31
0.0
  0
CIRCLE
  5
674DB
  8
S-OBRYS
  6
CONTINUOUS
 10
18545.368037143238
 20
399301.01626882132
 30
0.0
 40
9.0
  0
LINE
  5
674DC
  8
S-OBRYS
  6
CONTINUOUS
 10
18532.432709883309
 20
399301.01626882132
 30
0.0
 11
18558.30336440316
 21
399301.01626882132
 31
0.0
  0
LINE
  5
674DD
  8
S-OBRYS
  6
CONTINUOUS
 10
18532.432709883309
 20
399551.0162688212
 30
0.0
 11
18558.30336440316
 21
399551.0162688212
 31
0.0
  0
CIRCLE
  5
674DE
  8
S-OBRYS
  6
CONTINUOUS
 10
18545.368037143238
 20
399551.0162688212
 30
0.0
 40
9.0
  0
LINE
  5
674DF
  8
S-OBRYS
  6
CONTINUOUS
 10
18545.368037143238
 20
399538.08094156132
 30
0.0
 11
18545.368037143238
 21
399563.9515960812
 31
0.0
  0
POLYLINE
  5
674E0
  8
S-OBRYS
  6
CONTINUOUS
 66
     1
 10
0.0
 20
0.0
 30
0.0
 70
     1
  0
VERTEX
  5
68507
  8
S-OBRYS
  6
CONTINUOUS
 10
18130.368037143238
 20
400656.01610222133
 30
0.0
  0
VERTEX
  5
68508
  8
S-OBRYS
  6
CONTINUOUS
 10
18070.368037143238
 20
400656.01610222133
 30
0.0
  0
VERTEX
  5
68509
  8
S-OBRYS
  6
CONTINUOUS
 10
18070.368037143238
 20
400556.01610222121
 30
0.0
  0
VERTEX
  5
6850A
  8
S-OBRYS
  6
CONTINUOUS
 10
18130.368037143238
 20
400556.01610222121
 30
0.0
  0
SEQEND
  5
6850B
  8
S-OBRYS
  6
CONTINUOUS
  0
LINE
  5
674E1
  8
S-OBRYS
  6
CONTINUOUS
 10
23394.24977172901
 20
404084.13945276028
 30
0.0
 11
23664.593138764401
 21
404084.13945276028
 31
0.0
  0
LINE
  5
674E2
  8
S-OBRYS
  6
CONTINUOUS
 10
18100.368037143238
 20
400593.08077496127
 30
0.0
 11
18100.368037143238
 21
400618.95142948121
 31
0.0
  0
CIRCLE
  5
674E3
  8
S-OBRYS
  6
CONTINUOUS
 10
18100.368037143238
 20
400606.01610222133
 30
0.0
 40
9.0
  0
LINE
  5
674E4
  8
S-OBRYS
  6
CONTINUOUS
 10
18113.303364403171
 20
400606.01610222133
 30
0.0
 11
18087.432709883309
 21
400606.01610222133
 31
0.0
  0
CIRCLE
  5
674E5
  8
S-OBRYS
  6
CONTINUOUS
 10
18325.368246743241
 20
399240.01626882132
 30
0.0
 40
76.0
  0
LINE
  5
674E6
  8
S-OBRYS
  6
CONTINUOUS
 10
23729.421664846712
 20
403323.2019477092
 30
0.0
 11
23729.421664846712
 21
403522.24910806451
 31
0.0
  0
LINE
  5
674E7
  8
S-OBRYS
  6
CONTINUOUS
 10
18325.368246743241
 20
399322.93056918902
 30
0.0
 11
18325.368246743241
 21
399157.10196845361
 31
0.0
  0
LINE
  5
674E8
  8
S-OBRYS
  6
CONTINUOUS
 10
18242.45394637555
 20
399240.01626882132
 30
0.0
 11
18408.282547110921
 21
399240.01626882132
 31
0.0
  0
LINE
  5
674E9
  8
S-OBRYS
  6
CONTINUOUS
 10
18100.368037143238
 20
400806.31194091291
 30
0.0
 11
18100.368037143238
 21
399235.72049232968
 31
0.0
  0
DIMENSION
  5
674EA
  8
S-OBRYS
  6
CONTINUOUS
  2
*D131
 10
18958.69839055902
 20
400771.01616442128
 30
0.0
 11
18883.698390558959
 21
400021.01621662121
 31
0.0
 70
     0
 13
18585.368037143238
 23
399271.01626882132
 33
0.0
 14
18240.368037143238
 24
400771.01616442128
 34
0.0
 50
90.0
  0
DIMENSION
  5
674EB
  8
S-OBRYS
  6
CONTINUOUS
  2
*D132
 10
18585.368037143238
 20
398770.49730524991
 30
0.0
 11
18100.368037143238
 21
398770.49730524991
 31
0.0
 70
   128
 13
17615.368037143238
 23
399271.01626882132
 33
0.0
 14
18585.368037143238
 24
399271.01626882132
 34
0.0
  0
DIMENSION
  5
674EC
  8
S-OBRYS
  6
CONTINUOUS
  2
*D133
 10
17458.314423672498
 20
399551.0162688212
 30
0.0
 11
17383.314423672429
 21
399778.87341167848
 31
0.0
 70
     0
 13
17642.432709883309
 23
399301.01626882132
 33
0.0
 14
17642.432709883309
 24
399551.0162688212
 34
0.0
 50
90.0
  0
DIMENSION
  5
674ED
  8
S-OBRYS
  6
CONTINUOUS
  2
*D134
 10
17240.092800914092
 20
399301.01626882132
 30
0.0
 11
17240.09280091403
 21
398981.25436405942
 31
0.0
 70
   128
 13
17615.368037143238
 23
399271.01626882132
 33
0.0
 14
17642.432709883309
 24
399301.01626882132
 34
0.0
 50
90.0
  0
DIMENSION
  5
674EE
  8
S-OBRYS
  6
CONTINUOUS
  2
*D135
 10
18691.067395416208
 20
400656.01610222133
 30
0.0
 11
18691.06739541615
 21
400233.87324507837
 31
0.0
 70
   128
 13
18130.368037143238
 23
400556.01610222121
 33
0.0
 14
18130.368037143238
 24
400656.01610222133
 34
0.0
 50
90.0
  0
DIMENSION
  5
674EF
  8
S-OBRYS
  6
CONTINUOUS
  2
*D136
 10
18130.368037143238
 20
400892.08413527912
 30
0.0
 11
18418.22518000038
 21
400967.08413527912
 31
0.0
 70
     0
 13
18070.368037143238
 23
400656.01610222133
 33
0.0
 14
18130.368037143238
 24
400656.01610222133
 34
0.0
  0
LINE
  5
674F0
  8
S-OBRYS
  6
CONTINUOUS
 10
18100.368037143238
 20
399204.47049232962
 30
0.0
 11
18100.368037143238
 21
398957.12383301608
 31
0.0
  0
DIMENSION
  5
674F1
  8
S-OBRYS
  6
CONTINUOUS
  2
*D137
 10
16989.295477024469
 20
405209.18369228201
 30
0.0
 11
17317.15261988161
 21
405284.18369228201
 31
0.0
 70
     0
 13
16754.295279324469
 23
404994.93931223347
 33
0.0
 14
16989.295477024469
 24
404994.93931223347
 34
0.0
  0
DIMENSION
  5
674F2
  8
S-OBRYS
  6
CONTINUOUS
  2
*D138
 10
17214.295477024469
 20
403194.94627626188
 30
0.0
 11
17542.15261988161
 21
403269.94627626188
 31
0.0
 70
     0
 13
16989.295477024469
 23
403444.93931223347
 33
0.0
 14
17214.295477024469
 24
403444.93931223347
 34
0.0
  0
DIMENSION
  5
674F3
  8
S-OBRYS
  6
CONTINUOUS
  2
*D139
 10
17923.880777670602
 20
403444.93931223347
 30
0.0
 11
17923.880777670529
 21
404056.83403615549
 31
0.0
 70
   128
 13
17139.295405624471
 23
404994.93931223347
 33
0.0
 14
17476.795391024469
 24
403444.93931223347
 34
0.0
 50
90.0
  0
DIMENSION
  5
674F4
  8
S-OBRYS
  6
CONTINUOUS
  2
*D140
 10
17729.0776421788
 20
404655.29481633339
 30
0.0
 11
17654.077642178741
 21
404787.61716408352
 31
0.0
 70
     0
  1
265
 13
17202.80025062447
 23
404919.93951183348
 33
0.0
 14
17464.295555724471
 24
404655.29481633339
 34
0.0
 50
90.0
  0
DIMENSION
  5
674F5
  8
S-OBRYS
  6
CONTINUOUS
  2
*D141
 10
17729.0776421788
 20
403444.93931223347
 30
0.0
 11
17654.077642178741
 21
404050.1170642834
 31
0.0
 70
     0
  1
1210
 13
17464.295555724471
 23
404655.29481633339
 33
0.0
 14
17479.945391024481
 24
403444.93931223347
 34
0.0
 50
90.0
  0
LINE
  5
674F6
  8
S-OBRYS
  6
CONTINUOUS
 10
16864.295536524471
 20
404869.94014523341
 30
0.0
 11
16823.045319624471
 21
404869.94014523341
 31
0.0
  0
LINE
  5
674F7
  8
S-OBRYS
  6
CONTINUOUS
 10
16823.045319624471
 20
404869.94014523341
 30
0.0
 11
17178.94051302447
 21
404869.93893873342
 31
0.0
  0
DIMENSION
  5
674F8
  8
S-OBRYS
  6
CONTINUOUS
  2
*D142
 10
23669.421455246698
 20
405239.77927096171
 30
0.0
 11
23529.421455246698
 21
405314.77927096171
 31
0.0
 70
     0
 13
23389.421455246698
 23
405007.25655496027
 33
0.0
 14
23669.421455246698
 24
405007.25655496027
 34
0.0
  0
DIMENSION
  5
674F9
  8
S-OBRYS
  6
CONTINUOUS
  2
*D143
 10
22879.798564570581
 20
403507.25665936031
 30
0.0
 11
22804.798564570508
 21
404257.25660716032
 31
0.0
 70
     0
 13
23389.421455246698
 23
405007.25655496027
 33
0.0
 14
23044.421455246698
 24
403507.25665936031
 34
0.0
 50
90.0
  0
DIMENSION
  5
674FA
  8
S-OBRYS
  6
CONTINUOUS
  2
*D144
 10
24014.421455246698
 20
403057.46680694621
 30
0.0
 11
23529.421455246698
 21
403132.46680694621
 31
0.0
 70
     0
 13
23044.421455246698
 23
403507.25665936031
 33
0.0
 14
24014.421455246698
 24
403507.25665936031
 34
0.0
  0
DIMENSION
  5
674FB
  8
S-OBRYS
  6
CONTINUOUS
  2
*D145
 10
20722.253262767299
 20
405267.5875280943
 30
0.0
 11
21086.300881814921
 21
405342.58752809418
 31
0.0
 70
     0
  1
%%c<>
 13
20570.253334167301
 23
404984.80216793338
 33
0.0
 14
20722.253262767299
 24
404984.80216793338
 34
0.0
  0
DIMENSION
  5
674FC
  8
S-OBRYS
  6
CONTINUOUS
  2
*D146
 10
20116.252938767309
 20
405161.5228070856
 30
0.0
 11
19852.205319719691
 21
405236.5228070856
 31
0.0
 70
     0
  1
%%c<>
 13
20366.253429367309
 23
404984.80216793349
 33
0.0
 14
20116.252938767309
 24
404984.80216793338
 34
0.0
  0
DIMENSION
  5
674FD
  8
S-OBRYS
  6
CONTINUOUS
  2
*D147
 10
20645.252993667302
 20
405479.71697011159
 30
0.0
 11
20443.25308886731
 21
405554.71697011159
 31
0.0
 70
     0
 13
20241.253184067311
 23
405031.37920206349
 33
0.0
 14
20645.252993667302
 24
405031.37920206349
 34
0.0
  0
DIMENSION
  5
674FE
  8
S-OBRYS
  6
CONTINUOUS
  2
*D148
 10
21045.2534128673
 20
403252.7273483242
 30
0.0
 11
21373.110555724441
 21
403327.7273483242
 31
0.0
 70
     0
 13
20845.253508067301
 23
403434.80169923347
 33
0.0
 14
21045.2534128673
 24
403709.8018731334
 34
0.0
  0
DIMENSION
  5
674FF
  8
S-OBRYS
  6
CONTINUOUS
  2
*D149
 10
20545.2533460673
 20
403252.7273483242
 30
0.0
 11
20695.253427067299
 21
403327.7273483242
 31
0.0
 70
     0
 13
20845.253508067301
 23
403431.65169923328
 33
0.0
 14
20545.2533460673
 24
403434.80169923347
 34
0.0
  0
DIMENSION
  5
67500
  8
S-OBRYS
  6
CONTINUOUS
  2
*D150
 10
19290.04068276472
 20
403049.78884518793
 30
0.0
 11
20167.647047816012
 21
403049.78884518793
 31
0.0
 70
   128
  1
1780
 13
21045.2534128673
 23
403709.8018731334
 33
0.0
 14
19290.04068276472
 24
403941.6368175394
 34
0.0
  0
LINE
  5
67501
  8
S-OBRYS
  6
CONTINUOUS
 10
19465.253053167289
 20
403431.65169923339
 30
0.0
 11
19490.253053167289
 21
403431.65169923339
 31
0.0
  0
DIMENSION
  5
67502
  8
S-OBRYS
  6
CONTINUOUS
  2
*D151
 10
20545.2533460673
 20
403252.7273483242
 30
0.0
 11
20017.753199617298
 21
403327.7273483242
 31
0.0
 70
     0
 13
19490.253053167289
 23
403431.65169923339
 33
0.0
 14
20545.2533460673
 24
403431.65169923328
 34
0.0
  0
LINE
  5
67503
  8
S-OBRYS
  6
CONTINUOUS
 10
19290.253053167289
 20
403431.65169923339
 30
0.0
 11
19290.253053167289
 21
403504.14182344312
 31
0.0
  0
DIMENSION
  5
67504
  8
S-OBRYS
  6
CONTINUOUS
  2
*D152
 10
19167.60555669263
 20
403431.65169923339
 30
0.0
 11
19092.605556692572
 21
403685.06925838639
 31
0.0
 70
     0
  1
500
 13
19290.04068276472
 23
403938.48681753932
 33
0.0
 14
19465.253053167289
 24
403431.65169923339
 34
0.0
 50
90.0
  0
DIMENSION
  5
67505
  8
S-OBRYS
  6
CONTINUOUS
  2
*D153
 10
18545.368037143238
 20
399439.20681075088
 30
0.0
 11
18323.189961688931
 21
399439.20681075088
 31
0.0
 70
   128
 13
17655.368037143238
 23
399288.08094156132
 33
0.0
 14
18545.368037143238
 24
399288.08094156132
 34
0.0
  0
DIMENSION
  5
67506
  8
S-OBRYS
  6
CONTINUOUS
  2
*D154
 10
18325.368246743241
 20
398995.39380196098
 30
0.0
 11
18740.04902083004
 21
398995.39380196098
 31
0.0
 70
   128
 13
18100.368037143238
 23
399131.63655363768
 33
0.0
 14
18325.368246743241
 24
399157.10196845361
 34
0.0
  0
DIMENSION
  5
67507
  8
S-OBRYS
  6
CONTINUOUS
  2
*D155
 10
17553.985756345319
 20
399551.0162688212
 30
0.0
 11
17553.985756345261
 21
400273.32121305662
 31
0.0
 70
   128
 13
18087.432709883309
 23
400606.01610222133
 33
0.0
 14
17639.282709883311
 24
399551.0162688212
 34
0.0
 50
90.0
  0
DIMENSION
  5
67508
  8
S-OBRYS
  6
CONTINUOUS
  2
*D156
 10
19062.51815929787
 20
399240.01626882132
 30
0.0
 11
18987.518159297812
 21
398963.58769739268
 31
0.0
 70
     0
 13
18558.30336440316
 23
399301.01626882132
 33
0.0
 14
18408.282547110921
 24
399240.01626882132
 34
0.0
 50
90.0
  0
DIMENSION
  5
67509
  8
S-OBRYS
  6
CONTINUOUS
  2
*D157
 10
18395.378277292792
 20
399269.58983171888
 30
0.0
 11
17846.43304926678
 21
399037.70497035101
 31
0.0
 70
   131
 15
18255.358216193708
 25
399210.44270592381
 35
0.0
 40
0.0
  0
DIMENSION
  5
6750A
  8
S-OBRYS
  6
CONTINUOUS
  2
*D158
 10
18754.863062404442
 20
399616.01610222133
 30
0.0
 11
18679.863062404369
 21
399443.51618552132
 31
0.0
 70
     0
 13
18588.51803714324
 23
399271.01626882132
 33
0.0
 14
18588.51803714324
 24
399616.01610222133
 34
0.0
 50
90.0
  0
POLYLINE
  5
6750B
  8
S-OBRYS
  6
CONTINUOUS
 66
     1
 10
0.0
 20
0.0
 30
0.0
 70
     1
  0
VERTEX
  5
6850C
  8
S-OBRYS
  6
CONTINUOUS
 10
21175.089292323551
 20
399271.01626882132
 30
0.0
  0
VERTEX
  5
6850D
  8
S-OBRYS
  6
CONTINUOUS
 10
22145.089292323551
 20
399271.01626882132
 30
0.0
  0
VERTEX
  5
6850E
  8
S-OBRYS
  6
CONTINUOUS
 10
22145.089292323551
 20
399616.01610222133
 30
0.0
  0
VERTEX
  5
6850F
  8
S-OBRYS
  6
CONTINUOUS
 10
22115.94779132355
 20
399616.01610222133
 30
0.0
  0
VERTEX
  5
68510
  8
S-OBRYS
  6
CONTINUOUS
 10
21800.089292323551
 20
400771.01616442128
 30
0.0
  0
VERTEX
  5
68511
  8
S-OBRYS
  6
CONTINUOUS
 10
21520.089292323551
 20
400771.01616442128
 30
0.0
  0
VERTEX
  5
68512
  8
S-OBRYS
  6
CONTINUOUS
 10
21204.23079332355
 20
399616.01610222133
 30
0.0
  0
VERTEX
  5
68513
  8
S-OBRYS
  6
CONTINUOUS
 10
21175.089292323551
 20
399616.01610222133
 30
0.0
  0
SEQEND
  5
68514
  8
S-OBRYS
  6
CONTINUOUS
  0
POLYLINE
  5
6750C
  8
S-OBRYS
  6
CONTINUOUS
 66
     1
 10
0.0
 20
0.0
 30
0.0
 70
     1
  0
VERTEX
  5
68515
  8
S-OBRYS
  6
CONTINUOUS
 10
21175.089292323551
 20
399271.01626882132
 30
0.0
  0
VERTEX
  5
68516
  8
S-OBRYS
  6
CONTINUOUS
 10
21255.089292323551
 20
399271.01626882132
 30
0.0
  0
VERTEX
  5
68517
  8
S-OBRYS
  6
CONTINUOUS
 10
21255.089292323551
 20
399616.01610222133
 30
0.0
  0
VERTEX
  5
68518
  8
S-OBRYS
  6
CONTINUOUS
 10
21175.089292323551
 20
399616.01610222133
 30
0.0
  0
SEQEND
  5
68519
  8
S-OBRYS
  6
CONTINUOUS
  0
POLYLINE
  5
6750D
  8
S-OBRYS
  6
CONTINUOUS
 66
     1
 10
0.0
 20
0.0
 30
0.0
 70
     1
  0
VERTEX
  5
6851A
  8
S-OBRYS
  6
CONTINUOUS
 10
22065.089292323551
 20
399271.01626882132
 30
0.0
  0
VERTEX
  5
6851B
  8
S-OBRYS
  6
CONTINUOUS
 10
22145.089292323551
 20
399271.01626882132
 30
0.0
  0
VERTEX
  5
6851C
  8
S-OBRYS
  6
CONTINUOUS
 10
22145.089292323551
 20
399616.01610222133
 30
0.0
  0
VERTEX
  5
6851D
  8
S-OBRYS
  6
CONTINUOUS
 10
22065.089292323551
 20
399616.01610222133
 30
0.0
  0
SEQEND
  5
6851E
  8
S-OBRYS
  6
CONTINUOUS
  0
LINE
  5
6750E
  8
S-OBRYS
  6
CONTINUOUS
 10
21228.024619583481
 20
399301.01626882132
 30
0.0
 11
21202.153965063619
 21
399301.01626882132
 31
0.0
  0
LINE
  5
6750F
  8
S-OBRYS
  6
CONTINUOUS
 10
21215.089292323551
 20
399288.08094156132
 30
0.0
 11
21215.089292323551
 21
399313.9515960812
 31
0.0
  0
CIRCLE
  5
67510
  8
S-OBRYS
  6
CONTINUOUS
 10
21215.089292323551
 20
399301.01626882132
 30
0.0
 40
9.0
  0
LINE
  5
67511
  8
S-OBRYS
  6
CONTINUOUS
 10
21215.089292323551
 20
399538.08094156132
 30
0.0
 11
21215.089292323551
 21
399563.9515960812
 31
0.0
  0
CIRCLE
  5
67512
  8
S-OBRYS
  6
CONTINUOUS
 10
21215.089292323551
 20
399551.0162688212
 30
0.0
 40
9.0
  0
LINE
  5
67513
  8
S-OBRYS
  6
CONTINUOUS
 10
21228.024619583481
 20
399551.0162688212
 30
0.0
 11
21202.153965063619
 21
399551.0162688212
 31
0.0
  0
LINE
  5
67514
  8
S-OBRYS
  6
CONTINUOUS
 10
22105.089292323551
 20
399288.08094156132
 30
0.0
 11
22105.089292323551
 21
399313.9515960812
 31
0.0
  0
CIRCLE
  5
67515
  8
S-OBRYS
  6
CONTINUOUS
 10
22105.089292323551
 20
399301.01626882132
 30
0.0
 40
9.0
  0
LINE
  5
67516
  8
S-OBRYS
  6
CONTINUOUS
 10
22092.153965063619
 20
399301.01626882132
 30
0.0
 11
22118.024619583481
 21
399301.01626882132
 31
0.0
  0
LINE
  5
67517
  8
S-OBRYS
  6
CONTINUOUS
 10
22092.153965063619
 20
399551.0162688212
 30
0.0
 11
22118.024619583481
 21
399551.0162688212
 31
0.0
  0
CIRCLE
  5
67518
  8
S-OBRYS
  6
CONTINUOUS
 10
22105.089292323551
 20
399551.0162688212
 30
0.0
 40
9.0
  0
LINE
  5
67519
  8
S-OBRYS
  6
CONTINUOUS
 10
22105.089292323551
 20
399538.08094156132
 30
0.0
 11
22105.089292323551
 21
399563.9515960812
 31
0.0
  0
POLYLINE
  5
6751A
  8
S-OBRYS
  6
CONTINUOUS
 66
     1
 10
0.0
 20
0.0
 30
0.0
 70
     1
  0
VERTEX
  5
6851F
  8
S-OBRYS
  6
CONTINUOUS
 10
21690.089292323551
 20
400656.01610222133
 30
0.0
  0
VERTEX
  5
68520
  8
S-OBRYS
  6
CONTINUOUS
 10
21630.089292323551
 20
400656.01610222133
 30
0.0
  0
VERTEX
  5
68521
  8
S-OBRYS
  6
CONTINUOUS
 10
21630.089292323551
 20
400556.01610222121
 30
0.0
  0
VERTEX
  5
68522
  8
S-OBRYS
  6
CONTINUOUS
 10
21690.089292323551
 20
400556.01610222121
 30
0.0
  0
SEQEND
  5
68523
  8
S-OBRYS
  6
CONTINUOUS
  0
LINE
  5
6751B
  8
S-OBRYS
  6
CONTINUOUS
 10
21660.089292323551
 20
400593.08077496127
 30
0.0
 11
21660.089292323551
 21
400618.95142948121
 31
0.0
  0
CIRCLE
  5
6751C
  8
S-OBRYS
  6
CONTINUOUS
 10
21660.089292323551
 20
400606.01610222133
 30
0.0
 40
9.0
  0
LINE
  5
6751D
  8
S-OBRYS
  6
CONTINUOUS
 10
21673.024619583481
 20
400606.01610222133
 30
0.0
 11
21647.153965063619
 21
400606.01610222133
 31
0.0
  0
CIRCLE
  5
6751E
  8
S-OBRYS
  6
CONTINUOUS
 10
21885.08950192355
 20
399240.01626882132
 30
0.0
 40
76.0
  0
LINE
  5
6751F
  8
S-OBRYS
  6
CONTINUOUS
 10
21885.08950192355
 20
399322.93056918902
 30
0.0
 11
21885.08950192355
 21
399157.10196845361
 31
0.0
  0
LINE
  5
67520
  8
S-OBRYS
  6
CONTINUOUS
 10
21802.17520155586
 20
399240.01626882132
 30
0.0
 11
21968.00380229123
 21
399240.01626882132
 31
0.0
  0
LINE
  5
67521
  8
S-OBRYS
  6
CONTINUOUS
 10
21660.089292323551
 20
400806.31194091291
 30
0.0
 11
21660.089292323551
 21
399235.72049232968
 31
0.0
  0
DIMENSION
  5
67522
  8
S-OBRYS
  6
CONTINUOUS
  2
*D119
 10
22518.41964573933
 20
400771.01616442128
 30
0.0
 11
22443.419645739272
 21
400021.01621662121
 31
0.0
 70
     0
 13
22145.089292323551
 23
399271.01626882132
 33
0.0
 14
21800.089292323551
 24
400771.01616442128
 34
0.0
 50
90.0
  0
DIMENSION
  5
67523
  8
S-OBRYS
  6
CONTINUOUS
  2
*D120
 10
22145.089292323551
 20
397967.13761091093
 30
0.0
 11
21660.089292323551
 21
397967.13761091093
 31
0.0
 70
   128
 13
21175.089292323551
 23
399271.01626882132
 33
0.0
 14
22145.089292323551
 24
399271.01626882132
 34
0.0
  0
DIMENSION
  5
67524
  8
S-OBRYS
  6
CONTINUOUS
  2
*D121
 10
21018.035678852812
 20
399551.0162688212
 30
0.0
 11
20943.03567885275
 21
399778.87341167848
 31
0.0
 70
     0
 13
21202.153965063619
 23
399301.01626882132
 33
0.0
 14
21202.153965063619
 24
399551.0162688212
 34
0.0
 50
90.0
  0
DIMENSION
  5
67525
  8
S-OBRYS
  6
CONTINUOUS
  2
*D122
 10
20748.73205255991
 20
399301.01626882132
 30
0.0
 11
20748.732052559852
 21
399590.77817358321
 31
0.0
 70
   128
 13
21175.089292323551
 23
399271.01626882132
 33
0.0
 14
21202.153965063619
 24
399301.01626882132
 34
0.0
 50
90.0
  0
DIMENSION
  5
67526
  8
S-OBRYS
  6
CONTINUOUS
  2
*D123
 10
22250.788650596529
 20
400656.01610222133
 30
0.0
 11
22250.78865059646
 21
400233.87324507837
 31
0.0
 70
   128
 13
21690.089292323551
 23
400556.01610222121
 33
0.0
 14
21690.089292323551
 24
400656.01610222133
 34
0.0
 50
90.0
  0
DIMENSION
  5
67527
  8
S-OBRYS
  6
CONTINUOUS
  2
*D124
 10
21690.089292323551
 20
400892.08413527912
 30
0.0
 11
21977.946435180689
 21
400967.08413527912
 31
0.0
 70
     0
 13
21630.089292323551
 23
400656.01610222133
 33
0.0
 14
21690.089292323551
 24
400656.01610222133
 34
0.0
  0
LINE
  5
67528
  8
S-OBRYS
  6
CONTINUOUS
 10
21660.089292323551
 20
399204.47049232962
 30
0.0
 11
21660.089292323551
 21
398957.12383301608
 31
0.0
  0
DIMENSION
  5
67529
  8
S-OBRYS
  6
CONTINUOUS
  2
*D125
 10
22105.089292323551
 20
399439.20681075088
 30
0.0
 11
21882.911216869241
 21
399439.20681075088
 31
0.0
 70
   128
 13
21215.089292323551
 23
399288.08094156132
 33
0.0
 14
22105.089292323551
 24
399288.08094156132
 34
0.0
  0
DIMENSION
  5
6752A
  8
S-OBRYS
  6
CONTINUOUS
  2
*D126
 10
21885.08950192355
 20
398995.39380196098
 30
0.0
 11
22299.770276010349
 21
398995.39380196098
 31
0.0
 70
   128
 13
21660.089292323551
 23
399131.63655363768
 33
0.0
 14
21885.08950192355
 24
399157.10196845361
 34
0.0
  0
DIMENSION
  5
6752B
  8
S-OBRYS
  6
CONTINUOUS
  2
*D127
 10
21113.707011525628
 20
399551.0162688212
 30
0.0
 11
21113.70701152557
 21
400273.32121305662
 31
0.0
 70
   128
 13
21647.153965063619
 23
400606.01610222133
 33
0.0
 14
21199.003965063621
 24
399551.0162688212
 34
0.0
 50
90.0
  0
DIMENSION
  5
6752C
  8
S-OBRYS
  6
CONTINUOUS
  2
*D128
 10
22680.880748015079
 20
399240.01626882132
 30
0.0
 11
22680.88074801501
 21
399577.4448402499
 31
0.0
 70
   128
 13
22118.024619583481
 23
399301.01626882132
 33
0.0
 14
21968.00380229123
 24
399240.01626882132
 34
0.0
 50
90.0
  0
DIMENSION
  5
6752D
  8
S-OBRYS
  6
CONTINUOUS
  2
*D129
 10
21955.09953247313
 20
399269.58983171883
 30
0.0
 11
21406.154304447151
 21
399037.70497035072
 31
0.0
 70
   131
 15
21815.079471373989
 25
399210.44270592357
 35
0.0
 40
0.0
  0
DIMENSION
  5
6752E
  8
S-OBRYS
  6
CONTINUOUS
  2
*D130
 10
22314.584317584751
 20
399616.01610222133
 30
0.0
 11
22239.584317584689
 21
399443.51618552132
 31
0.0
 70
     0
 13
22148.239292323549
 23
399271.01626882132
 33
0.0
 14
22148.239292323549
 24
399616.01610222133
 34
0.0
 50
90.0
  0
LINE
  5
6752F
  8
S-OBRYS
  6
CONTINUOUS
 10
20275.089292323551
 20
398839.233241665
 30
0.0
 11
20275.089292323551
 21
397955.8165742702
 31
0.0
  0
LINE
  5
67530
  8
S-OBRYS
  6
CONTINUOUS
 10
22745.089292323551
 20
398205.77480065147
 30
0.0
 11
22745.089292323551
 21
397510.95277017553
 31
0.0
  0
LINE
  5
67531
  8
S-OBRYS
  6
CONTINUOUS
 10
20275.089292323551
 20
398839.233241665
 30
0.0
 11
20174.044409626949
 21
398768.27408475848
 31
0.0
  0
LINE
  5
67532
  8
S-OBRYS
  6
CONTINUOUS
 10
20275.089292323551
 20
398714.233241665
 30
0.0
 11
20174.044409626949
 21
398643.2740847586
 31
0.0
  0
LINE
  5
67533
  8
S-OBRYS
  6
CONTINUOUS
 10
20275.089292323551
 20
398589.233241665
 30
0.0
 11
20174.044409626949
 21
398518.2740847586
 31
0.0
  0
LINE
  5
67534
  8
S-OBRYS
  6
CONTINUOUS
 10
20275.089292323551
 20
398464.233241665
 30
0.0
 11
20174.044409626949
 21
398393.27408475848
 31
0.0
  0
LINE
  5
67535
  8
S-OBRYS
  6
CONTINUOUS
 10
20275.089292323551
 20
398339.23324166512
 30
0.0
 11
20174.044409626949
 21
398268.2740847586
 31
0.0
  0
LINE
  5
67536
  8
S-OBRYS
  6
CONTINUOUS
 10
20275.089292323551
 20
398214.233241665
 30
0.0
 11
20174.044409626949
 21
398143.2740847586
 31
0.0
  0
LINE
  5
67537
  8
S-OBRYS
  6
CONTINUOUS
 10
20275.089292323551
 20
398089.233241665
 30
0.0
 11
20174.044409626949
 21
398018.2740847586
 31
0.0
  0
LINE
  5
67538
  8
S-OBRYS
  6
CONTINUOUS
 10
20275.089292323551
 20
397964.23324166512
 30
0.0
 11
20174.044409626949
 21
397893.2740847586
 31
0.0
  0
DIMENSION
  5
67539
  8
S-OBRYS
  6
CONTINUOUS
  2
*D115
 10
20275.089292323551
 20
397967.13761091093
 30
0.0
 11
20725.089292323551
 21
398042.13761091093
 31
0.0
 70
     0
 13
21175.089292323551
 23
398861.90065718262
 33
0.0
 14
20275.089292323551
 24
398860.5839731064
 34
0.0
  0
LINE
  5
6753A
  8
S-OBRYS
  6
CONTINUOUS
 10
22745.089292323551
 20
397510.95277017553
 30
0.0
 11
22745.089292323551
 21
398394.36943757028
 31
0.0
  0
LINE
  5
6753B
  8
S-OBRYS
  6
CONTINUOUS
 10
22745.089292323559
 20
397510.95277017553
 30
0.0
 11
22846.134175020161
 21
397581.91192708199
 31
0.0
  0
LINE
  5
6753C
  8
S-OBRYS
  6
CONTINUOUS
 10
22745.089292323559
 20
397635.95277017553
 30
0.0
 11
22846.134175020161
 21
397706.91192708199
 31
0.0
  0
LINE
  5
6753D
  8
S-OBRYS
  6
CONTINUOUS
 10
22745.089292323559
 20
397760.95277017553
 30
0.0
 11
22846.134175020161
 21
397831.91192708199
 31
0.0
  0
LINE
  5
6753E
  8
S-OBRYS
  6
CONTINUOUS
 10
22745.089292323559
 20
397885.95277017553
 30
0.0
 11
22846.134175020161
 21
397956.91192708199
 31
0.0
  0
LINE
  5
6753F
  8
S-OBRYS
  6
CONTINUOUS
 10
22745.089292323559
 20
398010.95277017553
 30
0.0
 11
22846.134175020161
 21
398081.91192708188
 31
0.0
  0
LINE
  5
67540
  8
S-OBRYS
  6
CONTINUOUS
 10
22745.089292323559
 20
398135.95277017553
 30
0.0
 11
22846.134175020161
 21
398206.91192708199
 31
0.0
  0
LINE
  5
67541
  8
S-OBRYS
  6
CONTINUOUS
 10
22745.089292323559
 20
398260.95277017553
 30
0.0
 11
22846.134175020161
 21
398331.91192708199
 31
0.0
  0
LINE
  5
67542
  8
S-OBRYS
  6
CONTINUOUS
 10
22745.089292323559
 20
398385.95277017553
 30
0.0
 11
22846.134175020161
 21
398456.91192708188
 31
0.0
  0
DIMENSION
  5
67543
  8
S-OBRYS
  6
CONTINUOUS
  2
*D116
 10
22745.089292323551
 20
397967.13761091093
 30
0.0
 11
22445.089292323551
 21
398042.13761091093
 31
0.0
 70
     0
 13
22145.089292323551
 23
398760.49730524991
 33
0.0
 14
22745.089292323551
 24
398028.38986261567
 34
0.0
  0
LINE
  5
67544
  8
S-OBRYS
  6
CONTINUOUS
 10
23393.56058610903
 20
398571.01626882132
 30
0.0
 11
22698.738555633088
 21
398571.01626882132
 31
0.0
  0
LINE
  5
67545
  8
S-OBRYS
  6
CONTINUOUS
 10
22698.738555633088
 20
398571.01626882132
 30
0.0
 11
23582.15522302789
 21
398571.01626882132
 31
0.0
  0
LINE
  5
67546
  8
S-OBRYS
  6
CONTINUOUS
 10
22698.738555633088
 20
398571.01626882132
 30
0.0
 11
22769.69771253955
 21
398469.97138612461
 31
0.0
  0
LINE
  5
67547
  8
S-OBRYS
  6
CONTINUOUS
 10
22823.738555633081
 20
398571.01626882132
 30
0.0
 11
22894.69771253955
 21
398469.97138612461
 31
0.0
  0
LINE
  5
67548
  8
S-OBRYS
  6
CONTINUOUS
 10
22948.738555633088
 20
398571.01626882132
 30
0.0
 11
23019.69771253955
 21
398469.97138612461
 31
0.0
  0
LINE
  5
67549
  8
S-OBRYS
  6
CONTINUOUS
 10
23073.738555633088
 20
398571.01626882132
 30
0.0
 11
23144.69771253955
 21
398469.97138612461
 31
0.0
  0
LINE
  5
6754A
  8
S-OBRYS
  6
CONTINUOUS
 10
23198.738555633081
 20
398571.01626882132
 30
0.0
 11
23269.69771253955
 21
398469.97138612461
 31
0.0
  0
LINE
  5
6754B
  8
S-OBRYS
  6
CONTINUOUS
 10
23323.738555633088
 20
398571.01626882132
 30
0.0
 11
23394.69771253955
 21
398469.97138612461
 31
0.0
  0
LINE
  5
6754C
  8
S-OBRYS
  6
CONTINUOUS
 10
23448.738555633081
 20
398571.01626882132
 30
0.0
 11
23519.69771253955
 21
398469.97138612461
 31
0.0
  0
LINE
  5
6754D
  8
S-OBRYS
  6
CONTINUOUS
 10
23573.738555633088
 20
398571.01626882132
 30
0.0
 11
23644.69771253955
 21
398469.97138612461
 31
0.0
  0
DIMENSION
  5
6754E
  8
S-OBRYS
  6
CONTINUOUS
  2
*D117
 10
22622.652072896159
 20
398571.0162688212
 30
0.0
 11
22547.6520728961
 21
398921.01626882132
 31
0.0
 70
     0
 13
22453.34813856738
 23
399271.01626882132
 33
0.0
 14
22732.048565459321
 24
398571.0162688212
 34
0.0
 50
90.0
  0
LINE
  5
6754F
  8
S-OBRYS
  6
CONTINUOUS
 10
22003.91652515715
 20
401356.01610222133
 30
0.0
 11
22698.738555633088
 21
401356.01610222133
 31
0.0
  0
LINE
  5
67550
  8
S-OBRYS
  6
CONTINUOUS
 10
22698.738555633088
 20
401356.01610222133
 30
0.0
 11
21815.32188823829
 21
401356.01610222133
 31
0.0
  0
LINE
  5
67551
  8
S-OBRYS
  6
CONTINUOUS
 10
22698.738555633088
 20
401356.01610222133
 30
0.0
 11
22627.77939872663
 21
401457.06098491792
 31
0.0
  0
LINE
  5
67552
  8
S-OBRYS
  6
CONTINUOUS
 10
22573.738555633088
 20
401356.01610222133
 30
0.0
 11
22502.77939872663
 21
401457.06098491792
 31
0.0
  0
LINE
  5
67553
  8
S-OBRYS
  6
CONTINUOUS
 10
22448.738555633088
 20
401356.01610222133
 30
0.0
 11
22377.77939872663
 21
401457.06098491792
 31
0.0
  0
LINE
  5
67554
  8
S-OBRYS
  6
CONTINUOUS
 10
22323.738555633088
 20
401356.01610222133
 30
0.0
 11
22252.77939872663
 21
401457.06098491792
 31
0.0
  0
LINE
  5
67555
  8
S-OBRYS
  6
CONTINUOUS
 10
22198.738555633088
 20
401356.01610222133
 30
0.0
 11
22127.77939872663
 21
401457.06098491792
 31
0.0
  0
LINE
  5
67556
  8
S-OBRYS
  6
CONTINUOUS
 10
22073.738555633088
 20
401356.01610222133
 30
0.0
 11
22002.77939872663
 21
401457.06098491792
 31
0.0
  0
LINE
  5
67557
  8
S-OBRYS
  6
CONTINUOUS
 10
21948.738555633088
 20
401356.01610222133
 30
0.0
 11
21877.77939872663
 21
401457.06098491792
 31
0.0
  0
LINE
  5
67558
  8
S-OBRYS
  6
CONTINUOUS
 10
21823.738555633088
 20
401356.01610222133
 30
0.0
 11
21752.77939872663
 21
401457.06098491792
 31
0.0
  0
DIMENSION
  5
67559
  8
S-OBRYS
  6
CONTINUOUS
  2
*D118
 10
22695.649110671598
 20
401356.01610222133
 30
0.0
 11
22620.64911067154
 21
401006.01610222121
 31
0.0
 70
     0
 13
22111.934951571551
 23
400656.01610222133
 33
0.0
 14
22257.030221935689
 24
401356.01610222133
 34
0.0
 50
90.0
  0
VIEWPORT
  5
1FAB5
 67
     1
  8
0
  6
ČERCHOVANÁ
 10
12.669026204836801
 20
9.4585013259736659
 30
0.0
 40
41.707206501782828
 41
24.2248555085413
 68
     1
 69
     1
1001
ACAD
1000
MVIEW
1002
{
1070
    16
1010
0.0
1020
0.0
1030
0.0
1010
0.0
1020
0.0
1030
1.0
1040
0.0
1040
24.2248555085413
1040
12.669026204836801
1040
9.4585013259736659
1040
50.0
1040
0.0
1040
0.0
1070
     0
1070
   100
1070
     1
1070
     1
1070
     0
1070
     0
1070
     0
1070
     0
1040
0.0
1040
0.0
1040
0.0
1040
10.0
1040
10.0
1040
10.0
1040
10.0
1070
     0
1002
{
1002
}
1002
}
  0
VIEWPORT
  5
1FAB7
 67
     1
  8
2-VZT
  6
ČERCHOVANÁ
 10
5.24999976158142
 20
3.99999976158142
 30
0.0
 40
8.3999996185302717
 41
6.3999996185302717
 68
     2
 69
     2
1001
ACAD
1000
MVIEW
1002
{
1070
    16
1010
0.0
1020
0.0
1030
0.0
1010
0.0
1020
0.0
1030
1.0
1040
0.0
1040
517776.44812413253
1040
-335493.7046016907
1040
-205251.99203018961
1040
50.0
1040
0.0
1040
0.0
1070
     0
1070
   100
1070
     1
1070
     0
1070
     0
1070
     0
1070
     0
1070
     0
1040
0.0
1040
0.0
1040
0.0
1040
1.0
1040
1.0
1040
1.0
1040
1.0
1070
     0
1002
{
1002
}
1002
}
  0
ENDSEC
  0
EOF
