  0
SECTION
  2
HEADER
  9
$ACADVER
  1
AC1009
  9
$INSBASE
 10
0.0
 20
0.0
 30
0.0
  9
$EXTMIN
 10
-9317.3245871225408
 20
393402.81400089961
 30
0.0
  9
$EXTMAX
 10
27060.53224218309
 20
799643.3234279257
 30
0.0
  9
$LIMMIN
 10
-127022.6804658414
 20
-67144.462473645661
  9
$LIMMAX
 10
-873.19720690528334
 20
6755.1563308572058
  9
$ORTHOMODE
 70
     0
  9
$REGENMODE
 70
     1
  9
$FILLMODE
 70
     1
  9
$QTEXTMODE
 70
     0
  9
$MIRRTEXT
 70
     0
  9
$DRAGMODE
 70
     2
  9
$LTSCALE
 40
50.0
  9
$OSMODE
 70
   679
  9
$ATTMODE
 70
     1
  9
$TEXTSIZE
 40
200.0
  9
$TRACEWID
 40
10.0
  9
$TEXTSTYLE
  7
R
  9
$CLAYER
  8
S-OBRYS
  9
$CELTYPE
  6
CONTINUOUS
  9
$CECOLOR
 62
   256
  9
$DIMSCALE
 40
50.0
  9
$DIMASZ
 40
2.0
  9
$DIMEXO
 40
0.063
  9
$DIMDLI
 40
5.0
  9
$DIMRND
 40
0.0
  9
$DIMDLE
 40
0.0
  9
$DIMEXE
 40
0.2
  9
$DIMTP
 40
0.0
  9
$DIMTM
 40
0.0
  9
$DIMTXT
 40
2.0
  9
$DIMCEN
 40
0.4
  9
$DIMTSZ
 40
0.0
  9
$DIMTOL
 70
     0
  9
$DIMLIM
 70
     0
  9
$DIMTIH
 70
     0
  9
$DIMTOH
 70
     0
  9
$DIMSE1
 70
     0
  9
$DIMSE2
 70
     0
  9
$DIMTAD
 70
     1
  9
$DIMZIN
 70
    12
  9
$DIMBLK
  1

  9
$DIMASO
 70
     1
  9
$DIMSHO
 70
     0
  9
$DIMPOST
  1

  9
$DIMAPOST
  1

  9
$DIMALT
 70
     0
  9
$DIMALTD
 70
     2
  9
$DIMALTF
 40
25.399999999999999
  9
$DIMLFAC
 40
1.0
  9
$DIMTOFL
 70
     1
  9
$DIMTVP
 40
0.0
  9
$DIMTIX
 70
     0
  9
$DIMSOXD
 70
     0
  9
$DIMSAH
 70
     1
  9
$DIMBLK1
  1
OPEN
  9
$DIMBLK2
  1
OPEN
  9
$DIMSTYLE
  2
EMBABA
  9
$DIMCLRD
 70
     0
  9
$DIMCLRE
 70
     0
  9
$DIMCLRT
 70
     7
  9
$DIMTFAC
 40
1.0
  9
$DIMGAP
 40
0.5
  9
$LUNITS
 70
     2
  9
$LUPREC
 70
     0
  9
$SKETCHINC
 40
10.0
  9
$FILLETRAD
 40
400.0
  9
$AUNITS
 70
     0
  9
$AUPREC
 70
     4
  9
$MENU
  1
ACAD
  9
$ELEVATION
 40
0.0
  9
$PELEVATION
 40
0.0
  9
$THICKNESS
 40
0.0
  9
$LIMCHECK
 70
     0
  9
$BLIPMODE
 70
     0
  9
$CHAMFERA
 40
0.0
  9
$CHAMFERB
 40
0.0
  9
$SKPOLY
 70
     0
  9
$TDCREATE
 40
2450205.720229167
  9
$TDUPDATE
 40
2453528.4944981481
  9
$TDINDWG
 40
42.3330494792
  9
$TDUSRTIMER
 40
42.3330494792
  9
$USRTIMER
 70
     1
  9
$ANGBASE
 50
0.0
  9
$ANGDIR
 70
     0
  9
$PDMODE
 70
     2
  9
$PDSIZE
 40
-5.0
  9
$PLINEWID
 40
0.0
  9
$COORDS
 70
     0
  9
$SPLFRAME
 70
     0
  9
$SPLINETYPE
 70
     6
  9
$SPLINESEGS
 70
     8
  9
$ATTDIA
 70
     0
  9
$ATTREQ
 70
     1
  9
$HANDLING
 70
     1
  9
$HANDSEED
  5
6536B
  9
$SURFTAB1
 70
    18
  9
$SURFTAB2
 70
    18
  9
$SURFTYPE
 70
     6
  9
$SURFU
 70
    18
  9
$SURFV
 70
    18
  9
$UCSNAME
  2

  9
$UCSORG
 10
0.0
 20
0.0
 30
0.0
  9
$UCSXDIR
 10
1.0
 20
0.0
 30
0.0
  9
$UCSYDIR
 10
0.0
 20
1.0
 30
0.0
  9
$PUCSNAME
  2

  9
$PUCSORG
 10
0.0
 20
0.0
 30
0.0
  9
$PUCSXDIR
 10
1.0
 20
0.0
 30
0.0
  9
$PUCSYDIR
 10
0.0
 20
1.0
 30
0.0
  9
$USERI1
 70
     0
  9
$USERI2
 70
     0
  9
$USERI3
 70
     0
  9
$USERI4
 70
     0
  9
$USERI5
 70
     0
  9
$USERR1
 40
0.0
  9
$USERR2
 40
50.0
  9
$USERR3
 40
0.0
  9
$USERR4
 40
0.0
  9
$USERR5
 40
0.0
  9
$WORLDVIEW
 70
     1
  9
$SHADEDGE
 70
     3
  9
$SHADEDIF
 70
    70
  9
$TILEMODE
 70
     1
  9
$MAXACTVP
 70
    16
  9
$PLIMCHECK
 70
     0
  9
$PEXTMIN
 10
1.049999952316284
 20
0.7999999523162842
 30
0.0
  9
$PEXTMAX
 10
9.4499995708465558
 20
7.1999995708465558
 30
0.0
  9
$PLIMMIN
 10
-0.2500002402958907
 20
-0.2499999962453767
  9
$PLIMMAX
 10
10.74999951940821
 20
8.2499997634587316
  9
$UNITMODE
 70
     0
  9
$VISRETAIN
 70
     0
  9
$PLINEGEN
 70
     0
  9
$PSLTSCALE
 70
     1
  0
ENDSEC
  0
SECTION
  2
TABLES
  0
TABLE
  2
VPORT
 70
     4
  0
VPORT
  2
*ACTIVE
 70
     0
 10
0.0
 20
0.0
 11
1.0
 21
1.0
 12
2839.6408272014228
 22
403053.81713573443
 13
0.0
 23
0.0
 14
1.0
 24
1.0
 15
1.0
 25
1.0
 16
0.0
 26
0.0
 36
1.0
 17
0.0
 27
0.0
 37
0.0
 40
70087.131491267603
 41
1.6116303219106951
 42
50.0
 43
0.0
 44
0.0
 50
0.0
 51
0.0
 71
     0
 72
   100
 73
     1
 74
     0
 75
     0
 76
     1
 77
     0
 78
     0
  0
ENDTAB
  0
TABLE
  2
LTYPE
 70
    13
  0
LTYPE
  2
CONTINUOUS
 70
     0
  3
Solid line
 72
    65
 73
     0
 40
0.0
  0
LTYPE
  2
ČERCHOVANÁ
 70
     0
  3
Čerchovaná __ . __ . __ . __ . __ . __ . __ . _
 72
    65
 73
     4
 40
1.0
 49
0.5
 49
-0.25
 49
0.0
 49
-0.25
  0
ENDTAB
  0
TABLE
  2
LAYER
 70
    37
  0
LAYER
  2
0
 70
     0
 62
     7
  6
CONTINUOUS
  0
LAYER
  2
RAZ
 70
     0
 62
     7
  6
CONTINUOUS
  0
LAYER
  2
KOTY
 70
     0
 62
     2
  6
CONTINUOUS
  0
LAYER
  2
DEFPOINTS
 70
     0
 62
     7
  6
CONTINUOUS
  0
LAYER
  2
2-VZT
 70
     0
 62
     4
  6
CONTINUOUS
  0
LAYER
  2
SILNA
 70
     0
 62
     7
  6
CONTINUOUS
  0
LAYER
  2
OBRYS
 70
     0
 62
     7
  6
CONTINUOUS
  0
LAYER
  2
S-OBRYS
 70
     0
 62
     7
  6
CONTINUOUS
  0
ENDTAB
  0
TABLE
  2
STYLE
 70
    11
  0
STYLE
  2
STANDARD
 70
     0
 40
0.0
 41
0.8
 50
0.0
 71
     0
 42
200.0
  3
ROMANS.SHX
  4

  0
STYLE
  2
R
 70
     0
 40
0.0
 41
1.0
 50
0.0
 71
     0
 42
200.0
  3
romans.shx
  4

  0
STYLE
  2
ROMANS
 70
     0
 40
0.0
 41
0.8
 50
0.0
 71
     0
 42
300.0
  3
ROMANS.shx
  4

  0
STYLE
  2
R08
 70
     0
 40
0.0
 41
0.8
 50
0.0
 71
     0
 42
800.0
  3
ROMANS.shx
  4

  0
STYLE
  2
ROMANT
 70
     0
 40
0.0
 41
0.7
 50
0.0
 71
     0
 42
3.0
  3
romant
  4

  0
STYLE
  2
CYRILLIC
 70
     0
 40
2.2999999999999989
 41
0.7
 50
0.0
 71
     0
 42
2.2999999999999989
  3
cyrillic
  4

  0
ENDTAB
  0
TABLE
  2
VIEW
 70
     0
  0
ENDTAB
  0
TABLE
  2
UCS
 70
     0
  0
ENDTAB
  0
TABLE
  2
APPID
 70
     6
  0
APPID
  2
ACAD
 70
     0
  0
APPID
  2
PHOENIX7010
 70
     0
  0
APPID
  2
CONTENTBLOCKICON
 70
     0
  0
APPID
  2
CONTENTLONGBLOCKNAME
 70
     0
  0
APPID
  2
ACAD_DSTYLE_DIMTEXT_FILL
 70
     0
  0
APPID
  2
DCO15
 70
     0
  0
ENDTAB
  0
TABLE
  2
DIMSTYLE
 70
     9
  0
DIMSTYLE
  2
STANDARD
 70
     0
  3

  4

  5

  6
OPEN
  7
OPEN
 40
1.0
 41
80.0
 42
1.0
 43
0.0
 44
1.0
 45
0.0
 46
0.8
 47
0.0
 48
0.0
140
70.0
141
-3.0
142
0.0
143
0.0394
144
1.0
145
1.0
146
0.5
147
1.0
 71
     0
 72
     0
 73
     0
 74
     0
 75
     0
 76
     0
 77
     0
 78
     8
170
     0
171
     2
172
     1
173
     1
174
     0
175
     0
176
     7
177
     7
178
     2
  0
DIMSTYLE
  2
EMBABA
 70
     0
  3

  4

  5

  6
OPEN
  7
OPEN
 40
50.0
 41
2.0
 42
0.063
 43
5.0
 44
0.2
 45
0.0
 46
0.0
 47
0.0
 48
0.0
140
2.0
141
0.4
142
0.0
143
25.399999999999999
144
1.0
145
0.0
146
1.0
147
0.5
 71
     0
 72
     0
 73
     0
 74
     0
 75
     0
 76
     0
 77
     1
 78
    12
170
     0
171
     2
172
     1
173
     1
174
     0
175
     0
176
     0
177
     0
178
     7
  0
ENDTAB
  0
ENDSEC
  0
SECTION
  2
BLOCKS
  0
BLOCK
  8
0
  2
$MODEL_SPACE
 70
     0
 10
0.0
 20
0.0
 30
0.0
  3
$MODEL_SPACE
  1

  0
ENDBLK
  5
9
  8
0
  0
BLOCK
 67
     1
  8
0
  2
$PAPER_SPACE
 70
     0
 10
0.0
 20
0.0
 30
0.0
  3
$PAPER_SPACE
  1

  0
ENDBLK
  5
E
 67
     1
  8
0
  0
BLOCK
  8
0
  2
_OPEN
 70
     0
 10
0.0
 20
0.0
 30
0.0
  3
_OPEN
  1

  0
LINE
  5
28
  8
0
  6
BYBLOCK
 62
     0
 10
-1.0
 20
0.1666666666666666
 30
0.0
 11
0.0
 21
0.0
 31
0.0
  0
LINE
  5
29
  8
0
  6
BYBLOCK
 62
     0
 10
0.0
 20
0.0
 30
0.0
 11
-1.0
 21
-0.1666666666666666
 31
0.0
  0
LINE
  5
2A
  8
0
  6
BYBLOCK
 62
     0
 10
0.0
 20
0.0
 30
0.0
 11
-1.0
 21
0.0
 31
0.0
  0
ENDBLK
  5
2C
  8
0
  0
BLOCK
  8
0
  2
A$C5B1234F8
 70
     0
 10
0.0
 20
0.0
 30
0.0
  3
A$C5B1234F8
  1

  0
POLYLINE
  5
5A113
  8
SILNA
  6
CONTINUOUS
 66
     1
 10
0.0
 20
0.0
 30
0.0
  0
VERTEX
  5
64F38
  8
SILNA
  6
CONTINUOUS
 10
899.99999542257865
 20
900.0
 30
0.0
  0
VERTEX
  5
64F39
  8
SILNA
  6
CONTINUOUS
 10
527.20778928679283
 20
900.0
 30
0.0
  0
VERTEX
  5
64F3A
  8
SILNA
  6
CONTINUOUS
 10
-0.0000045774213504
 20
372.79220613581128
 30
0.0
  0
VERTEX
  5
64F3B
  8
SILNA
  6
CONTINUOUS
 10
-0.0000045774213504
 20
0.0
 30
0.0
  0
SEQEND
  5
64F3C
  8
SILNA
  6
CONTINUOUS
  0
LINE
  5
5A114
  8
SILNA
  6
CONTINUOUS
 10
-0.0000045774213504
 20
0.0
 30
0.0
 11
159.99999542257859
 21
0.0
 31
0.0
  0
ARC
  5
5A115
  8
SILNA
  6
CONTINUOUS
 10
899.99999542257865
 20
0.0
 30
0.0
 40
740.0
 50
90.0
 51
180.0
  0
LINE
  5
5A116
  8
SILNA
  6
CONTINUOUS
 10
899.99999542257865
 20
900.0
 30
0.0
 11
899.99999542257865
 21
740.0
 31
0.0
  0
ENDBLK
  5
5A11A
  8
0
  0
BLOCK
  8
0
  2
*D67
 70
     1
 10
0.0
 20
0.0
 30
0.0
  3
*D67
  1

  0
LINE
  5
64700
  8
S-OBRYS
  6
CONTINUOUS
 62
     0
 10
-5065.9552037389649
 20
403295.27206939069
 30
0.0
 11
-5065.9552037389649
 21
402715.43743112817
 31
0.0
  0
LINE
  5
64701
  8
S-OBRYS
  6
CONTINUOUS
 62
     0
 10
-3217.868379940614
 20
403341.97935808962
 30
0.0
 11
-3217.868379940614
 21
402715.43743112817
 31
0.0
  0
LINE
  5
64702
  8
S-OBRYS
  6
CONTINUOUS
 62
     0
 10
-4965.9552037389658
 20
402725.43743112817
 30
0.0
 11
-3317.868379940614
 21
402725.43743112817
 31
0.0
  0
INSERT
  5
64703
  8
S-OBRYS
  6
CONTINUOUS
 62
     0
  2
_OPEN
 10
-5065.9552037389649
 20
402725.43743112817
 30
0.0
 41
100.0
 42
100.0
 43
100.0
 50
180.0
  0
INSERT
  5
64704
  8
S-OBRYS
  6
CONTINUOUS
 62
     0
  2
_OPEN
 10
-3217.868379940614
 20
402725.43743112817
 30
0.0
 41
100.0
 42
100.0
 43
100.0
  0
INSERT
  5
64705
  8
S-OBRYS
  6
CONTINUOUS
  2
*U141
 10
0.0
 20
0.0
 30
0.0
  0
POINT
  5
64706
  8
DEFPOINTS
  6
CONTINUOUS
 62
     0
 10
-5065.9552037389649
 20
403298.42206939071
 30
0.0
  0
POINT
  5
64707
  8
DEFPOINTS
  6
CONTINUOUS
 62
     0
 10
-3217.868379940614
 20
403345.12935808959
 30
0.0
  0
POINT
  5
64708
  8
DEFPOINTS
  6
CONTINUOUS
 62
     0
 10
-3217.868379940614
 20
402725.43743112817
 30
0.0
  0
ENDBLK
  5
640BE
  8
0
  0
BLOCK
  8
0
  2
*D68
 70
     1
 10
0.0
 20
0.0
 30
0.0
  3
*D68
  1

  0
LINE
  5
64709
  8
S-OBRYS
  6
CONTINUOUS
 62
     0
 10
-5344.410101470362
 20
403520.87141646241
 30
0.0
 11
-5024.0663121715188
 21
402833.89194332052
 31
0.0
  0
LINE
  5
6470A
  8
S-OBRYS
  6
CONTINUOUS
 62
     0
 10
-2558.2531910865218
 20
404644.54338997608
 30
0.0
 11
-2305.1429510236489
 21
404101.74672847148
 31
0.0
  0
LINE
  5
6470B
  8
S-OBRYS
  6
CONTINUOUS
 62
     0
 10
-4937.6617160838796
 20
402885.2168473627
 30
0.0
 11
-2399.9999123456082
 21
404068.54798017041
 31
0.0
  0
INSERT
  5
6470C
  8
S-OBRYS
  6
CONTINUOUS
 62
     0
  2
_OPEN
 10
-5028.2924947886777
 20
402842.9550211911
 30
0.0
 41
100.0
 42
100.0
 43
100.0
 50
204.99999999846119
  0
INSERT
  5
6470D
  8
S-OBRYS
  6
CONTINUOUS
 62
     0
  2
_OPEN
 10
-2309.3691336408078
 20
404110.809806342
 30
0.0
 41
100.0
 42
100.0
 43
100.0
 50
24.99999999846117
  0
INSERT
  5
6470E
  8
S-OBRYS
  6
CONTINUOUS
  2
*U142
 10
0.0
 20
0.0
 30
0.0
  0
POINT
  5
6470F
  8
DEFPOINTS
  6
CONTINUOUS
 62
     0
 10
-5345.7413489947803
 20
403523.72628599161
 30
0.0
  0
POINT
  5
64710
  8
DEFPOINTS
  6
CONTINUOUS
 62
     0
 10
-2559.5844386109388
 20
404647.3982595054
 30
0.0
  0
POINT
  5
64711
  8
DEFPOINTS
  6
CONTINUOUS
 62
     0
 10
-2309.3691336408078
 20
404110.809806342
 30
0.0
  0
ENDBLK
  5
640CA
  8
0
  0
BLOCK
  8
0
  2
*D69
 70
     1
 10
0.0
 20
0.0
 30
0.0
  3
*D69
  1

  0
LINE
  5
64712
  8
S-OBRYS
  6
CONTINUOUS
 62
     0
 10
-5028.3848985970544
 20
403482.02760929632
 30
0.0
 11
-4883.3214166617263
 21
403170.93796835089
 31
0.0
  0
LINE
  5
64713
  8
S-OBRYS
  6
CONTINUOUS
 62
     0
 10
-2757.687384557823
 20
404528.0050339367
 30
0.0
 11
-2617.5519490414299
 21
404227.483622642
 31
0.0
  0
LINE
  5
64714
  8
S-OBRYS
  6
CONTINUOUS
 62
     0
 10
-4796.9168205740862
 20
403222.26287239313
 30
0.0
 11
-2712.4089103633892
 21
404194.28487434081
 31
0.0
  0
INSERT
  5
64715
  8
S-OBRYS
  6
CONTINUOUS
 62
     0
  2
_OPEN
 10
-4887.5475992788852
 20
403180.00104622141
 30
0.0
 41
100.0
 42
100.0
 43
100.0
 50
204.99999999846119
  0
INSERT
  5
64716
  8
S-OBRYS
  6
CONTINUOUS
 62
     0
  2
_OPEN
 10
-2621.7781316585902
 20
404236.54670051252
 30
0.0
 41
100.0
 42
100.0
 43
100.0
 50
24.99999999846117
  0
INSERT
  5
64717
  8
S-OBRYS
  6
CONTINUOUS
  2
*U143
 10
0.0
 20
0.0
 30
0.0
  0
POINT
  5
64718
  8
DEFPOINTS
  6
CONTINUOUS
 62
     0
 10
-5029.716146121471
 20
403484.88247882552
 30
0.0
  0
POINT
  5
64719
  8
DEFPOINTS
  6
CONTINUOUS
 62
     0
 10
-2759.0186320822399
 20
404530.85990346578
 30
0.0
  0
POINT
  5
6471A
  8
DEFPOINTS
  6
CONTINUOUS
 62
     0
 10
-2621.7781316585902
 20
404236.54670051252
 30
0.0
  0
ENDBLK
  5
640D6
  8
0
  0
BLOCK
  8
0
  2
*D70
 70
     1
 10
0.0
 20
0.0
 30
0.0
  3
*D70
  1

  0
LINE
  5
6471B
  8
S-OBRYS
  6
CONTINUOUS
 62
     0
 10
-5117.9778280323353
 20
403345.12935808959
 30
0.0
 11
-5489.5406212603211
 21
403345.12935808959
 31
0.0
  0
LINE
  5
6471C
  8
S-OBRYS
  6
CONTINUOUS
 62
     0
 10
-5180.9576306335566
 20
404169.12935808959
 30
0.0
 11
-5489.5406212603193
 21
404169.12935808959
 31
0.0
  0
LINE
  5
6471D
  8
S-OBRYS
  6
CONTINUOUS
 62
     0
 10
-5479.5406212603202
 20
403445.12935808959
 30
0.0
 11
-5479.5406212603193
 21
404069.1293580897
 31
0.0
  0
INSERT
  5
6471E
  8
S-OBRYS
  6
CONTINUOUS
 62
     0
  2
_OPEN
 10
-5479.5406212603202
 20
403345.12935808959
 30
0.0
 41
100.0
 42
100.0
 43
100.0
 50
270.0
  0
INSERT
  5
6471F
  8
S-OBRYS
  6
CONTINUOUS
 62
     0
  2
_OPEN
 10
-5479.5406212603193
 20
404169.12935808959
 30
0.0
 41
100.0
 42
100.0
 43
100.0
 50
90.0
  0
INSERT
  5
64720
  8
S-OBRYS
  6
CONTINUOUS
  2
*U144
 10
0.0
 20
0.0
 30
0.0
  0
POINT
  5
64721
  8
DEFPOINTS
  6
CONTINUOUS
 62
     0
 10
-5114.8278280323357
 20
403345.12935808959
 30
0.0
  0
POINT
  5
64722
  8
DEFPOINTS
  6
CONTINUOUS
 62
     0
 10
-5177.807630633557
 20
404169.12935808959
 30
0.0
  0
POINT
  5
64723
  8
DEFPOINTS
  6
CONTINUOUS
 62
     0
 10
-5479.5406212603193
 20
404169.12935808959
 30
0.0
  0
ENDBLK
  5
640E2
  8
0
  0
BLOCK
  8
0
  2
*D71
 70
     1
 10
0.0
 20
0.0
 30
0.0
  3
*D71
  1

  0
LINE
  5
64724
  8
S-OBRYS
  6
CONTINUOUS
 62
     0
 10
-5040.9552037389658
 20
404172.27935808973
 30
0.0
 11
-5040.9552037389658
 21
404353.02987825742
 31
0.0
  0
LINE
  5
64725
  8
S-OBRYS
  6
CONTINUOUS
 62
     0
 10
-5160.9552037389658
 20
404172.27935808973
 30
0.0
 11
-5160.9552037389658
 21
404353.02987825742
 31
0.0
  0
LINE
  5
64726
  8
S-OBRYS
  6
CONTINUOUS
 62
     0
 10
-4940.9552037389649
 20
404343.02987825742
 30
0.0
 11
-4840.9552037389658
 21
404343.02987825742
 31
0.0
  0
LINE
  5
64727
  8
S-OBRYS
  6
CONTINUOUS
 62
     0
 10
-5260.9552037389658
 20
404343.02987825742
 30
0.0
 11
-5360.9552037389658
 21
404343.02987825742
 31
0.0
  0
LINE
  5
64728
  8
S-OBRYS
  6
CONTINUOUS
 62
     0
 10
-5040.9552037389658
 20
404343.02987825742
 30
0.0
 11
-5160.9552037389658
 21
404343.02987825742
 31
0.0
  0
INSERT
  5
64729
  8
S-OBRYS
  6
CONTINUOUS
 62
     0
  2
_OPEN
 10
-5040.9552037389658
 20
404343.02987825742
 30
0.0
 41
100.0
 42
100.0
 43
100.0
 50
180.0
  0
INSERT
  5
6472A
  8
S-OBRYS
  6
CONTINUOUS
 62
     0
  2
_OPEN
 10
-5160.9552037389658
 20
404343.02987825742
 30
0.0
 41
100.0
 42
100.0
 43
100.0
  0
INSERT
  5
6472B
  8
S-OBRYS
  6
CONTINUOUS
  2
*U145
 10
0.0
 20
0.0
 30
0.0
  0
POINT
  5
6472C
  8
DEFPOINTS
  6
CONTINUOUS
 62
     0
 10
-5040.9552037389658
 20
404169.12935808959
 30
0.0
  0
POINT
  5
6472D
  8
DEFPOINTS
  6
CONTINUOUS
 62
     0
 10
-5160.9552037389658
 20
404169.12935808959
 30
0.0
  0
POINT
  5
6472E
  8
DEFPOINTS
  6
CONTINUOUS
 62
     0
 10
-5160.9552037389658
 20
404343.02987825742
 30
0.0
  0
ENDBLK
  5
640F0
  8
0
  0
BLOCK
  8
0
  2
*D72
 70
     1
 10
0.0
 20
0.0
 30
0.0
  3
*D72
  1

  0
LINE
  5
64962
  8
S-OBRYS
  6
CONTINUOUS
 62
     0
 10
-5368.3131554741121
 20
401187.51533700072
 30
0.0
 11
-5368.3131554741121
 21
401325.50440829271
 31
0.0
  0
LINE
  5
64963
  8
S-OBRYS
  6
CONTINUOUS
 62
     0
 10
-2558.3131554741121
 20
400934.64366042073
 30
0.0
 11
-2558.3131554741121
 21
401325.50440829271
 31
0.0
  0
LINE
  5
64964
  8
S-OBRYS
  6
CONTINUOUS
 62
     0
 10
-5268.3131554741121
 20
401315.50440829271
 30
0.0
 11
-2658.3131554741121
 21
401315.50440829271
 31
0.0
  0
INSERT
  5
64965
  8
S-OBRYS
  6
CONTINUOUS
 62
     0
  2
_OPEN
 10
-5368.3131554741121
 20
401315.50440829271
 30
0.0
 41
100.0
 42
100.0
 43
100.0
 50
180.0
  0
INSERT
  5
64966
  8
S-OBRYS
  6
CONTINUOUS
 62
     0
  2
_OPEN
 10
-2558.3131554741121
 20
401315.50440829271
 30
0.0
 41
100.0
 42
100.0
 43
100.0
  0
INSERT
  5
64967
  8
S-OBRYS
  6
CONTINUOUS
  2
*U148
 10
0.0
 20
0.0
 30
0.0
  0
POINT
  5
64968
  8
DEFPOINTS
  6
CONTINUOUS
 62
     0
 10
-5368.3131554741121
 20
401184.36533700058
 30
0.0
  0
POINT
  5
64969
  8
DEFPOINTS
  6
CONTINUOUS
 62
     0
 10
-2558.3131554741121
 20
400931.4936604207
 30
0.0
  0
POINT
  5
6496A
  8
DEFPOINTS
  6
CONTINUOUS
 62
     0
 10
-2558.3131554741121
 20
401315.50440829271
 30
0.0
  0
ENDBLK
  5
640FC
  8
0
  0
BLOCK
  8
0
  2
*D73
 70
     1
 10
0.0
 20
0.0
 30
0.0
  3
*D73
  1

  0
LINE
  5
6496B
  8
S-OBRYS
  6
CONTINUOUS
 62
     0
 10
-5068.3131554741121
 20
401115.97434495261
 30
0.0
 11
-5068.3131554741121
 21
401133.8243239501
 31
0.0
  0
LINE
  5
6496C
  8
S-OBRYS
  6
CONTINUOUS
 62
     0
 10
-3218.3131554741121
 20
400923.28217317292
 30
0.0
 11
-3218.3131554741121
 21
401133.8243239501
 31
0.0
  0
LINE
  5
6496D
  8
S-OBRYS
  6
CONTINUOUS
 62
     0
 10
-4968.3131554741121
 20
401123.8243239501
 30
0.0
 11
-3318.3131554741121
 21
401123.8243239501
 31
0.0
  0
INSERT
  5
6496E
  8
S-OBRYS
  6
CONTINUOUS
 62
     0
  2
_OPEN
 10
-5068.3131554741121
 20
401123.8243239501
 30
0.0
 41
100.0
 42
100.0
 43
100.0
 50
180.0
  0
INSERT
  5
6496F
  8
S-OBRYS
  6
CONTINUOUS
 62
     0
  2
_OPEN
 10
-3218.3131554741121
 20
401123.8243239501
 30
0.0
 41
100.0
 42
100.0
 43
100.0
  0
INSERT
  5
64970
  8
S-OBRYS
  6
CONTINUOUS
  2
*U149
 10
0.0
 20
0.0
 30
0.0
  0
POINT
  5
64971
  8
DEFPOINTS
  6
CONTINUOUS
 62
     0
 10
-5068.3131554741121
 20
401112.82434495247
 30
0.0
  0
POINT
  5
64972
  8
DEFPOINTS
  6
CONTINUOUS
 62
     0
 10
-3218.3131554741121
 20
400920.1321731729
 30
0.0
  0
POINT
  5
64973
  8
DEFPOINTS
  6
CONTINUOUS
 62
     0
 10
-3218.3131554741121
 20
401123.8243239501
 30
0.0
  0
ENDBLK
  5
64108
  8
0
  0
BLOCK
  8
0
  2
*D74
 70
     1
 10
0.0
 20
0.0
 30
0.0
  3
*D74
  1

  0
LINE
  5
64974
  8
S-OBRYS
  6
CONTINUOUS
 62
     0
 10
-5072.7189964295567
 20
400934.64366042073
 30
0.0
 11
-5072.7189964295567
 21
401132.16924333118
 31
0.0
  0
LINE
  5
64975
  8
S-OBRYS
  6
CONTINUOUS
 62
     0
 10
-5368.3131554741121
 20
400934.64366042073
 30
0.0
 11
-5368.3131554741121
 21
401132.16924333118
 31
0.0
  0
LINE
  5
64976
  8
S-OBRYS
  6
CONTINUOUS
 62
     0
 10
-5172.7189964295567
 20
401122.16924333118
 30
0.0
 11
-5268.3131554741121
 21
401122.16924333118
 31
0.0
  0
INSERT
  5
64977
  8
S-OBRYS
  6
CONTINUOUS
 62
     0
  2
_OPEN
 10
-5072.7189964295567
 20
401122.16924333118
 30
0.0
 41
100.0
 42
100.0
 43
100.0
  0
INSERT
  5
64978
  8
S-OBRYS
  6
CONTINUOUS
 62
     0
  2
_OPEN
 10
-5368.3131554741121
 20
401122.16924333118
 30
0.0
 41
100.0
 42
100.0
 43
100.0
 50
180.0
  0
INSERT
  5
64979
  8
S-OBRYS
  6
CONTINUOUS
  2
*U150
 10
0.0
 20
0.0
 30
0.0
  0
POINT
  5
6497A
  8
DEFPOINTS
  6
CONTINUOUS
 62
     0
 10
-5072.7189964295567
 20
400931.4936604207
 30
0.0
  0
POINT
  5
6497B
  8
DEFPOINTS
  6
CONTINUOUS
 62
     0
 10
-5368.3131554741121
 20
400931.4936604207
 30
0.0
  0
POINT
  5
6497C
  8
DEFPOINTS
  6
CONTINUOUS
 62
     0
 10
-5368.3131554741121
 20
401122.16924333118
 30
0.0
  0
ENDBLK
  5
64114
  8
0
  0
BLOCK
  8
0
  2
*D75
 70
     1
 10
0.0
 20
0.0
 30
0.0
  3
*D75
  1

  0
LINE
  5
6497D
  8
S-OBRYS
  6
CONTINUOUS
 62
     0
 10
-5371.4631554741118
 20
400411.4936604207
 30
0.0
 11
-5602.8963574005456
 21
400411.4936604207
 31
0.0
  0
LINE
  5
6497E
  8
S-OBRYS
  6
CONTINUOUS
 62
     0
 10
-5371.4631554741118
 20
400931.4936604207
 30
0.0
 11
-5602.8963574005456
 21
400931.4936604207
 31
0.0
  0
LINE
  5
6497F
  8
S-OBRYS
  6
CONTINUOUS
 62
     0
 10
-5592.8963574005465
 20
400511.4936604207
 30
0.0
 11
-5592.8963574005465
 21
400831.4936604207
 31
0.0
  0
INSERT
  5
64980
  8
S-OBRYS
  6
CONTINUOUS
 62
     0
  2
_OPEN
 10
-5592.8963574005465
 20
400411.4936604207
 30
0.0
 41
100.0
 42
100.0
 43
100.0
 50
270.0
  0
INSERT
  5
64981
  8
S-OBRYS
  6
CONTINUOUS
 62
     0
  2
_OPEN
 10
-5592.8963574005465
 20
400931.4936604207
 30
0.0
 41
100.0
 42
100.0
 43
100.0
 50
90.0
  0
INSERT
  5
64982
  8
S-OBRYS
  6
CONTINUOUS
  2
*U151
 10
0.0
 20
0.0
 30
0.0
  0
POINT
  5
64983
  8
DEFPOINTS
  6
CONTINUOUS
 62
     0
 10
-5368.3131554741121
 20
400411.4936604207
 30
0.0
  0
POINT
  5
64984
  8
DEFPOINTS
  6
CONTINUOUS
 62
     0
 10
-5368.3131554741121
 20
400931.4936604207
 30
0.0
  0
POINT
  5
64985
  8
DEFPOINTS
  6
CONTINUOUS
 62
     0
 10
-5592.8963574005465
 20
400931.4936604207
 30
0.0
  0
ENDBLK
  5
64120
  8
0
  0
BLOCK
  8
0
  2
*D76
 70
     1
 10
0.0
 20
0.0
 30
0.0
  3
*D76
  1

  0
LINE
  5
64986
  8
S-OBRYS
  6
CONTINUOUS
 62
     0
 10
-3260.7209543665649
 20
400446.4936604207
 30
0.0
 11
-3487.839992910559
 21
400446.4936604207
 31
0.0
  0
LINE
  5
64987
  8
S-OBRYS
  6
CONTINUOUS
 62
     0
 10
-3260.7209543665649
 20
400896.4936604207
 30
0.0
 11
-3487.839992910559
 21
400896.4936604207
 31
0.0
  0
LINE
  5
64988
  8
S-OBRYS
  6
CONTINUOUS
 62
     0
 10
-3477.839992910559
 20
400796.49366042059
 30
0.0
 11
-3477.839992910559
 21
400546.4936604207
 31
0.0
  0
LINE
  5
64989
  8
S-OBRYS
  6
CONTINUOUS
 62
     0
 10
-3477.839992910559
 20
400446.4936604207
 30
0.0
 11
-3477.8399929105599
 21
400004.78341198299
 31
0.0
  0
INSERT
  5
6498A
  8
S-OBRYS
  6
CONTINUOUS
 62
     0
  2
_OPEN
 10
-3477.839992910559
 20
400896.4936604207
 30
0.0
 41
100.0
 42
100.0
 43
100.0
 50
90.0
  0
INSERT
  5
6498B
  8
S-OBRYS
  6
CONTINUOUS
 62
     0
  2
_OPEN
 10
-3477.839992910559
 20
400446.4936604207
 30
0.0
 41
100.0
 42
100.0
 43
100.0
 50
270.0
  0
INSERT
  5
6498C
  8
S-OBRYS
  6
CONTINUOUS
  2
*U152
 10
0.0
 20
0.0
 30
0.0
  0
POINT
  5
6498D
  8
DEFPOINTS
  6
CONTINUOUS
 62
     0
 10
-3257.5709543665662
 20
400446.4936604207
 30
0.0
  0
POINT
  5
6498E
  8
DEFPOINTS
  6
CONTINUOUS
 62
     0
 10
-3257.5709543665662
 20
400896.4936604207
 30
0.0
  0
POINT
  5
6498F
  8
DEFPOINTS
  6
CONTINUOUS
 62
     0
 10
-3477.839992910559
 20
400896.4936604207
 30
0.0
  0
ENDBLK
  5
6412D
  8
0
  0
BLOCK
  8
0
  2
*D77
 70
     1
 10
0.0
 20
0.0
 30
0.0
  3
*D77
  1

  0
ARC
  5
65295
  8
S-OBRYS
  6
CONTINUOUS
 62
     0
 10
-5973.8289240455479
 20
403345.12935808959
 30
0.0
 40
1219.860513624531
 50
4.6982285446381358
 51
20.301771455363621
  0
INSERT
  5
65296
  8
S-OBRYS
  6
CONTINUOUS
 62
     0
  2
_OPEN
 10
-4753.968410421031
 20
403345.12935808959
 30
0.0
 41
100.0
 42
100.0
 43
100.0
 50
272.3491142723193
  0
INSERT
  5
65297
  8
S-OBRYS
  6
CONTINUOUS
 62
     0
  2
_OPEN
 10
-4868.2598414491222
 20
403860.66468792368
 30
0.0
 41
100.0
 42
100.0
 43
100.0
 50
112.65088572768239
  0
TEXT
  8
S-OBRYS
  40
100
  5
65369
  62
7
  72
0
  71
0
 10
-4909.66
 20
403448.
 30
0.000000
  1
25%%d
  0
POINT
  5
65299
  8
DEFPOINTS
  6
CONTINUOUS
 62
     0
 10
-4766.848138604706
 20
403521.9260104248
 30
0.0
  0
POINT
  5
6529A
  8
DEFPOINTS
  6
CONTINUOUS
 62
     0
 10
-5384.9505349291003
 20
403619.72786065663
 30
0.0
  0
POINT
  5
6529B
  8
DEFPOINTS
  6
CONTINUOUS
 62
     0
 10
-4952.2589420581353
 20
403345.12935808959
 30
0.0
  0
POINT
  5
6529C
  8
DEFPOINTS
  6
CONTINUOUS
 62
     0
 10
-4655.828002854425
 20
403345.12935808959
 30
0.0
  0
POINT
  5
6529D
  8
DEFPOINTS
  6
CONTINUOUS
 62
     0
 10
-2831.4038156542811
 20
404810.46625131113
 30
0.0
  0
ENDBLK
  5
64139
  8
0
  0
BLOCK
  8
0
  2
*D78
 70
     1
 10
0.0
 20
0.0
 30
0.0
  3
*D78
  1

  0
LINE
  5
64766
  8
S-OBRYS
  6
CONTINUOUS
 62
     0
 10
-3508.9990912131038
 20
405505.19177466142
 30
0.0
 11
-2768.021459499811
 21
405850.71531885082
 31
0.0
  0
LINE
  5
64767
  8
S-OBRYS
  6
CONTINUOUS
 62
     0
 10
-3001.857177124301
 20
404417.62243021763
 30
0.0
 11
-2260.8795454110368
 21
404763.14597440691
 31
0.0
  0
LINE
  5
64768
  8
S-OBRYS
  6
CONTINUOUS
 62
     0
 10
-2734.8227111960882
 20
405755.85835752968
 30
0.0
 11
-2312.204449455458
 21
404849.55057049321
 31
0.0
  0
INSERT
  5
64769
  8
S-OBRYS
  6
CONTINUOUS
 62
     0
  2
_OPEN
 10
-2777.08453737016
 20
405846.4891362334
 30
0.0
 41
100.0
 42
100.0
 43
100.0
 50
114.9999999999971
  0
INSERT
  5
6476A
  8
S-OBRYS
  6
CONTINUOUS
 62
     0
  2
_OPEN
 10
-2269.9426232813862
 20
404758.91979178949
 30
0.0
 41
100.0
 42
100.0
 43
100.0
 50
294.9999999999971
  0
INSERT
  5
6476B
  8
S-OBRYS
  6
CONTINUOUS
  2
*U146
 10
0.0
 20
0.0
 30
0.0
  0
POINT
  5
6476C
  8
DEFPOINTS
  6
CONTINUOUS
 62
     0
 10
-3511.8539607422431
 20
405503.86052713689
 30
0.0
  0
POINT
  5
6476D
  8
DEFPOINTS
  6
CONTINUOUS
 62
     0
 10
-3004.7120466534689
 20
404416.29118269298
 30
0.0
  0
POINT
  5
6476E
  8
DEFPOINTS
  6
CONTINUOUS
 62
     0
 10
-2269.9426232813862
 20
404758.91979178949
 30
0.0
  0
ENDBLK
  5
64145
  8
0
  0
BLOCK
  8
0
  2
*D79
 70
     1
 10
0.0
 20
0.0
 30
0.0
  3
*D79
  1

  0
LINE
  5
64990
  8
S-OBRYS
  6
CONTINUOUS
 62
     0
 10
-2884.7870972512169
 20
401182.01630449243
 30
0.0
 11
-3134.750769954087
 21
400968.02916018269
 31
0.0
  0
LINE
  5
64991
  8
S-OBRYS
  6
CONTINUOUS
 62
     0
 10
-3301.8755409941659
 20
400824.95816065872
 30
0.0
 11
-3377.8413460124289
 21
400759.92588814773
 31
0.0
  0
INSERT
  5
64992
  8
S-OBRYS
  6
CONTINUOUS
  2
*U153
 10
0.0
 20
0.0
 30
0.0
  0
LINE
  5
64993
  8
S-OBRYS
  6
CONTINUOUS
 62
     0
 10
-3225.9097359759321
 20
400889.99043316959
 30
0.0
 11
-3210.7165749723208
 21
400902.9968876717
 31
0.0
  0
INSERT
  5
64994
  8
S-OBRYS
  6
CONTINUOUS
 62
     0
  2
_OPEN
 10
-3225.9097359759321
 20
400889.99043316959
 30
0.0
 41
100.0
 42
100.0
 43
100.0
 50
40.565938383924532
  0
INSERT
  5
64995
  8
S-OBRYS
  6
CONTINUOUS
 62
     0
  2
_OPEN
 10
-3210.7165749723208
 20
400902.9968876717
 30
0.0
 41
100.0
 42
100.0
 43
100.0
 50
220.5659383839245
  0
POINT
  5
64996
  8
DEFPOINTS
  6
CONTINUOUS
 62
     0
 10
-3210.7165749723208
 20
400902.9968876717
 30
0.0
  0
POINT
  5
64997
  8
DEFPOINTS
  6
CONTINUOUS
 62
     0
 10
-3225.9097359759321
 20
400889.99043316959
 30
0.0
  0
ENDBLK
  5
64150
  8
0
  0
BLOCK
  8
0
  2
*D80
 70
     1
 10
0.0
 20
0.0
 30
0.0
  3
*D80
  1

  0
LINE
  5
64998
  8
S-OBRYS
  6
CONTINUOUS
 62
     0
 10
-5371.4631554741118
 20
400671.4936604207
 30
0.0
 11
-5429.032084936508
 21
400671.4936604207
 31
0.0
  0
LINE
  5
64999
  8
S-OBRYS
  6
CONTINUOUS
 62
     0
 10
-5171.4631554741109
 20
400571.4936604207
 30
0.0
 11
-5429.032084936508
 21
400571.4936604207
 31
0.0
  0
LINE
  5
6499A
  8
S-OBRYS
  6
CONTINUOUS
 62
     0
 10
-5419.0320849365089
 20
400771.4936604207
 30
0.0
 11
-5419.0320849365089
 21
400871.49366042059
 31
0.0
  0
LINE
  5
6499B
  8
S-OBRYS
  6
CONTINUOUS
 62
     0
 10
-5419.0320849365089
 20
400471.4936604207
 30
0.0
 11
-5419.0320849365089
 21
400127.20794613502
 31
0.0
  0
LINE
  5
6499C
  8
S-OBRYS
  6
CONTINUOUS
 62
     0
 10
-5419.0320849365089
 20
400671.4936604207
 30
0.0
 11
-5419.0320849365089
 21
400571.4936604207
 31
0.0
  0
INSERT
  5
6499D
  8
S-OBRYS
  6
CONTINUOUS
 62
     0
  2
_OPEN
 10
-5419.0320849365089
 20
400671.4936604207
 30
0.0
 41
100.0
 42
100.0
 43
100.0
 50
270.0
  0
INSERT
  5
6499E
  8
S-OBRYS
  6
CONTINUOUS
 62
     0
  2
_OPEN
 10
-5419.0320849365089
 20
400571.4936604207
 30
0.0
 41
100.0
 42
100.0
 43
100.0
 50
90.0
  0
INSERT
  5
6499F
  8
S-OBRYS
  6
CONTINUOUS
  2
*U154
 10
0.0
 20
0.0
 30
0.0
  0
POINT
  5
649A0
  8
DEFPOINTS
  6
CONTINUOUS
 62
     0
 10
-5368.3131554741121
 20
400671.4936604207
 30
0.0
  0
POINT
  5
649A1
  8
DEFPOINTS
  6
CONTINUOUS
 62
     0
 10
-5168.313155474113
 20
400571.4936604207
 30
0.0
  0
POINT
  5
649A2
  8
DEFPOINTS
  6
CONTINUOUS
 62
     0
 10
-5419.0320849365089
 20
400571.4936604207
 30
0.0
  0
ENDBLK
  5
6415E
  8
0
  0
BLOCK
  8
0
  2
*D81
 70
     1
 10
0.0
 20
0.0
 30
0.0
  3
*D81
  1

  0
LINE
  5
649A3
  8
S-OBRYS
  6
CONTINUOUS
 62
     0
 10
-4442.3131554741103
 20
400557.84366042062
 30
0.0
 11
-4442.3131554741103
 21
400126.24287883809
 31
0.0
  0
LINE
  5
649A4
  8
S-OBRYS
  6
CONTINUOUS
 62
     0
 10
-4850.3131554741112
 20
400557.84366042062
 30
0.0
 11
-4850.3131554741112
 21
400126.24287883809
 31
0.0
  0
LINE
  5
649A5
  8
S-OBRYS
  6
CONTINUOUS
 62
     0
 10
-4542.3131554741103
 20
400136.24287883809
 30
0.0
 11
-4750.3131554741112
 21
400136.24287883809
 31
0.0
  0
INSERT
  5
649A6
  8
S-OBRYS
  6
CONTINUOUS
 62
     0
  2
_OPEN
 10
-4442.3131554741103
 20
400136.24287883809
 30
0.0
 41
100.0
 42
100.0
 43
100.0
  0
INSERT
  5
649A7
  8
S-OBRYS
  6
CONTINUOUS
 62
     0
  2
_OPEN
 10
-4850.3131554741112
 20
400136.24287883809
 30
0.0
 41
100.0
 42
100.0
 43
100.0
 50
180.0
  0
INSERT
  5
649A8
  8
S-OBRYS
  6
CONTINUOUS
  2
*U155
 10
0.0
 20
0.0
 30
0.0
  0
POINT
  5
649A9
  8
DEFPOINTS
  6
CONTINUOUS
 62
     0
 10
-4442.3131554741103
 20
400560.9936604207
 30
0.0
  0
POINT
  5
649AA
  8
DEFPOINTS
  6
CONTINUOUS
 62
     0
 10
-4850.3131554741112
 20
400560.9936604207
 30
0.0
  0
POINT
  5
649AB
  8
DEFPOINTS
  6
CONTINUOUS
 62
     0
 10
-4850.3131554741112
 20
400136.24287883809
 30
0.0
  0
ENDBLK
  5
6416A
  8
0
  0
BLOCK
  8
0
  2
*D82
 70
     1
 10
0.0
 20
0.0
 30
0.0
  3
*D82
  1

  0
LINE
  5
649AC
  8
S-OBRYS
  6
CONTINUOUS
 62
     0
 10
-4850.3131554741112
 20
400548.34366042068
 30
0.0
 11
-4850.3131554741112
 21
400126.24287883809
 31
0.0
  0
LINE
  5
649AD
  8
S-OBRYS
  6
CONTINUOUS
 62
     0
 10
-5068.3131554741112
 20
400548.34366042068
 30
0.0
 11
-5068.3131554741112
 21
400126.24287883809
 31
0.0
  0
LINE
  5
649AE
  8
S-OBRYS
  6
CONTINUOUS
 62
     0
 10
-4750.3131554741112
 20
400136.24287883809
 30
0.0
 11
-4650.3131554741112
 21
400136.24287883809
 31
0.0
  0
LINE
  5
649AF
  8
S-OBRYS
  6
CONTINUOUS
 62
     0
 10
-5168.3131554741121
 20
400136.24287883809
 30
0.0
 11
-5268.3131554741112
 21
400136.24287883809
 31
0.0
  0
LINE
  5
649B0
  8
S-OBRYS
  6
CONTINUOUS
 62
     0
 10
-4850.3131554741112
 20
400136.24287883809
 30
0.0
 11
-5068.3131554741112
 21
400136.24287883809
 31
0.0
  0
INSERT
  5
649B1
  8
S-OBRYS
  6
CONTINUOUS
 62
     0
  2
_OPEN
 10
-4850.3131554741112
 20
400136.24287883809
 30
0.0
 41
100.0
 42
100.0
 43
100.0
 50
180.0
  0
INSERT
  5
649B2
  8
S-OBRYS
  6
CONTINUOUS
 62
     0
  2
_OPEN
 10
-5068.3131554741112
 20
400136.24287883809
 30
0.0
 41
100.0
 42
100.0
 43
100.0
  0
INSERT
  5
649B3
  8
S-OBRYS
  6
CONTINUOUS
  2
*U156
 10
0.0
 20
0.0
 30
0.0
  0
POINT
  5
649B4
  8
DEFPOINTS
  6
CONTINUOUS
 62
     0
 10
-4850.3131554741112
 20
400551.4936604207
 30
0.0
  0
POINT
  5
649B5
  8
DEFPOINTS
  6
CONTINUOUS
 62
     0
 10
-5068.3131554741112
 20
400551.4936604207
 30
0.0
  0
POINT
  5
649B6
  8
DEFPOINTS
  6
CONTINUOUS
 62
     0
 10
-5068.3131554741112
 20
400136.24287883809
 30
0.0
  0
ENDBLK
  5
64178
  8
0
  0
BLOCK
  8
0
  2
*D83
 70
     1
 10
0.0
 20
0.0
 30
0.0
  3
*D83
  1

  0
LINE
  5
64796
  8
S-OBRYS
  6
CONTINUOUS
 62
     0
 10
-5100.9552037389658
 20
404070.14383468818
 30
0.0
 11
-5100.9552037389658
 21
402495.70822628948
 31
0.0
  0
LINE
  5
64797
  8
S-OBRYS
  6
CONTINUOUS
 62
     0
 10
-2942.8683799405931
 20
404441.97935808951
 30
0.0
 11
-2942.8683799405931
 21
402495.70822628948
 31
0.0
  0
LINE
  5
64798
  8
S-OBRYS
  6
CONTINUOUS
 62
     0
 10
-5000.9552037389658
 20
402505.70822628948
 30
0.0
 11
-3042.868379940594
 21
402505.70822628948
 31
0.0
  0
INSERT
  5
64799
  8
S-OBRYS
  6
CONTINUOUS
 62
     0
  2
_OPEN
 10
-5100.9552037389658
 20
402505.70822628948
 30
0.0
 41
100.0
 42
100.0
 43
100.0
 50
180.0
  0
INSERT
  5
6479A
  8
S-OBRYS
  6
CONTINUOUS
 62
     0
  2
_OPEN
 10
-2942.8683799405931
 20
402505.70822628948
 30
0.0
 41
100.0
 42
100.0
 43
100.0
  0
INSERT
  5
6479B
  8
S-OBRYS
  6
CONTINUOUS
  2
*U147
 10
0.0
 20
0.0
 30
0.0
  0
POINT
  5
6479C
  8
DEFPOINTS
  6
CONTINUOUS
 62
     0
 10
-5100.9552037389658
 20
404073.29383468832
 30
0.0
  0
POINT
  5
6479D
  8
DEFPOINTS
  6
CONTINUOUS
 62
     0
 10
-2942.8683799405931
 20
404445.12935808959
 30
0.0
  0
POINT
  5
6479E
  8
DEFPOINTS
  6
CONTINUOUS
 62
     0
 10
-2942.8683799405931
 20
402505.70822628948
 30
0.0
  0
ENDBLK
  5
64184
  8
0
  0
BLOCK
  8
0
  2
*D94
 70
     1
 10
0.0
 20
0.0
 30
0.0
  3
*D94
  1

  0
LINE
  5
64A01
  8
S-OBRYS
  6
CONTINUOUS
 62
     0
 10
-5553.2195705939303
 20
397276.0957762617
 30
0.0
 11
-5553.2195705939303
 21
397914.65035017661
 31
0.0
  0
LINE
  5
64A02
  8
S-OBRYS
  6
CONTINUOUS
 62
     0
 10
-5753.2195705939303
 20
397276.0957762617
 30
0.0
 11
-5753.2195705939303
 21
397914.65035017661
 31
0.0
  0
LINE
  5
64A03
  8
S-OBRYS
  6
CONTINUOUS
 62
     0
 10
-5453.2195705939303
 20
397904.65035017667
 30
0.0
 11
-5353.2195705939303
 21
397904.65035017667
 31
0.0
  0
LINE
  5
64A04
  8
S-OBRYS
  6
CONTINUOUS
 62
     0
 10
-5853.2195705939303
 20
397904.65035017667
 30
0.0
 11
-6448.9338563082147
 21
397904.65035017667
 31
0.0
  0
LINE
  5
64A05
  8
S-OBRYS
  6
CONTINUOUS
 62
     0
 10
-5553.2195705939303
 20
397904.65035017667
 30
0.0
 11
-5753.2195705939303
 21
397904.65035017667
 31
0.0
  0
INSERT
  5
64A06
  8
S-OBRYS
  6
CONTINUOUS
 62
     0
  2
_OPEN
 10
-5553.2195705939303
 20
397904.65035017667
 30
0.0
 41
100.0
 42
100.0
 43
100.0
 50
180.0
  0
INSERT
  5
64A07
  8
S-OBRYS
  6
CONTINUOUS
 62
     0
  2
_OPEN
 10
-5753.2195705939303
 20
397904.65035017667
 30
0.0
 41
100.0
 42
100.0
 43
100.0
  0
INSERT
  5
64A08
  8
S-OBRYS
  6
CONTINUOUS
  2
*U164
 10
0.0
 20
0.0
 30
0.0
  0
POINT
  5
64A09
  8
DEFPOINTS
  6
CONTINUOUS
 62
     0
 10
-5553.2195705939303
 20
397272.94577626162
 30
0.0
  0
POINT
  5
64A0A
  8
DEFPOINTS
  6
CONTINUOUS
 62
     0
 10
-5753.2195705939303
 20
397272.94577626162
 30
0.0
  0
POINT
  5
64A0B
  8
DEFPOINTS
  6
CONTINUOUS
 62
     0
 10
-5753.2195705939303
 20
397904.65035017667
 30
0.0
  0
ENDBLK
  5
64893
  8
0
  0
BLOCK
  8
0
  2
*D95
 70
     1
 10
0.0
 20
0.0
 30
0.0
  3
*D95
  1

  0
LINE
  5
64A0C
  8
S-OBRYS
  6
CONTINUOUS
 62
     0
 10
-2711.8488065742722
 20
398253.25238104741
 30
0.0
 11
-2711.8488065742722
 21
398652.07557341037
 31
0.0
  0
LINE
  5
64A0D
  8
S-OBRYS
  6
CONTINUOUS
 62
     0
 10
-2311.8488065742708
 20
398253.25238104741
 30
0.0
 11
-2311.8488065742708
 21
398652.07557341037
 31
0.0
  0
LINE
  5
64A0E
  8
S-OBRYS
  6
CONTINUOUS
 62
     0
 10
-2611.8488065742708
 20
398642.07557341037
 30
0.0
 11
-2411.8488065742708
 21
398642.07557341037
 31
0.0
  0
LINE
  5
64A0F
  8
S-OBRYS
  6
CONTINUOUS
 62
     0
 10
-2311.8488065742708
 20
398642.07557341037
 30
0.0
 11
-1660.4202351457011
 21
398642.07557341037
 31
0.0
  0
INSERT
  5
64A10
  8
S-OBRYS
  6
CONTINUOUS
 62
     0
  2
_OPEN
 10
-2711.8488065742722
 20
398642.07557341037
 30
0.0
 41
100.0
 42
100.0
 43
100.0
 50
180.0
  0
INSERT
  5
64A11
  8
S-OBRYS
  6
CONTINUOUS
 62
     0
  2
_OPEN
 10
-2311.8488065742708
 20
398642.07557341037
 30
0.0
 41
100.0
 42
100.0
 43
100.0
  0
INSERT
  5
64A12
  8
S-OBRYS
  6
CONTINUOUS
  2
*U165
 10
0.0
 20
0.0
 30
0.0
  0
POINT
  5
64A13
  8
DEFPOINTS
  6
CONTINUOUS
 62
     0
 10
-2711.8488065742722
 20
398250.10238104733
 30
0.0
  0
POINT
  5
64A14
  8
DEFPOINTS
  6
CONTINUOUS
 62
     0
 10
-2311.8488065742708
 20
398250.10238104733
 30
0.0
  0
POINT
  5
64A15
  8
DEFPOINTS
  6
CONTINUOUS
 62
     0
 10
-2311.8488065742708
 20
398642.07557341037
 30
0.0
  0
ENDBLK
  5
648A0
  8
0
  0
BLOCK
  8
0
  2
*D96
 70
     1
 10
0.0
 20
0.0
 30
0.0
  3
*D96
  1

  0
LINE
  5
649B7
  8
S-OBRYS
  6
CONTINUOUS
 62
     0
 10
-5218.219571702386
 20
396901.1261909327
 30
0.0
 11
-5218.219571702386
 21
396321.29155267018
 31
0.0
  0
LINE
  5
649B8
  8
S-OBRYS
  6
CONTINUOUS
 62
     0
 10
-3370.1327479040342
 20
396947.83347963158
 30
0.0
 11
-3370.1327479040342
 21
396321.29155267018
 31
0.0
  0
LINE
  5
649B9
  8
S-OBRYS
  6
CONTINUOUS
 62
     0
 10
-5118.219571702386
 20
396331.29155267018
 30
0.0
 11
-3470.1327479040342
 21
396331.29155267018
 31
0.0
  0
INSERT
  5
649BA
  8
S-OBRYS
  6
CONTINUOUS
 62
     0
  2
_OPEN
 10
-5218.219571702386
 20
396331.29155267018
 30
0.0
 41
100.0
 42
100.0
 43
100.0
 50
180.0
  0
INSERT
  5
649BB
  8
S-OBRYS
  6
CONTINUOUS
 62
     0
  2
_OPEN
 10
-3370.1327479040342
 20
396331.29155267018
 30
0.0
 41
100.0
 42
100.0
 43
100.0
  0
INSERT
  5
649BC
  8
S-OBRYS
  6
CONTINUOUS
  2
*U157
 10
0.0
 20
0.0
 30
0.0
  0
POINT
  5
649BD
  8
DEFPOINTS
  6
CONTINUOUS
 62
     0
 10
-5218.219571702386
 20
396904.27619093278
 30
0.0
  0
POINT
  5
649BE
  8
DEFPOINTS
  6
CONTINUOUS
 62
     0
 10
-3370.1327479040342
 20
396950.9834796316
 30
0.0
  0
POINT
  5
649BF
  8
DEFPOINTS
  6
CONTINUOUS
 62
     0
 10
-3370.1327479040342
 20
396331.29155267018
 30
0.0
  0
ENDBLK
  5
648AC
  8
0
  0
BLOCK
  8
0
  2
*D97
 70
     1
 10
0.0
 20
0.0
 30
0.0
  3
*D97
  1

  0
LINE
  5
649C0
  8
S-OBRYS
  6
CONTINUOUS
 62
     0
 10
-5496.674469433754
 20
397126.72553800431
 30
0.0
 11
-5176.3306801349681
 21
396439.74606486259
 31
0.0
  0
LINE
  5
649C1
  8
S-OBRYS
  6
CONTINUOUS
 62
     0
 10
-2710.5175590498839
 20
398250.39751151809
 30
0.0
 11
-2457.4073189870692
 21
397707.60085001361
 31
0.0
  0
LINE
  5
649C2
  8
S-OBRYS
  6
CONTINUOUS
 62
     0
 10
-5089.9260840473289
 20
396491.07096890482
 30
0.0
 11
-2552.264280309028
 21
397674.40210171242
 31
0.0
  0
INSERT
  5
649C3
  8
S-OBRYS
  6
CONTINUOUS
 62
     0
  2
_OPEN
 10
-5180.5568627521279
 20
396448.80914273311
 30
0.0
 41
100.0
 42
100.0
 43
100.0
 50
204.9999999984617
  0
INSERT
  5
649C4
  8
S-OBRYS
  6
CONTINUOUS
 62
     0
  2
_OPEN
 10
-2461.633501604229
 20
397716.66392788402
 30
0.0
 41
100.0
 42
100.0
 43
100.0
 50
24.999999998461711
  0
INSERT
  5
649C5
  8
S-OBRYS
  6
CONTINUOUS
  2
*U158
 10
0.0
 20
0.0
 30
0.0
  0
POINT
  5
649C6
  8
DEFPOINTS
  6
CONTINUOUS
 62
     0
 10
-5498.0057169581714
 20
397129.5804075335
 30
0.0
  0
POINT
  5
649C7
  8
DEFPOINTS
  6
CONTINUOUS
 62
     0
 10
-2711.8488065742999
 20
398253.25238104741
 30
0.0
  0
POINT
  5
649C8
  8
DEFPOINTS
  6
CONTINUOUS
 62
     0
 10
-2461.633501604229
 20
397716.66392788402
 30
0.0
  0
ENDBLK
  5
648B8
  8
0
  0
BLOCK
  8
0
  2
*D98
 70
     1
 10
0.0
 20
0.0
 30
0.0
  3
*D98
  1

  0
LINE
  5
649C9
  8
S-OBRYS
  6
CONTINUOUS
 62
     0
 10
-5180.6492665604464
 20
397087.88173083827
 30
0.0
 11
-5035.5857846251174
 21
396776.79208989278
 31
0.0
  0
LINE
  5
649CA
  8
S-OBRYS
  6
CONTINUOUS
 62
     0
 10
-2909.9517525212718
 20
398133.8591554786
 30
0.0
 11
-2769.8163170048501
 21
397833.3377441839
 31
0.0
  0
LINE
  5
649CB
  8
S-OBRYS
  6
CONTINUOUS
 62
     0
 10
-4949.1811885374773
 20
396828.11699393502
 30
0.0
 11
-2864.6732783268089
 21
397800.13899588282
 31
0.0
  0
INSERT
  5
649CC
  8
S-OBRYS
  6
CONTINUOUS
 62
     0
  2
_OPEN
 10
-5039.8119672422763
 20
396785.85516776331
 30
0.0
 41
100.0
 42
100.0
 43
100.0
 50
204.9999999984617
  0
INSERT
  5
649CD
  8
S-OBRYS
  6
CONTINUOUS
 62
     0
  2
_OPEN
 10
-2774.0424996220099
 20
397842.40082205442
 30
0.0
 41
100.0
 42
100.0
 43
100.0
 50
24.999999998461711
  0
INSERT
  5
649CE
  8
S-OBRYS
  6
CONTINUOUS
  2
*U159
 10
0.0
 20
0.0
 30
0.0
  0
POINT
  5
649CF
  8
DEFPOINTS
  6
CONTINUOUS
 62
     0
 10
-5181.9805140848621
 20
397090.73660036741
 30
0.0
  0
POINT
  5
649D0
  8
DEFPOINTS
  6
CONTINUOUS
 62
     0
 10
-2911.2830000456888
 20
398136.71402500779
 30
0.0
  0
POINT
  5
649D1
  8
DEFPOINTS
  6
CONTINUOUS
 62
     0
 10
-2774.0424996220099
 20
397842.40082205442
 30
0.0
  0
ENDBLK
  5
648C4
  8
0
  0
BLOCK
  8
0
  2
*D99
 70
     1
 10
0.0
 20
0.0
 30
0.0
  3
*D99
  1

  0
LINE
  5
649D2
  8
S-OBRYS
  6
CONTINUOUS
 62
     0
 10
-5270.2421959957564
 20
396950.9834796316
 30
0.0
 11
-5608.9344733831758
 21
396950.9834796316
 31
0.0
  0
LINE
  5
649D3
  8
S-OBRYS
  6
CONTINUOUS
 62
     0
 10
-5333.2219985969768
 20
397774.9834796316
 30
0.0
 11
-5608.9344733831758
 21
397774.9834796316
 31
0.0
  0
LINE
  5
649D4
  8
S-OBRYS
  6
CONTINUOUS
 62
     0
 10
-5598.9344733831767
 20
397050.9834796316
 30
0.0
 11
-5598.9344733831767
 21
397674.9834796316
 31
0.0
  0
INSERT
  5
649D5
  8
S-OBRYS
  6
CONTINUOUS
 62
     0
  2
_OPEN
 10
-5598.9344733831767
 20
396950.9834796316
 30
0.0
 41
100.0
 42
100.0
 43
100.0
 50
270.0
  0
INSERT
  5
649D6
  8
S-OBRYS
  6
CONTINUOUS
 62
     0
  2
_OPEN
 10
-5598.9344733831767
 20
397774.9834796316
 30
0.0
 41
100.0
 42
100.0
 43
100.0
 50
90.0
  0
INSERT
  5
649D7
  8
S-OBRYS
  6
CONTINUOUS
  2
*U160
 10
0.0
 20
0.0
 30
0.0
  0
POINT
  5
649D8
  8
DEFPOINTS
  6
CONTINUOUS
 62
     0
 10
-5267.0921959957559
 20
396950.9834796316
 30
0.0
  0
POINT
  5
649D9
  8
DEFPOINTS
  6
CONTINUOUS
 62
     0
 10
-5330.0719985969772
 20
397774.9834796316
 30
0.0
  0
POINT
  5
649DA
  8
DEFPOINTS
  6
CONTINUOUS
 62
     0
 10
-5598.9344733831767
 20
397774.9834796316
 30
0.0
  0
ENDBLK
  5
648D0
  8
0
  0
BLOCK
  8
0
  2
*D100
 70
     1
 10
0.0
 20
0.0
 30
0.0
  3
*D100
  1

  0
LINE
  5
649DB
  8
S-OBRYS
  6
CONTINUOUS
 62
     0
 10
-5193.2195717023851
 20
397778.13347963162
 30
0.0
 11
-5193.2195717023851
 21
397958.88399979938
 31
0.0
  0
LINE
  5
649DC
  8
S-OBRYS
  6
CONTINUOUS
 62
     0
 10
-5313.219571702386
 20
397778.13347963162
 30
0.0
 11
-5313.219571702386
 21
397958.88399979938
 31
0.0
  0
LINE
  5
649DD
  8
S-OBRYS
  6
CONTINUOUS
 62
     0
 10
-5093.219571702386
 20
397948.88399979938
 30
0.0
 11
-4993.219571702386
 21
397948.88399979938
 31
0.0
  0
LINE
  5
649DE
  8
S-OBRYS
  6
CONTINUOUS
 62
     0
 10
-5413.219571702386
 20
397948.88399979938
 30
0.0
 11
-5513.219571702386
 21
397948.88399979938
 31
0.0
  0
LINE
  5
649DF
  8
S-OBRYS
  6
CONTINUOUS
 62
     0
 10
-5193.2195717023851
 20
397948.88399979938
 30
0.0
 11
-5313.219571702386
 21
397948.88399979938
 31
0.0
  0
INSERT
  5
649E0
  8
S-OBRYS
  6
CONTINUOUS
 62
     0
  2
_OPEN
 10
-5193.2195717023851
 20
397948.88399979938
 30
0.0
 41
100.0
 42
100.0
 43
100.0
 50
180.0
  0
INSERT
  5
649E1
  8
S-OBRYS
  6
CONTINUOUS
 62
     0
  2
_OPEN
 10
-5313.219571702386
 20
397948.88399979938
 30
0.0
 41
100.0
 42
100.0
 43
100.0
  0
INSERT
  5
649E2
  8
S-OBRYS
  6
CONTINUOUS
  2
*U161
 10
0.0
 20
0.0
 30
0.0
  0
POINT
  5
649E3
  8
DEFPOINTS
  6
CONTINUOUS
 62
     0
 10
-5193.2195717023851
 20
397774.9834796316
 30
0.0
  0
POINT
  5
649E4
  8
DEFPOINTS
  6
CONTINUOUS
 62
     0
 10
-5313.219571702386
 20
397774.9834796316
 30
0.0
  0
POINT
  5
649E5
  8
DEFPOINTS
  6
CONTINUOUS
 62
     0
 10
-5313.219571702386
 20
397948.88399979938
 30
0.0
  0
ENDBLK
  5
648DE
  8
0
  0
BLOCK
  8
0
  2
*D101
 70
     1
 10
0.0
 20
0.0
 30
0.0
  3
*D101
  1

  0
ARC
  5
65318
  8
S-OBRYS
  6
CONTINUOUS
 62
     0
 10
-6126.0932920091427
 20
396950.9834796316
 30
0.0
 40
1219.860513624636
 50
4.6982285446367493
 51
20.301771455362442
  0
INSERT
  5
65319
  8
S-OBRYS
  6
CONTINUOUS
 62
     0
  2
_OPEN
 10
-4906.2327783845103
 20
396950.9834796316
 30
0.0
 41
100.0
 42
100.0
 43
100.0
 50
272.34911427231822
  0
INSERT
  5
6531A
  8
S-OBRYS
  6
CONTINUOUS
 62
     0
  2
_OPEN
 10
-5020.5242094126161
 20
397466.51880946581
 30
0.0
 41
100.0
 42
100.0
 43
100.0
 50
112.650885727681
  0
TEXT
  8
S-OBRYS
  40
100
  5
6536A
  62
7
  72
0
  71
0
 10
-5061.93
 20
397054.
 30
0.000000
  1
25%%d
  0
POINT
  5
6531C
  8
DEFPOINTS
  6
CONTINUOUS
 62
     0
 10
-4919.112506568199
 20
397127.78013196669
 30
0.0
  0
POINT
  5
6531D
  8
DEFPOINTS
  6
CONTINUOUS
 62
     0
 10
-5537.2149028925487
 20
397225.5819821987
 30
0.0
  0
POINT
  5
6531E
  8
DEFPOINTS
  6
CONTINUOUS
 62
     0
 10
-5104.5233100215546
 20
396950.9834796316
 30
0.0
  0
POINT
  5
6531F
  8
DEFPOINTS
  6
CONTINUOUS
 62
     0
 10
-4808.0923708178461
 20
396950.9834796316
 30
0.0
  0
POINT
  5
65320
  8
DEFPOINTS
  6
CONTINUOUS
 62
     0
 10
-2983.6681836176872
 20
398416.32037285308
 30
0.0
  0
ENDBLK
  5
648EA
  8
0
  0
BLOCK
  8
0
  2
*D102
 70
     1
 10
0.0
 20
0.0
 30
0.0
  3
*D102
  1

  0
LINE
  5
649EF
  8
S-OBRYS
  6
CONTINUOUS
 62
     0
 10
-3661.2634591765241
 20
399111.04589620349
 30
0.0
 11
-2920.2858274632308
 21
399456.56944039301
 31
0.0
  0
LINE
  5
649F0
  8
S-OBRYS
  6
CONTINUOUS
 62
     0
 10
-3154.1215450877498
 20
398023.47655175958
 30
0.0
 11
-2413.143913374457
 21
398369.00009594893
 31
0.0
  0
LINE
  5
649F1
  8
S-OBRYS
  6
CONTINUOUS
 62
     0
 10
-2887.0870791595371
 20
399361.71247907192
 30
0.0
 11
-2464.4688174188782
 21
398455.40469203523
 31
0.0
  0
INSERT
  5
649F2
  8
S-OBRYS
  6
CONTINUOUS
 62
     0
  2
_OPEN
 10
-2929.3489053335802
 20
399452.34325777559
 30
0.0
 41
100.0
 42
100.0
 43
100.0
 50
114.9999999999971
  0
INSERT
  5
649F3
  8
S-OBRYS
  6
CONTINUOUS
 62
     0
  2
_OPEN
 10
-2422.206991244806
 20
398364.77391333162
 30
0.0
 41
100.0
 42
100.0
 43
100.0
 50
294.9999999999971
  0
INSERT
  5
649F4
  8
S-OBRYS
  6
CONTINUOUS
  2
*U162
 10
0.0
 20
0.0
 30
0.0
  0
POINT
  5
649F5
  8
DEFPOINTS
  6
CONTINUOUS
 62
     0
 10
-3664.1183287056629
 20
399109.71464867902
 30
0.0
  0
POINT
  5
649F6
  8
DEFPOINTS
  6
CONTINUOUS
 62
     0
 10
-3156.9764146168891
 20
398022.14530423499
 30
0.0
  0
POINT
  5
649F7
  8
DEFPOINTS
  6
CONTINUOUS
 62
     0
 10
-2422.206991244806
 20
398364.77391333162
 30
0.0
  0
ENDBLK
  5
648F6
  8
0
  0
BLOCK
  8
0
  2
*D103
 70
     1
 10
0.0
 20
0.0
 30
0.0
  3
*D103
  1

  0
LINE
  5
649F8
  8
S-OBRYS
  6
CONTINUOUS
 62
     0
 10
-5253.219571702386
 20
397675.99795623019
 30
0.0
 11
-5253.219571702386
 21
396101.5623478315
 31
0.0
  0
LINE
  5
649F9
  8
S-OBRYS
  6
CONTINUOUS
 62
     0
 10
-3095.1327479040119
 20
398047.83347963152
 30
0.0
 11
-3095.1327479040119
 21
396101.5623478315
 31
0.0
  0
LINE
  5
649FA
  8
S-OBRYS
  6
CONTINUOUS
 62
     0
 10
-5153.219571702386
 20
396111.5623478315
 30
0.0
 11
-3195.1327479040119
 21
396111.5623478315
 31
0.0
  0
INSERT
  5
649FB
  8
S-OBRYS
  6
CONTINUOUS
 62
     0
  2
_OPEN
 10
-5253.219571702386
 20
396111.5623478315
 30
0.0
 41
100.0
 42
100.0
 43
100.0
 50
180.0
  0
INSERT
  5
649FC
  8
S-OBRYS
  6
CONTINUOUS
 62
     0
  2
_OPEN
 10
-3095.1327479040119
 20
396111.5623478315
 30
0.0
 41
100.0
 42
100.0
 43
100.0
  0
INSERT
  5
649FD
  8
S-OBRYS
  6
CONTINUOUS
  2
*U163
 10
0.0
 20
0.0
 30
0.0
  0
POINT
  5
649FE
  8
DEFPOINTS
  6
CONTINUOUS
 62
     0
 10
-5253.219571702386
 20
397679.14795623021
 30
0.0
  0
POINT
  5
649FF
  8
DEFPOINTS
  6
CONTINUOUS
 62
     0
 10
-3095.1327479040119
 20
398050.98347963148
 30
0.0
  0
POINT
  5
64A00
  8
DEFPOINTS
  6
CONTINUOUS
 62
     0
 10
-3095.1327479040119
 20
396111.5623478315
 30
0.0
  0
ENDBLK
  5
64902
  8
0
  0
BLOCK
  8
0
  2
*U104
 70
     1
 10
0.0
 20
0.0
 30
0.0
  3
*U104
  1

  0
TEXT
  5
64F2A
  8
SILNA
  6
CONTINUOUS
 10
-16.449777305735289
 20
47.447339193138752
 30
0.0
 40
80.0
  1
1b
  7
R
  0
ENDBLK
  5
64F2C
  8
0
  0
BLOCK
  8
0
  2
*U105
 70
     1
 10
0.0
 20
0.0
 30
0.0
  3
*U105
  1

  0
TEXT
  5
64F2E
  8
SILNA
  6
CONTINUOUS
 10
23.348488544496441
 20
49.591841048852068
 30
0.0
 40
20.0
  1
1a
  7
R
  0
ENDBLK
  5
64F30
  8
0
  0
BLOCK
  8
0
  2
*U106
 70
     1
 10
0.0
 20
0.0
 30
0.0
  3
*U106
  1

  0
TEXT
  5
64F32
  8
SILNA
  6
CONTINUOUS
 10
-3.9222036020662499
 20
557.31871110200882
 30
0.0
 40
100.0
  1
příruba prosévačka
  7
R
  0
ENDBLK
  5
64F34
  8
0
  0
BLOCK
  8
0
  2
*U107
 70
     1
 10
0.0
 20
0.0
 30
0.0
  3
*U107
  1

  0
SOLID
  5
6510C
  8
S-OBRYS
  6
CONTINUOUS
 10
0.0000000000009095
 20
139.99744886101851
 30
0.0
 11
-18.32564214838867
 21
132.40671934395951
 31
0.0
 12
0.0000000000008972
 22
132.40671934395951
 32
0.0
 13
0.0000000000008972
 23
132.40671934395951
 33
0.0
210
0.0
220
0.0
230
1.0
  0
SOLID
  5
6510D
  8
S-OBRYS
  6
CONTINUOUS
 10
0.0000000000009332
 20
139.99744886101851
 30
0.0
 11
0.0000000000009263
 21
132.40671934395951
 31
0.0
 12
45.472905011396342
 22
132.40671934395951
 32
0.0
 13
45.472905011396342
 23
132.40671934395951
 33
0.0
210
0.0
220
0.0
230
1.0
  0
SOLID
  5
6510E
  8
S-OBRYS
  6
CONTINUOUS
 10
-18.32564214838867
 20
132.40671934395951
 30
0.0
 11
-51.120036686711217
 21
118.82283635637209
 31
0.0
 12
0.0000000000008752
 22
118.82283635637209
 32
0.0
 13
0.0000000000008752
 23
118.82283635637209
 33
0.0
  0
SOLID
  5
6510F
  8
S-OBRYS
  6
CONTINUOUS
 10
18.32564214838867
 20
132.40671934395951
 30
0.0
 11
-0.0000000000008972
 21
132.40671934395951
 31
0.0
 12
-0.0000000000008752
 22
118.82283635637209
 32
0.0
 13
-0.0000000000008752
 23
118.82283635637209
 33
0.0
210
0.0
220
0.0
230
-1.0
  0
SOLID
  5
65110
  8
S-OBRYS
  6
CONTINUOUS
 10
0.0000000000009263
 20
132.40671934395951
 30
0.0
 11
0.0000000000009141
 21
118.82283635637209
 31
0.0
 12
70.563549776822697
 22
118.82283635637209
 32
0.0
 13
70.563549776822697
 23
118.82283635637209
 33
0.0
  0
SOLID
  5
65111
  8
S-OBRYS
  6
CONTINUOUS
 10
-0.0000000000009263
 20
132.40671934395951
 30
0.0
 11
-45.472905011396342
 21
132.40671934395951
 31
0.0
 12
-70.563549776822697
 22
118.82283635637209
 32
0.0
 13
-70.563549776822697
 23
118.82283635637209
 33
0.0
210
0.0
220
0.0
230
-1.0
  0
SOLID
  5
65112
  8
S-OBRYS
  6
CONTINUOUS
 10
-51.120036686711217
 20
118.82283635637209
 30
0.0
 11
-63.634272730830311
 21
113.6392700641597
 31
0.0
 12
0.0000000000008669
 22
113.6392700641597
 32
0.0
 13
0.0000000000008669
 23
113.6392700641597
 33
0.0
210
0.0
220
0.0
230
1.0
  0
SOLID
  5
65113
  8
S-OBRYS
  6
CONTINUOUS
 10
51.120036686711217
 20
118.82283635637209
 30
0.0
 11
-0.0000000000008752
 21
118.82283635637209
 31
0.0
 12
-0.0000000000008669
 22
113.6392700641597
 32
0.0
 13
-0.0000000000008669
 23
113.6392700641597
 33
0.0
210
0.0
220
0.0
230
-1.0
  0
SOLID
  5
65114
  8
S-OBRYS
  6
CONTINUOUS
 10
-0.0000000000009141
 20
118.82283635637209
 30
0.0
 11
-43.257964790378153
 21
118.82283635637209
 31
0.0
 12
-0.0000000000008669
 22
113.6392700641597
 32
0.0
 13
-0.0000000000008669
 23
113.6392700641597
 33
0.0
210
0.0
220
0.0
230
-1.0
  0
SOLID
  5
65115
  8
S-OBRYS
  6
CONTINUOUS
 10
43.257964790378153
 20
118.82283635637209
 30
0.0
 11
69.752660745180563
 21
113.6392700641597
 31
0.0
 12
80.138059552472512
 22
113.6392700641597
 32
0.0
 13
80.138059552472512
 23
113.6392700641597
 33
0.0
210
0.0
220
0.0
230
1.0
  0
SOLID
  5
65116
  8
S-OBRYS
  6
CONTINUOUS
 10
-43.257964790378153
 20
118.82283635637209
 30
0.0
 11
-70.563549776822697
 21
118.82283635637209
 31
0.0
 12
-80.138059552472512
 22
113.6392700641597
 32
0.0
 13
-80.138059552472512
 23
113.6392700641597
 33
0.0
210
0.0
220
0.0
230
-1.0
  0
SOLID
  5
65117
  8
S-OBRYS
  6
CONTINUOUS
 10
-63.634272730830311
 20
113.6392700641597
 30
0.0
 11
-71.315354411059985
 21
110.45766185851311
 31
0.0
 12
-5.0574841518304217
 22
110.45766185851311
 32
0.0
 13
-5.0574841518304217
 23
110.45766185851311
 33
0.0
210
0.0
220
0.0
230
1.0
  0
SOLID
  5
65118
  8
S-OBRYS
  6
CONTINUOUS
 10
63.634272730830311
 20
113.6392700641597
 30
0.0
 11
-0.0000000000009095
 21
113.6392700641597
 31
0.0
 12
5.0574841518304217
 22
110.45766185851311
 32
0.0
 13
5.0574841518304217
 23
110.45766185851311
 33
0.0
210
0.0
220
0.0
230
-1.0
  0
SOLID
  5
65119
  8
S-OBRYS
  6
CONTINUOUS
 10
-69.752660745180563
 20
113.6392700641597
 30
0.0
 11
-80.138059552472512
 21
113.6392700641597
 31
0.0
 12
-86.014773989985784
 22
110.45766185851311
 32
0.0
 13
-86.014773989985784
 23
110.45766185851311
 33
0.0
210
0.0
220
0.0
230
-1.0
  0
SOLID
  5
6511A
  8
S-OBRYS
  6
CONTINUOUS
 10
-71.315354411059985
 20
110.45766185851311
 30
0.0
 11
-98.994949366115677
 21
98.992398227135112
 31
0.0
 12
-23.282666312648029
 22
98.992398227135112
 32
0.0
 13
-23.282666312648029
 23
98.992398227135112
 33
0.0
210
0.0
220
0.0
230
1.0
  0
SOLID
  5
6511B
  8
S-OBRYS
  6
CONTINUOUS
 10
71.315354411059985
 20
110.45766185851311
 30
0.0
 11
5.0574841518304217
 21
110.45766185851311
 31
0.0
 12
23.282666312648029
 22
98.992398227135112
 32
0.0
 13
23.282666312648029
 23
98.992398227135112
 33
0.0
210
0.0
220
0.0
230
-1.0
  0
SOLID
  5
6511C
  8
S-OBRYS
  6
CONTINUOUS
 10
-98.994949366115677
 20
98.992398227135112
 30
0.0
 11
-110.3533115346694
 21
71.570886233467292
 31
0.0
 12
-66.871899607022399
 22
71.570886233467292
 32
0.0
 13
-66.871899607022399
 23
71.570886233467292
 33
0.0
210
0.0
220
0.0
230
1.0
  0
SOLID
  5
6511D
  8
S-OBRYS
  6
CONTINUOUS
 10
98.994949366115677
 20
98.992398227135112
 30
0.0
 11
23.282666312648029
 21
98.992398227135112
 31
0.0
 12
66.871899607022399
 22
71.570886233467292
 32
0.0
 13
66.871899607022399
 23
71.570886233467292
 33
0.0
210
0.0
220
0.0
230
-1.0
  0
SOLID
  5
6511E
  8
S-OBRYS
  6
CONTINUOUS
 10
-110.3533115346694
 20
71.570886233467292
 30
0.0
 11
-139.99999999999909
 21
-0.0025511389815165
 31
0.0
 12
-100.3210092793351
 22
-0.0025511389815165
 32
0.0
 13
-100.3210092793351
 23
-0.0025511389815165
 33
0.0
210
0.0
220
0.0
230
1.0
  0
SOLID
  5
6511F
  8
S-OBRYS
  6
CONTINUOUS
 10
110.3533115346694
 20
71.570886233467292
 30
0.0
 11
66.871899607022399
 21
71.570886233467292
 31
0.0
 12
100.3210092793351
 22
-0.0025511389815165
 32
0.0
 13
100.3210092793351
 23
-0.0025511389815165
 33
0.0
210
0.0
220
0.0
230
-1.0
  0
SOLID
  5
65120
  8
S-OBRYS
  6
CONTINUOUS
 10
-139.99999999999909
 20
-0.0025511389815165
 30
0.0
 11
-139.99999999999909
 21
-0.0025511389815165
 31
0.0
 12
-100.3210092793351
 22
-0.0025511389815165
 32
0.0
 13
-100.3210092793351
 23
-0.0025511389815165
 33
0.0
210
0.0
220
0.0
230
1.0
  0
SOLID
  5
65121
  8
S-OBRYS
  6
CONTINUOUS
 10
-139.99999999999909
 20
-0.0025511389815165
 30
0.0
 11
-139.99999999999909
 21
-0.0025511389815165
 31
0.0
 12
-100.3210092793351
 22
-0.0025511389815165
 32
0.0
 13
-100.3210092793351
 23
-0.0025511389815165
 33
0.0
210
0.0
220
0.0
230
1.0
  0
SOLID
  5
65122
  8
S-OBRYS
  6
CONTINUOUS
 10
-139.99999999999909
 20
-0.0025511389815165
 30
0.0
 11
-117.02828563153059
 21
-72.883147809960434
 31
0.0
 12
-91.980753483793407
 22
-72.883147809960434
 32
0.0
 13
-91.980753483793407
 23
-72.883147809960434
 33
0.0
210
0.0
220
0.0
230
1.0
  0
SOLID
  5
65123
  8
S-OBRYS
  6
CONTINUOUS
 10
139.99999999999909
 20
-0.0025511389815165
 30
0.0
 11
100.3210092793351
 21
-0.0025511389815165
 31
0.0
 12
91.980753483793407
 22
-72.883147809960434
 32
0.0
 13
91.980753483793407
 23
-72.883147809960434
 33
0.0
210
0.0
220
0.0
230
-1.0
  0
SOLID
  5
65124
  8
S-OBRYS
  6
CONTINUOUS
 10
-117.02828563153059
 20
-72.883147809960434
 30
0.0
 11
-114.69621614817829
 21
-80.281925833171329
 31
0.0
 12
-86.424720604643284
 22
-80.281925833171329
 32
0.0
 13
-86.424720604643284
 23
-80.281925833171329
 33
0.0
  0
SOLID
  5
65125
  8
S-OBRYS
  6
CONTINUOUS
 10
117.02828563153059
 20
-72.883147809960434
 30
0.0
 11
91.980753483793407
 21
-72.883147809960434
 31
0.0
 12
86.424720604643284
 22
-80.281925833171329
 32
0.0
 13
86.424720604643284
 23
-80.281925833171329
 33
0.0
210
0.0
220
0.0
230
-1.0
  0
SOLID
  5
65126
  8
S-OBRYS
  6
CONTINUOUS
 10
114.69621614817829
 20
-80.281925833171329
 30
0.0
 11
86.424720604643284
 21
-80.281925833171329
 31
0.0
 12
47.931742838711259
 22
-131.54170131277371
 32
0.0
 13
47.931742838711259
 23
-131.54170131277371
 33
0.0
210
0.0
220
0.0
230
-1.0
  0
LINE
  5
65127
  8
S-OBRYS
  6
CONTINUOUS
 10
0.0000000000008972
 20
132.40671934395951
 30
0.0
 11
0.0000000000009095
 21
139.99744886101851
 31
0.0
  0
LINE
  5
65128
  8
S-OBRYS
  6
CONTINUOUS
 10
0.0000000000009332
 20
139.99744886101851
 30
0.0
 11
0.0000000000009263
 21
132.40671934395951
 31
0.0
  0
LINE
  5
65129
  8
S-OBRYS
  6
CONTINUOUS
 10
-18.32564214838867
 20
132.40671934395951
 30
0.0
 11
-51.120036686711217
 21
118.82283635637209
 31
0.0
  0
LINE
  5
6512A
  8
S-OBRYS
  6
CONTINUOUS
 10
0.0000000000008972
 20
132.40671934395951
 30
0.0
 11
0.0000000000008752
 21
118.82283635637209
 31
0.0
  0
LINE
  5
6512B
  8
S-OBRYS
  6
CONTINUOUS
 10
0.0000000000009263
 20
132.40671934395951
 30
0.0
 11
0.0000000000009141
 21
118.82283635637209
 31
0.0
  0
LINE
  5
6512C
  8
S-OBRYS
  6
CONTINUOUS
 10
45.472905011396342
 20
132.40671934395951
 30
0.0
 11
70.563549776822697
 21
118.82283635637209
 31
0.0
  0
LINE
  5
6512D
  8
S-OBRYS
  6
CONTINUOUS
 10
-51.120036686711217
 20
118.82283635637209
 30
0.0
 11
-63.634272730830311
 21
113.6392700641597
 31
0.0
  0
LINE
  5
6512E
  8
S-OBRYS
  6
CONTINUOUS
 10
43.257964790378153
 20
118.82283635637209
 30
0.0
 11
0.0000000000008669
 21
113.6392700641597
 31
0.0
  0
LINE
  5
6512F
  8
S-OBRYS
  6
CONTINUOUS
 10
0.0000000000008669
 20
113.6392700641597
 30
0.0
 11
0.0000000000009141
 21
118.82283635637209
 31
0.0
  0
LINE
  5
65130
  8
S-OBRYS
  6
CONTINUOUS
 10
70.563549776822697
 20
118.82283635637209
 30
0.0
 11
80.138059552472512
 21
113.6392700641597
 31
0.0
  0
LINE
  5
65131
  8
S-OBRYS
  6
CONTINUOUS
 10
-63.634272730830311
 20
113.6392700641597
 30
0.0
 11
-71.315354411059985
 21
110.45766185851311
 31
0.0
  0
LINE
  5
65132
  8
S-OBRYS
  6
CONTINUOUS
 10
0.0000000000009095
 20
113.6392700641597
 30
0.0
 11
-5.0574841518304217
 21
110.45766185851311
 31
0.0
  0
LINE
  5
65133
  8
S-OBRYS
  6
CONTINUOUS
 10
80.138059552472512
 20
113.6392700641597
 30
0.0
 11
86.014773989985784
 21
110.45766185851311
 31
0.0
  0
LINE
  5
65134
  8
S-OBRYS
  6
CONTINUOUS
 10
86.014773989985784
 20
110.45766185851311
 30
0.0
 11
69.752660745180563
 21
113.6392700641597
 31
0.0
  0
LINE
  5
65135
  8
S-OBRYS
  6
CONTINUOUS
 10
-71.315354411059985
 20
110.45766185851311
 30
0.0
 11
-98.994949366115677
 21
98.992398227135112
 31
0.0
  0
LINE
  5
65136
  8
S-OBRYS
  6
CONTINUOUS
 10
-5.0574841518304217
 20
110.45766185851311
 30
0.0
 11
-23.282666312648029
 21
98.992398227135112
 31
0.0
  0
LINE
  5
65137
  8
S-OBRYS
  6
CONTINUOUS
 10
-98.994949366115677
 20
98.992398227135112
 30
0.0
 11
-110.3533115346694
 21
71.570886233467292
 31
0.0
  0
LINE
  5
65138
  8
S-OBRYS
  6
CONTINUOUS
 10
-23.282666312648029
 20
98.992398227135112
 30
0.0
 11
-66.871899607022399
 21
71.570886233467292
 31
0.0
  0
LINE
  5
65139
  8
S-OBRYS
  6
CONTINUOUS
 10
-110.3533115346694
 20
71.570886233467292
 30
0.0
 11
-139.99999999999909
 21
-0.0025511389815165
 31
0.0
  0
LINE
  5
6513A
  8
S-OBRYS
  6
CONTINUOUS
 10
-66.871899607022399
 20
71.570886233467292
 30
0.0
 11
-100.3210092793351
 21
-0.0025511389815165
 31
0.0
  0
LINE
  5
6513B
  8
S-OBRYS
  6
CONTINUOUS
 10
-139.99999999999909
 20
-0.0025511389815165
 30
0.0
 11
-100.3210092793351
 21
-0.0025511389815165
 31
0.0
  0
LINE
  5
6513C
  8
S-OBRYS
  6
CONTINUOUS
 10
-139.99999999999909
 20
-0.0025511389815165
 30
0.0
 11
-100.3210092793351
 21
-0.0025511389815165
 31
0.0
  0
LINE
  5
6513D
  8
S-OBRYS
  6
CONTINUOUS
 10
-139.99999999999909
 20
-0.0025511389815165
 30
0.0
 11
-117.02828563153059
 21
-72.883147809960434
 31
0.0
  0
LINE
  5
6513E
  8
S-OBRYS
  6
CONTINUOUS
 10
-100.3210092793351
 20
-0.0025511389815165
 30
0.0
 11
-91.980753483793407
 21
-72.883147809960434
 31
0.0
  0
LINE
  5
6513F
  8
S-OBRYS
  6
CONTINUOUS
 10
-117.02828563153059
 20
-72.883147809960434
 30
0.0
 11
-114.69621614817829
 21
-80.281925833171329
 31
0.0
  0
LINE
  5
65140
  8
S-OBRYS
  6
CONTINUOUS
 10
-91.980753483793407
 20
-72.883147809960434
 30
0.0
 11
-86.424720604643284
 21
-80.281925833171329
 31
0.0
  0
LINE
  5
65141
  8
S-OBRYS
  6
CONTINUOUS
 10
-86.424720604643284
 20
-80.281925833171329
 30
0.0
 11
-47.931742838711259
 21
-131.54170131277371
 31
0.0
  0
LINE
  5
65142
  8
S-OBRYS
  6
CONTINUOUS
 10
-47.931742838711259
 20
-131.54170131277371
 30
0.0
 11
-114.69621614817829
 21
-80.281925833171329
 31
0.0
  0
ENDBLK
  5
65144
  8
0
  0
BLOCK
  8
0
  2
*U108
 70
     1
 10
0.0
 20
0.0
 30
0.0
  3
*U108
  1

  0
SOLID
  5
6514F
  8
S-OBRYS
  6
CONTINUOUS
 10
2000.0000000000421
 20
549.9974488602569
 30
0.0
 11
2000.0000000000421
 21
-0.0025511389934536
 31
0.0
 12
2012.2676761359601
 22
-0.0025511389934536
 32
0.0
 13
2012.2676761359601
 23
-0.0025511389934536
 33
0.0
210
0.0
220
0.0
230
1.0
  0
SOLID
  5
65150
  8
S-OBRYS
  6
CONTINUOUS
 10
2000.0000000000421
 20
-0.0025511389934536
 30
0.0
 11
2000.0000000000421
 21
-0.0025511389934536
 31
0.0
 12
2012.2676761359601
 22
-0.0025511389934536
 32
0.0
 13
2012.2676761359601
 23
-0.0025511389934536
 33
0.0
210
0.0
220
0.0
230
1.0
  0
SOLID
  5
65151
  8
S-OBRYS
  6
CONTINUOUS
 10
2000.0000000000421
 20
-0.0025511389934536
 30
0.0
 11
2000.0000000000421
 21
-0.0025511389934536
 31
0.0
 12
2012.2676761359601
 22
-0.0025511389934536
 32
0.0
 13
2012.2676761359601
 23
-0.0025511389934536
 33
0.0
210
0.0
220
0.0
230
1.0
  0
SOLID
  5
65152
  8
S-OBRYS
  6
CONTINUOUS
 10
2000.0000000000421
 20
-0.0025511389934536
 30
0.0
 11
2000.0000000000421
 21
-526.00255113898993
 31
0.0
 12
2024.0000354950589
 22
-526.00255113898993
 32
0.0
 13
2024.0000354950589
 23
-526.00255113898993
 33
0.0
210
0.0
220
0.0
230
1.0
  0
SOLID
  5
65153
  8
S-OBRYS
  6
CONTINUOUS
 10
-2000.0000000000421
 20
-0.0025511389934536
 30
0.0
 11
-2012.2676761359601
 21
-0.0025511389934536
 31
0.0
 12
-2024.0000354950589
 22
-526.00255113898993
 32
0.0
 13
-2024.0000354950589
 23
-526.00255113898993
 33
0.0
210
0.0
220
0.0
230
-1.0
  0
SOLID
  5
65154
  8
S-OBRYS
  6
CONTINUOUS
 10
2000.0000000000421
 20
-526.00255113898993
 30
0.0
 11
2000.0000000000421
 21
-545.98193239837519
 31
0.0
 12
2670.0000000000268
 22
-545.98193239837519
 32
0.0
 13
2670.0000000000268
 23
-545.98193239837519
 33
0.0
  0
SOLID
  5
65155
  8
S-OBRYS
  6
CONTINUOUS
 10
-2000.0000000000421
 20
-526.00255113898993
 30
0.0
 11
-2024.0000354950589
 21
-526.00255113898993
 31
0.0
 12
-2670.0000000000268
 22
-545.98193239837519
 32
0.0
 13
-2670.0000000000268
 23
-545.98193239837519
 33
0.0
210
0.0
220
0.0
230
-1.0
  0
SOLID
  5
65156
  8
S-OBRYS
  6
CONTINUOUS
 10
2000.0000000000421
 20
-545.98193239837519
 30
0.0
 11
2000.0000000000421
 21
-550.00255113897902
 31
0.0
 12
2670.0000000000268
 22
-550.00255113897902
 32
0.0
 13
2670.0000000000268
 23
-550.00255113897902
 33
0.0
  0
SOLID
  5
65157
  8
S-OBRYS
  6
CONTINUOUS
 10
-2000.0000000000421
 20
-545.98193239837519
 30
0.0
 11
-2669.9999999999241
 21
-545.98193239837519
 31
0.0
 12
-2670.0000000000268
 22
-550.00255113897902
 32
0.0
 13
-2670.0000000000268
 23
-550.00255113897902
 33
0.0
210
0.0
220
0.0
230
-1.0
  0
SOLID
  5
65158
  8
S-OBRYS
  6
CONTINUOUS
 10
2670.0000000000268
 20
-545.98193239837519
 30
0.0
 11
2670.0000000000418
 21
-550.00255113897902
 31
0.0
 12
2800.0000000000568
 22
-550.00255113897902
 32
0.0
 13
2800.0000000000568
 23
-550.00255113897902
 33
0.0
  0
SOLID
  5
65159
  8
S-OBRYS
  6
CONTINUOUS
 10
2000.0000000000421
 20
-550.00255113897902
 30
0.0
 11
2000.0000000000421
 21
-550.00255113897902
 31
0.0
 12
2670.0000000000268
 22
-550.00255113897902
 32
0.0
 13
2670.0000000000268
 23
-550.00255113897902
 33
0.0
210
0.0
220
0.0
230
1.0
  0
SOLID
  5
6515A
  8
S-OBRYS
  6
CONTINUOUS
 10
2670.0000000000418
 20
-550.00255113897902
 30
0.0
 11
2670.0000000000418
 21
-550.00255113897902
 31
0.0
 12
2800.0000000000568
 22
-550.00255113897902
 32
0.0
 13
2800.0000000000568
 23
-550.00255113897902
 33
0.0
210
0.0
220
0.0
230
1.0
  0
LINE
  5
6515B
  8
S-OBRYS
  6
CONTINUOUS
 10
2000.0000000000421
 20
549.9974488602569
 30
0.0
 11
2000.0000000000421
 21
-0.0025511389934536
 31
0.0
  0
LINE
  5
6515C
  8
S-OBRYS
  6
CONTINUOUS
 10
2012.2676761359601
 20
-0.0025511389934536
 30
0.0
 11
2000.0000000000421
 21
549.9974488602569
 31
0.0
  0
LINE
  5
6515D
  8
S-OBRYS
  6
CONTINUOUS
 10
2000.0000000000421
 20
-0.0025511389934536
 30
0.0
 11
2012.2676761359601
 21
-0.0025511389934536
 31
0.0
  0
LINE
  5
6515E
  8
S-OBRYS
  6
CONTINUOUS
 10
2000.0000000000421
 20
-0.0025511389934536
 30
0.0
 11
2012.2676761359601
 21
-0.0025511389934536
 31
0.0
  0
LINE
  5
6515F
  8
S-OBRYS
  6
CONTINUOUS
 10
2000.0000000000421
 20
-0.0025511389934536
 30
0.0
 11
2000.0000000000421
 21
-526.00255113898993
 31
0.0
  0
LINE
  5
65160
  8
S-OBRYS
  6
CONTINUOUS
 10
2012.2676761359601
 20
-0.0025511389934536
 30
0.0
 11
2024.0000354950589
 21
-526.00255113898993
 31
0.0
  0
LINE
  5
65161
  8
S-OBRYS
  6
CONTINUOUS
 10
2000.0000000000421
 20
-526.00255113898993
 30
0.0
 11
2000.0000000000421
 21
-545.98193239837519
 31
0.0
  0
LINE
  5
65162
  8
S-OBRYS
  6
CONTINUOUS
 10
2024.0000354950589
 20
-526.00255113898993
 30
0.0
 11
2670.0000000000268
 21
-545.98193239837519
 31
0.0
  0
LINE
  5
65163
  8
S-OBRYS
  6
CONTINUOUS
 10
2000.0000000000421
 20
-545.98193239837519
 30
0.0
 11
2000.0000000000421
 21
-550.00255113897902
 31
0.0
  0
LINE
  5
65164
  8
S-OBRYS
  6
CONTINUOUS
 10
2670.0000000000268
 20
-545.98193239837519
 30
0.0
 11
2670.0000000000418
 21
-550.00255113897902
 31
0.0
  0
LINE
  5
65165
  8
S-OBRYS
  6
CONTINUOUS
 10
2000.0000000000421
 20
-550.00255113897902
 30
0.0
 11
2670.0000000000268
 21
-550.00255113897902
 31
0.0
  0
LINE
  5
65166
  8
S-OBRYS
  6
CONTINUOUS
 10
2670.0000000000418
 20
-550.00255113897902
 30
0.0
 11
2800.0000000000568
 21
-550.00255113897902
 31
0.0
  0
ENDBLK
  5
65168
  8
0
  0
BLOCK
  8
0
  2
*X109
 70
     1
 10
0.0
 20
0.0
 30
0.0
  3
*X109
  1

  0
LINE
  5
6516F
  8
0
  6
CONTINUOUS
 62
     0
 10
2800.00000000004
 20
654.33382523685566
 30
0.0
 11
2754.3363763758612
 21
699.99744886103508
 31
0.0
  0
LINE
  5
65170
  8
0
  6
CONTINUOUS
 62
     0
 10
2740.0000000000368
 20
624.53126402616181
 30
0.0
 11
2670.00000000004
 21
694.53126402615806
 31
0.0
  0
LINE
  5
65171
  8
0
  6
CONTINUOUS
 62
     0
 10
2670.00000000004
 20
694.53126402615806
 30
0.0
 11
2664.5338151651781
 21
699.99744886102053
 31
0.0
  0
LINE
  5
65172
  8
0
  6
CONTINUOUS
 62
     0
 10
2741.5338151651699
 20
622.99744886102405
 30
0.0
 11
2740.0000000000368
 21
624.53126402616181
 31
0.0
  0
LINE
  5
65173
  8
0
  6
CONTINUOUS
 62
     0
 10
2603.2868620971822
 20
671.44184071832569
 30
0.0
 11
2600.0000000000332
 21
674.72870281547512
 31
0.0
  0
LINE
  5
65174
  8
0
  6
CONTINUOUS
 62
     0
 10
2600.0000000000332
 20
674.72870281547512
 30
0.0
 11
2574.7312539544769
 21
699.99744886103144
 31
0.0
  0
LINE
  5
65175
  8
0
  6
CONTINUOUS
 62
     0
 10
2651.7312539544769
 20
622.99744886103144
 30
0.0
 11
2609.4443918573311
 21
665.28431095817723
 31
0.0
  0
LINE
  5
65176
  8
0
  6
CONTINUOUS
 62
     0
 10
2561.9286927437902
 20
622.99744886103497
 30
0.0
 11
2540.0000000000359
 21
644.92614160478468
 31
0.0
  0
LINE
  5
65177
  8
0
  6
CONTINUOUS
 62
     0
 10
2740.00000000004
 20
-632.70459292351734
 30
0.0
 11
2730.2979582154881
 21
-623.00255113896492
 31
0.0
  0
LINE
  5
65178
  8
0
  6
CONTINUOUS
 62
     0
 10
2800.0000000000441
 20
-692.70459292352098
 30
0.0
 11
2740.00000000004
 21
-632.70459292351734
 31
0.0
  0
LINE
  5
65179
  8
0
  6
CONTINUOUS
 62
     0
 10
2670.00000000004
 20
-652.50715413421494
 30
0.0
 11
2640.495397004805
 21
-623.00255113897936
 31
0.0
  0
LINE
  5
6517A
  8
0
  6
CONTINUOUS
 62
     0
 10
2717.4953970047859
 20
-700.00255113896492
 30
0.0
 11
2670.00000000004
 21
-652.50715413421494
 31
0.0
  0
LINE
  5
6517B
  8
0
  6
CONTINUOUS
 62
     0
 10
2600.00000000004
 20
-672.30971534490516
 30
0.0
 11
2598.593417944765
 21
-670.9031332896302
 31
0.0
  0
LINE
  5
6517C
  8
0
  6
CONTINUOUS
 62
     0
 10
2590.0994178493752
 20
-662.40913319423987
 30
0.0
 11
2550.6928357941042
 21
-623.00255113896856
 31
0.0
  0
LINE
  5
6517D
  8
0
  6
CONTINUOUS
 62
     0
 10
2627.6928357941042
 20
-700.00255113896856
 30
0.0
 11
2600.00000000004
 21
-672.30971534490516
 31
0.0
  0
ENDBLK
  5
6517F
  8
0
  0
BLOCK
  8
0
  2
*X110
 70
     1
 10
0.0
 20
0.0
 30
0.0
  3
*X110
  1

  0
LINE
  5
65181
  8
0
  6
CONTINUOUS
 62
     0
 10
450.00000000003268
 20
-657.76862319080817
 30
0.0
 11
414.23392794820018
 21
-622.00255113897583
 31
0.0
  0
LINE
  5
65182
  8
0
  6
CONTINUOUS
 62
     0
 10
388.00000000003638
 20
-685.57118440149861
 30
0.0
 11
324.43136673751718
 21
-622.00255113897947
 31
0.0
  0
LINE
  5
65183
  8
0
  6
CONTINUOUS
 62
     0
 10
402.43136673751718
 20
-700.00255113897583
 30
0.0
 11
388.00000000003638
 21
-685.57118440149861
 31
0.0
  0
LINE
  5
65184
  8
0
  6
CONTINUOUS
 62
     0
 10
312.62880552682691
 20
-700.00255113897583
 30
0.0
 11
234.62880552682691
 21
-622.00255113897583
 31
0.0
  0
LINE
  5
65185
  8
0
  6
CONTINUOUS
 62
     0
 10
222.82624431612561
 20
-700.00255113897583
 30
0.0
 11
144.82624431612561
 21
-622.00255113897583
 31
0.0
  0
LINE
  5
65186
  8
0
  6
CONTINUOUS
 62
     0
 10
88.000000000032742
 20
-654.97886803356948
 30
0.0
 11
55.023683105442622
 21
-622.00255113897947
 31
0.0
  0
LINE
  5
65187
  8
0
  6
CONTINUOUS
 62
     0
 10
133.02368310544259
 20
-700.00255113897583
 30
0.0
 11
88.000000000032742
 21
-654.97886803356948
 31
0.0
  0
LINE
  5
65188
  8
0
  6
CONTINUOUS
 62
     0
 10
43.221121894745011
 20
-700.00255113896856
 30
0.0
 11
0.0000000000400178
 21
-656.78142924426345
 31
0.0
  0
ENDBLK
  5
6518A
  8
0
  0
BLOCK
  8
0
  2
*X111
 70
     1
 10
0.0
 20
0.0
 30
0.0
  3
*X111
  1

  0
LINE
  5
6518C
  8
0
  6
CONTINUOUS
 62
     0
 10
450.00000000003268
 20
664.2313768091916
 30
0.0
 11
414.23392794820018
 21
699.99744886102405
 31
0.0
  0
LINE
  5
6518D
  8
0
  6
CONTINUOUS
 62
     0
 10
388.00000000003638
 20
636.42881559850139
 30
0.0
 11
324.43136673751718
 21
699.99744886102053
 31
0.0
  0
LINE
  5
6518E
  8
0
  6
CONTINUOUS
 62
     0
 10
402.43136673751718
 20
621.99744886102405
 30
0.0
 11
388.00000000003638
 21
636.42881559850139
 31
0.0
  0
LINE
  5
6518F
  8
0
  6
CONTINUOUS
 62
     0
 10
312.62880552682691
 20
621.99744886102405
 30
0.0
 11
234.62880552682691
 21
699.99744886102405
 31
0.0
  0
LINE
  5
65190
  8
0
  6
CONTINUOUS
 62
     0
 10
222.82624431612561
 20
621.99744886102405
 30
0.0
 11
144.82624431612561
 21
699.99744886102405
 31
0.0
  0
LINE
  5
65191
  8
0
  6
CONTINUOUS
 62
     0
 10
88.000000000032742
 20
667.0211319664304
 30
0.0
 11
55.023683105442622
 21
699.99744886102053
 31
0.0
  0
LINE
  5
65192
  8
0
  6
CONTINUOUS
 62
     0
 10
133.02368310544259
 20
621.99744886102405
 30
0.0
 11
88.000000000032742
 21
667.0211319664304
 31
0.0
  0
LINE
  5
65193
  8
0
  6
CONTINUOUS
 62
     0
 10
43.221121894745011
 20
621.99744886103144
 30
0.0
 11
0.0000000000400178
 21
665.21857075573644
 31
0.0
  0
ENDBLK
  5
65195
  8
0
  0
BLOCK
  8
0
  2
*U112
 70
     1
 10
0.0
 20
0.0
 30
0.0
  3
*U112
  1

  0
SOLID
  5
651BF
  8
S-OBRYS
  6
CONTINUOUS
 10
-7.4303002125019191
 20
199.86193804923201
 30
0.0
 11
-106.0799013385006
 21
154.63598606144831
 31
0.0
 12
114.36798504699919
 22
154.63598606144831
 32
0.0
 13
114.36798504699919
 23
154.63598606144831
 33
0.0
210
0.0
220
0.0
230
1.0
  0
SOLID
  5
651C0
  8
S-OBRYS
  6
CONTINUOUS
 10
-106.0799013385006
 20
154.63598606144831
 30
0.0
 11
-123.65704524996811
 21
146.5777368891373
 31
0.0
 12
-7.9187739383873028
 22
146.5777368891373
 32
0.0
 13
-7.9187739383873028
 23
146.5777368891373
 33
0.0
210
0.0
220
0.0
230
1.0
  0
SOLID
  5
651C1
  8
S-OBRYS
  6
CONTINUOUS
 10
106.0799013385006
 20
154.63598606144831
 30
0.0
 11
-6.5672195654881156
 21
154.63598606144831
 31
0.0
 12
7.9187739383873028
 22
146.5777368891373
 32
0.0
 13
7.9187739383873028
 23
146.5777368891373
 33
0.0
210
0.0
220
0.0
230
-1.0
  0
SOLID
  5
651C2
  8
S-OBRYS
  6
CONTINUOUS
 10
6.5672195654881156
 20
154.63598606144831
 30
0.0
 11
72.201549540798865
 21
146.5777368891373
 31
0.0
 12
136.06970470668469
 22
146.5777368891373
 32
0.0
 13
136.06970470668469
 23
146.5777368891373
 33
0.0
210
0.0
220
0.0
230
1.0
  0
SOLID
  5
651C3
  8
S-OBRYS
  6
CONTINUOUS
 10
-6.5672195654881156
 20
154.63598606144831
 30
0.0
 11
-114.36798504699919
 21
154.63598606144831
 31
0.0
 12
-136.06970470668469
 22
146.5777368891373
 32
0.0
 13
-136.06970470668469
 23
146.5777368891373
 33
0.0
210
0.0
220
0.0
230
-1.0
  0
SOLID
  5
651C4
  8
S-OBRYS
  6
CONTINUOUS
 10
-123.65704524996811
 20
146.5777368891373
 30
0.0
 11
-139.0112327472724
 21
139.5386030392437
 31
0.0
 12
-20.572744427763961
 22
139.5386030392437
 32
0.0
 13
-20.572744427763961
 23
139.5386030392437
 33
0.0
210
0.0
220
0.0
230
1.0
  0
SOLID
  5
651C5
  8
S-OBRYS
  6
CONTINUOUS
 10
123.65704524996811
 20
146.5777368891373
 30
0.0
 11
7.9187739383873028
 21
146.5777368891373
 31
0.0
 12
20.572744427763961
 22
139.5386030392437
 32
0.0
 13
20.572744427763961
 23
139.5386030392437
 33
0.0
210
0.0
220
0.0
230
-1.0
  0
SOLID
  5
651C6
  8
S-OBRYS
  6
CONTINUOUS
 10
-72.201549540798865
 20
146.5777368891373
 30
0.0
 11
-136.0697047066846
 21
146.5777368891373
 31
0.0
 12
-129.53519906752251
 22
139.5386030392437
 32
0.0
 13
-129.53519906752251
 23
139.5386030392437
 33
0.0
210
0.0
220
0.0
230
-1.0
  0
SOLID
  5
651C7
  8
S-OBRYS
  6
CONTINUOUS
 10
136.0697047066846
 20
146.5777368891373
 30
0.0
 11
129.5351990675228
 21
139.5386030392437
 31
0.0
 12
143.09108860080289
 22
139.5386030392437
 32
0.0
 13
143.09108860080289
 23
139.5386030392437
 33
0.0
210
0.0
220
0.0
230
1.0
  0
SOLID
  5
651C8
  8
S-OBRYS
  6
CONTINUOUS
 10
-139.0112327472724
 20
139.5386030392437
 30
0.0
 11
-146.577746761573
 21
136.06973144098379
 31
0.0
 12
-26.808596703322301
 22
136.06973144098379
 32
0.0
 13
-26.808596703322301
 23
136.06973144098379
 33
0.0
210
0.0
220
0.0
230
1.0
  0
SOLID
  5
651C9
  8
S-OBRYS
  6
CONTINUOUS
 10
139.0112327472724
 20
139.5386030392437
 30
0.0
 11
20.572744427763961
 21
139.5386030392437
 31
0.0
 12
26.808596703322301
 22
136.06973144098379
 32
0.0
 13
26.808596703322301
 23
136.06973144098379
 33
0.0
210
0.0
220
0.0
230
-1.0
  0
SOLID
  5
651CA
  8
S-OBRYS
  6
CONTINUOUS
 10
129.53519906752311
 20
139.5386030392437
 30
0.0
 11
136.25658556636
 21
136.06973144098379
 31
0.0
 12
146.55121305505739
 22
136.06973144098379
 32
0.0
 13
146.55121305505739
 23
136.06973144098379
 33
0.0
210
0.0
220
0.0
230
1.0
  0
SOLID
  5
651CB
  8
S-OBRYS
  6
CONTINUOUS
 10
-129.53519906752311
 20
139.5386030392437
 30
0.0
 11
-143.09108860080289
 21
139.5386030392437
 31
0.0
 12
-146.55121305505739
 22
136.06973144098379
 32
0.0
 13
-146.55121305505739
 23
136.06973144098379
 33
0.0
210
0.0
220
0.0
230
-1.0
  0
SOLID
  5
651CC
  8
S-OBRYS
  6
CONTINUOUS
 10
-146.577746761573
 20
136.06973144098379
 30
0.0
 11
-146.71532458895959
 21
135.69921976065609
 31
0.0
 12
-146.17862225930841
 22
135.69921976065609
 32
0.0
 13
-146.17862225930841
 23
135.69921976065609
 33
0.0
  0
SOLID
  5
651CD
  8
S-OBRYS
  6
CONTINUOUS
 10
-146.577746761573
 20
136.06973144098379
 30
0.0
 11
-146.1786222593083
 21
135.69921976065609
 31
0.0
 12
-27.47465079020499
 22
135.69921976065609
 32
0.0
 13
-27.47465079020499
 23
135.69921976065609
 33
0.0
210
0.0
220
0.0
230
1.0
  0
SOLID
  5
651CE
  8
S-OBRYS
  6
CONTINUOUS
 10
146.577746761573
 20
136.06973144098379
 30
0.0
 11
26.808596703322301
 21
136.06973144098379
 31
0.0
 12
27.47465079020499
 22
135.69921976065609
 32
0.0
 13
27.47465079020499
 23
135.69921976065609
 33
0.0
210
0.0
220
0.0
230
-1.0
  0
SOLID
  5
651CF
  8
S-OBRYS
  6
CONTINUOUS
 10
136.25658556636
 20
136.06973144098379
 30
0.0
 11
136.9744997742728
 21
135.69921976065609
 31
0.0
 12
146.92079044913899
 22
135.69921976065609
 32
0.0
 13
146.92079044913899
 23
135.69921976065609
 33
0.0
  0
SOLID
  5
651D0
  8
S-OBRYS
  6
CONTINUOUS
 10
-136.25658556636
 20
136.06973144098379
 30
0.0
 11
-146.55121305505739
 21
136.06973144098379
 31
0.0
 12
-146.92079044913899
 22
135.69921976065609
 32
0.0
 13
-146.92079044913899
 23
135.69921976065609
 33
0.0
210
0.0
220
0.0
230
-1.0
  0
SOLID
  5
651D1
  8
S-OBRYS
  6
CONTINUOUS
 10
-146.71532458895959
 20
135.69921976065609
 30
0.0
 11
-147.97074803455669
 21
132.3182312744525
 31
0.0
 12
-142.53653641325681
 22
132.3182312744525
 32
0.0
 13
-142.53653641325681
 23
132.3182312744525
 33
0.0
  0
SOLID
  5
651D2
  8
S-OBRYS
  6
CONTINUOUS
 10
146.71532458895959
 20
135.69921976065609
 30
0.0
 11
146.17862225930841
 21
135.69921976065609
 31
0.0
 12
142.53653641325681
 22
132.3182312744525
 32
0.0
 13
142.53653641325681
 23
132.3182312744525
 33
0.0
210
0.0
220
0.0
230
-1.0
  0
SOLID
  5
651D3
  8
S-OBRYS
  6
CONTINUOUS
 10
-146.1786222593083
 20
135.69921976065609
 30
0.0
 11
-142.5365364132567
 21
132.3182312744525
 31
0.0
 12
-33.552519096401468
 22
132.3182312744525
 32
0.0
 13
-33.552519096401468
 23
132.3182312744525
 33
0.0
  0
SOLID
  5
651D4
  8
S-OBRYS
  6
CONTINUOUS
 10
146.1786222593083
 20
135.69921976065609
 30
0.0
 11
27.47465079020499
 21
135.69921976065609
 31
0.0
 12
33.552519096401468
 22
132.3182312744525
 32
0.0
 13
33.552519096401468
 23
132.3182312744525
 33
0.0
210
0.0
220
0.0
230
-1.0
  0
SOLID
  5
651D5
  8
S-OBRYS
  6
CONTINUOUS
 10
136.9744997742728
 20
135.69921976065609
 30
0.0
 11
143.5256013991617
 21
132.3182312744525
 31
0.0
 12
149.81095848922959
 22
132.3182312744525
 32
0.0
 13
149.81095848922959
 23
132.3182312744525
 33
0.0
210
0.0
220
0.0
230
1.0
  0
SOLID
  5
651D6
  8
S-OBRYS
  6
CONTINUOUS
 10
-136.9744997742728
 20
135.69921976065609
 30
0.0
 11
-146.92079044913899
 21
135.69921976065609
 31
0.0
 12
-149.81095848922959
 22
132.3182312744525
 32
0.0
 13
-149.81095848922959
 23
132.3182312744525
 33
0.0
210
0.0
220
0.0
230
-1.0
  0
SOLID
  5
651D7
  8
S-OBRYS
  6
CONTINUOUS
 10
-147.97074803455669
 20
132.3182312744525
 30
0.0
 11
-151.0521169139048
 21
124.0197780797475
 31
0.0
 12
-133.5972338844588
 22
124.0197780797475
 32
0.0
 13
-133.5972338844588
 23
124.0197780797475
 33
0.0
210
0.0
220
0.0
230
1.0
  0
SOLID
  5
651D8
  8
S-OBRYS
  6
CONTINUOUS
 10
147.97074803455669
 20
132.3182312744525
 30
0.0
 11
142.53653641325681
 21
132.3182312744525
 31
0.0
 12
133.5972338844588
 22
124.0197780797475
 32
0.0
 13
133.5972338844588
 23
124.0197780797475
 33
0.0
210
0.0
220
0.0
230
-1.0
  0
SOLID
  5
651D9
  8
S-OBRYS
  6
CONTINUOUS
 10
-142.5365364132567
 20
132.3182312744525
 30
0.0
 11
-133.59723388445869
 21
124.0197780797475
 31
0.0
 12
-48.470317801828479
 22
124.0197780797475
 32
0.0
 13
-48.470317801828479
 23
124.0197780797475
 33
0.0
210
0.0
220
0.0
230
1.0
  0
SOLID
  5
651DA
  8
S-OBRYS
  6
CONTINUOUS
 10
142.5365364132567
 20
132.3182312744525
 30
0.0
 11
33.552519096401468
 21
132.3182312744525
 31
0.0
 12
48.470317801828479
 22
124.0197780797475
 32
0.0
 13
48.470317801828479
 23
124.0197780797475
 33
0.0
210
0.0
220
0.0
230
-1.0
  0
SOLID
  5
651DB
  8
S-OBRYS
  6
CONTINUOUS
 10
-143.5256013991617
 20
132.3182312744525
 30
0.0
 11
-149.81095848922959
 21
132.3182312744525
 31
0.0
 12
-156.90471947167379
 22
124.0197780797475
 32
0.0
 13
-156.90471947167379
 23
124.0197780797475
 33
0.0
210
0.0
220
0.0
230
-1.0
  0
SOLID
  5
651DC
  8
S-OBRYS
  6
CONTINUOUS
 10
-151.0521169139048
 20
124.0197780797475
 30
0.0
 11
-162.0470583125522
 21
94.409234795978335
 31
0.0
 12
-101.7000118064241
 22
94.409234795978335
 32
0.0
 13
-101.7000118064241
 23
94.409234795978335
 33
0.0
210
0.0
220
0.0
230
1.0
  0
SOLID
  5
651DD
  8
S-OBRYS
  6
CONTINUOUS
 10
151.0521169139048
 20
124.0197780797475
 30
0.0
 11
133.5972338844588
 21
124.0197780797475
 31
0.0
 12
101.7000118064241
 22
94.409234795978335
 32
0.0
 13
101.7000118064241
 23
94.409234795978335
 33
0.0
210
0.0
220
0.0
230
-1.0
  0
SOLID
  5
651DE
  8
S-OBRYS
  6
CONTINUOUS
 10
133.59723388445869
 20
124.0197780797475
 30
0.0
 11
48.470317801828479
 21
124.0197780797475
 31
0.0
 12
101.7000118064241
 22
94.409234795978335
 32
0.0
 13
101.7000118064241
 23
94.409234795978335
 33
0.0
210
0.0
220
0.0
230
-1.0
  0
SOLID
  5
651DF
  8
S-OBRYS
  6
CONTINUOUS
 10
-162.0470583125522
 20
94.409234795978335
 30
0.0
 11
-199.8619479216687
 21
-7.4302734782037438
 31
0.0
 12
-148.81695672466711
 22
-7.4302734782037438
 32
0.0
 13
-148.81695672466711
 23
-7.4302734782037438
 33
0.0
210
0.0
220
0.0
230
1.0
  0
SOLID
  5
651E0
  8
S-OBRYS
  6
CONTINUOUS
 10
162.0470583125522
 20
94.409234795978335
 30
0.0
 11
101.7000118064241
 21
94.409234795978335
 31
0.0
 12
148.81695672466711
 22
-7.4302734782037438
 32
0.0
 13
148.81695672466711
 23
-7.4302734782037438
 33
0.0
210
0.0
220
0.0
230
-1.0
  0
SOLID
  5
651E1
  8
S-OBRYS
  6
CONTINUOUS
 10
-199.8619479216687
 20
-7.4302734782037438
 30
0.0
 11
-195.00201376120179
 21
-18.031057880888518
 31
0.0
 12
-153.72150293915519
 22
-18.031057880888518
 32
0.0
 13
-153.72150293915519
 23
-18.031057880888518
 33
0.0
210
0.0
220
0.0
230
1.0
  0
SOLID
  5
651E2
  8
S-OBRYS
  6
CONTINUOUS
 10
199.8619479216687
 20
-7.4302734782037438
 30
0.0
 11
148.81695672466711
 21
-7.4302734782037438
 31
0.0
 12
153.72150293915519
 22
-18.031057880888518
 32
0.0
 13
153.72150293915519
 23
-18.031057880888518
 33
0.0
210
0.0
220
0.0
230
-1.0
  0
SOLID
  5
651E3
  8
S-OBRYS
  6
CONTINUOUS
 10
-195.00201376120179
 20
-18.031057880888518
 30
0.0
 11
-139.29683524889569
 21
-139.53858617738231
 31
0.0
 12
-129.53523567425751
 22
-139.53858617738231
 32
0.0
 13
-129.53523567425751
 23
-139.53858617738231
 33
0.0
210
0.0
220
0.0
230
1.0
  0
SOLID
  5
651E4
  8
S-OBRYS
  6
CONTINUOUS
 10
195.00201376120179
 20
-18.031057880888518
 30
0.0
 11
153.72150293915519
 21
-18.031057880888518
 31
0.0
 12
129.53523567425751
 22
-139.53858617738231
 32
0.0
 13
129.53523567425751
 23
-139.53858617738231
 33
0.0
210
0.0
220
0.0
230
-1.0
  0
SOLID
  5
651E5
  8
S-OBRYS
  6
CONTINUOUS
 10
139.29683524889569
 20
-139.53858617738231
 30
0.0
 11
129.53523567425759
 21
-139.53858617738231
 31
0.0
 12
136.0697413134194
 22
-146.57772002727569
 32
0.0
 13
136.0697413134194
 23
-146.57772002727569
 33
0.0
210
0.0
220
0.0
230
-1.0
  0
SOLID
  5
651E6
  8
S-OBRYS
  6
CONTINUOUS
 10
-129.53523567425751
 20
-139.53858617738231
 30
0.0
 11
-136.0697413134194
 21
-146.57772002727569
 31
0.0
 12
-125.2121400426451
 22
-146.57772002727569
 32
0.0
 13
-125.2121400426451
 23
-146.57772002727569
 33
0.0
210
0.0
220
0.0
230
1.0
  0
SOLID
  5
651E7
  8
S-OBRYS
  6
CONTINUOUS
 10
-136.0697413134194
 20
-146.57772002727569
 30
0.0
 11
-128.64834715820271
 21
-152.9542450331025
 31
0.0
 12
-121.2959867224501
 22
-152.9542450331025
 32
0.0
 13
-121.2959867224501
 23
-152.9542450331025
 33
0.0
210
0.0
220
0.0
230
1.0
  0
SOLID
  5
651E8
  8
S-OBRYS
  6
CONTINUOUS
 10
136.0697413134194
 20
-146.57772002727569
 30
0.0
 11
125.2121400426451
 21
-146.57772002727569
 31
0.0
 12
121.2959867224501
 22
-152.9542450331025
 32
0.0
 13
121.2959867224501
 23
-152.9542450331025
 33
0.0
210
0.0
220
0.0
230
-1.0
  0
SOLID
  5
651E9
  8
S-OBRYS
  6
CONTINUOUS
 10
-128.64834715820271
 20
-152.9542450331025
 30
0.0
 11
-124.4155441826761
 21
-156.5911053660374
 31
0.0
 12
-118.6470868850928
 22
-156.5911053660374
 32
0.0
 13
-118.6470868850928
 23
-156.5911053660374
 33
0.0
210
0.0
220
0.0
230
1.0
  0
SOLID
  5
651EA
  8
S-OBRYS
  6
CONTINUOUS
 10
128.64834715820271
 20
-152.9542450331025
 30
0.0
 11
121.2959867224501
 21
-152.9542450331025
 31
0.0
 12
118.6470868850928
 22
-156.5911053660374
 32
0.0
 13
118.6470868850928
 23
-156.5911053660374
 33
0.0
210
0.0
220
0.0
230
-1.0
  0
SOLID
  5
651EB
  8
S-OBRYS
  6
CONTINUOUS
 10
124.4155441826761
 20
-156.5911053660374
 30
0.0
 11
118.6470868850928
 21
-156.5911053660374
 31
0.0
 12
112.0270211232598
 22
-165.6802578628913
 32
0.0
 13
112.0270211232598
 23
-165.6802578628913
 33
0.0
210
0.0
220
0.0
230
-1.0
  0
LINE
  5
651EC
  8
S-OBRYS
  6
CONTINUOUS
 10
-7.4303002125019191
 20
199.86193804923201
 30
0.0
 11
-106.0799013385006
 21
154.63598606144831
 31
0.0
  0
LINE
  5
651ED
  8
S-OBRYS
  6
CONTINUOUS
 10
114.36798504699919
 20
154.63598606144831
 30
0.0
 11
-7.4303002125019191
 21
199.86193804923201
 31
0.0
  0
LINE
  5
651EE
  8
S-OBRYS
  6
CONTINUOUS
 10
-106.0799013385006
 20
154.63598606144831
 30
0.0
 11
-123.65704524996811
 21
146.5777368891373
 31
0.0
  0
LINE
  5
651EF
  8
S-OBRYS
  6
CONTINUOUS
 10
114.36798504699919
 20
154.63598606144831
 30
0.0
 11
136.06970470668469
 21
146.5777368891373
 31
0.0
  0
LINE
  5
651F0
  8
S-OBRYS
  6
CONTINUOUS
 10
-123.65704524996811
 20
146.5777368891373
 30
0.0
 11
-139.0112327472724
 21
139.5386030392437
 31
0.0
  0
LINE
  5
651F1
  8
S-OBRYS
  6
CONTINUOUS
 10
-7.9187739383873028
 20
146.5777368891373
 30
0.0
 11
-20.572744427763961
 21
139.5386030392437
 31
0.0
  0
LINE
  5
651F2
  8
S-OBRYS
  6
CONTINUOUS
 10
136.0697047066846
 20
146.5777368891373
 30
0.0
 11
129.53519906752251
 21
139.5386030392437
 31
0.0
  0
LINE
  5
651F3
  8
S-OBRYS
  6
CONTINUOUS
 10
129.53519906752251
 20
139.5386030392437
 30
0.0
 11
72.201549540798865
 21
146.5777368891373
 31
0.0
  0
LINE
  5
651F4
  8
S-OBRYS
  6
CONTINUOUS
 10
136.0697047066846
 20
146.5777368891373
 30
0.0
 11
129.5351990675228
 21
139.5386030392437
 31
0.0
  0
LINE
  5
651F5
  8
S-OBRYS
  6
CONTINUOUS
 10
143.09108860080289
 20
139.5386030392437
 30
0.0
 11
136.0697047066846
 21
146.5777368891373
 31
0.0
  0
LINE
  5
651F6
  8
S-OBRYS
  6
CONTINUOUS
 10
-139.0112327472724
 20
139.5386030392437
 30
0.0
 11
-146.577746761573
 21
136.06973144098379
 31
0.0
  0
LINE
  5
651F7
  8
S-OBRYS
  6
CONTINUOUS
 10
-20.572744427763961
 20
139.5386030392437
 30
0.0
 11
-26.808596703322301
 21
136.06973144098379
 31
0.0
  0
LINE
  5
651F8
  8
S-OBRYS
  6
CONTINUOUS
 10
129.53519906752311
 20
139.5386030392437
 30
0.0
 11
136.25658556636
 21
136.06973144098379
 31
0.0
  0
LINE
  5
651F9
  8
S-OBRYS
  6
CONTINUOUS
 10
143.09108860080289
 20
139.5386030392437
 30
0.0
 11
146.55121305505739
 21
136.06973144098379
 31
0.0
  0
LINE
  5
651FA
  8
S-OBRYS
  6
CONTINUOUS
 10
-146.577746761573
 20
136.06973144098379
 30
0.0
 11
-146.71532458895959
 21
135.69921976065609
 31
0.0
  0
LINE
  5
651FB
  8
S-OBRYS
  6
CONTINUOUS
 10
-146.17862225930841
 20
135.69921976065609
 30
0.0
 11
-146.577746761573
 21
136.06973144098379
 31
0.0
  0
LINE
  5
651FC
  8
S-OBRYS
  6
CONTINUOUS
 10
-146.577746761573
 20
136.06973144098379
 30
0.0
 11
-146.1786222593083
 21
135.69921976065609
 31
0.0
  0
LINE
  5
651FD
  8
S-OBRYS
  6
CONTINUOUS
 10
-26.808596703322301
 20
136.06973144098379
 30
0.0
 11
-27.47465079020499
 21
135.69921976065609
 31
0.0
  0
LINE
  5
651FE
  8
S-OBRYS
  6
CONTINUOUS
 10
136.25658556636
 20
136.06973144098379
 30
0.0
 11
136.9744997742728
 21
135.69921976065609
 31
0.0
  0
LINE
  5
651FF
  8
S-OBRYS
  6
CONTINUOUS
 10
146.55121305505739
 20
136.06973144098379
 30
0.0
 11
146.92079044913899
 21
135.69921976065609
 31
0.0
  0
LINE
  5
65200
  8
S-OBRYS
  6
CONTINUOUS
 10
-146.71532458895959
 20
135.69921976065609
 30
0.0
 11
-147.97074803455669
 21
132.3182312744525
 31
0.0
  0
LINE
  5
65201
  8
S-OBRYS
  6
CONTINUOUS
 10
-146.17862225930841
 20
135.69921976065609
 30
0.0
 11
-142.53653641325681
 21
132.3182312744525
 31
0.0
  0
LINE
  5
65202
  8
S-OBRYS
  6
CONTINUOUS
 10
-146.1786222593083
 20
135.69921976065609
 30
0.0
 11
-142.5365364132567
 21
132.3182312744525
 31
0.0
  0
LINE
  5
65203
  8
S-OBRYS
  6
CONTINUOUS
 10
-27.47465079020499
 20
135.69921976065609
 30
0.0
 11
-33.552519096401468
 21
132.3182312744525
 31
0.0
  0
LINE
  5
65204
  8
S-OBRYS
  6
CONTINUOUS
 10
136.9744997742728
 20
135.69921976065609
 30
0.0
 11
143.5256013991617
 21
132.3182312744525
 31
0.0
  0
LINE
  5
65205
  8
S-OBRYS
  6
CONTINUOUS
 10
146.92079044913899
 20
135.69921976065609
 30
0.0
 11
149.81095848922959
 21
132.3182312744525
 31
0.0
  0
LINE
  5
65206
  8
S-OBRYS
  6
CONTINUOUS
 10
-147.97074803455669
 20
132.3182312744525
 30
0.0
 11
-151.0521169139048
 21
124.0197780797475
 31
0.0
  0
LINE
  5
65207
  8
S-OBRYS
  6
CONTINUOUS
 10
-142.53653641325681
 20
132.3182312744525
 30
0.0
 11
-133.5972338844588
 21
124.0197780797475
 31
0.0
  0
LINE
  5
65208
  8
S-OBRYS
  6
CONTINUOUS
 10
-142.5365364132567
 20
132.3182312744525
 30
0.0
 11
-133.59723388445869
 21
124.0197780797475
 31
0.0
  0
LINE
  5
65209
  8
S-OBRYS
  6
CONTINUOUS
 10
-33.552519096401468
 20
132.3182312744525
 30
0.0
 11
-48.470317801828479
 21
124.0197780797475
 31
0.0
  0
LINE
  5
6520A
  8
S-OBRYS
  6
CONTINUOUS
 10
149.81095848922959
 20
132.3182312744525
 30
0.0
 11
156.90471947167379
 21
124.0197780797475
 31
0.0
  0
LINE
  5
6520B
  8
S-OBRYS
  6
CONTINUOUS
 10
156.90471947167379
 20
124.0197780797475
 30
0.0
 11
143.5256013991617
 21
132.3182312744525
 31
0.0
  0
LINE
  5
6520C
  8
S-OBRYS
  6
CONTINUOUS
 10
-151.0521169139048
 20
124.0197780797475
 30
0.0
 11
-162.0470583125522
 21
94.409234795978335
 31
0.0
  0
LINE
  5
6520D
  8
S-OBRYS
  6
CONTINUOUS
 10
-48.470317801828479
 20
124.0197780797475
 30
0.0
 11
-101.7000118064241
 21
94.409234795978335
 31
0.0
  0
LINE
  5
6520E
  8
S-OBRYS
  6
CONTINUOUS
 10
-101.7000118064241
 20
94.409234795978335
 30
0.0
 11
-133.59723388445869
 21
124.0197780797475
 31
0.0
  0
LINE
  5
6520F
  8
S-OBRYS
  6
CONTINUOUS
 10
-162.0470583125522
 20
94.409234795978335
 30
0.0
 11
-199.8619479216687
 21
-7.4302734782037438
 31
0.0
  0
LINE
  5
65210
  8
S-OBRYS
  6
CONTINUOUS
 10
-101.7000118064241
 20
94.409234795978335
 30
0.0
 11
-148.81695672466711
 21
-7.4302734782037438
 31
0.0
  0
LINE
  5
65211
  8
S-OBRYS
  6
CONTINUOUS
 10
-199.8619479216687
 20
-7.4302734782037438
 30
0.0
 11
-195.00201376120179
 21
-18.031057880888518
 31
0.0
  0
LINE
  5
65212
  8
S-OBRYS
  6
CONTINUOUS
 10
-148.81695672466711
 20
-7.4302734782037438
 30
0.0
 11
-153.72150293915519
 21
-18.031057880888518
 31
0.0
  0
LINE
  5
65213
  8
S-OBRYS
  6
CONTINUOUS
 10
-195.00201376120179
 20
-18.031057880888518
 30
0.0
 11
-139.29683524889569
 21
-139.53858617738231
 31
0.0
  0
LINE
  5
65214
  8
S-OBRYS
  6
CONTINUOUS
 10
-153.72150293915519
 20
-18.031057880888518
 30
0.0
 11
-129.53523567425751
 21
-139.53858617738231
 31
0.0
  0
LINE
  5
65215
  8
S-OBRYS
  6
CONTINUOUS
 10
-129.53523567425759
 20
-139.53858617738231
 30
0.0
 11
-136.0697413134194
 21
-146.57772002727569
 31
0.0
  0
LINE
  5
65216
  8
S-OBRYS
  6
CONTINUOUS
 10
-125.2121400426451
 20
-146.57772002727569
 30
0.0
 11
-129.53523567425751
 21
-139.53858617738231
 31
0.0
  0
LINE
  5
65217
  8
S-OBRYS
  6
CONTINUOUS
 10
-136.0697413134194
 20
-146.57772002727569
 30
0.0
 11
-128.64834715820271
 21
-152.9542450331025
 31
0.0
  0
LINE
  5
65218
  8
S-OBRYS
  6
CONTINUOUS
 10
-125.2121400426451
 20
-146.57772002727569
 30
0.0
 11
-121.2959867224501
 21
-152.9542450331025
 31
0.0
  0
LINE
  5
65219
  8
S-OBRYS
  6
CONTINUOUS
 10
-128.64834715820271
 20
-152.9542450331025
 30
0.0
 11
-124.4155441826761
 21
-156.5911053660374
 31
0.0
  0
LINE
  5
6521A
  8
S-OBRYS
  6
CONTINUOUS
 10
-121.2959867224501
 20
-152.9542450331025
 30
0.0
 11
-118.6470868850928
 21
-156.5911053660374
 31
0.0
  0
LINE
  5
6521B
  8
S-OBRYS
  6
CONTINUOUS
 10
-118.6470868850928
 20
-156.5911053660374
 30
0.0
 11
-112.0270211232598
 21
-165.6802578628913
 31
0.0
  0
LINE
  5
6521C
  8
S-OBRYS
  6
CONTINUOUS
 10
-112.0270211232598
 20
-165.6802578628913
 30
0.0
 11
-124.4155441826761
 21
-156.5911053660374
 31
0.0
  0
ENDBLK
  5
6521E
  8
0
  0
BLOCK
  8
0
  2
*U113
 70
     1
 10
0.0
 20
0.0
 30
0.0
  3
*U113
  1

  0
TEXT
  5
65220
  8
S-OBRYS
  6
CONTINUOUS
 62
     7
 10
8692.030187443821
 20
401846.16994773853
 30
0.0
 40
100.0
  1
1850
 41
0.8
  0
ENDBLK
  5
65222
  8
0
  0
BLOCK
  8
0
  2
*U114
 70
     1
 10
0.0
 20
0.0
 30
0.0
  3
*U114
  1

  0
TEXT
  5
65224
  8
S-OBRYS
  6
CONTINUOUS
 62
     7
 10
9174.5369028809764
 20
402530.87365183863
 30
0.0
 40
100.0
  1
3000
 50
24.999999998479598
 41
0.8
  0
ENDBLK
  5
65226
  8
0
  0
BLOCK
  8
0
  2
*U115
 70
     1
 10
0.0
 20
0.0
 30
0.0
  3
*U115
  1

  0
TEXT
  5
65228
  8
S-OBRYS
  6
CONTINUOUS
 62
     7
 10
9088.7048516268078
 20
402762.2651114391
 30
0.0
 40
100.0
  1
2500
 50
24.999999998479598
 41
0.8
  0
ENDBLK
  5
6522A
  8
0
  0
BLOCK
  8
0
  2
*U116
 70
     1
 10
0.0
 20
0.0
 30
0.0
  3
*U116
  1

  0
TEXT
  5
6522C
  8
S-OBRYS
  6
CONTINUOUS
 62
     7
 10
7487.4965961184653
 20
402736.67139850941
 30
0.0
 40
100.0
  1
824
 50
90.0
 41
0.8
  0
ENDBLK
  5
6522E
  8
0
  0
BLOCK
  8
0
  2
*U117
 70
     1
 10
0.0
 20
0.0
 30
0.0
  3
*U117
  1

  0
TEXT
  5
65230
  8
S-OBRYS
  6
CONTINUOUS
 62
     7
 10
7740.6058231636944
 20
403463.76239486772
 30
0.0
 40
100.0
  1
\U+2205120
 41
0.8
  0
ENDBLK
  5
65232
  8
0
  0
BLOCK
  8
0
  2
*U118
 70
     1
 10
0.0
 20
0.0
 30
0.0
  3
*U118
  1

  0
TEXT
  5
65234
  8
S-OBRYS
  6
CONTINUOUS
 62
     7
 10
8894.1255959576465
 20
399600.76988375798
 30
0.0
 40
100.0
  1
2810
 41
0.8
  0
ENDBLK
  5
65236
  8
0
  0
BLOCK
  8
0
  2
*U119
 70
     1
 10
0.0
 20
0.0
 30
0.0
  3
*U119
  1

  0
TEXT
  5
65238
  8
S-OBRYS
  6
CONTINUOUS
 62
     7
 10
8882.4154640141915
 20
399409.08979941549
 30
0.0
 40
100.0
  1
1850
 41
0.8
  0
ENDBLK
  5
6523A
  8
0
  0
BLOCK
  8
0
  2
*U120
 70
     1
 10
0.0
 20
0.0
 30
0.0
  3
*U120
  1

  0
TEXT
  5
6523C
  8
S-OBRYS
  6
CONTINUOUS
 62
     7
 10
7674.5839903799024
 20
399407.43471879658
 30
0.0
 40
100.0
  1
300
 41
0.8
  0
ENDBLK
  5
6523E
  8
0
  0
BLOCK
  8
0
  2
*U121
 70
     1
 10
0.0
 20
0.0
 30
0.0
  3
*U121
  1

  0
TEXT
  5
65240
  8
S-OBRYS
  6
CONTINUOUS
 62
     7
 10
7391.9233464121007
 20
398817.4734216003
 30
0.0
 40
100.0
  1
520
 50
90.0
 41
0.8
  0
ENDBLK
  5
65242
  8
0
  0
BLOCK
  8
0
  2
*U122
 70
     1
 10
0.0
 20
0.0
 30
0.0
  3
*U122
  1

  0
TEXT
  5
65244
  8
S-OBRYS
  6
CONTINUOUS
 62
     7
 10
8213.7718775033536
 20
402799.56035289809
 30
0.0
 40
100.0
  1
25°
 50
282.50000000000011
 41
0.8
  0
ENDBLK
  5
65246
  8
0
  0
BLOCK
  8
0
  2
*U123
 70
     1
 10
0.0
 20
0.0
 30
0.0
  3
*U123
  1

  0
TEXT
  5
65248
  8
S-OBRYS
  6
CONTINUOUS
 62
     7
 10
10424.367397015911
 20
404552.28538254451
 30
0.0
 40
100.0
  1
1200
 50
294.9999999999971
 41
0.8
  0
ENDBLK
  5
6524A
  8
0
  0
BLOCK
  8
0
  2
*U124
 70
     1
 10
0.0
 20
0.0
 30
0.0
  3
*U124
  1

  0
TEXT
  5
6524C
  8
S-OBRYS
  6
CONTINUOUS
 62
     7
 10
9945.0863157153872
 20
399321.14416782622
 30
0.0
 40
100.0
  1
\U+220521
 50
40.565938384105387
 41
0.8
  0
ENDBLK
  5
6524E
  8
0
  0
BLOCK
  8
0
  2
*U125
 70
     1
 10
0.0
 20
0.0
 30
0.0
  3
*U125
  1

  0
TEXT
  5
65250
  8
S-OBRYS
  6
CONTINUOUS
 62
     7
 10
7565.7876188761393
 20
398389.6162787432
 30
0.0
 40
100.0
  1
100
 50
90.0
 41
0.8
  0
ENDBLK
  5
65252
  8
0
  0
BLOCK
  8
0
  2
*U126
 70
     1
 10
0.0
 20
0.0
 30
0.0
  3
*U126
  1

  0
TEXT
  5
65254
  8
S-OBRYS
  6
CONTINUOUS
 62
     7
 10
8249.2208340528832
 20
398421.50835430343
 30
0.0
 40
100.0
  1
408
 41
0.8
  0
ENDBLK
  5
65256
  8
0
  0
BLOCK
  8
0
  2
*U127
 70
     1
 10
0.0
 20
0.0
 30
0.0
  3
*U127
  1

  0
TEXT
  5
65258
  8
S-OBRYS
  6
CONTINUOUS
 62
     7
 10
7936.220834052885
 20
398421.50835430343
 30
0.0
 40
100.0
  1
218
 41
0.8
  0
ENDBLK
  5
6525A
  8
0
  0
BLOCK
  8
0
  2
*U128
 70
     1
 10
0.0
 20
0.0
 30
0.0
  3
*U128
  1

  0
TEXT
  5
6525C
  8
S-OBRYS
  6
CONTINUOUS
 62
     7
 10
8697.4191785385992
 20
401626.44074289972
 30
0.0
 40
100.0
  1
2160
 41
0.8
  0
ENDBLK
  5
6525E
  8
0
  0
BLOCK
  8
0
  2
*U129
 70
     1
 10
0.0
 20
0.0
 30
0.0
  3
*U129
  1

  0
TEXT
  5
65260
  8
S-OBRYS
  6
CONTINUOUS
 62
     7
 10
9506.9797109020874
 20
398278.62031601969
 30
0.0
 40
100.0
  1
450
 50
90.0
 41
0.8
  0
ENDBLK
  5
65262
  8
0
  0
BLOCK
  8
0
  2
*U130
 70
     1
 10
0.0
 20
0.0
 30
0.0
  3
*U130
  1

  0
TEXT
  5
6529F
  8
OBRYS
  6
CONTINUOUS
 10
-6184.6403437158024
 20
406714.5956023655
 30
0.0
 40
400.0
  1
Mixér obilí  MO4
  7
R
  0
ENDBLK
  5
652A1
  8
0
  0
BLOCK
  8
0
  2
*U131
 70
     1
 10
0.0
 20
0.0
 30
0.0
  3
*U131
  1

  0
TEXT
  5
652A3
  8
S-OBRYS
  6
CONTINUOUS
 62
     7
 10
21239.02686832938
 20
400144.48350536602
 30
0.0
 40
100.0
  1
1850
 41
0.8
  0
ENDBLK
  5
652A5
  8
0
  0
BLOCK
  8
0
  2
*U132
 70
     1
 10
0.0
 20
0.0
 30
0.0
  3
*U132
  1

  0
TEXT
  5
652A7
  8
S-OBRYS
  6
CONTINUOUS
 62
     7
 10
21721.533583765991
 20
400829.18720946659
 30
0.0
 40
100.0
  1
3000
 50
24.999999998455269
 41
0.8
  0
ENDBLK
  5
652A9
  8
0
  0
BLOCK
  8
0
  2
*U133
 70
     1
 10
0.0
 20
0.0
 30
0.0
  3
*U133
  1

  0
TEXT
  5
652AB
  8
S-OBRYS
  6
CONTINUOUS
 62
     7
 10
21635.701532512019
 20
401060.57866906712
 30
0.0
 40
100.0
  1
2500
 50
24.999999998455269
 41
0.8
  0
ENDBLK
  5
652AD
  8
0
  0
BLOCK
  8
0
  2
*U134
 70
     1
 10
0.0
 20
0.0
 30
0.0
  3
*U134
  1

  0
TEXT
  5
652AF
  8
S-OBRYS
  6
CONTINUOUS
 62
     7
 10
20287.602504049239
 20
401762.07595249522
 30
0.0
 40
100.0
  1
\U+2205120
 41
0.8
  0
ENDBLK
  5
652B1
  8
0
  0
BLOCK
  8
0
  2
*U135
 70
     1
 10
0.0
 20
0.0
 30
0.0
  3
*U135
  1

  0
TEXT
  5
652B3
  8
S-OBRYS
  6
CONTINUOUS
 62
     7
 10
20760.768558388849
 20
401097.87391052552
 30
0.0
 40
100.0
  1
25°
 50
282.50000000000011
 41
0.8
  0
ENDBLK
  5
652B5
  8
0
  0
BLOCK
  8
0
  2
*U136
 70
     1
 10
0.0
 20
0.0
 30
0.0
  3
*U136
  1

  0
TEXT
  5
652B7
  8
S-OBRYS
  6
CONTINUOUS
 62
     7
 10
22971.364077901289
 20
402850.598940172
 30
0.0
 40
100.0
  1
1200
 50
294.9999999999971
 41
0.8
  0
ENDBLK
  5
652B9
  8
0
  0
BLOCK
  8
0
  2
*U137
 70
     1
 10
0.0
 20
0.0
 30
0.0
  3
*U137
  1

  0
TEXT
  5
652BB
  8
S-OBRYS
  6
CONTINUOUS
 62
     7
 10
21244.415859424149
 20
399924.75430052727
 30
0.0
 40
100.0
  1
2160
 41
0.8
  0
ENDBLK
  5
652BD
  8
0
  0
BLOCK
  8
0
  2
*U138
 70
     1
 10
0.0
 20
0.0
 30
0.0
  3
*U138
  1

  0
TEXT
  5
652BF
  8
S-OBRYS
  6
CONTINUOUS
 62
     7
 10
19252.126314681511
 20
401717.84230287251
 30
0.0
 40
100.0
  1
MIN.200
 41
0.8
  0
ENDBLK
  5
652C1
  8
0
  0
BLOCK
  8
0
  2
*U139
 70
     1
 10
0.0
 20
0.0
 30
0.0
  3
*U139
  1

  0
TEXT
  5
652C3
  8
S-OBRYS
  6
CONTINUOUS
 62
     7
 10
20067.363792844579
 20
401034.98495613702
 30
0.0
 40
100.0
  1
824
 50
90.0
 41
0.8
  0
ENDBLK
  5
652C5
  8
0
  0
BLOCK
  8
0
  2
*U140
 70
     1
 10
0.0
 20
0.0
 30
0.0
  3
*U140
  1

  0
TEXT
  5
652C7
  8
S-OBRYS
  6
CONTINUOUS
 62
     7
 10
23544.925650129739
 20
402455.26752610621
 30
0.0
 40
100.0
  1
MIN.400
 41
0.8
  0
ENDBLK
  5
652C9
  8
0
  0
BLOCK
  8
0
  2
*U141
 70
     1
 10
0.0
 20
0.0
 30
0.0
  3
*U141
  1

  0
TEXT
  5
652CB
  8
S-OBRYS
  6
CONTINUOUS
 62
     7
 10
-4300.0070299350282
 20
402750.43743112817
 30
0.0
 40
100.0
  1
1850
 41
0.8
  0
ENDBLK
  5
652CD
  8
0
  0
BLOCK
  8
0
  2
*U142
 70
     1
 10
0.0
 20
0.0
 30
0.0
  3
*U142
  1

  0
TEXT
  5
652CF
  8
S-OBRYS
  6
CONTINUOUS
 62
     7
 10
-3817.5003144982861
 20
403435.1411352288
 30
0.0
 40
100.0
  1
3000
 50
24.99999999846117
 41
0.8
  0
ENDBLK
  5
652D1
  8
0
  0
BLOCK
  8
0
  2
*U143
 70
     1
 10
0.0
 20
0.0
 30
0.0
  3
*U143
  1

  0
TEXT
  5
652D3
  8
S-OBRYS
  6
CONTINUOUS
 62
     7
 10
-3903.3323657522801
 20
403666.53259482927
 30
0.0
 40
100.0
  1
2500
 50
24.99999999846117
 41
0.8
  0
ENDBLK
  5
652D5
  8
0
  0
BLOCK
  8
0
  2
*U144
 70
     1
 10
0.0
 20
0.0
 30
0.0
  3
*U144
  1

  0
TEXT
  5
652D7
  8
S-OBRYS
  6
CONTINUOUS
 62
     7
 10
-5504.5406212603848
 20
403640.93888189917
 30
0.0
 40
100.0
  1
824
 50
90.0
 41
0.8
  0
ENDBLK
  5
652D9
  8
0
  0
BLOCK
  8
0
  2
*U145
 70
     1
 10
0.0
 20
0.0
 30
0.0
  3
*U145
  1

  0
TEXT
  5
652DB
  8
S-OBRYS
  6
CONTINUOUS
 62
     7
 10
-5251.4313942151557
 20
404368.02987825742
 30
0.0
 40
100.0
  1
\U+2205120
 41
0.8
  0
ENDBLK
  5
652DD
  8
0
  0
BLOCK
  8
0
  2
*U146
 70
     1
 10
0.0
 20
0.0
 30
0.0
  3
*U146
  1

  0
TEXT
  5
652DF
  8
S-OBRYS
  6
CONTINUOUS
 62
     7
 10
-2567.6698203630558
 20
405456.55286593409
 30
0.0
 40
100.0
  1
1200
 50
294.9999999999971
 41
0.8
  0
ENDBLK
  5
652E1
  8
0
  0
BLOCK
  8
0
  2
*U147
 70
     1
 10
0.0
 20
0.0
 30
0.0
  3
*U147
  1

  0
TEXT
  5
652E3
  8
S-OBRYS
  6
CONTINUOUS
 62
     7
 10
-4294.6180388402481
 20
402530.70822628943
 30
0.0
 40
100.0
  1
2160
 41
0.8
  0
ENDBLK
  5
652E5
  8
0
  0
BLOCK
  8
0
  2
*U148
 70
     1
 10
0.0
 20
0.0
 30
0.0
  3
*U148
  1

  0
TEXT
  5
65322
  8
S-OBRYS
  6
CONTINUOUS
 62
     7
 10
-4115.6941078550644
 20
401340.50440829271
 30
0.0
 40
100.0
  1
2810
 41
0.8
  0
ENDBLK
  5
65324
  8
0
  0
BLOCK
  8
0
  2
*U149
 70
     1
 10
0.0
 20
0.0
 30
0.0
  3
*U149
  1

  0
TEXT
  5
65326
  8
S-OBRYS
  6
CONTINUOUS
 62
     7
 10
-4127.4042397985204
 20
401148.8243239501
 30
0.0
 40
100.0
  1
1850
 41
0.8
  0
ENDBLK
  5
65328
  8
0
  0
BLOCK
  8
0
  2
*U150
 70
     1
 10
0.0
 20
0.0
 30
0.0
  3
*U150
  1

  0
TEXT
  5
6532A
  8
S-OBRYS
  6
CONTINUOUS
 62
     7
 10
-5335.2357134328086
 20
401147.16924333118
 30
0.0
 40
100.0
  1
300
 41
0.8
  0
ENDBLK
  5
6532C
  8
0
  0
BLOCK
  8
0
  2
*U151
 70
     1
 10
0.0
 20
0.0
 30
0.0
  3
*U151
  1

  0
TEXT
  5
6532E
  8
S-OBRYS
  6
CONTINUOUS
 62
     7
 10
-5617.8963574006111
 20
400557.20794613502
 30
0.0
 40
100.0
  1
520
 50
90.0
 41
0.8
  0
ENDBLK
  5
65330
  8
0
  0
BLOCK
  8
0
  2
*U152
 70
     1
 10
0.0
 20
0.0
 30
0.0
  3
*U152
  1

  0
TEXT
  5
65332
  8
S-OBRYS
  6
CONTINUOUS
 62
     7
 10
-3502.839992910624
 20
400018.3548405543
 30
0.0
 40
100.0
  1
450
 50
90.0
 41
0.8
  0
ENDBLK
  5
65334
  8
0
  0
BLOCK
  8
0
  2
*U153
 70
     1
 10
0.0
 20
0.0
 30
0.0
  3
*U153
  1

  0
TEXT
  5
65336
  8
S-OBRYS
  6
CONTINUOUS
 62
     7
 10
-3064.7333880968072
 20
401060.87869236042
 30
0.0
 40
100.0
  1
\U+220521
 50
40.565938383924539
 41
0.8
  0
ENDBLK
  5
65338
  8
0
  0
BLOCK
  8
0
  2
*U154
 70
     1
 10
0.0
 20
0.0
 30
0.0
  3
*U154
  1

  0
TEXT
  5
6533A
  8
S-OBRYS
  6
CONTINUOUS
 62
     7
 10
-5444.0320849365726
 20
400129.3508032778
 30
0.0
 40
100.0
  1
100
 50
90.0
 41
0.8
  0
ENDBLK
  5
6533C
  8
0
  0
BLOCK
  8
0
  2
*U155
 70
     1
 10
0.0
 20
0.0
 30
0.0
  3
*U155
  1

  0
TEXT
  5
6533E
  8
S-OBRYS
  6
CONTINUOUS
 62
     7
 10
-4760.5988697598241
 20
400161.24287883809
 30
0.0
 40
100.0
  1
408
 41
0.8
  0
ENDBLK
  5
65340
  8
0
  0
BLOCK
  8
0
  2
*U156
 70
     1
 10
0.0
 20
0.0
 30
0.0
  3
*U156
  1

  0
TEXT
  5
65342
  8
S-OBRYS
  6
CONTINUOUS
 62
     7
 10
-5073.5988697598259
 20
400161.24287883809
 30
0.0
 40
100.0
  1
218
 41
0.8
  0
ENDBLK
  5
65344
  8
0
  0
BLOCK
  8
0
  2
*U157
 70
     1
 10
0.0
 20
0.0
 30
0.0
  3
*U157
  1

  0
TEXT
  5
65346
  8
S-OBRYS
  6
CONTINUOUS
 62
     7
 10
-4452.2713978984484
 20
396356.29155267018
 30
0.0
 40
100.0
  1
1850
 41
0.8
  0
ENDBLK
  5
65348
  8
0
  0
BLOCK
  8
0
  2
*U158
 70
     1
 10
0.0
 20
0.0
 30
0.0
  3
*U158
  1

  0
TEXT
  5
6534A
  8
S-OBRYS
  6
CONTINUOUS
 62
     7
 10
-3969.7646824617641
 20
397040.99525677081
 30
0.0
 40
100.0
  1
3000
 50
24.999999998461711
 41
0.8
  0
ENDBLK
  5
6534C
  8
0
  0
BLOCK
  8
0
  2
*U159
 70
     1
 10
0.0
 20
0.0
 30
0.0
  3
*U159
  1

  0
TEXT
  5
6534E
  8
S-OBRYS
  6
CONTINUOUS
 62
     7
 10
-4055.596733715669
 20
397272.38671637111
 30
0.0
 40
100.0
  1
2500
 50
24.999999998461711
 41
0.8
  0
ENDBLK
  5
65350
  8
0
  0
BLOCK
  8
0
  2
*U160
 70
     1
 10
0.0
 20
0.0
 30
0.0
  3
*U160
  1

  0
TEXT
  5
65352
  8
S-OBRYS
  6
CONTINUOUS
 62
     7
 10
-5623.9344733832404
 20
397246.79300344118
 30
0.0
 40
100.0
  1
824
 50
90.0
 41
0.8
  0
ENDBLK
  5
65354
  8
0
  0
BLOCK
  8
0
  2
*U161
 70
     1
 10
0.0
 20
0.0
 30
0.0
  3
*U161
  1

  0
TEXT
  5
65356
  8
S-OBRYS
  6
CONTINUOUS
 62
     7
 10
-5403.6957621785768
 20
397973.88399979938
 30
0.0
 40
100.0
  1
\U+2205120
 41
0.8
  0
ENDBLK
  5
65358
  8
0
  0
BLOCK
  8
0
  2
*U162
 70
     1
 10
0.0
 20
0.0
 30
0.0
  3
*U162
  1

  0
TEXT
  5
6535A
  8
S-OBRYS
  6
CONTINUOUS
 62
     7
 10
-2719.934188326592
 20
399062.40698747622
 30
0.0
 40
100.0
  1
1200
 50
294.9999999999971
 41
0.8
  0
ENDBLK
  5
6535C
  8
0
  0
BLOCK
  8
0
  2
*U163
 70
     1
 10
0.0
 20
0.0
 30
0.0
  3
*U163
  1

  0
TEXT
  5
6535E
  8
S-OBRYS
  6
CONTINUOUS
 62
     7
 10
-4446.8824068036683
 20
396136.5623478315
 30
0.0
 40
100.0
  1
2160
 41
0.8
  0
ENDBLK
  5
65360
  8
0
  0
BLOCK
  8
0
  2
*U164
 70
     1
 10
0.0
 20
0.0
 30
0.0
  3
*U164
  1

  0
TEXT
  5
65362
  8
S-OBRYS
  6
CONTINUOUS
 62
     7
 10
-6439.1719515463119
 20
397929.65035017667
 30
0.0
 40
100.0
  1
MIN.200
 41
0.8
  0
ENDBLK
  5
65364
  8
0
  0
BLOCK
  8
0
  2
*U165
 70
     1
 10
0.0
 20
0.0
 30
0.0
  3
*U165
  1

  0
TEXT
  5
65366
  8
S-OBRYS
  6
CONTINUOUS
 62
     7
 10
-2146.3726160980818
 20
398667.07557341037
 30
0.0
 40
100.0
  1
MIN.400
 41
0.8
  0
ENDBLK
  5
65368
  8
0
  0
ENDSEC
  0
SECTION
  2
ENTITIES
  0
TEXT
  5
2F7A5
  8
KOTY
 10
-393803.77638965531
 20
-299016.15321175661
 30
0.0
 40
150.0
  1

 41
0.7
  7
ROMANT
  0
TEXT
  5
3AD8B
  8
KOTY
 10
-14797.18019204357
 20
454294.55370899959
 30
0.0
 40
150.0
  1

 41
0.7
  7
ROMANT
  0
TEXT
  5
404AD
  8
KOTY
 10
44010.2314385153
 20
465617.23741859582
 30
0.0
 40
92.0
  1

 41
0.7
  7
CYRILLIC
  0
TEXT
  5
404B4
  8
KOTY
 10
39575.071591094718
 20
465613.29777162091
 30
0.0
 40
92.0
  1

 41
0.7
  7
CYRILLIC
  0
TEXT
  5
40B14
  8
KOTY
 10
5856.0590664841584
 20
486921.1132385282
 30
0.0
 40
150.0
  1

 41
0.7
  7
ROMANT
  0
TEXT
  5
40BFC
  8
KOTY
 10
8767.7265956277752
 20
466337.2608060218
 30
0.0
 40
150.0
  1

 41
0.7
  7
ROMANS
  0
TEXT
  5
51A7C
  8
KOTY
 10
-47677.341387967608
 20
395133.71812193602
 30
0.0
 40
150.0
  1

 41
0.7
  7
ROMANS
  0
TEXT
  5
51A94
  8
KOTY
 10
-45176.819295693742
 20
395133.7181219359
 30
0.0
 40
150.0
  1

 41
0.7
  7
ROMANS
  0
TEXT
  5
51A9B
  8
KOTY
 10
-48084.423320344351
 20
397411.27855615731
 30
0.0
 40
150.0
  1

 41
0.7
  7
ROMANT
  0
TEXT
  5
51B05
  8
RAZ
 62
     6
 10
-47365.887544580757
 20
392999.37567832542
 30
0.0
 40
193.54103193599991
  1

 41
0.8
  7
R08
  0
TEXT
  5
51B06
  8
RAZ
 62
     1
 10
-47245.037660778231
 20
393401.77274166199
 30
0.0
 40
125.41458869452801
  1

  7
ROMANS
  0
TEXT
  5
58307
  8
KOTY
 10
22966.528519463162
 20
383405.87475258159
 30
0.0
 40
150.0
  1

 41
0.7
  7
ROMANS
  0
TEXT
  5
58308
  8
KOTY
 10
22966.528519463169
 20
383855.87475258159
 30
0.0
 40
150.0
  1

 41
0.7
  7
ROMANS
  0
TEXT
  5
58315
  8
KOTY
 10
25467.050611737021
 20
383855.87475258141
 30
0.0
 40
150.0
  1

 41
0.7
  7
ROMANS
  0
TEXT
  5
58316
  8
KOTY
 10
25467.050611737021
 20
383405.87475258141
 30
0.0
 40
150.0
  1

 41
0.7
  7
ROMANS
  0
TEXT
  5
5833F
  8
KOTY
 10
22966.528519463162
 20
385205.87475258153
 30
0.0
 40
150.0
  1

 41
0.7
  7
ROMANS
  0
TEXT
  5
58340
  8
KOTY
 10
22966.528519463169
 20
385655.87475258159
 30
0.0
 40
150.0
  1

 41
0.7
  7
ROMANS
  0
TEXT
  5
58354
  8
KOTY
 10
25467.050611737021
 20
385655.87475258141
 30
0.0
 40
150.0
  1

 41
0.7
  7
ROMANS
  0
TEXT
  5
58355
  8
KOTY
 10
25467.050611737021
 20
385205.87475258141
 30
0.0
 40
150.0
  1

 41
0.7
  7
ROMANS
  0
TEXT
  5
58397
  8
KOTY
 10
25467.050611737039
 20
390605.87475258129
 30
0.0
 40
150.0
  1

 41
0.7
  7
ROMANS
  0
TEXT
  5
58398
  8
KOTY
 10
25467.050611737039
 20
391055.87475258141
 30
0.0
 40
150.0
  1

 41
0.7
  7
ROMANS
  0
TEXT
  5
583C1
  8
KOTY
 10
25467.050611737031
 20
389255.87475258141
 30
0.0
 40
150.0
  1

 41
0.7
  7
ROMANS
  0
TEXT
  5
58C84
  8
KOTY
 10
22966.52851946322
 20
387905.87475258153
 30
0.0
 40
150.0
  1

 41
0.7
  7
ROMANS
  0
INSERT
  5
5A11D
  8
SILNA
  6
CONTINUOUS
  2
A$C5B1234F8
 10
21045.108802659091
 20
799530.18634617259
 30
0.0
 50
134.99999999999989
  0
LINE
  5
630FB
  8
S-OBRYS
  6
CONTINUOUS
 10
-9317.3245871225408
 20
393402.81400089961
 30
0.0
 11
1182.675412877463
 21
393402.81400089961
 31
0.0
  0
LINE
  5
630FC
  8
S-OBRYS
  6
CONTINUOUS
 10
1182.675412877463
 20
393402.81400089961
 30
0.0
 11
1182.675412877463
 21
408252.81400089961
 31
0.0
  0
LINE
  5
630FD
  8
S-OBRYS
  6
CONTINUOUS
 10
1182.675412877463
 20
408252.81400089961
 30
0.0
 11
-9317.3245871225372
 21
408252.81400089961
 31
0.0
  0
LINE
  5
630FE
  8
S-OBRYS
  6
CONTINUOUS
 10
-9317.3245871225372
 20
408252.81400089961
 30
0.0
 11
-9317.3245871225408
 21
393402.81400089961
 31
0.0
  0
DIMENSION
  5
63FD9
  8
S-OBRYS
  6
CONTINUOUS
  2
*D67
 10
-3217.868379940614
 20
402725.43743112817
 30
0.0
 11
-4141.9117918397887
 21
402800.43743112817
 31
0.0
 70
     0
  1
1850
 13
-5065.9552037389649
 23
403298.42206939071
 33
0.0
 14
-3217.868379940614
 24
403345.12935808959
 34
0.0
  0
DIMENSION
  5
63FDA
  8
S-OBRYS
  6
CONTINUOUS
  2
*D68
 10
-2309.3691336408078
 20
404110.809806342
 30
0.0
 11
-3700.5271838434569
 21
403544.8554977951
 31
0.0
 70
     0
 13
-5345.7413489947503
 23
403523.72628599149
 33
0.0
 14
-2559.5844386109088
 24
404647.3982595054
 34
0.0
 50
24.99999999846117
  0
LINE
  5
63FDB
  8
S-OBRYS
  6
CONTINUOUS
 10
-4952.2589420581353
 20
403345.12935808959
 30
0.0
 11
-4655.8280028544168
 21
403345.12935808959
 31
0.0
  0
DIMENSION
  5
63FDC
  8
S-OBRYS
  6
CONTINUOUS
  2
*D69
 10
-2621.7781316585902
 20
404236.54670051252
 30
0.0
 11
-3786.3592350974509
 21
403776.24695739558
 31
0.0
 70
     0
 13
-5029.7161461214564
 23
403484.88247882552
 33
0.0
 14
-2759.0186320822609
 24
404530.85990346578
 34
0.0
 50
24.99999999846117
  0
LINE
  5
63FDD
  8
S-OBRYS
  6
CONTINUOUS
 10
-5267.8145078624593
 20
403995.48606334103
 30
0.0
 11
-2982.3617989051859
 21
405061.21016387892
 31
0.0
  0
LINE
  5
63FDE
  8
S-OBRYS
  6
CONTINUOUS
 10
-5295.5344376403082
 20
404008.98731605802
 30
0.0
 11
-2992.4840299022758
 21
405082.91735830321
 31
0.0
  0
LINE
  5
63FDF
  8
S-OBRYS
  6
CONTINUOUS
 10
-5384.9505349291139
 20
403619.72786065668
 30
0.0
 11
-2831.4038156542601
 21
404810.46625131113
 31
0.0
  0
LINE
  5
63FE0
  8
S-OBRYS
  6
CONTINUOUS
 10
-5039.1574209760583
 20
403505.12935808959
 30
0.0
 11
-3277.023419519428
 21
404326.82593766419
 31
0.0
  0
LINE
  5
63FE1
  8
S-OBRYS
  6
CONTINUOUS
 10
-5065.9552037389649
 20
403467.2496718723
 30
0.0
 11
-5065.9552037389649
 21
403298.42206939071
 31
0.0
  0
LINE
  5
63FE2
  8
S-OBRYS
  6
CONTINUOUS
 10
-4969.7483405751773
 20
403445.3307410758
 30
0.0
 11
-4950.2994793234102
 21
403454.39989401988
 31
0.0
  0
ARC
  5
63FE3
  8
S-OBRYS
  6
CONTINUOUS
 10
-4984.4783678835602
 20
403438.46201653703
 30
0.0
 40
7.728910881886959
 50
333.2940746431978
 51
76.705925358278137
  0
POLYLINE
  5
63FE4
  8
S-OBRYS
  6
CONTINUOUS
 66
     1
 10
0.0
 20
0.0
 30
0.0
  0
VERTEX
  5
65263
  8
S-OBRYS
  6
CONTINUOUS
 10
-4993.285060376933
 20
403468.68116404233
 30
0.0
  0
VERTEX
  5
65264
  8
S-OBRYS
  6
CONTINUOUS
 10
-4982.7011118386081
 20
403445.98381315562
 30
0.0
  0
SEQEND
  5
65265
  8
S-OBRYS
  6
CONTINUOUS
  0
POLYLINE
  5
63FE5
  8
S-OBRYS
  6
CONTINUOUS
 66
     1
 10
0.0
 20
0.0
 30
0.0
  0
VERTEX
  5
65266
  8
S-OBRYS
  6
CONTINUOUS
 10
-4977.5739392167161
 20
403434.98855598521
 30
0.0
  0
VERTEX
  5
65267
  8
S-OBRYS
  6
CONTINUOUS
 10
-4971.8534064452333
 20
403422.7208338679
 30
0.0
  0
VERTEX
  5
65268
  8
S-OBRYS
  6
CONTINUOUS
 10
-4931.6261752884966
 20
403441.47909982252
 30
0.0
  0
VERTEX
  5
65269
  8
S-OBRYS
  6
CONTINUOUS
 10
-4937.3467080599803
 20
403453.74682194
 30
0.0
  0
SEQEND
  5
6526A
  8
S-OBRYS
  6
CONTINUOUS
  0
LINE
  5
63FE6
  8
S-OBRYS
  6
CONTINUOUS
 10
-5029.7161461214564
 20
403484.88247882552
 30
0.0
 11
-5029.7161461214564
 21
403345.12935808959
 31
0.0
  0
DIMENSION
  5
63FE7
  8
S-OBRYS
  6
CONTINUOUS
  2
*D70
 10
-5479.5406212603193
 20
404169.12935808959
 30
0.0
 11
-5554.5406212603848
 21
403757.1293580897
 31
0.0
 70
     0
 13
-5114.8278280323357
 23
403345.12935808959
 33
0.0
 14
-5177.807630633557
 24
404169.12935808959
 34
0.0
 50
90.0
  0
LINE
  5
63FE8
  8
S-OBRYS
  6
CONTINUOUS
 10
-4945.3612931469252
 20
403418.42123434239
 30
0.0
 11
-4995.3250008438617
 21
403525.56875127269
 31
0.0
  0
LINE
  5
63FE9
  8
S-OBRYS
  6
CONTINUOUS
 10
-5114.8278280323357
 20
403345.12935808959
 30
0.0
 11
-5224.4770055103718
 21
403580.27277801948
 31
0.0
  0
LINE
  5
63FEA
  8
S-OBRYS
  6
CONTINUOUS
 10
-5114.8278280323357
 20
403345.12935808959
 30
0.0
 11
-5029.7161461214564
 21
403345.12935808959
 31
0.0
  0
LINE
  5
63FEB
  8
S-OBRYS
  6
CONTINUOUS
 10
-5277.9367388595492
 20
404017.19325776538
 30
0.0
 11
-5029.7161461214564
 21
403484.88247882552
 31
0.0
  0
LINE
  5
63FEC
  8
S-OBRYS
  6
CONTINUOUS
 10
-5257.7849863181318
 20
403596.03304407181
 30
0.0
 11
-5247.4066001260799
 21
403573.77652305912
 31
0.0
  0
LINE
  5
63FED
  8
S-OBRYS
  6
CONTINUOUS
 10
-5224.4120968084098
 20
403658.47823615017
 30
0.0
 11
-5266.8490298645484
 21
403638.6895692774
 31
0.0
  0
POLYLINE
  5
63FEE
  8
S-OBRYS
  6
CONTINUOUS
 66
     1
 10
0.0
 20
0.0
 30
0.0
  0
VERTEX
  5
6526B
  8
S-OBRYS
  6
CONTINUOUS
 10
-5221.0433605051876
 20
403685.89755523647
 30
0.0
  0
VERTEX
  5
6526C
  8
S-OBRYS
  6
CONTINUOUS
 10
-5249.8283197283299
 20
403747.62709949713
 30
0.0
  0
VERTEX
  5
6526D
  8
S-OBRYS
  6
CONTINUOUS
 10
-5263.0975873680436
 20
403741.43953837868
 30
0.0
  0
VERTEX
  5
6526E
  8
S-OBRYS
  6
CONTINUOUS
 10
-5232.7784282627681
 20
403676.41989185318
 30
0.0
  0
SEQEND
  5
6526F
  8
S-OBRYS
  6
CONTINUOUS
  0
LINE
  5
63FEF
  8
S-OBRYS
  6
CONTINUOUS
 10
-5345.7413489947503
 20
403523.72628599149
 30
0.0
 11
-5101.0382464948561
 21
403637.83321666159
 31
0.0
  0
LINE
  5
63FF0
  8
S-OBRYS
  6
CONTINUOUS
 10
-5150.1499575279231
 20
403743.15362085
 30
0.0
 11
-5366.5603553204637
 21
403568.3727891352
 31
0.0
  0
LINE
  5
63FF1
  8
S-OBRYS
  6
CONTINUOUS
 10
-5347.3485066388312
 20
403527.17284668161
 30
0.0
 11
-5102.645404138937
 21
403641.27977735159
 31
0.0
  0
LINE
  5
63FF2
  8
S-OBRYS
  6
CONTINUOUS
 10
-5327.6752354742493
 20
403599.7778124492
 30
0.0
 11
-5322.0076037347972
 21
403587.62353696098
 31
0.0
  0
LINE
  5
63FF3
  8
S-OBRYS
  6
CONTINUOUS
 10
-5400.95520263051
 20
403670.24165471969
 30
0.0
 11
-5356.5423257819266
 21
403574.99793295813
 31
0.0
  0
LINE
  5
63FF4
  8
S-OBRYS
  6
CONTINUOUS
 10
-5355.0216731718101
 20
403691.66081127228
 30
0.0
 11
-5304.4265841624292
 21
403583.15929274791
 31
0.0
  0
LINE
  5
63FF5
  8
S-OBRYS
  6
CONTINUOUS
 10
-5359.4878162550876
 20
403570.14622683352
 30
0.0
 11
-5276.863535256779
 21
403608.67456181248
 31
0.0
  0
LINE
  5
63FF6
  8
S-OBRYS
  6
CONTINUOUS
 10
-5356.5423257819266
 20
403574.99793295813
 30
0.0
 11
-5264.6752668645213
 21
403617.83624606353
 31
0.0
  0
LINE
  5
63FF7
  8
S-OBRYS
  6
CONTINUOUS
 10
-5357.726892830884
 20
403549.42936769431
 30
0.0
 11
-5257.7849863181318
 21
403596.03304407181
 31
0.0
  0
LINE
  5
63FF8
  8
S-OBRYS
  6
CONTINUOUS
 10
-5351.2382870110741
 20
403552.45505427872
 30
0.0
 11
-5359.4878162550876
 21
403570.14622683352
 31
0.0
  0
LINE
  5
63FF9
  8
S-OBRYS
  6
CONTINUOUS
 10
-5347.3485066388312
 20
403527.17284668161
 30
0.0
 11
-5357.726892830884
 21
403549.42936769431
 31
0.0
  0
LINE
  5
63FFA
  8
S-OBRYS
  6
CONTINUOUS
 10
-5366.560355320471
 20
403568.3727891352
 30
0.0
 11
-5345.7413489947503
 21
403523.72628599149
 31
0.0
  0
LINE
  5
63FFB
  8
S-OBRYS
  6
CONTINUOUS
 10
-5366.618564603501
 20
403596.60649684368
 30
0.0
 11
-5372.8203353263962
 21
403593.71456366149
 31
0.0
  0
LINE
  5
63FFC
  8
S-OBRYS
  6
CONTINUOUS
 10
-5309.0881437131102
 20
403713.07996782509
 30
0.0
 11
-5400.95520263051
 21
403670.24165471969
 31
0.0
  0
LINE
  5
63FFD
  8
S-OBRYS
  6
CONTINUOUS
 10
-5390.8789638089438
 20
403648.63309083408
 30
0.0
 11
-5397.080734531839
 21
403645.74115765188
 31
0.0
  0
LINE
  5
63FFE
  8
S-OBRYS
  6
CONTINUOUS
 10
-5397.080734531839
 20
403645.74115765188
 30
0.0
 11
-5372.8203353263962
 21
403593.71456366149
 31
0.0
  0
LINE
  5
63FFF
  8
S-OBRYS
  6
CONTINUOUS
 10
-5299.3379533301922
 20
403708.36229048937
 30
0.0
 11
-5280.6799345659238
 21
403668.35004012648
 31
0.0
  0
LINE
  5
64000
  8
S-OBRYS
  6
CONTINUOUS
 10
-5305.5397240530874
 20
403705.47035730717
 30
0.0
 11
-5299.3379533301922
 21
403708.36229048937
 31
0.0
  0
LINE
  5
64001
  8
S-OBRYS
  6
CONTINUOUS
 10
-5275.7934988744673
 20
403641.67937155272
 30
0.0
 11
-5309.0881437131102
 21
403713.07996782509
 31
0.0
  0
LINE
  5
64002
  8
S-OBRYS
  6
CONTINUOUS
 10
-5270.3087802278751
 20
403646.10902787477
 30
0.0
 11
-5280.6799345659238
 21
403668.35004012648
 31
0.0
  0
LINE
  5
64003
  8
S-OBRYS
  6
CONTINUOUS
 10
-5252.0739062111461
 20
403717.79917784821
 30
0.0
 11
-5294.5108392672919
 21
403698.01051097549
 31
0.0
  0
LINE
  5
64004
  8
S-OBRYS
  6
CONTINUOUS
 10
-5268.2236865245432
 20
403625.44585658133
 30
0.0
 11
-5262.021915801648
 21
403628.33778976352
 31
0.0
  0
LINE
  5
64005
  8
S-OBRYS
  6
CONTINUOUS
 10
-5276.863535256779
 20
403608.67456181248
 30
0.0
 11
-5268.6140060127645
 21
403590.9833892578
 31
0.0
  0
LINE
  5
64006
  8
S-OBRYS
  6
CONTINUOUS
 10
-5305.157102285666
 20
403617.96426784818
 30
0.0
 11
-5296.5455320877882
 21
403599.4966959625
 31
0.0
  0
LINE
  5
64007
  8
S-OBRYS
  6
CONTINUOUS
 10
-5305.157102285666
 20
403617.96426784818
 30
0.0
 11
-5324.3179222948893
 21
403659.05477896059
 31
0.0
  0
LINE
  5
64008
  8
S-OBRYS
  6
CONTINUOUS
 10
-5264.6752668645213
 20
403617.83624606353
 30
0.0
 11
-5275.7934988744673
 21
403641.67937155272
 31
0.0
  0
LINE
  5
64009
  8
S-OBRYS
  6
CONTINUOUS
 10
-5262.021915801648
 20
403628.33778976352
 30
0.0
 11
-5270.3087802278751
 21
403646.10902787477
 31
0.0
  0
LINE
  5
6400A
  8
S-OBRYS
  6
CONTINUOUS
 10
-5351.2110120437801
 20
403674.80426037178
 30
0.0
 11
-5344.5582517821531
 21
403677.90649342979
 31
0.0
  0
LINE
  5
6400B
  8
S-OBRYS
  6
CONTINUOUS
 10
-5343.2885378615529
 20
403675.18358314002
 30
0.0
 11
-5344.5582517821531
 21
403677.90649342979
 31
0.0
  0
LINE
  5
6400C
  8
S-OBRYS
  6
CONTINUOUS
 10
-5349.9412981231872
 20
403672.08135008201
 30
0.0
 11
-5351.2110120437801
 21
403674.80426037178
 31
0.0
  0
LINE
  5
6400D
  8
S-OBRYS
  6
CONTINUOUS
 10
-5349.7799939418983
 20
403647.18161995918
 30
0.0
 11
-5354.0837189037256
 21
403670.14970754879
 31
0.0
  0
LINE
  5
6400E
  8
S-OBRYS
  6
CONTINUOUS
 10
-5354.0837189037256
 20
403670.14970754879
 30
0.0
 11
-5339.1461170810144
 21
403677.11522567319
 31
0.0
  0
LINE
  5
6400F
  8
S-OBRYS
  6
CONTINUOUS
 10
-5349.7799939418983
 20
403647.18161995918
 30
0.0
 11
-5324.3179222948893
 21
403659.05477896059
 31
0.0
  0
LINE
  5
64010
  8
S-OBRYS
  6
CONTINUOUS
 10
-5324.3179222948893
 20
403659.05477896059
 30
0.0
 11
-5339.1461170810144
 21
403677.11522567319
 31
0.0
  0
LINE
  5
64011
  8
S-OBRYS
  6
CONTINUOUS
 10
-5327.6752354742493
 20
403599.7778124492
 30
0.0
 11
-5349.7799939418983
 21
403647.18161995918
 31
0.0
  0
LINE
  5
64012
  8
S-OBRYS
  6
CONTINUOUS
 10
-5205.5471685842213
 20
403768.27573938749
 30
0.0
 11
-5181.8820199422407
 21
403717.5256643499
 31
0.0
  0
POLYLINE
  5
64013
  8
S-OBRYS
  6
CONTINUOUS
 66
     1
 10
0.0
 20
0.0
 30
0.0
  0
VERTEX
  5
65270
  8
S-OBRYS
  6
CONTINUOUS
 10
-5205.5471685842213
 20
403768.27573938749
 30
0.0
  0
VERTEX
  5
65271
  8
S-OBRYS
  6
CONTINUOUS
 10
-5218.8164362239404
 20
403762.08817826898
 30
0.0
  0
VERTEX
  5
65272
  8
S-OBRYS
  6
CONTINUOUS
 10
-5193.6170876998231
 20
403708.04800096672
 30
0.0
  0
SEQEND
  5
65273
  8
S-OBRYS
  6
CONTINUOUS
  0
LINE
  5
64014
  8
S-OBRYS
  6
CONTINUOUS
 10
-5012.6488828816218
 20
403502.10694219288
 30
0.0
 11
-4966.2166356471926
 21
403523.75865466369
 31
0.0
  0
POLYLINE
  5
64015
  8
S-OBRYS
  6
CONTINUOUS
 66
     1
 10
0.0
 20
0.0
 30
0.0
  0
VERTEX
  5
65274
  8
S-OBRYS
  6
CONTINUOUS
 10
-4958.1850018420882
 20
403498.43468716741
 30
0.0
  0
VERTEX
  5
65275
  8
S-OBRYS
  6
CONTINUOUS
 10
-4963.9055346135719
 20
403510.70240928477
 30
0.0
  0
VERTEX
  5
65276
  8
S-OBRYS
  6
CONTINUOUS
 10
-5004.1327657703068
 20
403491.9441433301
 30
0.0
  0
VERTEX
  5
65277
  8
S-OBRYS
  6
CONTINUOUS
 10
-4998.4122329988231
 20
403479.67642121261
 30
0.0
  0
SEQEND
  5
65278
  8
S-OBRYS
  6
CONTINUOUS
  0
LINE
  5
64016
  8
S-OBRYS
  6
CONTINUOUS
 10
-5012.6488828816218
 20
403502.10694219288
 30
0.0
 11
-5018.5411244610732
 21
403514.7428950374
 31
0.0
  0
LINE
  5
64017
  8
S-OBRYS
  6
CONTINUOUS
 10
-5122.0519238447378
 20
403682.89719316381
 30
0.0
 11
-5157.932520159462
 21
403666.1657963231
 31
0.0
  0
LINE
  5
64018
  8
S-OBRYS
  6
CONTINUOUS
 10
-5176.0262195552423
 20
403670.32426249288
 30
0.0
 11
-5207.0381030596254
 21
403655.86318372091
 31
0.0
  0
POLYLINE
  5
64019
  8
S-OBRYS
  6
CONTINUOUS
 66
     1
 10
0.0
 20
0.0
 30
0.0
  0
VERTEX
  5
65279
  8
S-OBRYS
  6
CONTINUOUS
 10
-5193.6170876998231
 20
403708.04800096672
 30
0.0
  0
VERTEX
  5
6527A
  8
S-OBRYS
  6
CONTINUOUS
 10
-5169.10726450741
 20
403655.48651551013
 30
0.0
  0
VERTEX
  5
6527B
  8
S-OBRYS
  6
CONTINUOUS
 10
-5155.8379968676963
 20
403661.67407662858
 30
0.0
  0
SEQEND
  5
6527C
  8
S-OBRYS
  6
CONTINUOUS
  0
LINE
  5
6401A
  8
S-OBRYS
  6
CONTINUOUS
 10
-5181.8820199422407
 20
403717.5256643499
 30
0.0
 11
-5155.8379968676882
 21
403661.67407662858
 31
0.0
  0
POLYLINE
  5
6401B
  8
S-OBRYS
  6
CONTINUOUS
 66
     1
 10
0.0
 20
0.0
 30
0.0
  0
VERTEX
  5
6527D
  8
S-OBRYS
  6
CONTINUOUS
 10
-5232.7784282627681
 20
403676.41989185318
 30
0.0
  0
VERTEX
  5
6527E
  8
S-OBRYS
  6
CONTINUOUS
 10
-5213.3884156515123
 20
403634.83787561971
 30
0.0
  0
VERTEX
  5
6527F
  8
S-OBRYS
  6
CONTINUOUS
 10
-5200.1191480117996
 20
403641.02543673821
 30
0.0
  0
VERTEX
  5
65280
  8
S-OBRYS
  6
CONTINUOUS
 10
-5221.0433605051876
 20
403685.89755523647
 30
0.0
  0
SEQEND
  5
65281
  8
S-OBRYS
  6
CONTINUOUS
  0
LINE
  5
6401C
  8
S-OBRYS
  6
CONTINUOUS
 10
-4979.3995354840163
 20
403517.61136751302
 30
0.0
 11
-4973.985926411543
 21
403506.00184539222
 31
0.0
  0
LINE
  5
6401D
  8
S-OBRYS
  6
CONTINUOUS
 10
-4966.2166356471926
 20
403523.75865466369
 30
0.0
 11
-4972.1088772266448
 21
403536.39460750821
 31
0.0
  0
ARC
  5
6401E
  8
S-OBRYS
  6
CONTINUOUS
 10
-4916.8478174947586
 20
403470.61905923451
 30
0.0
 40
6.3377718662374596
 50
265.0337458891965
 51
93.570080793390304
  0
LINE
  5
6401F
  8
S-OBRYS
  6
CONTINUOUS
 10
-4985.4594617353941
 20
403479.02334913268
 30
0.0
 11
-4966.0106004836271
 21
403488.09250207688
 31
0.0
  0
ARC
  5
64020
  8
S-OBRYS
  6
CONTINUOUS
 10
-4972.9869838418163
 20
403470.61905923451
 30
0.0
 40
6.3377718662374596
 50
86.429919206609682
 51
274.9662541108035
  0
POLYLINE
  5
64021
  8
S-OBRYS
  6
CONTINUOUS
 66
     1
 10
0.0
 20
0.0
 30
0.0
  0
VERTEX
  5
65282
  8
S-OBRYS
  6
CONTINUOUS
 10
-4948.1639778656472
 20
403476.94453189929
 30
0.0
  0
VERTEX
  5
65283
  8
S-OBRYS
  6
CONTINUOUS
 10
-4953.0578292201972
 20
403487.43942999712
 30
0.0
  0
SEQEND
  5
65284
  8
S-OBRYS
  6
CONTINUOUS
  0
ARC
  5
64022
  8
S-OBRYS
  6
CONTINUOUS
 10
-4951.2805731752451
 20
403494.96122661571
 30
0.0
 40
7.728910881886959
 50
153.2940746431978
 51
256.70592535827808
  0
POLYLINE
  5
64023
  8
S-OBRYS
  6
CONTINUOUS
 66
     1
 10
0.0
 20
0.0
 30
0.0
  0
VERTEX
  5
65285
  8
S-OBRYS
  6
CONTINUOUS
 10
-4972.4383293196588
 20
403464.3050802637
 30
0.0
  0
VERTEX
  5
65286
  8
S-OBRYS
  6
CONTINUOUS
 10
-4917.3964720169179
 20
403464.3050802637
 30
0.0
  0
SEQEND
  5
65287
  8
S-OBRYS
  6
CONTINUOUS
  0
POLYLINE
  5
64024
  8
S-OBRYS
  6
CONTINUOUS
 66
     1
 10
0.0
 20
0.0
 30
0.0
  0
VERTEX
  5
65288
  8
S-OBRYS
  6
CONTINUOUS
 10
-4917.2424664467399
 20
403476.94453189929
 30
0.0
  0
VERTEX
  5
65289
  8
S-OBRYS
  6
CONTINUOUS
 10
-4972.5923348898359
 20
403476.94453189929
 30
0.0
  0
SEQEND
  5
6528A
  8
S-OBRYS
  6
CONTINUOUS
  0
ARC
  5
64025
  8
S-OBRYS
  6
CONTINUOUS
 10
-4935.5694520150282
 20
403461.26861855848
 30
0.0
 40
7.728910881886959
 50
156.86676636108001
 51
256.70592535827808
  0
ARC
  5
64026
  8
S-OBRYS
  6
CONTINUOUS
 10
-5000.1894890437761
 20
403472.15462459408
 30
0.0
 40
7.728910881886959
 50
333.2940746431978
 51
76.705925358278137
  0
LINE
  5
64027
  8
S-OBRYS
  6
CONTINUOUS
 10
-4999.4659830447999
 20
403508.2542293435
 30
0.0
 11
-4994.0523739723294
 21
403496.6447072227
 31
0.0
  0
LINE
  5
64028
  8
S-OBRYS
  6
CONTINUOUS
 10
-5211.8974811761072
 20
403747.25043128617
 30
0.0
 11
-5242.9093646804977
 21
403732.78935251432
 31
0.0
  0
LINE
  5
64029
  8
S-OBRYS
  6
CONTINUOUS
 10
-5167.5720489777232
 20
403780.5154165338
 30
0.0
 11
-5203.4526452924474
 21
403763.78401969309
 31
0.0
  0
DIMENSION
  5
6402A
  8
S-OBRYS
  6
CONTINUOUS
  2
*D71
 10
-5160.9552037389658
 20
404343.02987825742
 30
0.0
 11
-5100.9552037389658
 21
404343.02987825742
 31
0.0
 70
   128
  1
%%c<>
 13
-5040.9552037389658
 23
404169.12935808959
 33
0.0
 14
-5160.9552037389658
 24
404169.12935808959
 34
0.0
  0
LINE
  5
6402B
  8
S-OBRYS
  6
CONTINUOUS
 10
-5040.9552037389658
 20
404169.12935808959
 30
0.0
 11
-5040.9552037389658
 21
404126.80743371922
 31
0.0
  0
LINE
  5
6402C
  8
S-OBRYS
  6
CONTINUOUS
 10
-5160.9552037389658
 20
404169.12935808959
 30
0.0
 11
-5160.9552037389658
 21
404070.85051474062
 31
0.0
  0
LINE
  5
6402D
  8
S-OBRYS
  6
CONTINUOUS
 10
-5100.9552037389658
 20
404238.16218476219
 30
0.0
 11
-5100.9552037389658
 21
404069.3345822806
 31
0.0
  0
LINE
  5
6402E
  8
S-OBRYS
  6
CONTINUOUS
 10
-5168.4552037389649
 20
404169.12935808959
 30
0.0
 11
-5033.4552037389658
 21
404169.12935808959
 31
0.0
  0
LINE
  5
6402F
  8
S-OBRYS
  6
CONTINUOUS
 10
-4866.4134259542343
 20
404165.902215485
 30
0.0
 11
-4909.2851628150383
 21
404257.8409518773
 31
0.0
  0
LINE
  5
64030
  8
S-OBRYS
  6
CONTINUOUS
 10
-3139.667902637651
 20
404353.36023353471
 30
0.0
 11
-3259.6917893749928
 21
404610.75228926953
 31
0.0
  0
LINE
  5
64031
  8
S-OBRYS
  6
CONTINUOUS
 10
-2720.3965264639992
 20
404572.41035141557
 30
0.0
 11
-2559.5844386109088
 21
404647.3982595054
 31
0.0
  0
LINE
  5
64032
  8
S-OBRYS
  6
CONTINUOUS
 10
-3164.8715876245769
 20
405525.59019606828
 30
0.0
 11
-2720.3965264639992
 21
404572.41035141557
 31
0.0
  0
LINE
  5
64033
  8
S-OBRYS
  6
CONTINUOUS
 10
-2759.0186320822609
 20
404530.85990346578
 30
0.0
 11
-3002.0450402708302
 21
405052.03171769279
 31
0.0
  0
LINE
  5
64034
  8
S-OBRYS
  6
CONTINUOUS
 10
-3160.3185722815251
 20
404343.73066813382
 30
0.0
 11
-2720.5362677511148
 21
404548.80452465737
 31
0.0
  0
LINE
  5
64035
  8
S-OBRYS
  6
CONTINUOUS
 10
-3205.813375326572
 20
403369.68728906428
 30
0.0
 11
-3205.813375326572
 21
404318.87795309012
 31
0.0
  0
LINE
  5
64036
  8
S-OBRYS
  6
CONTINUOUS
 10
-3197.868379940614
 20
404318.87795309012
 30
0.0
 11
-3197.868379940614
 21
403369.68728906428
 31
0.0
  0
LINE
  5
64037
  8
S-OBRYS
  6
CONTINUOUS
 10
-3237.8683799406131
 20
404318.87795309012
 30
0.0
 11
-3237.8683799406131
 21
403369.68728906428
 31
0.0
  0
LINE
  5
64038
  8
S-OBRYS
  6
CONTINUOUS
 10
-3167.868379940614
 20
403345.12935808959
 30
0.0
 11
-3167.868379940614
 21
403369.68728906428
 31
0.0
  0
LINE
  5
6403A
  8
S-OBRYS
  6
CONTINUOUS
 10
-3267.868379940614
 20
403345.12935808959
 30
0.0
 11
-3267.868379940614
 21
403369.68728906428
 31
0.0
  0
LINE
  5
6403B
  8
S-OBRYS
  6
CONTINUOUS
 10
-3267.868379940614
 20
403345.12935808959
 30
0.0
 11
-3167.868379940614
 21
403345.12935808959
 31
0.0
  0
LINE
  5
6403C
  8
S-OBRYS
  6
CONTINUOUS
 10
-3267.868379940614
 20
403369.68728906428
 30
0.0
 11
-3167.868379940614
 21
403369.68728906428
 31
0.0
  0
LINE
  5
6403D
  8
S-OBRYS
  6
CONTINUOUS
 10
-4496.6398488432824
 20
404338.33046627528
 30
0.0
 11
-4539.5115857040792
 21
404430.26920266752
 31
0.0
  0
POLYLINE
  5
6403E
  8
S-OBRYS
  6
CONTINUOUS
 66
     1
 10
0.0
 20
0.0
 30
0.0
 70
     1
  0
VERTEX
  5
6528B
  8
S-OBRYS
  6
CONTINUOUS
 10
-4101.0453018241888
 20
404539.55947941617
 30
0.0
  0
VERTEX
  5
6528C
  8
S-OBRYS
  6
CONTINUOUS
 10
-4078.1834676054418
 20
404550.22012779181
 30
0.0
  0
VERTEX
  5
6528D
  8
S-OBRYS
  6
CONTINUOUS
 10
-4035.440465654493
 20
404458.55746430461
 30
0.0
  0
VERTEX
  5
6528E
  8
S-OBRYS
  6
CONTINUOUS
 10
-4058.3022998732408
 20
404447.8968159291
 30
0.0
  0
SEQEND
  5
6528F
  8
S-OBRYS
  6
CONTINUOUS
  0
LINE
  5
6403F
  8
S-OBRYS
  6
CONTINUOUS
 10
-3294.7820637683112
 20
404364.90947315481
 30
0.0
 11
-3171.795868188703
 21
404422.2588780009
 31
0.0
  0
LINE
  5
64040
  8
S-OBRYS
  6
CONTINUOUS
 10
-3277.023419519428
 20
404326.82593766419
 30
0.0
 11
-3294.7820637683112
 21
404364.90947315481
 31
0.0
  0
LINE
  5
64041
  8
S-OBRYS
  6
CONTINUOUS
 10
-3158.7133403618068
 20
404345.96672527649
 30
0.0
 11
-3277.023419519428
 21
404345.96672527649
 31
0.0
  0
LINE
  5
64042
  8
S-OBRYS
  6
CONTINUOUS
 10
-3277.023419519428
 20
404318.87795309012
 30
0.0
 11
-3158.7133403618068
 21
404318.87795309012
 31
0.0
  0
LINE
  5
64043
  8
S-OBRYS
  6
CONTINUOUS
 10
-3277.023419519428
 20
404345.96672527649
 30
0.0
 11
-3277.023419519428
 21
404318.87795309012
 31
0.0
  0
LINE
  5
64044
  8
S-OBRYS
  6
CONTINUOUS
 10
-3158.7133403618068
 20
404345.96672527649
 30
0.0
 11
-3158.7133403618068
 21
404318.87795309012
 31
0.0
  0
LINE
  5
64045
  8
S-OBRYS
  6
CONTINUOUS
 10
-2901.4352915626591
 20
404356.27581332502
 30
0.0
 11
-2971.861695372907
 21
404507.30572368269
 31
0.0
  0
LINE
  5
64046
  8
S-OBRYS
  6
CONTINUOUS
 10
-2808.1114014345799
 20
404760.51550782158
 30
0.0
 11
-2647.2993135814982
 21
404835.5034159114
 31
0.0
  0
LINE
  5
64047
  8
S-OBRYS
  6
CONTINUOUS
 10
-2559.5844386109088
 20
404647.3982595054
 30
0.0
 11
-3004.059499771487
 21
405600.57810415822
 31
0.0
  0
LINE
  5
64048
  8
S-OBRYS
  6
CONTINUOUS
 10
-3055.3474007908371
 20
405157.92887813633
 30
0.0
 11
-3047.4914705054912
 21
405141.08178127231
 31
0.0
  0
LINE
  5
64049
  8
S-OBRYS
  6
CONTINUOUS
 10
-3018.3349878697481
 20
405125.30841870478
 30
0.0
 11
-3029.584064669536
 21
405149.43214175128
 31
0.0
  0
LINE
  5
6404A
  8
S-OBRYS
  6
CONTINUOUS
 10
-3161.738426797172
 20
405108.31792795059
 30
0.0
 11
-3150.553501739676
 21
405155.83619845269
 31
0.0
  0
LINE
  5
6404B
  8
S-OBRYS
  6
CONTINUOUS
 10
-3288.4262840316878
 20
405513.38418908481
 30
0.0
 11
-3102.793738374713
 21
405115.29391025152
 31
0.0
  0
LINE
  5
6404C
  8
S-OBRYS
  6
CONTINUOUS
 10
-3175.875707870568
 20
405101.72560552059
 30
0.0
 11
-3347.7052752071609
 21
405470.21530182211
 31
0.0
  0
LINE
  5
6404D
  8
S-OBRYS
  6
CONTINUOUS
 10
-3264.725307576824
 20
405524.43613591138
 30
0.0
 11
-3086.9486922051951
 21
405143.19295394211
 31
0.0
  0
LINE
  5
6404E
  8
S-OBRYS
  6
CONTINUOUS
 10
-3086.9486922051951
 20
405143.19295394211
 30
0.0
 11
-3055.3474007908371
 21
405157.92887813633
 31
0.0
  0
LINE
  5
6404F
  8
S-OBRYS
  6
CONTINUOUS
 10
-3220.2452221650669
 20
405060.52538389841
 30
0.0
 11
-3029.584064669536
 21
405149.43214175128
 31
0.0
  0
POLYLINE
  5
64050
  8
S-OBRYS
  6
CONTINUOUS
 66
     1
 10
0.0
 20
0.0
 30
0.0
 70
     1
  0
VERTEX
  5
65290
  8
S-OBRYS
  6
CONTINUOUS
 10
-3557.2606296021991
 20
404793.1304364606
 30
0.0
  0
VERTEX
  5
65291
  8
S-OBRYS
  6
CONTINUOUS
 10
-3534.3987953834439
 20
404803.79108483618
 30
0.0
  0
VERTEX
  5
65292
  8
S-OBRYS
  6
CONTINUOUS
 10
-3491.6557934325028
 20
404712.1284213491
 30
0.0
  0
VERTEX
  5
65293
  8
S-OBRYS
  6
CONTINUOUS
 10
-3514.5176276512502
 20
404701.46777297341
 30
0.0
  0
SEQEND
  5
65294
  8
S-OBRYS
  6
CONTINUOUS
  0
LINE
  5
64051
  8
S-OBRYS
  6
CONTINUOUS
 10
-2891.479723544609
 20
404884.82354982791
 30
0.0
 11
-2813.0588695527699
 21
404716.6494857301
 31
0.0
  0
ARC
  5
64052
  8
S-OBRYS
  6
CONTINUOUS
 10
-2822.121947423133
 20
404712.42330311268
 30
0.0
 40
10.0
 50
294.99999999969617
 51
24.99999999853728
  0
LINE
  5
64053
  8
S-OBRYS
  6
CONTINUOUS
 10
-2835.6059092062719
 20
404695.10184928129
 30
0.0
 11
-2817.8957648057258
 21
404703.36022524221
 31
0.0
  0
ARC
  5
64054
  8
S-OBRYS
  6
CONTINUOUS
 10
-2793.702016854143
 20
404720.82760831498
 30
0.0
 40
40.930215194313092
 50
109.79454243915779
 51
143.1482517244705
  0
ARC
  5
64055
  8
S-OBRYS
  6
CONTINUOUS
 10
-2875.8367508785368
 20
404896.96611384448
 30
0.0
 40
40.930215194313092
 50
266.85174827447889
 51
300.20545756109613
  0
LINE
  5
64056
  8
S-OBRYS
  6
CONTINUOUS
 10
-3036.7985919615749
 20
405062.25313864718
 30
0.0
 11
-3057.6524513345871
 21
405106.97438439191
 31
0.0
  0
LINE
  5
64057
  8
S-OBRYS
  6
CONTINUOUS
 10
-3208.99614536528
 20
405036.4016608519
 30
0.0
 11
-3018.3349878697481
 21
405125.30841870478
 31
0.0
  0
LINE
  5
64058
  8
S-OBRYS
  6
CONTINUOUS
 10
-3165.3105335359578
 20
405002.32703612669
 30
0.0
 11
-3186.1643929089769
 21
405047.04828187142
 31
0.0
  0
LINE
  5
64059
  8
S-OBRYS
  6
CONTINUOUS
 10
-3148.833495505824
 20
405010.0104051439
 30
0.0
 11
-3169.6873548788349
 21
405054.73165088851
 31
0.0
  0
LINE
  5
6405A
  8
S-OBRYS
  6
CONTINUOUS
 10
-3209.1403797068929
 20
405086.21403429733
 30
0.0
 11
-3161.738426797172
 21
405108.31792795059
 31
0.0
  0
LINE
  5
6405B
  8
S-OBRYS
  6
CONTINUOUS
 10
-3201.284449421546
 20
405069.36693743331
 30
0.0
 11
-3209.1403797068929
 21
405086.21403429733
 31
0.0
  0
LINE
  5
6405C
  8
S-OBRYS
  6
CONTINUOUS
 10
-3220.2452221650669
 20
405060.52538389841
 30
0.0
 11
-3208.99614536528
 21
405036.4016608519
 31
0.0
  0
LINE
  5
6405D
  8
S-OBRYS
  6
CONTINUOUS
 10
-2922.4791284329258
 20
404881.40206911979
 30
0.0
 11
-2904.7689840323869
 21
404889.66044508078
 31
0.0
  0
ARC
  5
6405E
  8
S-OBRYS
  6
CONTINUOUS
 10
-2900.5428014149802
 20
404880.59736721049
 30
0.0
 40
10.0
 50
24.99999999853728
 51
114.9999999996962
  0
LINE
  5
6405F
  8
S-OBRYS
  6
CONTINUOUS
 10
-2992.4840299022758
 20
405082.91735830321
 30
0.0
 11
-2982.3617989051859
 21
405061.21016387892
 31
0.0
  0
LINE
  5
64060
  8
S-OBRYS
  6
CONTINUOUS
 10
-3020.3215539314328
 20
405069.93650766427
 30
0.0
 11
-3041.1754133044451
 21
405114.65775340912
 31
0.0
  0
LINE
  5
64061
  8
S-OBRYS
  6
CONTINUOUS
 10
-3347.7052752071609
 20
405470.21530182211
 30
0.0
 11
-3306.1802124515089
 21
405489.57875659037
 31
0.0
  0
LINE
  5
64062
  8
S-OBRYS
  6
CONTINUOUS
 10
-3148.334798024669
 20
405489.54090517177
 30
0.0
 11
-3581.6176948679058
 21
405287.49777222623
 31
0.0
  0
LINE
  5
64063
  8
S-OBRYS
  6
CONTINUOUS
 10
-3551.7936682182549
 20
405485.23633567651
 30
0.0
 11
-3471.9142532662449
 21
405522.48471859761
 31
0.0
  0
LINE
  5
64064
  8
S-OBRYS
  6
CONTINUOUS
 10
-3471.9142532662449
 20
405522.48471859761
 30
0.0
 11
-3449.055670263966
 21
405473.46432915621
 31
0.0
  0
LINE
  5
64065
  8
S-OBRYS
  6
CONTINUOUS
 10
-3511.5328398447668
 20
405422.05436919932
 30
0.0
 11
-3598.678978190168
 21
405381.41745751008
 31
0.0
  0
LINE
  5
64066
  8
S-OBRYS
  6
CONTINUOUS
 10
-3598.678978190168
 20
405381.41745751008
 30
0.0
 11
-3610.7538910279768
 21
405349.90103883581
 31
0.0
  0
LINE
  5
64067
  8
S-OBRYS
  6
CONTINUOUS
 10
-3403.4332674742041
 20
405472.46202763898
 30
0.0
 11
-3373.6465632576442
 21
405408.5842343074
 31
0.0
  0
LINE
  5
64068
  8
S-OBRYS
  6
CONTINUOUS
 10
-3478.2739133791479
 20
405233.81227660202
 30
0.0
 11
-3526.5629288094792
 21
405337.20938899083
 31
0.0
  0
LINE
  5
64069
  8
S-OBRYS
  6
CONTINUOUS
 10
-3325.3312062391128
 20
405305.13063220039
 30
0.0
 11
-3520.5769169550772
 21
405214.08606207161
 31
0.0
  0
LINE
  5
6406A
  8
S-OBRYS
  6
CONTINUOUS
 10
-3520.5769169550772
 20
405214.08606207161
 30
0.0
 11
-3552.4814987078348
 21
405225.0945056167
 31
0.0
  0
LINE
  5
6406B
  8
S-OBRYS
  6
CONTINUOUS
 10
-3528.9350852159769
 20
405436.21594623523
 30
0.0
 11
-3449.055670263966
 21
405473.46432915621
 31
0.0
  0
LINE
  5
6406C
  8
S-OBRYS
  6
CONTINUOUS
 10
-3503.3257855439588
 20
405415.37564302119
 30
0.0
 11
-3449.5524123159698
 21
405440.45057876228
 31
0.0
  0
LINE
  5
6406D
  8
S-OBRYS
  6
CONTINUOUS
 10
-3551.7936682182549
 20
405485.23633567651
 30
0.0
 11
-3528.9350852159769
 21
405436.21594623523
 31
0.0
  0
LINE
  5
6406E
  8
S-OBRYS
  6
CONTINUOUS
 10
-3528.9350852159769
 20
405436.21594623523
 30
0.0
 11
-3503.3257855439588
 21
405415.37564302119
 31
0.0
  0
LINE
  5
6406F
  8
S-OBRYS
  6
CONTINUOUS
 10
-3358.6969884936552
 20
405459.63760079129
 30
0.0
 11
-3345.6169687477382
 21
405465.73691416759
 31
0.0
  0
LINE
  5
64070
  8
S-OBRYS
  6
CONTINUOUS
 10
-3390.5310504385998
 20
405444.79313391622
 30
0.0
 11
-3370.7853731503201
 21
405454.00069445121
 31
0.0
  0
LINE
  5
64071
  8
S-OBRYS
  6
CONTINUOUS
 10
-3449.055670263966
 20
405473.46432915621
 30
0.0
 11
-3449.5524123159698
 21
405440.45057876228
 31
0.0
  0
LINE
  5
64072
  8
S-OBRYS
  6
CONTINUOUS
 10
-3403.4332674742041
 20
405472.46202763898
 30
0.0
 11
-3449.3932205752139
 21
405451.03054953949
 31
0.0
  0
LINE
  5
64073
  8
S-OBRYS
  6
CONTINUOUS
 10
-3338.2334232747089
 20
405332.7995259231
 30
0.0
 11
-3318.4877459864301
 21
405342.00708645809
 31
0.0
  0
LINE
  5
64074
  8
S-OBRYS
  6
CONTINUOUS
 10
-3312.1272604865449
 20
405502.33224225813
 30
0.0
 11
-3264.725307576824
 21
405524.43613591138
 31
0.0
  0
LINE
  5
64075
  8
S-OBRYS
  6
CONTINUOUS
 10
-3259.8635304138661
 20
405514.01002113952
 30
0.0
 11
-3227.0097367188291
 21
405529.32999673887
 31
0.0
  0
LINE
  5
64076
  8
S-OBRYS
  6
CONTINUOUS
 10
-3054.0948985101568
 20
405158.5129295417
 30
0.0
 11
-3227.0097367188291
 21
405529.32999673887
 31
0.0
  0
LINE
  5
64077
  8
S-OBRYS
  6
CONTINUOUS
 10
-3110.2899539365972
 20
405408.53950489173
 30
0.0
 11
-2949.477866083515
 21
405483.52741298161
 31
0.0
  0
LINE
  5
64078
  8
S-OBRYS
  6
CONTINUOUS
 10
-3150.553501739676
 20
405155.83619845269
 30
0.0
 11
-3312.1272604865449
 21
405502.33224225813
 31
0.0
  0
LINE
  5
64079
  8
S-OBRYS
  6
CONTINUOUS
 10
-3100.8592176017701
 20
405388.3152255562
 30
0.0
 11
-3272.2474909116072
 21
405308.39556119387
 31
0.0
  0
LINE
  5
6407A
  8
S-OBRYS
  6
CONTINUOUS
 10
-3108.4929578905289
 20
405315.4334422925
 30
0.0
 11
-3161.5967763487279
 21
405429.31494848162
 31
0.0
  0
LINE
  5
6407B
  8
S-OBRYS
  6
CONTINUOUS
 10
-3055.3474007908371
 20
405157.92887813633
 30
0.0
 11
-3054.0948985101568
 21
405158.5129295417
 31
0.0
  0
LINE
  5
6407C
  8
S-OBRYS
  6
CONTINUOUS
 10
-3123.9147723220958
 20
405308.24213212042
 30
0.0
 11
-3108.4929578905289
 21
405315.4334422925
 31
0.0
  0
LINE
  5
6407D
  8
S-OBRYS
  6
CONTINUOUS
 10
-3122.169611935497
 20
405344.76312154141
 30
0.0
 11
-3087.9839624176379
 21
405360.70415171061
 31
0.0
  0
LINE
  5
6407E
  8
S-OBRYS
  6
CONTINUOUS
 10
-3306.3993613297648
 20
405347.64399279823
 30
0.0
 11
-3293.3193415838468
 21
405353.74330617453
 31
0.0
  0
LINE
  5
6407F
  8
S-OBRYS
  6
CONTINUOUS
 10
-3177.0185907802961
 20
405422.12363830948
 30
0.0
 11
-3161.5967763487279
 21
405429.31494848162
 31
0.0
  0
LINE
  5
64080
  8
S-OBRYS
  6
CONTINUOUS
 10
-3147.920122303753
 20
405399.98526923271
 30
0.0
 11
-3113.7344727859022
 21
405415.92629940191
 31
0.0
  0
LINE
  5
64081
  8
S-OBRYS
  6
CONTINUOUS
 10
-3004.059499771487
 20
405600.57810415822
 30
0.0
 11
-3164.8715876245769
 21
405525.59019606828
 31
0.0
  0
LINE
  5
64082
  8
S-OBRYS
  6
CONTINUOUS
 10
-3526.5629288094792
 20
405337.20938899083
 30
0.0
 11
-3556.3759746142318
 21
405401.14367204061
 31
0.0
  0
LINE
  5
64083
  8
S-OBRYS
  6
CONTINUOUS
 10
-3373.6465632576442
 20
405408.5842343074
 30
0.0
 11
-3325.3312062391128
 21
405305.13063220039
 31
0.0
  0
LINE
  5
64084
  8
S-OBRYS
  6
CONTINUOUS
 10
-3299.662685257369
 20
405301.47759805952
 30
0.0
 11
-3287.5743006007042
 21
405307.11450439959
 31
0.0
  0
LINE
  5
64085
  8
S-OBRYS
  6
CONTINUOUS
 10
-3287.8123700544611
 20
405307.78406137688
 30
0.0
 11
-3341.2619084338371
 21
405422.24795094342
 31
0.0
  0
LINE
  5
64086
  8
S-OBRYS
  6
CONTINUOUS
 10
-3377.2839797689521
 20
405499.49753221258
 30
0.0
 11
-3389.3723644256238
 21
405493.8606258725
 31
0.0
  0
LINE
  5
64087
  8
S-OBRYS
  6
CONTINUOUS
 10
-3389.3723644256238
 20
405493.8606258725
 30
0.0
 11
-3353.3312498400041
 21
405416.57020622079
 31
0.0
  0
LINE
  5
64088
  8
S-OBRYS
  6
CONTINUOUS
 10
-3353.3312498400041
 20
405416.57020622079
 30
0.0
 11
-3299.900754711125
 21
405302.1471550368
 31
0.0
  0
LINE
  5
64089
  8
S-OBRYS
  6
CONTINUOUS
 10
-3341.2619084338371
 20
405422.24795094342
 30
0.0
 11
-3377.2839797689521
 21
405499.49753221258
 31
0.0
  0
LINE
  5
6408A
  8
S-OBRYS
  6
CONTINUOUS
 10
-3610.7538910279768
 20
405349.90103883581
 30
0.0
 11
-3552.4814987078348
 21
405225.0945056167
 31
0.0
  0
DIMENSION
  5
6408B
  8
S-OBRYS
  6
CONTINUOUS
  2
*D72
 10
-2558.3131554741121
 20
401315.50440829271
 30
0.0
 11
-3963.3131554741121
 21
401390.50440829271
 31
0.0
 70
     0
 13
-5368.3131554741121
 23
401184.36533700058
 33
0.0
 14
-2558.3131554741121
 24
400931.4936604207
 34
0.0
  0
LINE
  5
6408C
  8
S-OBRYS
  6
CONTINUOUS
 10
-5370.4657769051773
 20
400671.4936604207
 30
0.0
 11
-2560.4657769051769
 21
400671.4936604207
 31
0.0
  0
DIMENSION
  5
6408D
  8
S-OBRYS
  6
CONTINUOUS
  2
*D73
 10
-3218.3131554741121
 20
401123.8243239501
 30
0.0
 11
-3969.309001703281
 21
401123.8243239501
 31
0.0
 70
   128
 13
-5068.3131554741121
 23
401112.82434495247
 33
0.0
 14
-3218.3131554741121
 24
400920.1321731729
 34
0.0
  0
LINE
  5
6408E
  8
S-OBRYS
  6
CONTINUOUS
 10
-2558.3131554741121
 20
400931.4936604207
 30
0.0
 11
-5368.3131554741121
 21
400931.4936604207
 31
0.0
  0
LINE
  5
6408F
  8
S-OBRYS
  6
CONTINUOUS
 10
-5368.3131554741121
 20
400411.4936604207
 30
0.0
 11
-2558.3131554741121
 21
400411.4936604207
 31
0.0
  0
DIMENSION
  5
64090
  8
S-OBRYS
  6
CONTINUOUS
  2
*D74
 10
-5368.3131554741121
 20
401122.16924333118
 30
0.0
 11
-5220.9499991470939
 21
401122.16924333118
 31
0.0
 70
   128
  1
300
 13
-5072.7189964295567
 23
400931.4936604207
 33
0.0
 14
-5368.3131554741121
 24
400931.4936604207
 34
0.0
  0
DIMENSION
  5
64091
  8
S-OBRYS
  6
CONTINUOUS
  2
*D75
 10
-5592.8963574005465
 20
400931.4936604207
 30
0.0
 11
-5667.8963574006111
 21
400671.4936604207
 31
0.0
 70
     0
 13
-5368.3131554741121
 23
400411.4936604207
 33
0.0
 14
-5368.3131554741121
 24
400931.4936604207
 34
0.0
 50
90.0
  0
LINE
  5
64092
  8
S-OBRYS
  6
CONTINUOUS
 10
-5368.3131554741121
 20
400931.4936604207
 30
0.0
 11
-5368.3131554741121
 21
400411.4936604207
 31
0.0
  0
CIRCLE
  5
64093
  8
S-OBRYS
  6
CONTINUOUS
 10
-5033.3131554741121
 20
400446.4936604207
 30
0.0
 40
10.0
  0
CIRCLE
  5
64094
  8
S-OBRYS
  6
CONTINUOUS
 10
-5030.1631554741134
 20
400896.4936604207
 30
0.0
 40
10.0
  0
LINE
  5
64095
  8
S-OBRYS
  6
CONTINUOUS
 10
-2908.3131554741121
 20
400891.4936604207
 30
0.0
 11
-2908.3131554741121
 21
400451.4936604207
 31
0.0
  0
DIMENSION
  5
64096
  8
S-OBRYS
  6
CONTINUOUS
  2
*D76
 10
-3477.839992910559
 20
400896.4936604207
 30
0.0
 11
-3477.839992910624
 21
400132.64055483998
 31
0.0
 70
   128
 13
-3257.5709543665662
 23
400446.4936604207
 33
0.0
 14
-3257.5709543665662
 24
400896.4936604207
 34
0.0
 50
90.0
  0
CIRCLE
  5
64097
  8
S-OBRYS
  6
CONTINUOUS
 10
-3218.3131554741121
 20
400446.4936604207
 30
0.0
 40
10.0
  0
CIRCLE
  5
64098
  8
S-OBRYS
  6
CONTINUOUS
 10
-3218.3131554741121
 20
400896.4936604207
 30
0.0
 40
10.0
  0
LINE
  5
64099
  8
S-OBRYS
  6
CONTINUOUS
 10
-2558.3131554741121
 20
400931.4936604207
 30
0.0
 11
-2558.3131554741121
 21
400411.4936604207
 31
0.0
  0
DIMENSION
  5
6409A
  8
S-OBRYS
  6
CONTINUOUS
  2
*D77
 10
-2831.4038156542601
 20
404810.46625131113
 30
0.0
 11
-4709.6617748166609
 21
403625.38846776233
 31
0.0
 70
     2
 13
-4952.2589420581353
 23
403345.12935808959
 33
0.0
 14
-4655.8280028544168
 24
403345.12935808959
 34
0.0
 15
-5384.9505349291139
 25
403619.72786065668
 35
0.0
 16
-4766.848138604706
 26
403521.9260104248
 36
0.0
1001
ACAD
1000
DSTYLE
1002
{
1070
   271
1070
     0
1002
}
  0
DIMENSION
  5
6409B
  8
S-OBRYS
  6
CONTINUOUS
  2
*D78
 10
-2269.9426232813862
 20
404758.91979178949
 30
0.0
 11
-2455.5404962979369
 21
405334.40083364199
 31
0.0
 70
     1
 13
-3511.8539607422499
 23
405503.860527137
 33
0.0
 14
-3004.712046653482
 24
404416.29118269309
 34
0.0
  0
DIMENSION
  5
6409C
  8
S-OBRYS
  6
CONTINUOUS
  2
*D79
 10
-3225.9097359759321
 20
400889.99043316959
 30
0.0
 11
-3020.5602354767038
 21
401164.51322235662
 31
0.0
 70
     3
  1
%%c21
 15
-3210.7165749723208
 25
400902.9968876717
 35
0.0
 40
0.0
1001
ACAD
1000
DSTYLE
1002
{
1070
   288
1070
     1
1002
}
  0
CIRCLE
  5
6409D
  8
S-OBRYS
  6
CONTINUOUS
 10
-5068.3131554741121
 20
400571.4936604207
 30
0.0
 40
60.0
  0
DIMENSION
  5
6409E
  8
S-OBRYS
  6
CONTINUOUS
  2
*D80
 10
-5419.0320849365089
 20
400571.4936604207
 30
0.0
 11
-5494.0320849365744
 21
400249.3508032778
 31
0.0
 70
     0
 13
-5368.3131554741121
 23
400671.4936604207
 33
0.0
 14
-5168.313155474113
 24
400571.4936604207
 34
0.0
 50
90.0
  0
CIRCLE
  5
6409F
  8
S-OBRYS
  6
CONTINUOUS
 10
-4850.3131554741112
 20
400571.4936604207
 30
0.0
 40
10.5
  0
CIRCLE
  5
640A0
  8
S-OBRYS
  6
CONTINUOUS
 10
-4442.3131554741103
 20
400571.4936604207
 30
0.0
 40
10.5
  0
LINE
  5
640A1
  8
S-OBRYS
  6
CONTINUOUS
 10
-5168.313155474113
 20
400571.4936604207
 30
0.0
 11
-4968.3131554741121
 21
400571.4936604207
 31
0.0
  0
LINE
  5
640A2
  8
S-OBRYS
  6
CONTINUOUS
 10
-5068.3131554741121
 20
400471.4936604207
 30
0.0
 11
-5068.3131554741121
 21
400671.4936604207
 31
0.0
  0
LINE
  5
640A3
  8
S-OBRYS
  6
CONTINUOUS
 10
-4870.3131554741112
 20
400571.4936604207
 30
0.0
 11
-4830.3131554741121
 21
400571.4936604207
 31
0.0
  0
LINE
  5
640A4
  8
S-OBRYS
  6
CONTINUOUS
 10
-4850.3131554741112
 20
400551.4936604207
 30
0.0
 11
-4850.3131554741112
 21
400591.4936604207
 31
0.0
  0
LINE
  5
640A5
  8
S-OBRYS
  6
CONTINUOUS
 10
-4462.3131554741103
 20
400571.4936604207
 30
0.0
 11
-4422.3131554741094
 21
400571.4936604207
 31
0.0
  0
LINE
  5
640A6
  8
S-OBRYS
  6
CONTINUOUS
 10
-4442.3131554741103
 20
400551.4936604207
 30
0.0
 11
-4442.3131554741103
 21
400591.4936604207
 31
0.0
  0
LINE
  5
640A7
  8
S-OBRYS
  6
CONTINUOUS
 10
-5050.1631554741134
 20
400896.4936604207
 30
0.0
 11
-5010.1631554741134
 21
400896.4936604207
 31
0.0
  0
LINE
  5
640A8
  8
S-OBRYS
  6
CONTINUOUS
 10
-5030.1631554741134
 20
400876.4936604207
 30
0.0
 11
-5030.1631554741134
 21
400916.49366042059
 31
0.0
  0
LINE
  5
640A9
  8
S-OBRYS
  6
CONTINUOUS
 10
-5053.3131554741121
 20
400446.4936604207
 30
0.0
 11
-5013.3131554741112
 21
400446.4936604207
 31
0.0
  0
LINE
  5
640AA
  8
S-OBRYS
  6
CONTINUOUS
 10
-5033.3131554741121
 20
400426.4936604207
 30
0.0
 11
-5033.3131554741121
 21
400466.4936604207
 31
0.0
  0
DIMENSION
  5
640AB
  8
S-OBRYS
  6
CONTINUOUS
  2
*D81
 10
-4850.3131554741112
 20
400136.24287883809
 30
0.0
 11
-4646.3131554741103
 21
400211.24287883809
 31
0.0
 70
     0
 13
-4442.3131554741103
 23
400560.9936604207
 33
0.0
 14
-4850.3131554741112
 24
400560.9936604207
 34
0.0
  0
DIMENSION
  5
640AC
  8
S-OBRYS
  6
CONTINUOUS
  2
*D82
 10
-5068.3131554741112
 20
400136.24287883809
 30
0.0
 11
-4959.3131554741112
 21
400136.24287883809
 31
0.0
 70
   128
 13
-4850.3131554741112
 23
400551.4936604207
 33
0.0
 14
-5068.3131554741112
 24
400551.4936604207
 34
0.0
  0
LINE
  5
640AD
  8
S-OBRYS
  6
CONTINUOUS
 10
-3238.3131554741121
 20
400896.4936604207
 30
0.0
 11
-3198.3131554741121
 21
400896.4936604207
 31
0.0
  0
LINE
  5
640AE
  8
S-OBRYS
  6
CONTINUOUS
 10
-3218.3131554741121
 20
400876.4936604207
 30
0.0
 11
-3218.3131554741121
 21
400916.49366042059
 31
0.0
  0
LINE
  5
640AF
  8
S-OBRYS
  6
CONTINUOUS
 10
-3238.3131554741121
 20
400446.4936604207
 30
0.0
 11
-3198.3131554741121
 21
400446.4936604207
 31
0.0
  0
LINE
  5
640B0
  8
S-OBRYS
  6
CONTINUOUS
 10
-3218.3131554741121
 20
400426.4936604207
 30
0.0
 11
-3218.3131554741121
 21
400466.4936604207
 31
0.0
  0
DIMENSION
  5
640B1
  8
S-OBRYS
  6
CONTINUOUS
  2
*D83
 10
-2942.8683799405931
 20
402505.70822628948
 30
0.0
 11
-4142.2370864592949
 21
402505.70822628948
 31
0.0
 70
   128
  1
2160
 13
-5100.9552037389658
 23
404073.29383468832
 33
0.0
 14
-2942.8683799405931
 24
404445.12935808959
 34
0.0
  0
INSERT
  5
640B2
  8
S-OBRYS
  6
CONTINUOUS
  2
*U130
 10
0.0
 20
0.0
 30
0.0
  0
DIMENSION
  5
6479F
  8
S-OBRYS
  6
CONTINUOUS
  2
*D96
 10
-3370.1327479040342
 20
396331.29155267018
 30
0.0
 11
-4294.176159803209
 21
396406.29155267018
 31
0.0
 70
     0
  1
1850
 13
-5218.219571702386
 23
396904.27619093278
 33
0.0
 14
-3370.1327479040342
 24
396950.9834796316
 34
0.0
  0
DIMENSION
  5
647A0
  8
S-OBRYS
  6
CONTINUOUS
  2
*D97
 10
-2461.633501604229
 20
397716.66392788402
 30
0.0
 11
-3852.7915518069349
 21
397150.70961933711
 31
0.0
 70
     0
 13
-5498.0057169581714
 23
397129.5804075335
 33
0.0
 14
-2711.84880657433
 24
398253.25238104741
 34
0.0
 50
24.999999998461711
  0
LINE
  5
647A1
  8
S-OBRYS
  6
CONTINUOUS
 10
-5104.5233100215546
 20
396950.9834796316
 30
0.0
 11
-4808.0923708178379
 21
396950.9834796316
 31
0.0
  0
DIMENSION
  5
647A2
  8
S-OBRYS
  6
CONTINUOUS
  2
*D98
 10
-2774.0424996220099
 20
397842.40082205442
 30
0.0
 11
-3938.623603060842
 21
397382.10107893741
 31
0.0
 70
     0
 13
-5181.9805140848766
 23
397090.73660036753
 33
0.0
 14
-2911.283000045682
 24
398136.71402500779
 34
0.0
 50
24.999999998461711
  0
LINE
  5
647A3
  8
S-OBRYS
  6
CONTINUOUS
 10
-5420.0788758258786
 20
397601.3401848831
 30
0.0
 11
-3134.6261668686061
 21
398667.06428542099
 31
0.0
  0
LINE
  5
647A4
  8
S-OBRYS
  6
CONTINUOUS
 10
-5447.7988056037284
 20
397614.84143759997
 30
0.0
 11
-3144.7483978656969
 21
398688.77147984522
 31
0.0
  0
LINE
  5
647A5
  8
S-OBRYS
  6
CONTINUOUS
 10
-5537.2149028925342
 20
397225.5819821987
 30
0.0
 11
-2983.668183617679
 21
398416.32037285308
 31
0.0
  0
LINE
  5
647A6
  8
S-OBRYS
  6
CONTINUOUS
 10
-5191.4217889394786
 20
397110.9834796316
 30
0.0
 11
-3429.2877874828491
 21
397932.68005920621
 31
0.0
  0
LINE
  5
647A7
  8
S-OBRYS
  6
CONTINUOUS
 10
-5218.219571702386
 20
397073.10379341431
 30
0.0
 11
-5218.219571702386
 21
396904.27619093278
 31
0.0
  0
LINE
  5
647A8
  8
S-OBRYS
  6
CONTINUOUS
 10
-5122.0127085385984
 20
397051.18486261769
 30
0.0
 11
-5102.5638472868304
 21
397060.25401556178
 31
0.0
  0
ARC
  5
647A9
  8
S-OBRYS
  6
CONTINUOUS
 10
-5136.7427358469786
 20
397044.31613807898
 30
0.0
 40
7.728910881886959
 50
333.2940746431978
 51
76.705925358278137
  0
POLYLINE
  5
647AA
  8
S-OBRYS
  6
CONTINUOUS
 66
     1
 10
0.0
 20
0.0
 30
0.0
  0
VERTEX
  5
652E6
  8
S-OBRYS
  6
CONTINUOUS
 10
-5145.5494283403532
 20
397074.53528558428
 30
0.0
  0
VERTEX
  5
652E7
  8
S-OBRYS
  6
CONTINUOUS
 10
-5134.9654798020274
 20
397051.83793469763
 30
0.0
  0
SEQEND
  5
652E8
  8
S-OBRYS
  6
CONTINUOUS
  0
POLYLINE
  5
647AB
  8
S-OBRYS
  6
CONTINUOUS
 66
     1
 10
0.0
 20
0.0
 30
0.0
  0
VERTEX
  5
652E9
  8
S-OBRYS
  6
CONTINUOUS
 10
-5129.8383071801363
 20
397040.84267752728
 30
0.0
  0
VERTEX
  5
652EA
  8
S-OBRYS
  6
CONTINUOUS
 10
-5124.1177744086517
 20
397028.5749554098
 30
0.0
  0
VERTEX
  5
652EB
  8
S-OBRYS
  6
CONTINUOUS
 10
-5083.8905432519168
 20
397047.33322136459
 30
0.0
  0
VERTEX
  5
652EC
  8
S-OBRYS
  6
CONTINUOUS
 10
-5089.6110760234014
 20
397059.60094348207
 30
0.0
  0
SEQEND
  5
652ED
  8
S-OBRYS
  6
CONTINUOUS
  0
LINE
  5
647AC
  8
S-OBRYS
  6
CONTINUOUS
 10
-5181.9805140848766
 20
397090.73660036753
 30
0.0
 11
-5181.9805140848766
 21
396950.9834796316
 31
0.0
  0
DIMENSION
  5
647AD
  8
S-OBRYS
  6
CONTINUOUS
  2
*D99
 10
-5598.9344733831767
 20
397774.9834796316
 30
0.0
 11
-5598.9344733832404
 21
397362.9834796316
 31
0.0
 70
   128
 13
-5267.0921959957559
 23
396950.9834796316
 33
0.0
 14
-5330.0719985969772
 24
397774.9834796316
 34
0.0
 50
90.0
  0
LINE
  5
647AE
  8
S-OBRYS
  6
CONTINUOUS
 10
-5097.6256611103454
 20
397024.2753558844
 30
0.0
 11
-5147.5893688072829
 21
397131.4228728147
 31
0.0
  0
LINE
  5
647AF
  8
S-OBRYS
  6
CONTINUOUS
 10
-5267.0921959957559
 20
396950.9834796316
 30
0.0
 11
-5376.7413734737929
 21
397186.1268995615
 31
0.0
  0
LINE
  5
647B0
  8
S-OBRYS
  6
CONTINUOUS
 10
-5267.0921959957559
 20
396950.9834796316
 30
0.0
 11
-5181.9805140848766
 21
396950.9834796316
 31
0.0
  0
LINE
  5
647B1
  8
S-OBRYS
  6
CONTINUOUS
 10
-5430.2011068229704
 20
397623.04737930727
 30
0.0
 11
-5181.9805140848766
 21
397090.73660036753
 31
0.0
  0
LINE
  5
647B2
  8
S-OBRYS
  6
CONTINUOUS
 10
-5410.049354281553
 20
397201.88716561382
 30
0.0
 11
-5399.6709680895001
 21
397179.63064460119
 31
0.0
  0
LINE
  5
647B3
  8
S-OBRYS
  6
CONTINUOUS
 10
-5376.6764647718301
 20
397264.33235769212
 30
0.0
 11
-5419.1133978279686
 21
397244.54369081941
 31
0.0
  0
POLYLINE
  5
647B4
  8
S-OBRYS
  6
CONTINUOUS
 66
     1
 10
0.0
 20
0.0
 30
0.0
  0
VERTEX
  5
652EE
  8
S-OBRYS
  6
CONTINUOUS
 10
-5373.3077284686078
 20
397291.75167677848
 30
0.0
  0
VERTEX
  5
652EF
  8
S-OBRYS
  6
CONTINUOUS
 10
-5402.092687691752
 20
397353.48122103908
 30
0.0
  0
VERTEX
  5
652F0
  8
S-OBRYS
  6
CONTINUOUS
 10
-5415.3619553314638
 20
397347.29365992057
 30
0.0
  0
VERTEX
  5
652F1
  8
S-OBRYS
  6
CONTINUOUS
 10
-5385.0427962261901
 20
397282.2740133953
 30
0.0
  0
SEQEND
  5
652F2
  8
S-OBRYS
  6
CONTINUOUS
  0
LINE
  5
647B5
  8
S-OBRYS
  6
CONTINUOUS
 10
-5498.0057169581714
 20
397129.5804075335
 30
0.0
 11
-5253.3026144582764
 21
397243.6873382036
 31
0.0
  0
LINE
  5
647B6
  8
S-OBRYS
  6
CONTINUOUS
 10
-5302.4143254913433
 20
397349.00774239202
 30
0.0
 11
-5518.8247232838839
 21
397174.22691067721
 31
0.0
  0
LINE
  5
647B7
  8
S-OBRYS
  6
CONTINUOUS
 10
-5499.6128746022514
 20
397133.02696822368
 30
0.0
 11
-5254.9097721023572
 21
397247.1338988936
 31
0.0
  0
LINE
  5
647B8
  8
S-OBRYS
  6
CONTINUOUS
 10
-5479.9396034376696
 20
397205.6319339911
 30
0.0
 11
-5474.2719716982174
 21
397193.47765850299
 31
0.0
  0
LINE
  5
647B9
  8
S-OBRYS
  6
CONTINUOUS
 10
-5553.2195705939303
 20
397276.0957762617
 30
0.0
 11
-5508.8066937453477
 21
397180.85205450008
 31
0.0
  0
LINE
  5
647BA
  8
S-OBRYS
  6
CONTINUOUS
 10
-5507.2860411352303
 20
397297.5149328144
 30
0.0
 11
-5456.6909521258503
 21
397189.01341428992
 31
0.0
  0
LINE
  5
647BB
  8
S-OBRYS
  6
CONTINUOUS
 10
-5511.7521842185088
 20
397176.00034837553
 30
0.0
 11
-5429.1279032202001
 21
397214.52868335461
 31
0.0
  0
LINE
  5
647BC
  8
S-OBRYS
  6
CONTINUOUS
 10
-5508.8066937453477
 20
397180.85205450008
 30
0.0
 11
-5416.9396348279397
 21
397223.69036760548
 31
0.0
  0
LINE
  5
647BD
  8
S-OBRYS
  6
CONTINUOUS
 10
-5509.9912607943043
 20
397155.2834892362
 30
0.0
 11
-5410.049354281553
 21
397201.88716561382
 31
0.0
  0
LINE
  5
647BE
  8
S-OBRYS
  6
CONTINUOUS
 10
-5503.5026549744944
 20
397158.30917582079
 30
0.0
 11
-5511.7521842185088
 21
397176.00034837553
 31
0.0
  0
LINE
  5
647BF
  8
S-OBRYS
  6
CONTINUOUS
 10
-5499.6128746022514
 20
397133.02696822368
 30
0.0
 11
-5509.9912607943043
 21
397155.2834892362
 31
0.0
  0
LINE
  5
647C0
  8
S-OBRYS
  6
CONTINUOUS
 10
-5518.8247232838912
 20
397174.22691067721
 30
0.0
 11
-5498.0057169581714
 21
397129.5804075335
 31
0.0
  0
LINE
  5
647C1
  8
S-OBRYS
  6
CONTINUOUS
 10
-5518.8829325669212
 20
397202.4606183857
 30
0.0
 11
-5525.0847032898173
 21
397199.5686852035
 31
0.0
  0
LINE
  5
647C2
  8
S-OBRYS
  6
CONTINUOUS
 10
-5461.3525116765304
 20
397318.93408936699
 30
0.0
 11
-5553.2195705939303
 21
397276.0957762617
 31
0.0
  0
LINE
  5
647C3
  8
S-OBRYS
  6
CONTINUOUS
 10
-5543.143331772364
 20
397254.48721237609
 30
0.0
 11
-5549.3451024952592
 21
397251.59527919389
 31
0.0
  0
LINE
  5
647C4
  8
S-OBRYS
  6
CONTINUOUS
 10
-5549.3451024952592
 20
397251.59527919389
 30
0.0
 11
-5525.0847032898173
 21
397199.5686852035
 31
0.0
  0
LINE
  5
647C5
  8
S-OBRYS
  6
CONTINUOUS
 10
-5451.6023212936134
 20
397314.21641203138
 30
0.0
 11
-5432.944302529344
 21
397274.20416166849
 31
0.0
  0
LINE
  5
647C6
  8
S-OBRYS
  6
CONTINUOUS
 10
-5457.8040920165076
 20
397311.32447884919
 30
0.0
 11
-5451.6023212936134
 21
397314.21641203138
 31
0.0
  0
LINE
  5
647C7
  8
S-OBRYS
  6
CONTINUOUS
 10
-5428.0578668378876
 20
397247.53349309473
 30
0.0
 11
-5461.3525116765304
 21
397318.93408936699
 31
0.0
  0
LINE
  5
647C8
  8
S-OBRYS
  6
CONTINUOUS
 10
-5422.5731481912953
 20
397251.9631494169
 30
0.0
 11
-5432.944302529344
 21
397274.20416166849
 31
0.0
  0
LINE
  5
647C9
  8
S-OBRYS
  6
CONTINUOUS
 10
-5404.3382741745663
 20
397323.65329939011
 30
0.0
 11
-5446.7752072307121
 21
397303.86463251751
 31
0.0
  0
LINE
  5
647CA
  8
S-OBRYS
  6
CONTINUOUS
 10
-5420.4880544879643
 20
397231.29997812322
 30
0.0
 11
-5414.2862837650682
 21
397234.19191130559
 31
0.0
  0
LINE
  5
647CB
  8
S-OBRYS
  6
CONTINUOUS
 10
-5429.1279032202001
 20
397214.52868335461
 30
0.0
 11
-5420.8783739761857
 21
397196.83751079981
 31
0.0
  0
LINE
  5
647CC
  8
S-OBRYS
  6
CONTINUOUS
 10
-5457.4214702490863
 20
397223.8183893903
 30
0.0
 11
-5448.8099000512093
 21
397205.35081750451
 31
0.0
  0
LINE
  5
647CD
  8
S-OBRYS
  6
CONTINUOUS
 10
-5457.4214702490863
 20
397223.8183893903
 30
0.0
 11
-5476.5822902583104
 21
397264.90890050272
 31
0.0
  0
LINE
  5
647CE
  8
S-OBRYS
  6
CONTINUOUS
 10
-5416.9396348279397
 20
397223.69036760548
 30
0.0
 11
-5428.0578668378876
 21
397247.53349309473
 31
0.0
  0
LINE
  5
647CF
  8
S-OBRYS
  6
CONTINUOUS
 10
-5414.2862837650682
 20
397234.19191130559
 30
0.0
 11
-5422.5731481912953
 21
397251.9631494169
 31
0.0
  0
LINE
  5
647D0
  8
S-OBRYS
  6
CONTINUOUS
 10
-5503.4753800071994
 20
397280.65838191391
 30
0.0
 11
-5496.8226197455733
 21
397283.76061497169
 31
0.0
  0
LINE
  5
647D1
  8
S-OBRYS
  6
CONTINUOUS
 10
-5495.552905824974
 20
397281.03770468192
 30
0.0
 11
-5496.8226197455733
 21
397283.76061497169
 31
0.0
  0
LINE
  5
647D2
  8
S-OBRYS
  6
CONTINUOUS
 10
-5502.2056660866083
 20
397277.93547162408
 30
0.0
 11
-5503.4753800071994
 21
397280.65838191391
 31
0.0
  0
LINE
  5
647D3
  8
S-OBRYS
  6
CONTINUOUS
 10
-5502.0443619053194
 20
397253.0357415012
 30
0.0
 11
-5506.3480868671468
 21
397276.00382909068
 31
0.0
  0
LINE
  5
647D4
  8
S-OBRYS
  6
CONTINUOUS
 10
-5506.3480868671468
 20
397276.00382909068
 30
0.0
 11
-5491.4104850444337
 21
397282.9693472152
 31
0.0
  0
LINE
  5
647D5
  8
S-OBRYS
  6
CONTINUOUS
 10
-5502.0443619053194
 20
397253.0357415012
 30
0.0
 11
-5476.5822902583104
 21
397264.90890050272
 31
0.0
  0
LINE
  5
647D6
  8
S-OBRYS
  6
CONTINUOUS
 10
-5476.5822902583104
 20
397264.90890050272
 30
0.0
 11
-5491.4104850444337
 21
397282.9693472152
 31
0.0
  0
LINE
  5
647D7
  8
S-OBRYS
  6
CONTINUOUS
 10
-5479.9396034376696
 20
397205.6319339911
 30
0.0
 11
-5502.0443619053194
 21
397253.0357415012
 31
0.0
  0
LINE
  5
647D8
  8
S-OBRYS
  6
CONTINUOUS
 10
-5357.8115365476397
 20
397374.12986092962
 30
0.0
 11
-5334.146387905661
 21
397323.37978589191
 31
0.0
  0
POLYLINE
  5
647D9
  8
S-OBRYS
  6
CONTINUOUS
 66
     1
 10
0.0
 20
0.0
 30
0.0
  0
VERTEX
  5
652F3
  8
S-OBRYS
  6
CONTINUOUS
 10
-5357.8115365476397
 20
397374.12986092962
 30
0.0
  0
VERTEX
  5
652F4
  8
S-OBRYS
  6
CONTINUOUS
 10
-5371.0808041873606
 20
397367.94229981099
 30
0.0
  0
VERTEX
  5
652F5
  8
S-OBRYS
  6
CONTINUOUS
 10
-5345.8814556632424
 20
397313.90212250868
 30
0.0
  0
SEQEND
  5
652F6
  8
S-OBRYS
  6
CONTINUOUS
  0
LINE
  5
647DA
  8
S-OBRYS
  6
CONTINUOUS
 10
-5164.9132508450421
 20
397107.96106373501
 30
0.0
 11
-5118.4810036106137
 21
397129.6127762057
 31
0.0
  0
POLYLINE
  5
647DB
  8
S-OBRYS
  6
CONTINUOUS
 66
     1
 10
0.0
 20
0.0
 30
0.0
  0
VERTEX
  5
652F7
  8
S-OBRYS
  6
CONTINUOUS
 10
-5110.4493698055076
 20
397104.28880870942
 30
0.0
  0
VERTEX
  5
652F8
  8
S-OBRYS
  6
CONTINUOUS
 10
-5116.1699025769922
 20
397116.55653082678
 30
0.0
  0
VERTEX
  5
652F9
  8
S-OBRYS
  6
CONTINUOUS
 10
-5156.397133733728
 20
397097.79826487211
 30
0.0
  0
VERTEX
  5
652FA
  8
S-OBRYS
  6
CONTINUOUS
 10
-5150.6766009622452
 20
397085.53054275463
 30
0.0
  0
SEQEND
  5
652FB
  8
S-OBRYS
  6
CONTINUOUS
  0
LINE
  5
647DC
  8
S-OBRYS
  6
CONTINUOUS
 10
-5164.9132508450421
 20
397107.96106373501
 30
0.0
 11
-5170.8054924244934
 21
397120.59701657941
 31
0.0
  0
LINE
  5
647DD
  8
S-OBRYS
  6
CONTINUOUS
 10
-5274.316291808158
 20
397288.7513147057
 30
0.0
 11
-5310.1968881228822
 21
397272.01991786499
 31
0.0
  0
LINE
  5
647DE
  8
S-OBRYS
  6
CONTINUOUS
 10
-5328.2905875186634
 20
397276.17838403478
 30
0.0
 11
-5359.3024710230447
 21
397261.71730526292
 31
0.0
  0
POLYLINE
  5
647DF
  8
S-OBRYS
  6
CONTINUOUS
 66
     1
 10
0.0
 20
0.0
 30
0.0
  0
VERTEX
  5
652FC
  8
S-OBRYS
  6
CONTINUOUS
 10
-5345.8814556632424
 20
397313.90212250868
 30
0.0
  0
VERTEX
  5
652FD
  8
S-OBRYS
  6
CONTINUOUS
 10
-5321.3716324708294
 20
397261.34063705208
 30
0.0
  0
VERTEX
  5
652FE
  8
S-OBRYS
  6
CONTINUOUS
 10
-5308.1023648311166
 20
397267.52819817059
 30
0.0
  0
SEQEND
  5
652FF
  8
S-OBRYS
  6
CONTINUOUS
  0
LINE
  5
647E0
  8
S-OBRYS
  6
CONTINUOUS
 10
-5334.146387905661
 20
397323.37978589191
 30
0.0
 11
-5308.1023648311102
 21
397267.52819817059
 31
0.0
  0
POLYLINE
  5
647E1
  8
S-OBRYS
  6
CONTINUOUS
 66
     1
 10
0.0
 20
0.0
 30
0.0
  0
VERTEX
  5
65300
  8
S-OBRYS
  6
CONTINUOUS
 10
-5385.0427962261901
 20
397282.2740133953
 30
0.0
  0
VERTEX
  5
65301
  8
S-OBRYS
  6
CONTINUOUS
 10
-5365.6527836149326
 20
397240.69199716172
 30
0.0
  0
VERTEX
  5
65302
  8
S-OBRYS
  6
CONTINUOUS
 10
-5352.3835159752189
 20
397246.87955828023
 30
0.0
  0
VERTEX
  5
65303
  8
S-OBRYS
  6
CONTINUOUS
 10
-5373.3077284686078
 20
397291.75167677848
 30
0.0
  0
SEQEND
  5
65304
  8
S-OBRYS
  6
CONTINUOUS
  0
LINE
  5
647E2
  8
S-OBRYS
  6
CONTINUOUS
 10
-5131.6639034474347
 20
397123.46548905509
 30
0.0
 11
-5126.2502943749651
 21
397111.85596693418
 31
0.0
  0
LINE
  5
647E3
  8
S-OBRYS
  6
CONTINUOUS
 10
-5118.4810036106137
 20
397129.6127762057
 30
0.0
 11
-5124.3732451900651
 21
397142.24872905022
 31
0.0
  0
ARC
  5
647E4
  8
S-OBRYS
  6
CONTINUOUS
 10
-5069.1121854581797
 20
397076.47318077652
 30
0.0
 40
6.3377718662374596
 50
265.0337458891965
 51
93.570080793390304
  0
LINE
  5
647E5
  8
S-OBRYS
  6
CONTINUOUS
 10
-5137.7238296988144
 20
397084.87747067481
 30
0.0
 11
-5118.2749684470473
 21
397093.94662361889
 31
0.0
  0
ARC
  5
647E6
  8
S-OBRYS
  6
CONTINUOUS
 10
-5125.2513518052356
 20
397076.47318077652
 30
0.0
 40
6.3377718662374596
 50
86.429919206609682
 51
274.9662541108035
  0
POLYLINE
  5
647E7
  8
S-OBRYS
  6
CONTINUOUS
 66
     1
 10
0.0
 20
0.0
 30
0.0
  0
VERTEX
  5
65305
  8
S-OBRYS
  6
CONTINUOUS
 10
-5100.4283458290656
 20
397082.79865344131
 30
0.0
  0
VERTEX
  5
65306
  8
S-OBRYS
  6
CONTINUOUS
 10
-5105.3221971836183
 20
397093.29355153907
 30
0.0
  0
SEQEND
  5
65307
  8
S-OBRYS
  6
CONTINUOUS
  0
ARC
  5
647E8
  8
S-OBRYS
  6
CONTINUOUS
 10
-5103.5449411386653
 20
397100.81534815772
 30
0.0
 40
7.728910881886959
 50
153.2940746431978
 51
256.70592535827808
  0
POLYLINE
  5
647E9
  8
S-OBRYS
  6
CONTINUOUS
 66
     1
 10
0.0
 20
0.0
 30
0.0
  0
VERTEX
  5
65308
  8
S-OBRYS
  6
CONTINUOUS
 10
-5124.702697283079
 20
397070.15920180571
 30
0.0
  0
VERTEX
  5
65309
  8
S-OBRYS
  6
CONTINUOUS
 10
-5069.6608399803372
 20
397070.15920180571
 30
0.0
  0
SEQEND
  5
6530A
  8
S-OBRYS
  6
CONTINUOUS
  0
POLYLINE
  5
647EA
  8
S-OBRYS
  6
CONTINUOUS
 66
     1
 10
0.0
 20
0.0
 30
0.0
  0
VERTEX
  5
6530B
  8
S-OBRYS
  6
CONTINUOUS
 10
-5069.5068344101601
 20
397082.79865344131
 30
0.0
  0
VERTEX
  5
6530C
  8
S-OBRYS
  6
CONTINUOUS
 10
-5124.8567028532561
 20
397082.79865344131
 30
0.0
  0
SEQEND
  5
6530D
  8
S-OBRYS
  6
CONTINUOUS
  0
ARC
  5
647EB
  8
S-OBRYS
  6
CONTINUOUS
 10
-5087.8338199784494
 20
397067.1227401006
 30
0.0
 40
7.728910881886959
 50
156.86676636108001
 51
256.70592535827808
  0
ARC
  5
647EC
  8
S-OBRYS
  6
CONTINUOUS
 10
-5152.4538570071973
 20
397078.00874613598
 30
0.0
 40
7.728910881886959
 50
333.2940746431978
 51
76.705925358278137
  0
LINE
  5
647ED
  8
S-OBRYS
  6
CONTINUOUS
 10
-5151.7303510082202
 20
397114.10835088551
 30
0.0
 11
-5146.3167419357478
 21
397102.49882876471
 31
0.0
  0
LINE
  5
647EE
  8
S-OBRYS
  6
CONTINUOUS
 10
-5364.1618491395266
 20
397353.1045528283
 30
0.0
 11
-5395.1737326439179
 21
397338.64347405639
 31
0.0
  0
LINE
  5
647EF
  8
S-OBRYS
  6
CONTINUOUS
 10
-5319.8364169411434
 20
397386.36953807587
 30
0.0
 11
-5355.7170132558667
 21
397369.6381412351
 31
0.0
  0
DIMENSION
  5
647F0
  8
S-OBRYS
  6
CONTINUOUS
  2
*D100
 10
-5313.219571702386
 20
397948.88399979938
 30
0.0
 11
-5253.219571702386
 21
397948.88399979938
 31
0.0
 70
   128
  1
%%c<>
 13
-5193.2195717023851
 23
397774.9834796316
 33
0.0
 14
-5313.219571702386
 24
397774.9834796316
 34
0.0
  0
LINE
  5
647F1
  8
S-OBRYS
  6
CONTINUOUS
 10
-5193.2195717023851
 20
397774.9834796316
 30
0.0
 11
-5193.2195717023851
 21
397732.66155526118
 31
0.0
  0
LINE
  5
647F2
  8
S-OBRYS
  6
CONTINUOUS
 10
-5313.219571702386
 20
397774.9834796316
 30
0.0
 11
-5313.219571702386
 21
397676.70463628258
 31
0.0
  0
LINE
  5
647F3
  8
S-OBRYS
  6
CONTINUOUS
 10
-5253.219571702386
 20
397844.0163063042
 30
0.0
 11
-5253.219571702386
 21
397675.18870382261
 31
0.0
  0
LINE
  5
647F4
  8
S-OBRYS
  6
CONTINUOUS
 10
-5320.7195717023869
 20
397774.9834796316
 30
0.0
 11
-5185.719571702386
 21
397774.9834796316
 31
0.0
  0
LINE
  5
647F5
  8
S-OBRYS
  6
CONTINUOUS
 10
-5018.6777939176527
 20
397771.75633702701
 30
0.0
 11
-5061.5495307784577
 21
397863.69507341931
 31
0.0
  0
LINE
  5
647F6
  8
S-OBRYS
  6
CONTINUOUS
 10
-3291.9322706010721
 20
397959.21435507672
 30
0.0
 11
-3411.9561573384121
 21
398216.60641081148
 31
0.0
  0
LINE
  5
647F7
  8
S-OBRYS
  6
CONTINUOUS
 10
-2872.660894427419
 20
398178.26447295758
 30
0.0
 11
-2711.84880657433
 21
398253.25238104741
 31
0.0
  0
LINE
  5
647F8
  8
S-OBRYS
  6
CONTINUOUS
 10
-3317.1359555879981
 20
399131.44431761041
 30
0.0
 11
-2872.660894427419
 21
398178.26447295758
 31
0.0
  0
LINE
  5
647F9
  8
S-OBRYS
  6
CONTINUOUS
 10
-2911.283000045682
 20
398136.71402500779
 30
0.0
 11
-3154.3094082342509
 21
398657.8858392348
 31
0.0
  0
LINE
  5
647FA
  8
S-OBRYS
  6
CONTINUOUS
 10
-3312.5829402449458
 20
397949.58478967578
 30
0.0
 11
-2872.800635714535
 21
398154.65864619939
 31
0.0
  0
LINE
  5
647FB
  8
S-OBRYS
  6
CONTINUOUS
 10
-3358.0777432899922
 20
396975.5414106063
 30
0.0
 11
-3358.0777432899922
 21
397924.73207463208
 31
0.0
  0
LINE
  5
647FC
  8
S-OBRYS
  6
CONTINUOUS
 10
-3350.1327479040342
 20
397924.73207463208
 30
0.0
 11
-3350.1327479040342
 21
396975.5414106063
 31
0.0
  0
LINE
  5
647FD
  8
S-OBRYS
  6
CONTINUOUS
 10
-3390.1327479040342
 20
397924.73207463208
 30
0.0
 11
-3390.1327479040342
 21
396975.5414106063
 31
0.0
  0
LINE
  5
647FE
  8
S-OBRYS
  6
CONTINUOUS
 10
-3320.1327479040342
 20
396950.9834796316
 30
0.0
 11
-3320.1327479040342
 21
396975.5414106063
 31
0.0
  0
LINE
  5
647FF
  8
S-OBRYS
  6
CONTINUOUS
 10
-3420.1327479040342
 20
396950.9834796316
 30
0.0
 11
-3420.1327479040342
 21
396975.5414106063
 31
0.0
  0
LINE
  5
64800
  8
S-OBRYS
  6
CONTINUOUS
 10
-3420.1327479040342
 20
396950.9834796316
 30
0.0
 11
-3320.1327479040342
 21
396950.9834796316
 31
0.0
  0
LINE
  5
64801
  8
S-OBRYS
  6
CONTINUOUS
 10
-3420.1327479040342
 20
396975.5414106063
 30
0.0
 11
-3320.1327479040342
 21
396975.5414106063
 31
0.0
  0
LINE
  5
64802
  8
S-OBRYS
  6
CONTINUOUS
 10
-4648.9042168067026
 20
397944.18458781717
 30
0.0
 11
-4691.7759536675012
 21
398036.12332420947
 31
0.0
  0
POLYLINE
  5
64803
  8
S-OBRYS
  6
CONTINUOUS
 66
     1
 10
0.0
 20
0.0
 30
0.0
 70
     1
  0
VERTEX
  5
6530E
  8
S-OBRYS
  6
CONTINUOUS
 10
-4253.3096697876099
 20
398145.41360095819
 30
0.0
  0
VERTEX
  5
6530F
  8
S-OBRYS
  6
CONTINUOUS
 10
-4230.4478355688616
 20
398156.07424933382
 30
0.0
  0
VERTEX
  5
65310
  8
S-OBRYS
  6
CONTINUOUS
 10
-4187.7048336179141
 20
398064.41158584662
 30
0.0
  0
VERTEX
  5
65311
  8
S-OBRYS
  6
CONTINUOUS
 10
-4210.5666678366606
 20
398053.75093747099
 30
0.0
  0
SEQEND
  5
65312
  8
S-OBRYS
  6
CONTINUOUS
  0
LINE
  5
64804
  8
S-OBRYS
  6
CONTINUOUS
 10
-3447.046431731731
 20
397970.76359469671
 30
0.0
 11
-3324.0602361521228
 21
398028.11299954291
 31
0.0
  0
LINE
  5
64805
  8
S-OBRYS
  6
CONTINUOUS
 10
-3429.2877874828491
 20
397932.68005920621
 30
0.0
 11
-3447.046431731731
 21
397970.76359469671
 31
0.0
  0
LINE
  5
64806
  8
S-OBRYS
  6
CONTINUOUS
 10
-3310.977708325227
 20
397951.8208468185
 30
0.0
 11
-3429.2877874828491
 21
397951.8208468185
 31
0.0
  0
LINE
  5
64807
  8
S-OBRYS
  6
CONTINUOUS
 10
-3429.2877874828491
 20
397924.73207463208
 30
0.0
 11
-3310.977708325227
 21
397924.73207463208
 31
0.0
  0
LINE
  5
64808
  8
S-OBRYS
  6
CONTINUOUS
 10
-3429.2877874828491
 20
397951.8208468185
 30
0.0
 11
-3429.2877874828491
 21
397924.73207463208
 31
0.0
  0
LINE
  5
64809
  8
S-OBRYS
  6
CONTINUOUS
 10
-3310.977708325227
 20
397951.8208468185
 30
0.0
 11
-3310.977708325227
 21
397924.73207463208
 31
0.0
  0
LINE
  5
6480A
  8
S-OBRYS
  6
CONTINUOUS
 10
-3053.6996595260789
 20
397962.12993486703
 30
0.0
 11
-3124.1260633363272
 21
398113.1598452247
 31
0.0
  0
LINE
  5
6480B
  8
S-OBRYS
  6
CONTINUOUS
 10
-2960.375769398001
 20
398366.36962936359
 30
0.0
 11
-2799.5636815449179
 21
398441.35753745341
 31
0.0
  0
LINE
  5
6480C
  8
S-OBRYS
  6
CONTINUOUS
 10
-2711.84880657433
 20
398253.25238104741
 30
0.0
 11
-3156.3238677349068
 21
399206.43222570018
 31
0.0
  0
LINE
  5
6480D
  8
S-OBRYS
  6
CONTINUOUS
 10
-3207.6117687542578
 20
398763.78299967828
 30
0.0
 11
-3199.755838468911
 21
398746.93590281432
 31
0.0
  0
LINE
  5
6480E
  8
S-OBRYS
  6
CONTINUOUS
 10
-3170.5993558331679
 20
398731.16254024679
 30
0.0
 11
-3181.8484326329572
 21
398755.2862632933
 31
0.0
  0
LINE
  5
6480F
  8
S-OBRYS
  6
CONTINUOUS
 10
-3314.0027947605922
 20
398714.17204949248
 30
0.0
 11
-3302.8178697030962
 21
398761.6903199947
 31
0.0
  0
LINE
  5
64810
  8
S-OBRYS
  6
CONTINUOUS
 10
-3440.6906519951081
 20
399119.23831062671
 30
0.0
 11
-3255.0581063381319
 21
398721.14803179359
 31
0.0
  0
LINE
  5
64811
  8
S-OBRYS
  6
CONTINUOUS
 10
-3328.1400758339878
 20
398707.57972706249
 30
0.0
 11
-3499.969643170582
 21
399076.06942336401
 31
0.0
  0
LINE
  5
64812
  8
S-OBRYS
  6
CONTINUOUS
 10
-3416.9896755402442
 20
399130.29025745339
 30
0.0
 11
-3239.2130601686149
 21
398749.04707548418
 31
0.0
  0
LINE
  5
64813
  8
S-OBRYS
  6
CONTINUOUS
 10
-3239.2130601686149
 20
398749.04707548418
 30
0.0
 11
-3207.6117687542578
 21
398763.78299967828
 31
0.0
  0
LINE
  5
64814
  8
S-OBRYS
  6
CONTINUOUS
 10
-3372.5095901284872
 20
398666.37950544042
 30
0.0
 11
-3181.8484326329572
 21
398755.2862632933
 31
0.0
  0
POLYLINE
  5
64815
  8
S-OBRYS
  6
CONTINUOUS
 66
     1
 10
0.0
 20
0.0
 30
0.0
 70
     1
  0
VERTEX
  5
65313
  8
S-OBRYS
  6
CONTINUOUS
 10
-3709.5249975656188
 20
398398.98455800262
 30
0.0
  0
VERTEX
  5
65314
  8
S-OBRYS
  6
CONTINUOUS
 10
-3686.6631633468642
 20
398409.64520637819
 30
0.0
  0
VERTEX
  5
65315
  8
S-OBRYS
  6
CONTINUOUS
 10
-3643.920161395924
 20
398317.98254289111
 30
0.0
  0
VERTEX
  5
65316
  8
S-OBRYS
  6
CONTINUOUS
 10
-3666.7819956146709
 20
398307.32189451542
 30
0.0
  0
SEQEND
  5
65317
  8
S-OBRYS
  6
CONTINUOUS
  0
LINE
  5
64816
  8
S-OBRYS
  6
CONTINUOUS
 10
-3043.7440915080301
 20
398490.67767136981
 30
0.0
 11
-2965.3232375161901
 21
398322.50360727211
 31
0.0
  0
ARC
  5
64817
  8
S-OBRYS
  6
CONTINUOUS
 10
-2974.3863153865532
 20
398318.27742465469
 30
0.0
 40
10.0
 50
294.99999999969617
 51
24.99999999853728
  0
LINE
  5
64818
  8
S-OBRYS
  6
CONTINUOUS
 10
-2987.8702771696921
 20
398300.9559708233
 30
0.0
 11
-2970.160132769146
 21
398309.21434678428
 31
0.0
  0
ARC
  5
64819
  8
S-OBRYS
  6
CONTINUOUS
 10
-2945.9663848175628
 20
398326.68172985699
 30
0.0
 40
40.930215194313092
 50
109.79454243915779
 51
143.1482517244705
  0
ARC
  5
6481A
  8
S-OBRYS
  6
CONTINUOUS
 10
-3028.1011188419579
 20
398502.82023538649
 30
0.0
 40
40.930215194313092
 50
266.85174827447889
 51
300.20545756109613
  0
LINE
  5
6481B
  8
S-OBRYS
  6
CONTINUOUS
 10
-3189.0629599249951
 20
398668.10726018919
 30
0.0
 11
-3209.9168192980069
 21
398712.82850593393
 31
0.0
  0
LINE
  5
6481C
  8
S-OBRYS
  6
CONTINUOUS
 10
-3361.2605133287002
 20
398642.25578239391
 30
0.0
 11
-3170.5993558331679
 21
398731.16254024679
 31
0.0
  0
LINE
  5
6481D
  8
S-OBRYS
  6
CONTINUOUS
 10
-3317.5749014993789
 20
398608.1811576687
 30
0.0
 11
-3338.4287608723971
 21
398652.90240341338
 31
0.0
  0
LINE
  5
6481E
  8
S-OBRYS
  6
CONTINUOUS
 10
-3301.0978634692442
 20
398615.86452668579
 30
0.0
 11
-3321.951722842256
 21
398660.58577243052
 31
0.0
  0
LINE
  5
6481F
  8
S-OBRYS
  6
CONTINUOUS
 10
-3361.4047476703131
 20
398692.06815583922
 30
0.0
 11
-3314.0027947605922
 21
398714.17204949248
 31
0.0
  0
LINE
  5
64820
  8
S-OBRYS
  6
CONTINUOUS
 10
-3353.5488173849672
 20
398675.22105897532
 30
0.0
 11
-3361.4047476703131
 21
398692.06815583922
 31
0.0
  0
LINE
  5
64821
  8
S-OBRYS
  6
CONTINUOUS
 10
-3372.5095901284872
 20
398666.37950544042
 30
0.0
 11
-3361.2605133287002
 21
398642.25578239391
 31
0.0
  0
LINE
  5
64822
  8
S-OBRYS
  6
CONTINUOUS
 10
-3074.743496396346
 20
398487.25619066181
 30
0.0
 11
-3057.0333519958081
 21
398495.51456662291
 31
0.0
  0
ARC
  5
64823
  8
S-OBRYS
  6
CONTINUOUS
 10
-3052.8071693784009
 20
398486.45148875238
 30
0.0
 40
10.0
 50
24.99999999853728
 51
114.9999999996962
  0
LINE
  5
64824
  8
S-OBRYS
  6
CONTINUOUS
 10
-3144.7483978656969
 20
398688.77147984522
 30
0.0
 11
-3134.6261668686061
 21
398667.06428542099
 31
0.0
  0
LINE
  5
64825
  8
S-OBRYS
  6
CONTINUOUS
 10
-3172.5859218948531
 20
398675.7906292064
 30
0.0
 11
-3193.4397812678658
 21
398720.51187495107
 31
0.0
  0
LINE
  5
64826
  8
S-OBRYS
  6
CONTINUOUS
 10
-3499.969643170582
 20
399076.06942336401
 30
0.0
 11
-3458.4445804149291
 21
399095.43287813239
 31
0.0
  0
LINE
  5
64827
  8
S-OBRYS
  6
CONTINUOUS
 10
-3300.5991659880892
 20
399095.39502671378
 30
0.0
 11
-3733.8820628313269
 21
398893.35189376818
 31
0.0
  0
LINE
  5
64828
  8
S-OBRYS
  6
CONTINUOUS
 10
-3704.058036181676
 20
399091.09045721852
 30
0.0
 11
-3624.1786212296652
 21
399128.33884013951
 31
0.0
  0
LINE
  5
64829
  8
S-OBRYS
  6
CONTINUOUS
 10
-3624.1786212296652
 20
399128.33884013951
 30
0.0
 11
-3601.3200382273872
 21
399079.31845069811
 31
0.0
  0
LINE
  5
6482A
  8
S-OBRYS
  6
CONTINUOUS
 10
-3663.7972078081871
 20
399027.90849074128
 30
0.0
 11
-3750.9433461535891
 21
398987.27157905221
 31
0.0
  0
LINE
  5
6482B
  8
S-OBRYS
  6
CONTINUOUS
 10
-3750.9433461535891
 20
398987.27157905221
 30
0.0
 11
-3763.0182589913961
 21
398955.75516037771
 31
0.0
  0
LINE
  5
6482C
  8
S-OBRYS
  6
CONTINUOUS
 10
-3555.6976354376238
 20
399078.31614918099
 30
0.0
 11
-3525.9109312210639
 21
399014.43835584942
 31
0.0
  0
LINE
  5
6482D
  8
S-OBRYS
  6
CONTINUOUS
 10
-3630.5382813425681
 20
398839.66639814398
 30
0.0
 11
-3678.8272967728999
 21
398943.06351053278
 31
0.0
  0
LINE
  5
6482E
  8
S-OBRYS
  6
CONTINUOUS
 10
-3477.595574202533
 20
398910.98475374241
 30
0.0
 11
-3672.841284918497
 21
398819.94018361362
 31
0.0
  0
LINE
  5
6482F
  8
S-OBRYS
  6
CONTINUOUS
 10
-3672.841284918497
 20
398819.94018361362
 30
0.0
 11
-3704.745866671256
 21
398830.94862715871
 31
0.0
  0
LINE
  5
64830
  8
S-OBRYS
  6
CONTINUOUS
 10
-3681.1994531793971
 20
399042.07006777712
 30
0.0
 11
-3601.3200382273872
 21
399079.31845069811
 31
0.0
  0
LINE
  5
64831
  8
S-OBRYS
  6
CONTINUOUS
 10
-3655.590153507379
 20
399021.22976456321
 30
0.0
 11
-3601.816780279391
 21
399046.30470030429
 31
0.0
  0
LINE
  5
64832
  8
S-OBRYS
  6
CONTINUOUS
 10
-3704.058036181676
 20
399091.09045721852
 30
0.0
 11
-3681.1994531793971
 21
399042.07006777712
 31
0.0
  0
LINE
  5
64833
  8
S-OBRYS
  6
CONTINUOUS
 10
-3681.1994531793971
 20
399042.07006777712
 30
0.0
 11
-3655.590153507379
 21
399021.22976456321
 31
0.0
  0
LINE
  5
64834
  8
S-OBRYS
  6
CONTINUOUS
 10
-3510.9613564570759
 20
399065.4917223333
 30
0.0
 11
-3497.8813367111579
 21
399071.5910357096
 31
0.0
  0
LINE
  5
64835
  8
S-OBRYS
  6
CONTINUOUS
 10
-3542.79541840202
 20
399050.64725545823
 30
0.0
 11
-3523.0497411137412
 21
399059.85481599323
 31
0.0
  0
LINE
  5
64836
  8
S-OBRYS
  6
CONTINUOUS
 10
-3601.3200382273872
 20
399079.31845069811
 30
0.0
 11
-3601.816780279391
 21
399046.30470030429
 31
0.0
  0
LINE
  5
64837
  8
S-OBRYS
  6
CONTINUOUS
 10
-3555.6976354376238
 20
399078.31614918099
 30
0.0
 11
-3601.6575885386342
 21
399056.8846710815
 31
0.0
  0
LINE
  5
64838
  8
S-OBRYS
  6
CONTINUOUS
 10
-3490.4977912381291
 20
398938.65364746511
 30
0.0
 11
-3470.7521139498499
 21
398947.8612080001
 31
0.0
  0
LINE
  5
64839
  8
S-OBRYS
  6
CONTINUOUS
 10
-3464.3916284499651
 20
399108.18636380008
 30
0.0
 11
-3416.9896755402442
 21
399130.29025745339
 31
0.0
  0
LINE
  5
6483A
  8
S-OBRYS
  6
CONTINUOUS
 10
-3412.1278983772859
 20
399119.86414268141
 30
0.0
 11
-3379.2741046822489
 21
399135.184118281
 31
0.0
  0
LINE
  5
6483B
  8
S-OBRYS
  6
CONTINUOUS
 10
-3206.359266473577
 20
398764.36705108359
 30
0.0
 11
-3379.2741046822489
 21
399135.184118281
 31
0.0
  0
LINE
  5
6483C
  8
S-OBRYS
  6
CONTINUOUS
 10
-3262.5543219000169
 20
399014.39362643368
 30
0.0
 11
-3101.7422340469352
 21
399089.38153452362
 31
0.0
  0
LINE
  5
6483D
  8
S-OBRYS
  6
CONTINUOUS
 10
-3302.8178697030962
 20
398761.6903199947
 30
0.0
 11
-3464.3916284499651
 21
399108.18636380008
 31
0.0
  0
LINE
  5
6483E
  8
S-OBRYS
  6
CONTINUOUS
 10
-3253.1235855651898
 20
398994.16934709827
 30
0.0
 11
-3424.511858875027
 21
398914.24968273588
 31
0.0
  0
LINE
  5
6483F
  8
S-OBRYS
  6
CONTINUOUS
 10
-3260.7573258539492
 20
398921.28756383451
 30
0.0
 11
-3313.861144312149
 21
399035.16907002358
 31
0.0
  0
LINE
  5
64840
  8
S-OBRYS
  6
CONTINUOUS
 10
-3207.6117687542578
 20
398763.78299967828
 30
0.0
 11
-3206.359266473577
 21
398764.36705108359
 31
0.0
  0
LINE
  5
64841
  8
S-OBRYS
  6
CONTINUOUS
 10
-3276.179140285516
 20
398914.09625366243
 30
0.0
 11
-3260.7573258539492
 21
398921.28756383451
 31
0.0
  0
LINE
  5
64842
  8
S-OBRYS
  6
CONTINUOUS
 10
-3274.4339798989172
 20
398950.61724308343
 30
0.0
 11
-3240.2483303810591
 21
398966.55827325262
 31
0.0
  0
LINE
  5
64843
  8
S-OBRYS
  6
CONTINUOUS
 10
-3458.663729293185
 20
398953.49811434018
 30
0.0
 11
-3445.583709547268
 21
398959.5974277166
 31
0.0
  0
LINE
  5
64844
  8
S-OBRYS
  6
CONTINUOUS
 10
-3329.2829587437159
 20
399027.97775985149
 30
0.0
 11
-3313.861144312149
 21
399035.16907002358
 31
0.0
  0
LINE
  5
64845
  8
S-OBRYS
  6
CONTINUOUS
 10
-3300.1844902671728
 20
399005.83939077472
 30
0.0
 11
-3265.998840749322
 21
399021.78042094392
 31
0.0
  0
LINE
  5
64846
  8
S-OBRYS
  6
CONTINUOUS
 10
-3156.3238677349068
 20
399206.43222570018
 30
0.0
 11
-3317.1359555879981
 21
399131.44431761041
 31
0.0
  0
LINE
  5
64847
  8
S-OBRYS
  6
CONTINUOUS
 10
-3678.8272967728999
 20
398943.06351053278
 30
0.0
 11
-3708.6403425776521
 21
399006.99779358262
 31
0.0
  0
LINE
  5
64848
  8
S-OBRYS
  6
CONTINUOUS
 10
-3525.9109312210639
 20
399014.43835584942
 30
0.0
 11
-3477.595574202533
 21
398910.98475374241
 31
0.0
  0
LINE
  5
64849
  8
S-OBRYS
  6
CONTINUOUS
 10
-3451.9270532207888
 20
398907.33171960153
 30
0.0
 11
-3439.838668564124
 21
398912.9686259416
 31
0.0
  0
LINE
  5
6484A
  8
S-OBRYS
  6
CONTINUOUS
 10
-3440.0767380178809
 20
398913.63818291889
 30
0.0
 11
-3493.5262763972569
 21
399028.10207248537
 31
0.0
  0
LINE
  5
6484B
  8
S-OBRYS
  6
CONTINUOUS
 10
-3529.5483477323719
 20
399105.35165375459
 30
0.0
 11
-3541.6367323890449
 21
399099.71474741452
 31
0.0
  0
LINE
  5
6484C
  8
S-OBRYS
  6
CONTINUOUS
 10
-3541.6367323890449
 20
399099.71474741452
 30
0.0
 11
-3505.5956178034248
 21
399022.4243277628
 31
0.0
  0
LINE
  5
6484D
  8
S-OBRYS
  6
CONTINUOUS
 10
-3505.5956178034248
 20
399022.4243277628
 30
0.0
 11
-3452.1651226745462
 21
398908.00127657881
 31
0.0
  0
LINE
  5
6484E
  8
S-OBRYS
  6
CONTINUOUS
 10
-3493.5262763972569
 20
399028.10207248537
 30
0.0
 11
-3529.5483477323719
 21
399105.35165375459
 31
0.0
  0
LINE
  5
6484F
  8
S-OBRYS
  6
CONTINUOUS
 10
-3763.0182589913961
 20
398955.75516037771
 30
0.0
 11
-3704.745866671256
 21
398830.94862715871
 31
0.0
  0
DIMENSION
  5
64850
  8
S-OBRYS
  6
CONTINUOUS
  2
*D101
 10
-2983.668183617679
 20
398416.32037285308
 30
0.0
 11
-4861.9261427801539
 21
397231.2425893044
 31
0.0
 70
     2
 13
-5104.5233100215546
 23
396950.9834796316
 33
0.0
 14
-4808.0923708178379
 24
396950.9834796316
 34
0.0
 15
-5537.2149028925342
 25
397225.5819821987
 35
0.0
 16
-4919.112506568199
 26
397127.78013196669
 36
0.0
1001
ACAD
1000
DSTYLE
1002
{
1070
   271
1070
     0
1002
}
  0
DIMENSION
  5
64851
  8
S-OBRYS
  6
CONTINUOUS
  2
*D102
 10
-2422.206991244806
 20
398364.77391333162
 30
0.0
 11
-2607.804864261474
 21
398940.25495518401
 31
0.0
 70
     1
 13
-3664.118328705671
 23
399109.71464867902
 33
0.0
 14
-3156.9764146169041
 24
398022.14530423499
 34
0.0
  0
DIMENSION
  5
64852
  8
S-OBRYS
  6
CONTINUOUS
  2
*D103
 10
-3095.1327479040119
 20
396111.5623478315
 30
0.0
 11
-4294.5014544227161
 21
396111.5623478315
 31
0.0
 70
   128
  1
2160
 13
-5253.219571702386
 23
397679.14795623021
 33
0.0
 14
-3095.1327479040119
 24
398050.98347963148
 34
0.0
  0
LINE
  5
64853
  8
S-OBRYS
  6
CONTINUOUS
 10
-5753.2195705939303
 20
396795.61575724871
 30
0.0
 11
-5753.2195705939303
 21
397859.20656646212
 31
0.0
  0
LINE
  5
64854
  8
S-OBRYS
  6
CONTINUOUS
 10
-5753.2195705939303
 20
397859.20656646212
 30
0.0
 11
-5878.7287368542666
 21
397771.49599710747
 31
0.0
  0
LINE
  5
64855
  8
S-OBRYS
  6
CONTINUOUS
 10
-5753.2195705939303
 20
397795.1456880148
 30
0.0
 11
-5878.7287368542666
 21
397707.4351186601
 31
0.0
  0
LINE
  5
64856
  8
S-OBRYS
  6
CONTINUOUS
 10
-5753.2195705939303
 20
397724.15931607143
 30
0.0
 11
-5878.7287368542666
 21
397636.4487467166
 31
0.0
  0
LINE
  5
64857
  8
S-OBRYS
  6
CONTINUOUS
 10
-5753.2195705939303
 20
397651.44160891802
 30
0.0
 11
-5878.7287368542666
 21
397563.73103956331
 31
0.0
  0
LINE
  5
64858
  8
S-OBRYS
  6
CONTINUOUS
 10
-5753.2195705939303
 20
397580.45523697441
 30
0.0
 11
-5878.7287368542666
 21
397492.7446676197
 31
0.0
  0
DIMENSION
  5
64859
  8
S-OBRYS
  6
CONTINUOUS
  2
*D94
 10
-5753.2195705939303
 20
397904.65035017667
 30
0.0
 11
-6201.0767134510734
 21
397979.65035017667
 31
0.0
 70
     0
  1
MIN.200
 13
-5553.2195705939303
 23
397272.94577626162
 33
0.0
 14
-5753.2195705939303
 24
397272.94577626162
 34
0.0
  0
LINE
  5
6485A
  8
S-OBRYS
  6
CONTINUOUS
 10
-5753.2195705939303
 20
397859.20656646212
 30
0.0
 11
-5878.7287368542666
 21
397771.49599710747
 31
0.0
  0
LINE
  5
6485B
  8
S-OBRYS
  6
CONTINUOUS
 10
-5753.2195705939303
 20
397795.1456880148
 30
0.0
 11
-5878.7287368542666
 21
397707.4351186601
 31
0.0
  0
LINE
  5
6485C
  8
S-OBRYS
  6
CONTINUOUS
 10
-5753.2195705939303
 20
397724.15931607143
 30
0.0
 11
-5878.7287368542666
 21
397636.4487467166
 31
0.0
  0
LINE
  5
6485D
  8
S-OBRYS
  6
CONTINUOUS
 10
-5753.2195705939303
 20
397651.44160891802
 30
0.0
 11
-5878.7287368542666
 21
397563.73103956331
 31
0.0
  0
LINE
  5
6485E
  8
S-OBRYS
  6
CONTINUOUS
 10
-5753.2195705939303
 20
397580.45523697441
 30
0.0
 11
-5878.7287368542666
 21
397492.7446676197
 31
0.0
  0
LINE
  5
6485F
  8
S-OBRYS
  6
CONTINUOUS
 10
-5753.2195705939303
 20
397493.88649194298
 30
0.0
 11
-5878.7287368542666
 21
397406.17592258821
 31
0.0
  0
LINE
  5
64860
  8
S-OBRYS
  6
CONTINUOUS
 10
-5753.2195705939303
 20
397409.04908212117
 30
0.0
 11
-5878.7287368542666
 21
397321.33851276658
 31
0.0
  0
LINE
  5
64861
  8
S-OBRYS
  6
CONTINUOUS
 10
-5753.2195705939303
 20
397322.48033708968
 30
0.0
 11
-5878.7287368542666
 21
397234.76976773498
 31
0.0
  0
LINE
  5
64862
  8
S-OBRYS
  6
CONTINUOUS
 10
-5753.2195705939303
 20
397235.9115920582
 30
0.0
 11
-5878.7287368542666
 21
397148.20102270349
 31
0.0
  0
LINE
  5
64863
  8
S-OBRYS
  6
CONTINUOUS
 10
-5753.2195705939303
 20
397152.80561921769
 30
0.0
 11
-5878.7287368542666
 21
397065.09504986298
 31
0.0
  0
LINE
  5
64864
  8
S-OBRYS
  6
CONTINUOUS
 10
-5753.2195705939303
 20
397067.96826028172
 30
0.0
 11
-5878.7287368542666
 21
396980.25769092701
 31
0.0
  0
LINE
  5
64865
  8
S-OBRYS
  6
CONTINUOUS
 10
-5753.2195705939303
 20
396990.05639484187
 30
0.0
 11
-5878.7287368542666
 21
396902.34582548728
 31
0.0
  0
LINE
  5
64866
  8
S-OBRYS
  6
CONTINUOUS
 10
-5753.2195705939303
 20
396917.33863680292
 30
0.0
 11
-5878.7287368542666
 21
396829.62806744821
 31
0.0
  0
LINE
  5
64867
  8
S-OBRYS
  6
CONTINUOUS
 10
-5753.2195705939303
 20
396827.30711958051
 30
0.0
 11
-5878.7287368542666
 21
396739.59655022569
 31
0.0
  0
LINE
  5
64868
  8
S-OBRYS
  6
CONTINUOUS
 10
-5753.2195705939303
 20
397859.20656646212
 30
0.0
 11
-5878.7287368542666
 21
397771.49599710747
 31
0.0
  0
LINE
  5
64869
  8
S-OBRYS
  6
CONTINUOUS
 10
-5753.2195705939303
 20
397795.1456880148
 30
0.0
 11
-5878.7287368542666
 21
397707.4351186601
 31
0.0
  0
LINE
  5
6486A
  8
S-OBRYS
  6
CONTINUOUS
 10
-5753.2195705939303
 20
397724.15931607143
 30
0.0
 11
-5878.7287368542666
 21
397636.4487467166
 31
0.0
  0
LINE
  5
6486B
  8
S-OBRYS
  6
CONTINUOUS
 10
-5753.2195705939303
 20
397651.44160891802
 30
0.0
 11
-5878.7287368542666
 21
397563.73103956331
 31
0.0
  0
LINE
  5
6486C
  8
S-OBRYS
  6
CONTINUOUS
 10
-5753.2195705939303
 20
397580.45523697441
 30
0.0
 11
-5878.7287368542666
 21
397492.7446676197
 31
0.0
  0
LINE
  5
6486D
  8
S-OBRYS
  6
CONTINUOUS
 10
-5753.2195705939303
 20
397493.88649194298
 30
0.0
 11
-5878.7287368542666
 21
397406.17592258821
 31
0.0
  0
LINE
  5
6486E
  8
S-OBRYS
  6
CONTINUOUS
 10
-5753.2195705939303
 20
397409.04908212117
 30
0.0
 11
-5878.7287368542666
 21
397321.33851276658
 31
0.0
  0
LINE
  5
6486F
  8
S-OBRYS
  6
CONTINUOUS
 10
-5753.2195705939303
 20
397322.48033708968
 30
0.0
 11
-5878.7287368542666
 21
397234.76976773498
 31
0.0
  0
LINE
  5
64870
  8
S-OBRYS
  6
CONTINUOUS
 10
-5753.2195705939303
 20
397235.9115920582
 30
0.0
 11
-5878.7287368542666
 21
397148.20102270349
 31
0.0
  0
LINE
  5
64871
  8
S-OBRYS
  6
CONTINUOUS
 10
-5753.2195705939303
 20
397152.80561921769
 30
0.0
 11
-5878.7287368542666
 21
397065.09504986298
 31
0.0
  0
LINE
  5
64872
  8
S-OBRYS
  6
CONTINUOUS
 10
-5753.2195705939303
 20
397067.96826028172
 30
0.0
 11
-5878.7287368542666
 21
396980.25769092701
 31
0.0
  0
LINE
  5
64873
  8
S-OBRYS
  6
CONTINUOUS
 10
-5753.2195705939303
 20
396990.05639484187
 30
0.0
 11
-5878.7287368542666
 21
396902.34582548728
 31
0.0
  0
LINE
  5
64874
  8
S-OBRYS
  6
CONTINUOUS
 10
-5753.2195705939303
 20
396917.33863680292
 30
0.0
 11
-5878.7287368542666
 21
396829.62806744821
 31
0.0
  0
LINE
  5
64875
  8
S-OBRYS
  6
CONTINUOUS
 10
-5753.2195705939303
 20
396827.30711958051
 30
0.0
 11
-5878.7287368542666
 21
396739.59655022569
 31
0.0
  0
LINE
  5
64876
  8
S-OBRYS
  6
CONTINUOUS
 10
-2311.8488065742708
 20
397527.50436140469
 30
0.0
 11
-2311.8488065742708
 21
398591.09517061809
 31
0.0
  0
LINE
  5
64877
  8
S-OBRYS
  6
CONTINUOUS
 10
-2311.8488065742708
 20
398591.09517061809
 30
0.0
 11
-2186.3396403139341
 21
398503.38460126339
 31
0.0
  0
LINE
  5
64878
  8
S-OBRYS
  6
CONTINUOUS
 10
-2311.8488065742708
 20
398527.03429217078
 30
0.0
 11
-2186.3396403139341
 21
398439.32372281607
 31
0.0
  0
LINE
  5
64879
  8
S-OBRYS
  6
CONTINUOUS
 10
-2311.8488065742708
 20
398456.0479202274
 30
0.0
 11
-2186.3396403139341
 21
398368.33735087258
 31
0.0
  0
LINE
  5
6487A
  8
S-OBRYS
  6
CONTINUOUS
 10
-2311.8488065742708
 20
398383.33021307387
 30
0.0
 11
-2186.3396403139341
 21
398295.61964371928
 31
0.0
  0
LINE
  5
6487B
  8
S-OBRYS
  6
CONTINUOUS
 10
-2311.8488065742708
 20
398312.34384113038
 30
0.0
 11
-2186.3396403139341
 21
398224.63327177567
 31
0.0
  0
LINE
  5
6487C
  8
S-OBRYS
  6
CONTINUOUS
 10
-2311.8488065742708
 20
398225.77509609889
 30
0.0
 11
-2186.3396403139341
 21
398138.06452674419
 31
0.0
  0
LINE
  5
6487D
  8
S-OBRYS
  6
CONTINUOUS
 10
-2311.8488065742708
 20
398140.9376862772
 30
0.0
 11
-2186.3396403139341
 21
398053.2271169225
 31
0.0
  0
LINE
  5
6487E
  8
S-OBRYS
  6
CONTINUOUS
 10
-2311.8488065742708
 20
398054.36894124572
 30
0.0
 11
-2186.3396403139341
 21
397966.6583718909
 31
0.0
  0
LINE
  5
6487F
  8
S-OBRYS
  6
CONTINUOUS
 10
-2311.8488065742708
 20
397967.80019621417
 30
0.0
 11
-2186.3396403139341
 21
397880.08962685952
 31
0.0
  0
LINE
  5
64880
  8
S-OBRYS
  6
CONTINUOUS
 10
-2311.8488065742708
 20
397884.69422337372
 30
0.0
 11
-2186.3396403139341
 21
397796.98365401902
 31
0.0
  0
LINE
  5
64881
  8
S-OBRYS
  6
CONTINUOUS
 10
-2311.8488065742708
 20
397799.85686443769
 30
0.0
 11
-2186.3396403139341
 21
397712.14629508299
 31
0.0
  0
LINE
  5
64882
  8
S-OBRYS
  6
CONTINUOUS
 10
-2311.8488065742708
 20
397721.9449989979
 30
0.0
 11
-2186.3396403139341
 21
397634.2344296432
 31
0.0
  0
LINE
  5
64883
  8
S-OBRYS
  6
CONTINUOUS
 10
-2311.8488065742708
 20
397649.22724095877
 30
0.0
 11
-2186.3396403139341
 21
397561.51667160419
 31
0.0
  0
LINE
  5
64884
  8
S-OBRYS
  6
CONTINUOUS
 10
-2311.8488065742708
 20
397559.19572373643
 30
0.0
 11
-2186.3396403139341
 21
397471.48515438172
 31
0.0
  0
DIMENSION
  5
64885
  8
S-OBRYS
  6
CONTINUOUS
  2
*D95
 10
-2311.8488065742708
 20
398642.07557341037
 30
0.0
 11
-1908.277378002844
 21
398642.07557341037
 31
0.0
 70
   128
  1
MIN.400
 13
-2711.8488065742722
 23
398250.10238104733
 33
0.0
 14
-2311.8488065742708
 24
398250.10238104733
 34
0.0
  0
VIEWPORT
  5
1FAB5
 67
     1
  8
0
  6
ČERCHOVANÁ
 10
12.669026204836801
 20
9.4585013259736659
 30
0.0
 40
41.707206501782828
 41
24.2248555085413
 68
     1
 69
     1
1001
ACAD
1000
MVIEW
1002
{
1070
    16
1010
0.0
1020
0.0
1030
0.0
1010
0.0
1020
0.0
1030
1.0
1040
0.0
1040
24.2248555085413
1040
12.669026204836801
1040
9.4585013259736659
1040
50.0
1040
0.0
1040
0.0
1070
     0
1070
   100
1070
     1
1070
     1
1070
     0
1070
     0
1070
     0
1070
     0
1040
0.0
1040
0.0
1040
0.0
1040
10.0
1040
10.0
1040
10.0
1040
10.0
1070
     0
1002
{
1002
}
1002
}
  0
VIEWPORT
  5
1FAB7
 67
     1
  8
2-VZT
  6
ČERCHOVANÁ
 10
5.24999976158142
 20
3.99999976158142
 30
0.0
 40
8.3999996185302717
 41
6.3999996185302717
 68
     2
 69
     2
1001
ACAD
1000
MVIEW
1002
{
1070
    16
1010
0.0
1020
0.0
1030
0.0
1010
0.0
1020
0.0
1030
1.0
1040
0.0
1040
517776.44812413253
1040
-335493.7046016907
1040
-205251.99203018961
1040
50.0
1040
0.0
1040
0.0
1070
     0
1070
   100
1070
     1
1070
     0
1070
     0
1070
     0
1070
     0
1070
     0
1040
0.0
1040
0.0
1040
0.0
1040
1.0
1040
1.0
1040
1.0
1040
1.0
1070
     0
1002
{
1002
}
1002
}
  0
ENDSEC
  0
EOF
