  0
SECTION
  2
HEADER
  9
$ACADVER
  1
AC1009
  9
$INSBASE
 10
0.0
 20
0.0
 30
0.0
  9
$EXTMIN
 10
-9317.3245871225408
 20
393402.81400089961
 30
0.0
  9
$EXTMAX
 10
27515.9361840817
 20
799643.3234279257
 30
0.0
  9
$LIMMIN
 10
-127022.6804658414
 20
-67144.462473645661
  9
$LIMMAX
 10
-873.19720690528334
 20
6755.1563308572058
  9
$ORTHOMODE
 70
     1
  9
$REGENMODE
 70
     1
  9
$FILLMODE
 70
     1
  9
$QTEXTMODE
 70
     0
  9
$MIRRTEXT
 70
     0
  9
$DRAGMODE
 70
     2
  9
$LTSCALE
 40
50.0
  9
$OSMODE
 70
   679
  9
$ATTMODE
 70
     1
  9
$TEXTSIZE
 40
200.0
  9
$TRACEWID
 40
10.0
  9
$TEXTSTYLE
  7
R
  9
$CLAYER
  8
S-OBRYS
  9
$CELTYPE
  6
CONTINUOUS
  9
$CECOLOR
 62
   256
  9
$DIMSCALE
 40
50.0
  9
$DIMASZ
 40
2.0
  9
$DIMEXO
 40
0.063
  9
$DIMDLI
 40
5.0
  9
$DIMRND
 40
0.0
  9
$DIMDLE
 40
0.0
  9
$DIMEXE
 40
0.2
  9
$DIMTP
 40
0.0
  9
$DIMTM
 40
0.0
  9
$DIMTXT
 40
2.0
  9
$DIMCEN
 40
1.5
  9
$DIMTSZ
 40
0.0
  9
$DIMTOL
 70
     0
  9
$DIMLIM
 70
     0
  9
$DIMTIH
 70
     0
  9
$DIMTOH
 70
     0
  9
$DIMSE1
 70
     0
  9
$DIMSE2
 70
     0
  9
$DIMTAD
 70
     1
  9
$DIMZIN
 70
    12
  9
$DIMBLK
  1

  9
$DIMASO
 70
     1
  9
$DIMSHO
 70
     0
  9
$DIMPOST
  1

  9
$DIMAPOST
  1

  9
$DIMALT
 70
     0
  9
$DIMALTD
 70
     2
  9
$DIMALTF
 40
25.399999999999999
  9
$DIMLFAC
 40
1.0
  9
$DIMTOFL
 70
     1
  9
$DIMTVP
 40
0.0
  9
$DIMTIX
 70
     0
  9
$DIMSOXD
 70
     0
  9
$DIMSAH
 70
     1
  9
$DIMBLK1
  1
OPEN
  9
$DIMBLK2
  1
OPEN
  9
$DIMSTYLE
  2
EMBABA
  9
$DIMCLRD
 70
     0
  9
$DIMCLRE
 70
     0
  9
$DIMCLRT
 70
     7
  9
$DIMTFAC
 40
1.0
  9
$DIMGAP
 40
0.5
  9
$LUNITS
 70
     2
  9
$LUPREC
 70
     0
  9
$SKETCHINC
 40
10.0
  9
$FILLETRAD
 40
400.0
  9
$AUNITS
 70
     0
  9
$AUPREC
 70
     4
  9
$MENU
  1
ACAD
  9
$ELEVATION
 40
0.0
  9
$PELEVATION
 40
0.0
  9
$THICKNESS
 40
0.0
  9
$LIMCHECK
 70
     0
  9
$BLIPMODE
 70
     0
  9
$CHAMFERA
 40
0.0
  9
$CHAMFERB
 40
0.0
  9
$SKPOLY
 70
     0
  9
$TDCREATE
 40
2450205.720229167
  9
$TDUPDATE
 40
2453528.4878054401
  9
$TDINDWG
 40
42.325179988400002
  9
$TDUSRTIMER
 40
42.325179988400002
  9
$USRTIMER
 70
     1
  9
$ANGBASE
 50
0.0
  9
$ANGDIR
 70
     0
  9
$PDMODE
 70
     2
  9
$PDSIZE
 40
-5.0
  9
$PLINEWID
 40
0.0
  9
$COORDS
 70
     0
  9
$SPLFRAME
 70
     0
  9
$SPLINETYPE
 70
     6
  9
$SPLINESEGS
 70
     8
  9
$ATTDIA
 70
     0
  9
$ATTREQ
 70
     1
  9
$HANDLING
 70
     1
  9
$HANDSEED
  5
65637
  9
$SURFTAB1
 70
    18
  9
$SURFTAB2
 70
    18
  9
$SURFTYPE
 70
     6
  9
$SURFU
 70
    18
  9
$SURFV
 70
    18
  9
$UCSNAME
  2

  9
$UCSORG
 10
0.0
 20
0.0
 30
0.0
  9
$UCSXDIR
 10
1.0
 20
0.0
 30
0.0
  9
$UCSYDIR
 10
0.0
 20
1.0
 30
0.0
  9
$PUCSNAME
  2

  9
$PUCSORG
 10
0.0
 20
0.0
 30
0.0
  9
$PUCSXDIR
 10
1.0
 20
0.0
 30
0.0
  9
$PUCSYDIR
 10
0.0
 20
1.0
 30
0.0
  9
$USERI1
 70
     0
  9
$USERI2
 70
     0
  9
$USERI3
 70
     0
  9
$USERI4
 70
     0
  9
$USERI5
 70
     0
  9
$USERR1
 40
0.0
  9
$USERR2
 40
50.0
  9
$USERR3
 40
0.0
  9
$USERR4
 40
0.0
  9
$USERR5
 40
0.0
  9
$WORLDVIEW
 70
     1
  9
$SHADEDGE
 70
     3
  9
$SHADEDIF
 70
    70
  9
$TILEMODE
 70
     1
  9
$MAXACTVP
 70
    16
  9
$PLIMCHECK
 70
     0
  9
$PEXTMIN
 10
1.049999952316284
 20
0.7999999523162842
 30
0.0
  9
$PEXTMAX
 10
9.4499995708465558
 20
7.1999995708465558
 30
0.0
  9
$PLIMMIN
 10
-0.2500002402958907
 20
-0.2499999962453767
  9
$PLIMMAX
 10
10.74999951940821
 20
8.2499997634587316
  9
$UNITMODE
 70
     0
  9
$VISRETAIN
 70
     0
  9
$PLINEGEN
 70
     0
  9
$PSLTSCALE
 70
     1
  0
ENDSEC
  0
SECTION
  2
TABLES
  0
TABLE
  2
VPORT
 70
     4
  0
VPORT
  2
*ACTIVE
 70
     0
 10
0.0
 20
0.0
 11
1.0
 21
1.0
 12
8508.3879221078241
 22
400687.84986206639
 13
0.0
 23
0.0
 14
1.0
 24
1.0
 15
1.0
 25
1.0
 16
0.0
 26
0.0
 36
1.0
 17
0.0
 27
0.0
 37
0.0
 40
27970.563502397421
 41
1.6116303219106951
 42
50.0
 43
0.0
 44
0.0
 50
0.0
 51
0.0
 71
     0
 72
   100
 73
     1
 74
     0
 75
     0
 76
     1
 77
     0
 78
     0
  0
ENDTAB
  0
TABLE
  2
LTYPE
 70
    13
  0
LTYPE
  2
CONTINUOUS
 70
     0
  3
Solid line
 72
    65
 73
     0
 40
0.0
  0
LTYPE
  2
ČERCHOVANÁ
 70
     0
  3
Čerchovaná __ . __ . __ . __ . __ . __ . __ . _
 72
    65
 73
     4
 40
1.0
 49
0.5
 49
-0.25
 49
0.0
 49
-0.25
  0
ENDTAB
  0
TABLE
  2
LAYER
 70
    37
  0
LAYER
  2
0
 70
     0
 62
     7
  6
CONTINUOUS
  0
LAYER
  2
RAZ
 70
     0
 62
     7
  6
CONTINUOUS
  0
LAYER
  2
KOTY
 70
     0
 62
     2
  6
CONTINUOUS
  0
LAYER
  2
DEFPOINTS
 70
     0
 62
     7
  6
CONTINUOUS
  0
LAYER
  2
2-VZT
 70
     0
 62
     4
  6
CONTINUOUS
  0
LAYER
  2
SILNA
 70
     0
 62
     7
  6
CONTINUOUS
  0
LAYER
  2
OBRYS
 70
     0
 62
     7
  6
CONTINUOUS
  0
LAYER
  2
S-OBRYS
 70
     0
 62
     7
  6
CONTINUOUS
  0
ENDTAB
  0
TABLE
  2
STYLE
 70
    11
  0
STYLE
  2
STANDARD
 70
     0
 40
0.0
 41
0.8
 50
0.0
 71
     0
 42
200.0
  3
ROMANS.SHX
  4

  0
STYLE
  2
R
 70
     0
 40
0.0
 41
1.0
 50
0.0
 71
     0
 42
200.0
  3
romans.shx
  4

  0
STYLE
  2
ROMANS
 70
     0
 40
0.0
 41
0.8
 50
0.0
 71
     0
 42
300.0
  3
ROMANS.shx
  4

  0
STYLE
  2
R08
 70
     0
 40
0.0
 41
0.8
 50
0.0
 71
     0
 42
800.0
  3
ROMANS.shx
  4

  0
STYLE
  2
ROMANT
 70
     0
 40
0.0
 41
0.7
 50
0.0
 71
     0
 42
3.0
  3
romant
  4

  0
STYLE
  2
CYRILLIC
 70
     0
 40
2.2999999999999989
 41
0.7
 50
0.0
 71
     0
 42
2.2999999999999989
  3
cyrillic
  4

  0
ENDTAB
  0
TABLE
  2
VIEW
 70
     0
  0
ENDTAB
  0
TABLE
  2
UCS
 70
     0
  0
ENDTAB
  0
TABLE
  2
APPID
 70
     6
  0
APPID
  2
ACAD
 70
     0
  0
APPID
  2
PHOENIX7010
 70
     0
  0
APPID
  2
CONTENTBLOCKICON
 70
     0
  0
APPID
  2
CONTENTLONGBLOCKNAME
 70
     0
  0
APPID
  2
ACAD_DSTYLE_DIMTEXT_FILL
 70
     0
  0
APPID
  2
DCO15
 70
     0
  0
ENDTAB
  0
TABLE
  2
DIMSTYLE
 70
     9
  0
DIMSTYLE
  2
STANDARD
 70
     0
  3

  4

  5

  6
OPEN
  7
OPEN
 40
1.0
 41
80.0
 42
1.0
 43
0.0
 44
1.0
 45
0.0
 46
0.8
 47
0.0
 48
0.0
140
70.0
141
-3.0
142
0.0
143
0.0394
144
1.0
145
1.0
146
0.5
147
1.0
 71
     0
 72
     0
 73
     0
 74
     0
 75
     0
 76
     0
 77
     0
 78
     8
170
     0
171
     2
172
     1
173
     1
174
     0
175
     0
176
     7
177
     7
178
     2
  0
DIMSTYLE
  2
EMBABA
 70
     0
  3

  4

  5

  6
OPEN
  7
OPEN
 40
50.0
 41
2.0
 42
0.063
 43
5.0
 44
0.2
 45
0.0
 46
0.0
 47
0.0
 48
0.0
140
2.0
141
1.5
142
0.0
143
25.399999999999999
144
1.0
145
0.0
146
1.0
147
0.5
 71
     0
 72
     0
 73
     0
 74
     0
 75
     0
 76
     0
 77
     1
 78
    12
170
     0
171
     2
172
     1
173
     1
174
     0
175
     0
176
     0
177
     0
178
     7
  0
ENDTAB
  0
ENDSEC
  0
SECTION
  2
BLOCKS
  0
BLOCK
  8
0
  2
$MODEL_SPACE
 70
     0
 10
0.0
 20
0.0
 30
0.0
  3
$MODEL_SPACE
  1

  0
ENDBLK
  5
9
  8
0
  0
BLOCK
 67
     1
  8
0
  2
$PAPER_SPACE
 70
     0
 10
0.0
 20
0.0
 30
0.0
  3
$PAPER_SPACE
  1

  0
ENDBLK
  5
E
 67
     1
  8
0
  0
BLOCK
  8
0
  2
_OPEN
 70
     0
 10
0.0
 20
0.0
 30
0.0
  3
_OPEN
  1

  0
LINE
  5
28
  8
0
  6
BYBLOCK
 62
     0
 10
-1.0
 20
0.1666666666666666
 30
0.0
 11
0.0
 21
0.0
 31
0.0
  0
LINE
  5
29
  8
0
  6
BYBLOCK
 62
     0
 10
0.0
 20
0.0
 30
0.0
 11
-1.0
 21
-0.1666666666666666
 31
0.0
  0
LINE
  5
2A
  8
0
  6
BYBLOCK
 62
     0
 10
0.0
 20
0.0
 30
0.0
 11
-1.0
 21
0.0
 31
0.0
  0
ENDBLK
  5
2C
  8
0
  0
BLOCK
  8
0
  2
A$C5B1234F8
 70
     0
 10
0.0
 20
0.0
 30
0.0
  3
A$C5B1234F8
  1

  0
POLYLINE
  5
5A113
  8
SILNA
  6
CONTINUOUS
 66
     1
 10
0.0
 20
0.0
 30
0.0
  0
VERTEX
  5
651B8
  8
SILNA
  6
CONTINUOUS
 10
899.99999542257865
 20
900.0
 30
0.0
  0
VERTEX
  5
651B9
  8
SILNA
  6
CONTINUOUS
 10
527.20778928679283
 20
900.0
 30
0.0
  0
VERTEX
  5
651BA
  8
SILNA
  6
CONTINUOUS
 10
-0.0000045774213504
 20
372.79220613581128
 30
0.0
  0
VERTEX
  5
651BB
  8
SILNA
  6
CONTINUOUS
 10
-0.0000045774213504
 20
0.0
 30
0.0
  0
SEQEND
  5
651BC
  8
SILNA
  6
CONTINUOUS
  0
LINE
  5
5A114
  8
SILNA
  6
CONTINUOUS
 10
-0.0000045774213504
 20
0.0
 30
0.0
 11
159.99999542257859
 21
0.0
 31
0.0
  0
ARC
  5
5A115
  8
SILNA
  6
CONTINUOUS
 10
899.99999542257865
 20
0.0
 30
0.0
 40
740.0
 50
90.0
 51
180.0
  0
LINE
  5
5A116
  8
SILNA
  6
CONTINUOUS
 10
899.99999542257865
 20
900.0
 30
0.0
 11
899.99999542257865
 21
740.0
 31
0.0
  0
ENDBLK
  5
5A11A
  8
0
  0
BLOCK
  8
0
  2
*D64
 70
     1
 10
0.0
 20
0.0
 30
0.0
  3
*D64
  1

  0
LINE
  5
64BF5
  8
S-OBRYS
  6
CONTINUOUS
 62
     0
 10
-5354.6133063029793
 20
400909.06257391878
 30
0.0
 11
-5354.6133063029793
 21
401275.38180649921
 31
0.0
  0
LINE
  5
64BF6
  8
S-OBRYS
  6
CONTINUOUS
 62
     0
 10
-2544.6133063029811
 20
400909.06257391878
 30
0.0
 11
-2544.6133063029811
 21
401275.38180649921
 31
0.0
  0
LINE
  5
64BF7
  8
S-OBRYS
  6
CONTINUOUS
 62
     0
 10
-5254.6133063029802
 20
401265.38180649921
 30
0.0
 11
-2644.6133063029811
 21
401265.38180649921
 31
0.0
  0
INSERT
  5
64BF8
  8
S-OBRYS
  6
CONTINUOUS
 62
     0
  2
_OPEN
 10
-5354.6133063029793
 20
401265.38180649921
 30
0.0
 41
100.0
 42
100.0
 43
100.0
 50
180.0
  0
INSERT
  5
64BF9
  8
S-OBRYS
  6
CONTINUOUS
 62
     0
  2
_OPEN
 10
-2544.6133063029811
 20
401265.38180649921
 30
0.0
 41
100.0
 42
100.0
 43
100.0
  0
INSERT
  5
64BFA
  8
S-OBRYS
  6
CONTINUOUS
  2
*U164
 10
0.0
 20
0.0
 30
0.0
  0
POINT
  5
64BFB
  8
DEFPOINTS
  6
CONTINUOUS
 62
     0
 10
-5354.6133063029793
 20
400905.91257391882
 30
0.0
  0
POINT
  5
64BFC
  8
DEFPOINTS
  6
CONTINUOUS
 62
     0
 10
-2544.6133063029811
 20
400905.91257391882
 30
0.0
  0
POINT
  5
64BFD
  8
DEFPOINTS
  6
CONTINUOUS
 62
     0
 10
-2544.6133063029811
 20
401265.38180649921
 30
0.0
  0
ENDBLK
  5
64431
  8
0
  0
BLOCK
  8
0
  2
*D65
 70
     1
 10
0.0
 20
0.0
 30
0.0
  3
*D65
  1

  0
LINE
  5
64BFE
  8
S-OBRYS
  6
CONTINUOUS
 62
     0
 10
-3084.6133063029811
 20
400909.06257391878
 30
0.0
 11
-3084.6133063029811
 21
401093.35497110151
 31
0.0
  0
LINE
  5
64BFF
  8
S-OBRYS
  6
CONTINUOUS
 62
     0
 10
-4999.6133063029811
 20
401086.50497110141
 30
0.0
 11
-4999.6133063029811
 21
401093.35497110151
 31
0.0
  0
LINE
  5
64C00
  8
S-OBRYS
  6
CONTINUOUS
 62
     0
 10
-3184.6133063029811
 20
401083.35497110151
 30
0.0
 11
-4899.6133063029811
 21
401083.35497110151
 31
0.0
  0
INSERT
  5
64C01
  8
S-OBRYS
  6
CONTINUOUS
 62
     0
  2
_OPEN
 10
-3084.6133063029811
 20
401083.35497110151
 30
0.0
 41
100.0
 42
100.0
 43
100.0
  0
INSERT
  5
64C02
  8
S-OBRYS
  6
CONTINUOUS
 62
     0
  2
_OPEN
 10
-4999.6133063029811
 20
401083.35497110151
 30
0.0
 41
100.0
 42
100.0
 43
100.0
 50
180.0
  0
INSERT
  5
64C03
  8
S-OBRYS
  6
CONTINUOUS
  2
*U165
 10
0.0
 20
0.0
 30
0.0
  0
POINT
  5
64C04
  8
DEFPOINTS
  6
CONTINUOUS
 62
     0
 10
-3084.6133063029811
 20
400905.91257391882
 30
0.0
  0
POINT
  5
64C05
  8
DEFPOINTS
  6
CONTINUOUS
 62
     0
 10
-4999.6133063029811
 20
401083.35497110151
 30
0.0
  0
POINT
  5
64C06
  8
DEFPOINTS
  6
CONTINUOUS
 62
     0
 10
-4999.6133063029811
 20
401083.35497110151
 30
0.0
  0
ENDBLK
  5
6443D
  8
0
  0
BLOCK
  8
0
  2
*D66
 70
     1
 10
0.0
 20
0.0
 30
0.0
  3
*D66
  1

  0
LINE
  5
649EF
  8
S-OBRYS
  6
CONTINUOUS
 62
     0
 10
-5264.1287137996696
 20
403726.2827401614
 30
0.0
 11
-4989.1965237349496
 21
403136.68875585531
 31
0.0
  0
LINE
  5
649F0
  8
S-OBRYS
  6
CONTINUOUS
 62
     0
 10
-2490.6503512680069
 20
404877.14394728641
 30
0.0
 11
-2270.273162587604
 21
404404.5435410057
 31
0.0
  0
LINE
  5
649F1
  8
S-OBRYS
  6
CONTINUOUS
 62
     0
 10
-4902.7919276472821
 20
403188.01365989738
 30
0.0
 11
-2365.1301239095919
 21
404371.34479270462
 31
0.0
  0
INSERT
  5
649F2
  8
S-OBRYS
  6
CONTINUOUS
 62
     0
  2
_OPEN
 10
-4993.4227063521103
 20
403145.75183372578
 30
0.0
 41
100.0
 42
100.0
 43
100.0
 50
204.99999999845531
  0
INSERT
  5
649F3
  8
S-OBRYS
  6
CONTINUOUS
 62
     0
  2
_OPEN
 10
-2274.4993452047638
 20
404413.6066188761
 30
0.0
 41
100.0
 42
100.0
 43
100.0
 50
24.999999998455269
  0
INSERT
  5
649F4
  8
S-OBRYS
  6
CONTINUOUS
  2
*U152
 10
0.0
 20
0.0
 30
0.0
  0
POINT
  5
649F5
  8
DEFPOINTS
  6
CONTINUOUS
 62
     0
 10
-5265.4599613240862
 20
403729.13760969078
 30
0.0
  0
POINT
  5
649F6
  8
DEFPOINTS
  6
CONTINUOUS
 62
     0
 10
-2491.981598792423
 20
404879.99881681561
 30
0.0
  0
POINT
  5
649F7
  8
DEFPOINTS
  6
CONTINUOUS
 62
     0
 10
-2274.4993452047638
 20
404413.6066188761
 30
0.0
  0
ENDBLK
  5
64449
  8
0
  0
BLOCK
  8
0
  2
*D67
 70
     1
 10
0.0
 20
0.0
 30
0.0
  3
*D67
  1

  0
LINE
  5
64C07
  8
S-OBRYS
  6
CONTINUOUS
 62
     0
 10
-5354.6133063029811
 20
400939.0625739189
 30
0.0
 11
-5354.6133063029811
 21
401093.35497110151
 31
0.0
  0
LINE
  5
64C08
  8
S-OBRYS
  6
CONTINUOUS
 62
     0
 10
-4999.6133063029811
 20
400909.06257391878
 30
0.0
 11
-4999.6133063029811
 21
401093.35497110151
 31
0.0
  0
LINE
  5
64C09
  8
S-OBRYS
  6
CONTINUOUS
 62
     0
 10
-5254.613306302982
 20
401083.35497110151
 30
0.0
 11
-5099.6133063029802
 21
401083.35497110151
 31
0.0
  0
INSERT
  5
64C0A
  8
S-OBRYS
  6
CONTINUOUS
 62
     0
  2
_OPEN
 10
-5354.6133063029811
 20
401083.35497110151
 30
0.0
 41
100.0
 42
100.0
 43
100.0
 50
180.0
  0
INSERT
  5
64C0B
  8
S-OBRYS
  6
CONTINUOUS
 62
     0
  2
_OPEN
 10
-4999.6133063029811
 20
401083.35497110151
 30
0.0
 41
100.0
 42
100.0
 43
100.0
  0
INSERT
  5
64C0C
  8
S-OBRYS
  6
CONTINUOUS
  2
*U166
 10
0.0
 20
0.0
 30
0.0
  0
POINT
  5
64C0D
  8
DEFPOINTS
  6
CONTINUOUS
 62
     0
 10
-5354.6133063029811
 20
400935.91257391882
 30
0.0
  0
POINT
  5
64C0E
  8
DEFPOINTS
  6
CONTINUOUS
 62
     0
 10
-4999.6133063029811
 20
400905.91257391882
 30
0.0
  0
POINT
  5
64C0F
  8
DEFPOINTS
  6
CONTINUOUS
 62
     0
 10
-4999.6133063029811
 20
401083.35497110151
 30
0.0
  0
ENDBLK
  5
64455
  8
0
  0
BLOCK
  8
0
  2
*D68
 70
     1
 10
0.0
 20
0.0
 30
0.0
  3
*D68
  1

  0
LINE
  5
64C10
  8
S-OBRYS
  6
CONTINUOUS
 62
     0
 10
-5357.7633063029807
 20
400905.91257391882
 30
0.0
 11
-5808.0283217708866
 21
400905.91257391882
 31
0.0
  0
LINE
  5
64C11
  8
S-OBRYS
  6
CONTINUOUS
 62
     0
 10
-5357.7633063029807
 20
400465.91257391882
 30
0.0
 11
-5808.0283217708866
 21
400465.91257391882
 31
0.0
  0
LINE
  5
64C12
  8
S-OBRYS
  6
CONTINUOUS
 62
     0
 10
-5798.0283217708857
 20
400805.91257391882
 30
0.0
 11
-5798.0283217708857
 21
400565.91257391882
 31
0.0
  0
INSERT
  5
64C13
  8
S-OBRYS
  6
CONTINUOUS
 62
     0
  2
_OPEN
 10
-5798.0283217708857
 20
400905.91257391882
 30
0.0
 41
100.0
 42
100.0
 43
100.0
 50
90.0
  0
INSERT
  5
64C14
  8
S-OBRYS
  6
CONTINUOUS
 62
     0
  2
_OPEN
 10
-5798.0283217708857
 20
400465.91257391882
 30
0.0
 41
100.0
 42
100.0
 43
100.0
 50
270.0
  0
INSERT
  5
64C15
  8
S-OBRYS
  6
CONTINUOUS
  2
*U167
 10
0.0
 20
0.0
 30
0.0
  0
POINT
  5
64C16
  8
DEFPOINTS
  6
CONTINUOUS
 62
     0
 10
-5354.6133063029811
 20
400905.91257391882
 30
0.0
  0
POINT
  5
64C17
  8
DEFPOINTS
  6
CONTINUOUS
 62
     0
 10
-5354.6133063029811
 20
400465.91257391882
 30
0.0
  0
POINT
  5
64C18
  8
DEFPOINTS
  6
CONTINUOUS
 62
     0
 10
-5798.0283217708857
 20
400465.91257391882
 30
0.0
  0
ENDBLK
  5
64461
  8
0
  0
BLOCK
  8
0
  2
*D69
 70
     1
 10
0.0
 20
0.0
 30
0.0
  3
*D69
  1

  0
LINE
  5
64C19
  8
S-OBRYS
  6
CONTINUOUS
 62
     0
 10
-5022.7633063029798
 20
400500.91257391882
 30
0.0
 11
-5490.4052935877626
 21
400500.91257391882
 31
0.0
  0
LINE
  5
64C1A
  8
S-OBRYS
  6
CONTINUOUS
 62
     0
 10
-5022.7633063029798
 20
400870.91257391882
 30
0.0
 11
-5490.4052935877626
 21
400870.91257391882
 31
0.0
  0
LINE
  5
64C1B
  8
S-OBRYS
  6
CONTINUOUS
 62
     0
 10
-5480.4052935877644
 20
400600.91257391882
 30
0.0
 11
-5480.4052935877644
 21
400770.91257391887
 31
0.0
  0
INSERT
  5
64C1C
  8
S-OBRYS
  6
CONTINUOUS
 62
     0
  2
_OPEN
 10
-5480.4052935877644
 20
400500.91257391882
 30
0.0
 41
100.0
 42
100.0
 43
100.0
 50
270.0
  0
INSERT
  5
64C1D
  8
S-OBRYS
  6
CONTINUOUS
 62
     0
  2
_OPEN
 10
-5480.4052935877644
 20
400870.91257391882
 30
0.0
 41
100.0
 42
100.0
 43
100.0
 50
90.0
  0
INSERT
  5
64C1E
  8
S-OBRYS
  6
CONTINUOUS
  2
*U168
 10
0.0
 20
0.0
 30
0.0
  0
POINT
  5
64C1F
  8
DEFPOINTS
  6
CONTINUOUS
 62
     0
 10
-5019.6133063029811
 20
400500.91257391882
 30
0.0
  0
POINT
  5
64C20
  8
DEFPOINTS
  6
CONTINUOUS
 62
     0
 10
-5019.6133063029811
 20
400870.91257391882
 30
0.0
  0
POINT
  5
64C21
  8
DEFPOINTS
  6
CONTINUOUS
 62
     0
 10
-5480.4052935877644
 20
400870.91257391882
 30
0.0
  0
ENDBLK
  5
6446D
  8
0
  0
BLOCK
  8
0
  2
*D70
 70
     1
 10
0.0
 20
0.0
 30
0.0
  3
*D70
  1

  0
LINE
  5
64A13
  8
S-OBRYS
  6
CONTINUOUS
 62
     0
 10
-4944.6691472584198
 20
404300.8799154
 30
0.0
 11
-4944.6691472584198
 21
404481.6304355677
 31
0.0
  0
LINE
  5
64A14
  8
S-OBRYS
  6
CONTINUOUS
 62
     0
 10
-5064.6691472584198
 20
404300.8799154
 30
0.0
 11
-5064.6691472584198
 21
404481.6304355677
 31
0.0
  0
LINE
  5
64A15
  8
S-OBRYS
  6
CONTINUOUS
 62
     0
 10
-4844.6691472584207
 20
404471.63043556758
 30
0.0
 11
-4744.6691472584198
 21
404471.63043556758
 31
0.0
  0
LINE
  5
64A16
  8
S-OBRYS
  6
CONTINUOUS
 62
     0
 10
-5164.6691472584207
 20
404471.63043556758
 30
0.0
 11
-5264.6691472584207
 21
404471.63043556758
 31
0.0
  0
LINE
  5
64A17
  8
S-OBRYS
  6
CONTINUOUS
 62
     0
 10
-4944.6691472584198
 20
404471.63043556758
 30
0.0
 11
-5064.6691472584198
 21
404471.63043556758
 31
0.0
  0
INSERT
  5
64A18
  8
S-OBRYS
  6
CONTINUOUS
 62
     0
  2
_OPEN
 10
-4944.6691472584198
 20
404471.63043556758
 30
0.0
 41
100.0
 42
100.0
 43
100.0
 50
180.0
  0
INSERT
  5
64A19
  8
S-OBRYS
  6
CONTINUOUS
 62
     0
  2
_OPEN
 10
-5064.6691472584198
 20
404471.63043556758
 30
0.0
 41
100.0
 42
100.0
 43
100.0
  0
INSERT
  5
64A1A
  8
S-OBRYS
  6
CONTINUOUS
  2
*U153
 10
0.0
 20
0.0
 30
0.0
  0
POINT
  5
64A1B
  8
DEFPOINTS
  6
CONTINUOUS
 62
     0
 10
-4944.6691472584198
 20
404297.7299153998
 30
0.0
  0
POINT
  5
64A1C
  8
DEFPOINTS
  6
CONTINUOUS
 62
     0
 10
-5064.6691472584198
 20
404297.7299153998
 30
0.0
  0
POINT
  5
64A1D
  8
DEFPOINTS
  6
CONTINUOUS
 62
     0
 10
-5064.6691472584198
 20
404471.63043556758
 30
0.0
  0
ENDBLK
  5
6447B
  8
0
  0
BLOCK
  8
0
  2
*D71
 70
     1
 10
0.0
 20
0.0
 30
0.0
  3
*D71
  1

  0
LINE
  5
64A1E
  8
S-OBRYS
  6
CONTINUOUS
 62
     0
 10
-5040.2633063029807
 20
403577.72991539992
 30
0.0
 11
-5473.6627972780234
 21
403577.72991539992
 31
0.0
  0
LINE
  5
64A1F
  8
S-OBRYS
  6
CONTINUOUS
 62
     0
 10
-5075.3191472584203
 20
404297.7299153998
 30
0.0
 11
-5473.6627972780234
 21
404297.7299153998
 31
0.0
  0
LINE
  5
64A20
  8
S-OBRYS
  6
CONTINUOUS
 62
     0
 10
-5463.6627972780216
 20
403677.72991539992
 30
0.0
 11
-5463.6627972780216
 21
404197.72991539992
 31
0.0
  0
INSERT
  5
64A21
  8
S-OBRYS
  6
CONTINUOUS
 62
     0
  2
_OPEN
 10
-5463.6627972780216
 20
403577.72991539992
 30
0.0
 41
100.0
 42
100.0
 43
100.0
 50
270.0
  0
INSERT
  5
64A22
  8
S-OBRYS
  6
CONTINUOUS
 62
     0
  2
_OPEN
 10
-5463.6627972780216
 20
404297.7299153998
 30
0.0
 41
100.0
 42
100.0
 43
100.0
 50
90.0
  0
INSERT
  5
64A23
  8
S-OBRYS
  6
CONTINUOUS
  2
*U154
 10
0.0
 20
0.0
 30
0.0
  0
POINT
  5
64A24
  8
DEFPOINTS
  6
CONTINUOUS
 62
     0
 10
-5037.1133063029802
 20
403577.72991539992
 30
0.0
  0
POINT
  5
64A25
  8
DEFPOINTS
  6
CONTINUOUS
 62
     0
 10
-5072.1691472584207
 20
404297.7299153998
 30
0.0
  0
POINT
  5
64A26
  8
DEFPOINTS
  6
CONTINUOUS
 62
     0
 10
-5463.6627972780216
 20
404297.7299153998
 30
0.0
  0
ENDBLK
  5
64487
  8
0
  0
BLOCK
  8
0
  2
*D72
 70
     1
 10
0.0
 20
0.0
 30
0.0
  3
*D72
  1

  0
LINE
  5
65546
  8
S-OBRYS
  6
CONTINUOUS
 62
     0
 10
-4585.0751630359437
 20
403577.7299153998
 30
0.0
 11
-4510.2515285172713
 21
403577.72991539992
 31
0.0
  0
ARC
  5
65547
  8
S-OBRYS
  6
CONTINUOUS
 62
     0
 10
-5835.2400367326054
 20
403577.72991539992
 30
0.0
 40
1314.9885082153389
 50
4.3581821538618604
 51
20.641817846137819
  0
INSERT
  5
65548
  8
S-OBRYS
  6
CONTINUOUS
 62
     0
  2
_OPEN
 10
-4520.2515285172694
 20
403577.7299153998
 30
0.0
 41
100.0
 42
100.0
 43
100.0
 50
272.17909107693077
  0
INSERT
  5
65549
  8
S-OBRYS
  6
CONTINUOUS
 62
     0
  2
_OPEN
 10
-4643.4557118733346
 20
404133.46807295078
 30
0.0
 41
100.0
 42
100.0
 43
100.0
 50
112.8209089230688
  0
TEXT
  8
S-OBRYS
  40
100
  5
65635
  62
7
  72
0
  71
0
 10
-4678.20
 20
403702.
 30
0.000000
  1
25%%d
  0
POINT
  5
6554B
  8
DEFPOINTS
  6
CONTINUOUS
 62
     0
 10
-4534.1356524489092
 20
403768.3136448632
 30
0.0
  0
POINT
  5
6554C
  8
DEFPOINTS
  6
CONTINUOUS
 62
     0
 10
-4884.6561022396627
 20
403577.7299153998
 30
0.0
  0
POINT
  5
6554D
  8
DEFPOINTS
  6
CONTINUOUS
 62
     0
 10
-5304.6691472584362
 20
403825.13918435579
 30
0.0
  0
POINT
  5
6554E
  8
DEFPOINTS
  6
CONTINUOUS
 62
     0
 10
-2751.1224279835728
 20
405015.87757501018
 30
0.0
  0
POINT
  5
6554F
  8
DEFPOINTS
  6
CONTINUOUS
 62
     0
 10
-4588.2251630359533
 20
403577.7299153998
 30
0.0
  0
ENDBLK
  5
64494
  8
0
  0
BLOCK
  8
0
  2
*D73
 70
     1
 10
0.0
 20
0.0
 30
0.0
  3
*D73
  1

  0
LINE
  5
64A31
  8
S-OBRYS
  6
CONTINUOUS
 62
     0
 10
-3350.111007261643
 20
405542.03049418819
 30
0.0
 11
-2590.7444729279091
 21
405896.12892449473
 31
0.0
  0
LINE
  5
64A32
  8
S-OBRYS
  6
CONTINUOUS
 62
     0
 10
-2927.4927455208672
 20
404635.72270715149
 30
0.0
 11
-2168.126211187162
 21
404989.82113745791
 31
0.0
  0
LINE
  5
64A33
  8
S-OBRYS
  6
CONTINUOUS
 62
     0
 10
-2557.5457246242149
 20
405801.27196317358
 30
0.0
 11
-2219.4511152316122
 21
405076.22573354421
 31
0.0
  0
INSERT
  5
64A34
  8
S-OBRYS
  6
CONTINUOUS
 62
     0
  2
_OPEN
 10
-2599.8075507982871
 20
405891.9027418773
 30
0.0
 41
100.0
 42
100.0
 43
100.0
 50
115.00000000000141
  0
INSERT
  5
64A35
  8
S-OBRYS
  6
CONTINUOUS
 62
     0
  2
_OPEN
 10
-2177.18928905754
 20
404985.59495484061
 30
0.0
 41
100.0
 42
100.0
 43
100.0
 50
295.00000000000142
  0
INSERT
  5
64A36
  8
S-OBRYS
  6
CONTINUOUS
  2
*U155
 10
0.0
 20
0.0
 30
0.0
  0
POINT
  5
64A37
  8
DEFPOINTS
  6
CONTINUOUS
 62
     0
 10
-3352.9658767908122
 20
405540.69924666372
 30
0.0
  0
POINT
  5
64A38
  8
DEFPOINTS
  6
CONTINUOUS
 62
     0
 10
-2930.347615050036
 20
404634.39145962702
 30
0.0
  0
POINT
  5
64A39
  8
DEFPOINTS
  6
CONTINUOUS
 62
     0
 10
-2177.18928905754
 20
404985.59495484061
 30
0.0
  0
ENDBLK
  5
644A0
  8
0
  0
BLOCK
  8
0
  2
*D74
 70
     1
 10
0.0
 20
0.0
 30
0.0
  3
*D74
  1

  0
LINE
  5
64C22
  8
S-OBRYS
  6
CONTINUOUS
 62
     0
 10
-2793.7705572522532
 20
401199.80968110572
 30
0.0
 11
-3011.7448952067939
 21
400953.3152114026
 31
0.0
  0
LINE
  5
64C23
  8
S-OBRYS
  6
CONTINUOUS
 62
     0
 10
-3157.481717399206
 20
400788.50993643492
 30
0.0
 11
-3223.7257274867161
 21
400713.59844781313
 31
0.0
  0
INSERT
  5
64C24
  8
S-OBRYS
  6
CONTINUOUS
  2
*U169
 10
0.0
 20
0.0
 30
0.0
  0
LINE
  5
64C25
  8
S-OBRYS
  6
CONTINUOUS
 62
     0
 10
-3091.2377073117241
 20
400863.42142505659
 30
0.0
 11
-3077.988905294304
 21
400878.40372278081
 31
0.0
  0
INSERT
  5
64C26
  8
S-OBRYS
  6
CONTINUOUS
 62
     0
  2
_OPEN
 10
-3091.2377073117241
 20
400863.42142505659
 30
0.0
 41
100.0
 42
100.0
 43
100.0
 50
48.513764669118821
  0
INSERT
  5
64C27
  8
S-OBRYS
  6
CONTINUOUS
 62
     0
  2
_OPEN
 10
-3077.988905294304
 20
400878.40372278081
 30
0.0
 41
100.0
 42
100.0
 43
100.0
 50
228.51376466911881
  0
POINT
  5
64C28
  8
DEFPOINTS
  6
CONTINUOUS
 62
     0
 10
-3077.988905294304
 20
400878.40372278081
 30
0.0
  0
POINT
  5
64C29
  8
DEFPOINTS
  6
CONTINUOUS
 62
     0
 10
-3091.2377073117241
 20
400863.42142505659
 30
0.0
  0
ENDBLK
  5
644AB
  8
0
  0
BLOCK
  8
0
  2
*D75
 70
     1
 10
0.0
 20
0.0
 30
0.0
  3
*D75
  1

  0
LINE
  5
64C2A
  8
S-OBRYS
  6
CONTINUOUS
 62
     0
 10
-4999.6133063029811
 20
400562.76257391879
 30
0.0
 11
-4999.6133063029811
 21
400196.14236201131
 31
0.0
  0
LINE
  5
64C2B
  8
S-OBRYS
  6
CONTINUOUS
 62
     0
 10
-4781.6133063029811
 20
400602.76257391879
 30
0.0
 11
-4781.6133063029811
 21
400196.14236201131
 31
0.0
  0
LINE
  5
64C2C
  8
S-OBRYS
  6
CONTINUOUS
 62
     0
 10
-5099.6133063029802
 20
400206.14236201142
 30
0.0
 11
-5199.6133063029811
 21
400206.14236201142
 31
0.0
  0
LINE
  5
64C2D
  8
S-OBRYS
  6
CONTINUOUS
 62
     0
 10
-4681.6133063029802
 20
400206.14236201142
 30
0.0
 11
-4581.6133063029811
 21
400206.14236201142
 31
0.0
  0
LINE
  5
64C2E
  8
S-OBRYS
  6
CONTINUOUS
 62
     0
 10
-4999.6133063029811
 20
400206.14236201142
 30
0.0
 11
-4781.6133063029811
 21
400206.14236201142
 31
0.0
  0
INSERT
  5
64C2F
  8
S-OBRYS
  6
CONTINUOUS
 62
     0
  2
_OPEN
 10
-4999.6133063029811
 20
400206.14236201142
 30
0.0
 41
100.0
 42
100.0
 43
100.0
  0
INSERT
  5
64C30
  8
S-OBRYS
  6
CONTINUOUS
 62
     0
  2
_OPEN
 10
-4781.6133063029811
 20
400206.14236201142
 30
0.0
 41
100.0
 42
100.0
 43
100.0
 50
180.0
  0
INSERT
  5
64C31
  8
S-OBRYS
  6
CONTINUOUS
  2
*U170
 10
0.0
 20
0.0
 30
0.0
  0
POINT
  5
64C32
  8
DEFPOINTS
  6
CONTINUOUS
 62
     0
 10
-4999.6133063029811
 20
400565.91257391882
 30
0.0
  0
POINT
  5
64C33
  8
DEFPOINTS
  6
CONTINUOUS
 62
     0
 10
-4781.6133063029811
 20
400605.91257391882
 30
0.0
  0
POINT
  5
64C34
  8
DEFPOINTS
  6
CONTINUOUS
 62
     0
 10
-4781.6133063029811
 20
400206.14236201142
 30
0.0
  0
ENDBLK
  5
644B9
  8
0
  0
BLOCK
  8
0
  2
*D76
 70
     1
 10
0.0
 20
0.0
 30
0.0
  3
*D76
  1

  0
LINE
  5
64C35
  8
S-OBRYS
  6
CONTINUOUS
 62
     0
 10
-4781.6133063029811
 20
400599.61257391871
 30
0.0
 11
-4781.6133063029811
 21
400196.14236201131
 31
0.0
  0
LINE
  5
64C36
  8
S-OBRYS
  6
CONTINUOUS
 62
     0
 10
-4373.6133063029802
 20
400599.61257391871
 30
0.0
 11
-4373.6133063029802
 21
400196.14236201131
 31
0.0
  0
LINE
  5
64C37
  8
S-OBRYS
  6
CONTINUOUS
 62
     0
 10
-4681.6133063029802
 20
400206.14236201142
 30
0.0
 11
-4473.6133063029811
 21
400206.14236201142
 31
0.0
  0
INSERT
  5
64C38
  8
S-OBRYS
  6
CONTINUOUS
 62
     0
  2
_OPEN
 10
-4781.6133063029811
 20
400206.14236201142
 30
0.0
 41
100.0
 42
100.0
 43
100.0
 50
180.0
  0
INSERT
  5
64C39
  8
S-OBRYS
  6
CONTINUOUS
 62
     0
  2
_OPEN
 10
-4373.6133063029802
 20
400206.14236201142
 30
0.0
 41
100.0
 42
100.0
 43
100.0
  0
INSERT
  5
64C3A
  8
S-OBRYS
  6
CONTINUOUS
  2
*U171
 10
0.0
 20
0.0
 30
0.0
  0
POINT
  5
64C3B
  8
DEFPOINTS
  6
CONTINUOUS
 62
     0
 10
-4781.6133063029811
 20
400602.76257391879
 30
0.0
  0
POINT
  5
64C3C
  8
DEFPOINTS
  6
CONTINUOUS
 62
     0
 10
-4373.6133063029802
 20
400602.76257391879
 30
0.0
  0
POINT
  5
64C3D
  8
DEFPOINTS
  6
CONTINUOUS
 62
     0
 10
-4373.6133063029802
 20
400206.14236201142
 30
0.0
  0
ENDBLK
  5
644C5
  8
0
  0
BLOCK
  8
0
  2
*D77
 70
     1
 10
0.0
 20
0.0
 30
0.0
  3
*D77
  1

  0
LINE
  5
64A56
  8
S-OBRYS
  6
CONTINUOUS
 62
     0
 10
-5004.6691472584207
 20
404216.81558288191
 30
0.0
 11
-5004.6691472584207
 21
402902.79119228572
 31
0.0
  0
LINE
  5
64A57
  8
S-OBRYS
  6
CONTINUOUS
 62
     0
 10
-2838.7265242751641
 20
404673.96507590392
 30
0.0
 11
-2838.7265242751641
 21
402902.79119228572
 31
0.0
  0
LINE
  5
64A58
  8
S-OBRYS
  6
CONTINUOUS
 62
     0
 10
-4904.6691472584198
 20
402912.79119228577
 30
0.0
 11
-2938.7265242751641
 21
402912.79119228577
 31
0.0
  0
INSERT
  5
64A59
  8
S-OBRYS
  6
CONTINUOUS
 62
     0
  2
_OPEN
 10
-5004.6691472584207
 20
402912.79119228577
 30
0.0
 41
100.0
 42
100.0
 43
100.0
 50
180.0
  0
INSERT
  5
64A5A
  8
S-OBRYS
  6
CONTINUOUS
 62
     0
  2
_OPEN
 10
-2838.7265242751641
 20
402912.79119228577
 30
0.0
 41
100.0
 42
100.0
 43
100.0
  0
INSERT
  5
64A5B
  8
S-OBRYS
  6
CONTINUOUS
  2
*U156
 10
0.0
 20
0.0
 30
0.0
  0
POINT
  5
64A5C
  8
DEFPOINTS
  6
CONTINUOUS
 62
     0
 10
-5004.6691472584207
 20
404219.96558288188
 30
0.0
  0
POINT
  5
64A5D
  8
DEFPOINTS
  6
CONTINUOUS
 62
     0
 10
-2838.7265242751641
 20
404677.11507590383
 30
0.0
  0
POINT
  5
64A5E
  8
DEFPOINTS
  6
CONTINUOUS
 62
     0
 10
-2838.7265242751641
 20
402912.79119228577
 30
0.0
  0
ENDBLK
  5
644D1
  8
0
  0
BLOCK
  8
0
  2
*D86
 70
     1
 10
0.0
 20
0.0
 30
0.0
  3
*D86
  1

  0
LINE
  5
64BA7
  8
S-OBRYS
  6
CONTINUOUS
 62
     0
 10
-5592.5663528954574
 20
397095.17609788018
 30
0.0
 11
-5592.5663528954574
 21
397733.7306717952
 31
0.0
  0
LINE
  5
64BA8
  8
S-OBRYS
  6
CONTINUOUS
 62
     0
 10
-5792.5663528954574
 20
397095.17609788018
 30
0.0
 11
-5792.5663528954574
 21
397733.7306717952
 31
0.0
  0
LINE
  5
64BA9
  8
S-OBRYS
  6
CONTINUOUS
 62
     0
 10
-5492.5663528954574
 20
397723.7306717952
 30
0.0
 11
-5392.5663528954574
 21
397723.7306717952
 31
0.0
  0
LINE
  5
64BAA
  8
S-OBRYS
  6
CONTINUOUS
 62
     0
 10
-5892.5663528954574
 20
397723.7306717952
 30
0.0
 11
-6488.2806386097427
 21
397723.7306717952
 31
0.0
  0
LINE
  5
64BAB
  8
S-OBRYS
  6
CONTINUOUS
 62
     0
 10
-5592.5663528954574
 20
397723.7306717952
 30
0.0
 11
-5792.5663528954574
 21
397723.7306717952
 31
0.0
  0
INSERT
  5
64BAC
  8
S-OBRYS
  6
CONTINUOUS
 62
     0
  2
_OPEN
 10
-5592.5663528954574
 20
397723.7306717952
 30
0.0
 41
100.0
 42
100.0
 43
100.0
 50
180.0
  0
INSERT
  5
64BAD
  8
S-OBRYS
  6
CONTINUOUS
 62
     0
  2
_OPEN
 10
-5792.5663528954574
 20
397723.7306717952
 30
0.0
 41
100.0
 42
100.0
 43
100.0
  0
INSERT
  5
64BAE
  8
S-OBRYS
  6
CONTINUOUS
  2
*U157
 10
0.0
 20
0.0
 30
0.0
  0
POINT
  5
64BAF
  8
DEFPOINTS
  6
CONTINUOUS
 62
     0
 10
-5592.5663528954574
 20
397092.02609788021
 30
0.0
  0
POINT
  5
64BB0
  8
DEFPOINTS
  6
CONTINUOUS
 62
     0
 10
-5792.5663528954574
 20
397092.02609788021
 30
0.0
  0
POINT
  5
64BB1
  8
DEFPOINTS
  6
CONTINUOUS
 62
     0
 10
-5792.5663528954574
 20
397723.7306717952
 30
0.0
  0
ENDBLK
  5
64B4E
  8
0
  0
BLOCK
  8
0
  2
*D87
 70
     1
 10
0.0
 20
0.0
 30
0.0
  3
*D87
  1

  0
LINE
  5
64BB2
  8
S-OBRYS
  6
CONTINUOUS
 62
     0
 10
-2763.8741367280199
 20
398097.21285861777
 30
0.0
 11
-2763.8741367280199
 21
398496.03605098079
 31
0.0
  0
LINE
  5
64BB3
  8
S-OBRYS
  6
CONTINUOUS
 62
     0
 10
-2363.8741367280199
 20
398097.21285861777
 30
0.0
 11
-2363.8741367280199
 21
398496.03605098079
 31
0.0
  0
LINE
  5
64BB4
  8
S-OBRYS
  6
CONTINUOUS
 62
     0
 10
-2663.8741367280199
 20
398486.03605098079
 30
0.0
 11
-2463.8741367280199
 21
398486.03605098079
 31
0.0
  0
LINE
  5
64BB5
  8
S-OBRYS
  6
CONTINUOUS
 62
     0
 10
-2363.8741367280199
 20
398486.03605098079
 30
0.0
 11
-1712.4455652994491
 21
398486.03605098079
 31
0.0
  0
INSERT
  5
64BB6
  8
S-OBRYS
  6
CONTINUOUS
 62
     0
  2
_OPEN
 10
-2763.8741367280199
 20
398486.03605098079
 30
0.0
 41
100.0
 42
100.0
 43
100.0
 50
180.0
  0
INSERT
  5
64BB7
  8
S-OBRYS
  6
CONTINUOUS
 62
     0
  2
_OPEN
 10
-2363.8741367280199
 20
398486.03605098079
 30
0.0
 41
100.0
 42
100.0
 43
100.0
  0
INSERT
  5
64BB8
  8
S-OBRYS
  6
CONTINUOUS
  2
*U158
 10
0.0
 20
0.0
 30
0.0
  0
POINT
  5
64BB9
  8
DEFPOINTS
  6
CONTINUOUS
 62
     0
 10
-2763.8741367280199
 20
398094.06285861781
 30
0.0
  0
POINT
  5
64BBA
  8
DEFPOINTS
  6
CONTINUOUS
 62
     0
 10
-2363.8741367280199
 20
398094.06285861781
 30
0.0
  0
POINT
  5
64BBB
  8
DEFPOINTS
  6
CONTINUOUS
 62
     0
 10
-2363.8741367280199
 20
398486.03605098079
 30
0.0
  0
ENDBLK
  5
64B5B
  8
0
  0
BLOCK
  8
0
  2
*D88
 70
     1
 10
0.0
 20
0.0
 30
0.0
  3
*D88
  1

  0
LINE
  5
64BBC
  8
S-OBRYS
  6
CONTINUOUS
 62
     0
 10
-5536.0212517352766
 20
396943.49678196368
 30
0.0
 11
-5261.0890616711686
 21
396353.90279765817
 31
0.0
  0
LINE
  5
64BBD
  8
S-OBRYS
  6
CONTINUOUS
 62
     0
 10
-2762.542889203673
 20
398094.35798908857
 30
0.0
 11
-2542.1657005234451
 21
397621.7575828078
 31
0.0
  0
LINE
  5
64BBE
  8
S-OBRYS
  6
CONTINUOUS
 62
     0
 10
-5174.6844655835012
 20
396405.22770170029
 30
0.0
 11
-2637.0226618454039
 21
397588.55883450672
 31
0.0
  0
INSERT
  5
64BBF
  8
S-OBRYS
  6
CONTINUOUS
 62
     0
  2
_OPEN
 10
-5265.3152442883302
 20
396362.96587552881
 30
0.0
 41
100.0
 42
100.0
 43
100.0
 50
204.9999999984382
  0
INSERT
  5
64BC0
  8
S-OBRYS
  6
CONTINUOUS
 62
     0
  2
_OPEN
 10
-2546.391883140604
 20
397630.82066067832
 30
0.0
 41
100.0
 42
100.0
 43
100.0
 50
24.999999998438302
  0
INSERT
  5
64BC1
  8
S-OBRYS
  6
CONTINUOUS
  2
*U159
 10
0.0
 20
0.0
 30
0.0
  0
POINT
  5
64BC2
  8
DEFPOINTS
  6
CONTINUOUS
 62
     0
 10
-5537.352499259694
 20
396946.35165149282
 30
0.0
  0
POINT
  5
64BC3
  8
DEFPOINTS
  6
CONTINUOUS
 62
     0
 10
-2763.8741367280891
 20
398097.21285861789
 30
0.0
  0
POINT
  5
64BC4
  8
DEFPOINTS
  6
CONTINUOUS
 62
     0
 10
-2546.391883140604
 20
397630.82066067832
 30
0.0
  0
ENDBLK
  5
64B67
  8
0
  0
BLOCK
  8
0
  2
*D89
 70
     1
 10
0.0
 20
0.0
 30
0.0
  3
*D89
  1

  0
LINE
  5
64BC5
  8
S-OBRYS
  6
CONTINUOUS
 62
     0
 10
-5216.5616851940576
 20
397518.0939572021
 30
0.0
 11
-5216.5616851940576
 21
397698.84447736992
 31
0.0
  0
LINE
  5
64BC6
  8
S-OBRYS
  6
CONTINUOUS
 62
     0
 10
-5336.5616851940576
 20
397518.0939572021
 30
0.0
 11
-5336.5616851940576
 21
397698.84447736992
 31
0.0
  0
LINE
  5
64BC7
  8
S-OBRYS
  6
CONTINUOUS
 62
     0
 10
-5116.5616851940567
 20
397688.8444773698
 30
0.0
 11
-5016.5616851940576
 21
397688.8444773698
 31
0.0
  0
LINE
  5
64BC8
  8
S-OBRYS
  6
CONTINUOUS
 62
     0
 10
-5436.5616851940576
 20
397688.8444773698
 30
0.0
 11
-5536.5616851940576
 21
397688.8444773698
 31
0.0
  0
LINE
  5
64BC9
  8
S-OBRYS
  6
CONTINUOUS
 62
     0
 10
-5216.5616851940576
 20
397688.8444773698
 30
0.0
 11
-5336.5616851940576
 21
397688.8444773698
 31
0.0
  0
INSERT
  5
64BCA
  8
S-OBRYS
  6
CONTINUOUS
 62
     0
  2
_OPEN
 10
-5216.5616851940576
 20
397688.8444773698
 30
0.0
 41
100.0
 42
100.0
 43
100.0
 50
180.0
  0
INSERT
  5
64BCB
  8
S-OBRYS
  6
CONTINUOUS
 62
     0
  2
_OPEN
 10
-5336.5616851940576
 20
397688.8444773698
 30
0.0
 41
100.0
 42
100.0
 43
100.0
  0
INSERT
  5
64BCC
  8
S-OBRYS
  6
CONTINUOUS
  2
*U160
 10
0.0
 20
0.0
 30
0.0
  0
POINT
  5
64BCD
  8
DEFPOINTS
  6
CONTINUOUS
 62
     0
 10
-5216.5616851940576
 20
397514.94395720202
 30
0.0
  0
POINT
  5
64BCE
  8
DEFPOINTS
  6
CONTINUOUS
 62
     0
 10
-5336.5616851940576
 20
397514.94395720202
 30
0.0
  0
POINT
  5
64BCF
  8
DEFPOINTS
  6
CONTINUOUS
 62
     0
 10
-5336.5616851940576
 20
397688.8444773698
 30
0.0
  0
ENDBLK
  5
64B75
  8
0
  0
BLOCK
  8
0
  2
*D90
 70
     1
 10
0.0
 20
0.0
 30
0.0
  3
*D90
  1

  0
LINE
  5
64BD0
  8
S-OBRYS
  6
CONTINUOUS
 62
     0
 10
-5312.1558442386167
 20
396794.94395720202
 30
0.0
 11
-5639.7395601234693
 21
396794.94395720202
 31
0.0
  0
LINE
  5
64BD1
  8
S-OBRYS
  6
CONTINUOUS
 62
     0
 10
-5347.2116851940573
 20
397514.94395720202
 30
0.0
 11
-5639.7395601234693
 21
397514.94395720202
 31
0.0
  0
LINE
  5
64BD2
  8
S-OBRYS
  6
CONTINUOUS
 62
     0
 10
-5629.7395601234703
 20
396894.94395720202
 30
0.0
 11
-5629.7395601234703
 21
397414.94395720202
 31
0.0
  0
INSERT
  5
64BD3
  8
S-OBRYS
  6
CONTINUOUS
 62
     0
  2
_OPEN
 10
-5629.7395601234703
 20
396794.94395720202
 30
0.0
 41
100.0
 42
100.0
 43
100.0
 50
270.0
  0
INSERT
  5
64BD4
  8
S-OBRYS
  6
CONTINUOUS
 62
     0
  2
_OPEN
 10
-5629.7395601234703
 20
397514.94395720202
 30
0.0
 41
100.0
 42
100.0
 43
100.0
 50
90.0
  0
INSERT
  5
64BD5
  8
S-OBRYS
  6
CONTINUOUS
  2
*U161
 10
0.0
 20
0.0
 30
0.0
  0
POINT
  5
64BD6
  8
DEFPOINTS
  6
CONTINUOUS
 62
     0
 10
-5309.005844238618
 20
396794.94395720202
 30
0.0
  0
POINT
  5
64BD7
  8
DEFPOINTS
  6
CONTINUOUS
 62
     0
 10
-5344.0616851940567
 20
397514.94395720202
 30
0.0
  0
POINT
  5
64BD8
  8
DEFPOINTS
  6
CONTINUOUS
 62
     0
 10
-5629.7395601234703
 20
397514.94395720202
 30
0.0
  0
ENDBLK
  5
64B81
  8
0
  0
BLOCK
  8
0
  2
*D91
 70
     1
 10
0.0
 20
0.0
 30
0.0
  3
*D91
  1

  0
LINE
  5
655EF
  8
S-OBRYS
  6
CONTINUOUS
 62
     0
 10
-4856.9677009715961
 20
396794.94395720202
 30
0.0
 11
-4782.1440664529218
 21
396794.94395720202
 31
0.0
  0
ARC
  5
655F0
  8
S-OBRYS
  6
CONTINUOUS
 62
     0
 10
-6107.1325746682414
 20
396794.94395720202
 30
0.0
 40
1314.9885082153251
 50
4.3581821538619101
 51
20.641817846137769
  0
INSERT
  5
655F1
  8
S-OBRYS
  6
CONTINUOUS
 62
     0
  2
_OPEN
 10
-4792.1440664529364
 20
396794.94395720202
 30
0.0
 41
100.0
 42
100.0
 43
100.0
 50
272.17909107693077
  0
INSERT
  5
655F2
  8
S-OBRYS
  6
CONTINUOUS
 62
     0
  2
_OPEN
 10
-4915.3482498090007
 20
397350.68211475288
 30
0.0
 41
100.0
 42
100.0
 43
100.0
 50
112.8209089230688
  0
TEXT
  8
S-OBRYS
  40
100
  5
65636
  62
7
  72
0
  71
0
 10
-4950.09
 20
396919.
 30
0.000000
  1
25%%d
  0
POINT
  5
655F4
  8
DEFPOINTS
  6
CONTINUOUS
 62
     0
 10
-4806.0281903845762
 20
396985.5276866653
 30
0.0
  0
POINT
  5
655F5
  8
DEFPOINTS
  6
CONTINUOUS
 62
     0
 10
-5156.5486401753014
 20
396794.94395720202
 30
0.0
  0
POINT
  5
655F6
  8
DEFPOINTS
  6
CONTINUOUS
 62
     0
 10
-5576.5616851940567
 20
397042.35322615789
 30
0.0
  0
POINT
  5
655F7
  8
DEFPOINTS
  6
CONTINUOUS
 62
     0
 10
-3023.0149659192111
 20
398233.09161681239
 30
0.0
  0
POINT
  5
655F8
  8
DEFPOINTS
  6
CONTINUOUS
 62
     0
 10
-4860.1177009715902
 20
396794.94395720202
 30
0.0
  0
ENDBLK
  5
64B8E
  8
0
  0
BLOCK
  8
0
  2
*D92
 70
     1
 10
0.0
 20
0.0
 30
0.0
  3
*D92
  1

  0
LINE
  5
64BE3
  8
S-OBRYS
  6
CONTINUOUS
 62
     0
 10
-3622.0035451972508
 20
398759.24453599018
 30
0.0
 11
-2862.6370108636038
 21
399113.34296629671
 31
0.0
  0
LINE
  5
64BE4
  8
S-OBRYS
  6
CONTINUOUS
 62
     0
 10
-3199.385283456475
 20
397852.93674895359
 30
0.0
 11
-2440.0187491228571
 21
398207.03517926001
 31
0.0
  0
LINE
  5
64BE5
  8
S-OBRYS
  6
CONTINUOUS
 62
     0
 10
-2829.4382625599101
 20
399018.48600497562
 30
0.0
 11
-2491.3436531673069
 21
398293.4397753462
 31
0.0
  0
INSERT
  5
64BE6
  8
S-OBRYS
  6
CONTINUOUS
 62
     0
  2
_OPEN
 10
-2871.7000887339818
 20
399109.11678367917
 30
0.0
 41
100.0
 42
100.0
 43
100.0
 50
115.00000000000151
  0
INSERT
  5
64BE7
  8
S-OBRYS
  6
CONTINUOUS
 62
     0
  2
_OPEN
 10
-2449.0818269932352
 20
398202.80899664247
 30
0.0
 41
100.0
 42
100.0
 43
100.0
 50
295.00000000000148
  0
INSERT
  5
64BE8
  8
S-OBRYS
  6
CONTINUOUS
  2
*U162
 10
0.0
 20
0.0
 30
0.0
  0
POINT
  5
64BE9
  8
DEFPOINTS
  6
CONTINUOUS
 62
     0
 10
-3624.8584147264191
 20
398757.91328846582
 30
0.0
  0
POINT
  5
64BEA
  8
DEFPOINTS
  6
CONTINUOUS
 62
     0
 10
-3202.2401529856429
 20
397851.60550142912
 30
0.0
  0
POINT
  5
64BEB
  8
DEFPOINTS
  6
CONTINUOUS
 62
     0
 10
-2449.0818269932352
 20
398202.80899664247
 30
0.0
  0
ENDBLK
  5
64B9A
  8
0
  0
BLOCK
  8
0
  2
*D93
 70
     1
 10
0.0
 20
0.0
 30
0.0
  3
*D93
  1

  0
LINE
  5
64BEC
  8
S-OBRYS
  6
CONTINUOUS
 62
     0
 10
-5276.5616851940567
 20
397434.02962468402
 30
0.0
 11
-5276.5616851940567
 21
396120.00523408782
 31
0.0
  0
LINE
  5
64BED
  8
S-OBRYS
  6
CONTINUOUS
 62
     0
 10
-3110.6190622108011
 20
397891.17911770602
 30
0.0
 11
-3110.6190622108011
 21
396120.00523408782
 31
0.0
  0
LINE
  5
64BEE
  8
S-OBRYS
  6
CONTINUOUS
 62
     0
 10
-5176.5616851940576
 20
396130.00523408788
 30
0.0
 11
-3210.6190622108011
 21
396130.00523408788
 31
0.0
  0
INSERT
  5
64BEF
  8
S-OBRYS
  6
CONTINUOUS
 62
     0
  2
_OPEN
 10
-5276.5616851940567
 20
396130.00523408788
 30
0.0
 41
100.0
 42
100.0
 43
100.0
 50
180.0
  0
INSERT
  5
64BF0
  8
S-OBRYS
  6
CONTINUOUS
 62
     0
  2
_OPEN
 10
-3110.6190622108011
 20
396130.00523408788
 30
0.0
 41
100.0
 42
100.0
 43
100.0
  0
INSERT
  5
64BF1
  8
S-OBRYS
  6
CONTINUOUS
  2
*U163
 10
0.0
 20
0.0
 30
0.0
  0
POINT
  5
64BF2
  8
DEFPOINTS
  6
CONTINUOUS
 62
     0
 10
-5276.5616851940567
 20
397437.1796246841
 30
0.0
  0
POINT
  5
64BF3
  8
DEFPOINTS
  6
CONTINUOUS
 62
     0
 10
-3110.6190622108011
 20
397894.32911770599
 30
0.0
  0
POINT
  5
64BF4
  8
DEFPOINTS
  6
CONTINUOUS
 62
     0
 10
-3110.6190622108011
 20
396130.00523408788
 30
0.0
  0
ENDBLK
  5
64BA6
  8
0
  0
BLOCK
  8
0
  2
*U94
 70
     1
 10
0.0
 20
0.0
 30
0.0
  3
*U94
  1

  0
TEXT
  5
651AA
  8
SILNA
  6
CONTINUOUS
 10
-16.449777305735289
 20
47.447339193138752
 30
0.0
 40
80.0
  1
1b
  7
R
  0
ENDBLK
  5
651AC
  8
0
  0
BLOCK
  8
0
  2
*U95
 70
     1
 10
0.0
 20
0.0
 30
0.0
  3
*U95
  1

  0
TEXT
  5
651AE
  8
SILNA
  6
CONTINUOUS
 10
23.348488544496441
 20
49.591841048852068
 30
0.0
 40
20.0
  1
1a
  7
R
  0
ENDBLK
  5
651B0
  8
0
  0
BLOCK
  8
0
  2
*U96
 70
     1
 10
0.0
 20
0.0
 30
0.0
  3
*U96
  1

  0
TEXT
  5
651B2
  8
SILNA
  6
CONTINUOUS
 10
-3.9222036020662499
 20
557.31871110200882
 30
0.0
 40
100.0
  1
příruba prosévačka
  7
R
  0
ENDBLK
  5
651B4
  8
0
  0
BLOCK
  8
0
  2
*U97
 70
     1
 10
0.0
 20
0.0
 30
0.0
  3
*U97
  1

  0
SOLID
  5
6538C
  8
S-OBRYS
  6
CONTINUOUS
 10
0.0000000000009095
 20
139.99744886101851
 30
0.0
 11
-18.32564214838867
 21
132.40671934395951
 31
0.0
 12
0.0000000000008972
 22
132.40671934395951
 32
0.0
 13
0.0000000000008972
 23
132.40671934395951
 33
0.0
210
0.0
220
0.0
230
1.0
  0
SOLID
  5
6538D
  8
S-OBRYS
  6
CONTINUOUS
 10
0.0000000000009332
 20
139.99744886101851
 30
0.0
 11
0.0000000000009263
 21
132.40671934395951
 31
0.0
 12
45.472905011396342
 22
132.40671934395951
 32
0.0
 13
45.472905011396342
 23
132.40671934395951
 33
0.0
210
0.0
220
0.0
230
1.0
  0
SOLID
  5
6538E
  8
S-OBRYS
  6
CONTINUOUS
 10
-18.32564214838867
 20
132.40671934395951
 30
0.0
 11
-51.120036686711217
 21
118.82283635637209
 31
0.0
 12
0.0000000000008752
 22
118.82283635637209
 32
0.0
 13
0.0000000000008752
 23
118.82283635637209
 33
0.0
  0
SOLID
  5
6538F
  8
S-OBRYS
  6
CONTINUOUS
 10
18.32564214838867
 20
132.40671934395951
 30
0.0
 11
-0.0000000000008972
 21
132.40671934395951
 31
0.0
 12
-0.0000000000008752
 22
118.82283635637209
 32
0.0
 13
-0.0000000000008752
 23
118.82283635637209
 33
0.0
210
0.0
220
0.0
230
-1.0
  0
SOLID
  5
65390
  8
S-OBRYS
  6
CONTINUOUS
 10
0.0000000000009263
 20
132.40671934395951
 30
0.0
 11
0.0000000000009141
 21
118.82283635637209
 31
0.0
 12
70.563549776822697
 22
118.82283635637209
 32
0.0
 13
70.563549776822697
 23
118.82283635637209
 33
0.0
  0
SOLID
  5
65391
  8
S-OBRYS
  6
CONTINUOUS
 10
-0.0000000000009263
 20
132.40671934395951
 30
0.0
 11
-45.472905011396342
 21
132.40671934395951
 31
0.0
 12
-70.563549776822697
 22
118.82283635637209
 32
0.0
 13
-70.563549776822697
 23
118.82283635637209
 33
0.0
210
0.0
220
0.0
230
-1.0
  0
SOLID
  5
65392
  8
S-OBRYS
  6
CONTINUOUS
 10
-51.120036686711217
 20
118.82283635637209
 30
0.0
 11
-63.634272730830311
 21
113.6392700641597
 31
0.0
 12
0.0000000000008669
 22
113.6392700641597
 32
0.0
 13
0.0000000000008669
 23
113.6392700641597
 33
0.0
210
0.0
220
0.0
230
1.0
  0
SOLID
  5
65393
  8
S-OBRYS
  6
CONTINUOUS
 10
51.120036686711217
 20
118.82283635637209
 30
0.0
 11
-0.0000000000008752
 21
118.82283635637209
 31
0.0
 12
-0.0000000000008669
 22
113.6392700641597
 32
0.0
 13
-0.0000000000008669
 23
113.6392700641597
 33
0.0
210
0.0
220
0.0
230
-1.0
  0
SOLID
  5
65394
  8
S-OBRYS
  6
CONTINUOUS
 10
-0.0000000000009141
 20
118.82283635637209
 30
0.0
 11
-43.257964790378153
 21
118.82283635637209
 31
0.0
 12
-0.0000000000008669
 22
113.6392700641597
 32
0.0
 13
-0.0000000000008669
 23
113.6392700641597
 33
0.0
210
0.0
220
0.0
230
-1.0
  0
SOLID
  5
65395
  8
S-OBRYS
  6
CONTINUOUS
 10
43.257964790378153
 20
118.82283635637209
 30
0.0
 11
69.752660745180563
 21
113.6392700641597
 31
0.0
 12
80.138059552472512
 22
113.6392700641597
 32
0.0
 13
80.138059552472512
 23
113.6392700641597
 33
0.0
210
0.0
220
0.0
230
1.0
  0
SOLID
  5
65396
  8
S-OBRYS
  6
CONTINUOUS
 10
-43.257964790378153
 20
118.82283635637209
 30
0.0
 11
-70.563549776822697
 21
118.82283635637209
 31
0.0
 12
-80.138059552472512
 22
113.6392700641597
 32
0.0
 13
-80.138059552472512
 23
113.6392700641597
 33
0.0
210
0.0
220
0.0
230
-1.0
  0
SOLID
  5
65397
  8
S-OBRYS
  6
CONTINUOUS
 10
-63.634272730830311
 20
113.6392700641597
 30
0.0
 11
-71.315354411059985
 21
110.45766185851311
 31
0.0
 12
-5.0574841518304217
 22
110.45766185851311
 32
0.0
 13
-5.0574841518304217
 23
110.45766185851311
 33
0.0
210
0.0
220
0.0
230
1.0
  0
SOLID
  5
65398
  8
S-OBRYS
  6
CONTINUOUS
 10
63.634272730830311
 20
113.6392700641597
 30
0.0
 11
-0.0000000000009095
 21
113.6392700641597
 31
0.0
 12
5.0574841518304217
 22
110.45766185851311
 32
0.0
 13
5.0574841518304217
 23
110.45766185851311
 33
0.0
210
0.0
220
0.0
230
-1.0
  0
SOLID
  5
65399
  8
S-OBRYS
  6
CONTINUOUS
 10
-69.752660745180563
 20
113.6392700641597
 30
0.0
 11
-80.138059552472512
 21
113.6392700641597
 31
0.0
 12
-86.014773989985784
 22
110.45766185851311
 32
0.0
 13
-86.014773989985784
 23
110.45766185851311
 33
0.0
210
0.0
220
0.0
230
-1.0
  0
SOLID
  5
6539A
  8
S-OBRYS
  6
CONTINUOUS
 10
-71.315354411059985
 20
110.45766185851311
 30
0.0
 11
-98.994949366115677
 21
98.992398227135112
 31
0.0
 12
-23.282666312648029
 22
98.992398227135112
 32
0.0
 13
-23.282666312648029
 23
98.992398227135112
 33
0.0
210
0.0
220
0.0
230
1.0
  0
SOLID
  5
6539B
  8
S-OBRYS
  6
CONTINUOUS
 10
71.315354411059985
 20
110.45766185851311
 30
0.0
 11
5.0574841518304217
 21
110.45766185851311
 31
0.0
 12
23.282666312648029
 22
98.992398227135112
 32
0.0
 13
23.282666312648029
 23
98.992398227135112
 33
0.0
210
0.0
220
0.0
230
-1.0
  0
SOLID
  5
6539C
  8
S-OBRYS
  6
CONTINUOUS
 10
-98.994949366115677
 20
98.992398227135112
 30
0.0
 11
-110.3533115346694
 21
71.570886233467292
 31
0.0
 12
-66.871899607022399
 22
71.570886233467292
 32
0.0
 13
-66.871899607022399
 23
71.570886233467292
 33
0.0
210
0.0
220
0.0
230
1.0
  0
SOLID
  5
6539D
  8
S-OBRYS
  6
CONTINUOUS
 10
98.994949366115677
 20
98.992398227135112
 30
0.0
 11
23.282666312648029
 21
98.992398227135112
 31
0.0
 12
66.871899607022399
 22
71.570886233467292
 32
0.0
 13
66.871899607022399
 23
71.570886233467292
 33
0.0
210
0.0
220
0.0
230
-1.0
  0
SOLID
  5
6539E
  8
S-OBRYS
  6
CONTINUOUS
 10
-110.3533115346694
 20
71.570886233467292
 30
0.0
 11
-139.99999999999909
 21
-0.0025511389815165
 31
0.0
 12
-100.3210092793351
 22
-0.0025511389815165
 32
0.0
 13
-100.3210092793351
 23
-0.0025511389815165
 33
0.0
210
0.0
220
0.0
230
1.0
  0
SOLID
  5
6539F
  8
S-OBRYS
  6
CONTINUOUS
 10
110.3533115346694
 20
71.570886233467292
 30
0.0
 11
66.871899607022399
 21
71.570886233467292
 31
0.0
 12
100.3210092793351
 22
-0.0025511389815165
 32
0.0
 13
100.3210092793351
 23
-0.0025511389815165
 33
0.0
210
0.0
220
0.0
230
-1.0
  0
SOLID
  5
653A0
  8
S-OBRYS
  6
CONTINUOUS
 10
-139.99999999999909
 20
-0.0025511389815165
 30
0.0
 11
-139.99999999999909
 21
-0.0025511389815165
 31
0.0
 12
-100.3210092793351
 22
-0.0025511389815165
 32
0.0
 13
-100.3210092793351
 23
-0.0025511389815165
 33
0.0
210
0.0
220
0.0
230
1.0
  0
SOLID
  5
653A1
  8
S-OBRYS
  6
CONTINUOUS
 10
-139.99999999999909
 20
-0.0025511389815165
 30
0.0
 11
-139.99999999999909
 21
-0.0025511389815165
 31
0.0
 12
-100.3210092793351
 22
-0.0025511389815165
 32
0.0
 13
-100.3210092793351
 23
-0.0025511389815165
 33
0.0
210
0.0
220
0.0
230
1.0
  0
SOLID
  5
653A2
  8
S-OBRYS
  6
CONTINUOUS
 10
-139.99999999999909
 20
-0.0025511389815165
 30
0.0
 11
-117.02828563153059
 21
-72.883147809960434
 31
0.0
 12
-91.980753483793407
 22
-72.883147809960434
 32
0.0
 13
-91.980753483793407
 23
-72.883147809960434
 33
0.0
210
0.0
220
0.0
230
1.0
  0
SOLID
  5
653A3
  8
S-OBRYS
  6
CONTINUOUS
 10
139.99999999999909
 20
-0.0025511389815165
 30
0.0
 11
100.3210092793351
 21
-0.0025511389815165
 31
0.0
 12
91.980753483793407
 22
-72.883147809960434
 32
0.0
 13
91.980753483793407
 23
-72.883147809960434
 33
0.0
210
0.0
220
0.0
230
-1.0
  0
SOLID
  5
653A4
  8
S-OBRYS
  6
CONTINUOUS
 10
-117.02828563153059
 20
-72.883147809960434
 30
0.0
 11
-114.69621614817829
 21
-80.281925833171329
 31
0.0
 12
-86.424720604643284
 22
-80.281925833171329
 32
0.0
 13
-86.424720604643284
 23
-80.281925833171329
 33
0.0
  0
SOLID
  5
653A5
  8
S-OBRYS
  6
CONTINUOUS
 10
117.02828563153059
 20
-72.883147809960434
 30
0.0
 11
91.980753483793407
 21
-72.883147809960434
 31
0.0
 12
86.424720604643284
 22
-80.281925833171329
 32
0.0
 13
86.424720604643284
 23
-80.281925833171329
 33
0.0
210
0.0
220
0.0
230
-1.0
  0
SOLID
  5
653A6
  8
S-OBRYS
  6
CONTINUOUS
 10
114.69621614817829
 20
-80.281925833171329
 30
0.0
 11
86.424720604643284
 21
-80.281925833171329
 31
0.0
 12
47.931742838711259
 22
-131.54170131277371
 32
0.0
 13
47.931742838711259
 23
-131.54170131277371
 33
0.0
210
0.0
220
0.0
230
-1.0
  0
LINE
  5
653A7
  8
S-OBRYS
  6
CONTINUOUS
 10
0.0000000000008972
 20
132.40671934395951
 30
0.0
 11
0.0000000000009095
 21
139.99744886101851
 31
0.0
  0
LINE
  5
653A8
  8
S-OBRYS
  6
CONTINUOUS
 10
0.0000000000009332
 20
139.99744886101851
 30
0.0
 11
0.0000000000009263
 21
132.40671934395951
 31
0.0
  0
LINE
  5
653A9
  8
S-OBRYS
  6
CONTINUOUS
 10
-18.32564214838867
 20
132.40671934395951
 30
0.0
 11
-51.120036686711217
 21
118.82283635637209
 31
0.0
  0
LINE
  5
653AA
  8
S-OBRYS
  6
CONTINUOUS
 10
0.0000000000008972
 20
132.40671934395951
 30
0.0
 11
0.0000000000008752
 21
118.82283635637209
 31
0.0
  0
LINE
  5
653AB
  8
S-OBRYS
  6
CONTINUOUS
 10
0.0000000000009263
 20
132.40671934395951
 30
0.0
 11
0.0000000000009141
 21
118.82283635637209
 31
0.0
  0
LINE
  5
653AC
  8
S-OBRYS
  6
CONTINUOUS
 10
45.472905011396342
 20
132.40671934395951
 30
0.0
 11
70.563549776822697
 21
118.82283635637209
 31
0.0
  0
LINE
  5
653AD
  8
S-OBRYS
  6
CONTINUOUS
 10
-51.120036686711217
 20
118.82283635637209
 30
0.0
 11
-63.634272730830311
 21
113.6392700641597
 31
0.0
  0
LINE
  5
653AE
  8
S-OBRYS
  6
CONTINUOUS
 10
43.257964790378153
 20
118.82283635637209
 30
0.0
 11
0.0000000000008669
 21
113.6392700641597
 31
0.0
  0
LINE
  5
653AF
  8
S-OBRYS
  6
CONTINUOUS
 10
0.0000000000008669
 20
113.6392700641597
 30
0.0
 11
0.0000000000009141
 21
118.82283635637209
 31
0.0
  0
LINE
  5
653B0
  8
S-OBRYS
  6
CONTINUOUS
 10
70.563549776822697
 20
118.82283635637209
 30
0.0
 11
80.138059552472512
 21
113.6392700641597
 31
0.0
  0
LINE
  5
653B1
  8
S-OBRYS
  6
CONTINUOUS
 10
-63.634272730830311
 20
113.6392700641597
 30
0.0
 11
-71.315354411059985
 21
110.45766185851311
 31
0.0
  0
LINE
  5
653B2
  8
S-OBRYS
  6
CONTINUOUS
 10
0.0000000000009095
 20
113.6392700641597
 30
0.0
 11
-5.0574841518304217
 21
110.45766185851311
 31
0.0
  0
LINE
  5
653B3
  8
S-OBRYS
  6
CONTINUOUS
 10
80.138059552472512
 20
113.6392700641597
 30
0.0
 11
86.014773989985784
 21
110.45766185851311
 31
0.0
  0
LINE
  5
653B4
  8
S-OBRYS
  6
CONTINUOUS
 10
86.014773989985784
 20
110.45766185851311
 30
0.0
 11
69.752660745180563
 21
113.6392700641597
 31
0.0
  0
LINE
  5
653B5
  8
S-OBRYS
  6
CONTINUOUS
 10
-71.315354411059985
 20
110.45766185851311
 30
0.0
 11
-98.994949366115677
 21
98.992398227135112
 31
0.0
  0
LINE
  5
653B6
  8
S-OBRYS
  6
CONTINUOUS
 10
-5.0574841518304217
 20
110.45766185851311
 30
0.0
 11
-23.282666312648029
 21
98.992398227135112
 31
0.0
  0
LINE
  5
653B7
  8
S-OBRYS
  6
CONTINUOUS
 10
-98.994949366115677
 20
98.992398227135112
 30
0.0
 11
-110.3533115346694
 21
71.570886233467292
 31
0.0
  0
LINE
  5
653B8
  8
S-OBRYS
  6
CONTINUOUS
 10
-23.282666312648029
 20
98.992398227135112
 30
0.0
 11
-66.871899607022399
 21
71.570886233467292
 31
0.0
  0
LINE
  5
653B9
  8
S-OBRYS
  6
CONTINUOUS
 10
-110.3533115346694
 20
71.570886233467292
 30
0.0
 11
-139.99999999999909
 21
-0.0025511389815165
 31
0.0
  0
LINE
  5
653BA
  8
S-OBRYS
  6
CONTINUOUS
 10
-66.871899607022399
 20
71.570886233467292
 30
0.0
 11
-100.3210092793351
 21
-0.0025511389815165
 31
0.0
  0
LINE
  5
653BB
  8
S-OBRYS
  6
CONTINUOUS
 10
-139.99999999999909
 20
-0.0025511389815165
 30
0.0
 11
-100.3210092793351
 21
-0.0025511389815165
 31
0.0
  0
LINE
  5
653BC
  8
S-OBRYS
  6
CONTINUOUS
 10
-139.99999999999909
 20
-0.0025511389815165
 30
0.0
 11
-100.3210092793351
 21
-0.0025511389815165
 31
0.0
  0
LINE
  5
653BD
  8
S-OBRYS
  6
CONTINUOUS
 10
-139.99999999999909
 20
-0.0025511389815165
 30
0.0
 11
-117.02828563153059
 21
-72.883147809960434
 31
0.0
  0
LINE
  5
653BE
  8
S-OBRYS
  6
CONTINUOUS
 10
-100.3210092793351
 20
-0.0025511389815165
 30
0.0
 11
-91.980753483793407
 21
-72.883147809960434
 31
0.0
  0
LINE
  5
653BF
  8
S-OBRYS
  6
CONTINUOUS
 10
-117.02828563153059
 20
-72.883147809960434
 30
0.0
 11
-114.69621614817829
 21
-80.281925833171329
 31
0.0
  0
LINE
  5
653C0
  8
S-OBRYS
  6
CONTINUOUS
 10
-91.980753483793407
 20
-72.883147809960434
 30
0.0
 11
-86.424720604643284
 21
-80.281925833171329
 31
0.0
  0
LINE
  5
653C1
  8
S-OBRYS
  6
CONTINUOUS
 10
-86.424720604643284
 20
-80.281925833171329
 30
0.0
 11
-47.931742838711259
 21
-131.54170131277371
 31
0.0
  0
LINE
  5
653C2
  8
S-OBRYS
  6
CONTINUOUS
 10
-47.931742838711259
 20
-131.54170131277371
 30
0.0
 11
-114.69621614817829
 21
-80.281925833171329
 31
0.0
  0
ENDBLK
  5
653C4
  8
0
  0
BLOCK
  8
0
  2
*U98
 70
     1
 10
0.0
 20
0.0
 30
0.0
  3
*U98
  1

  0
SOLID
  5
653CF
  8
S-OBRYS
  6
CONTINUOUS
 10
2000.0000000000421
 20
549.9974488602569
 30
0.0
 11
2000.0000000000421
 21
-0.0025511389934536
 31
0.0
 12
2012.2676761359601
 22
-0.0025511389934536
 32
0.0
 13
2012.2676761359601
 23
-0.0025511389934536
 33
0.0
210
0.0
220
0.0
230
1.0
  0
SOLID
  5
653D0
  8
S-OBRYS
  6
CONTINUOUS
 10
2000.0000000000421
 20
-0.0025511389934536
 30
0.0
 11
2000.0000000000421
 21
-0.0025511389934536
 31
0.0
 12
2012.2676761359601
 22
-0.0025511389934536
 32
0.0
 13
2012.2676761359601
 23
-0.0025511389934536
 33
0.0
210
0.0
220
0.0
230
1.0
  0
SOLID
  5
653D1
  8
S-OBRYS
  6
CONTINUOUS
 10
2000.0000000000421
 20
-0.0025511389934536
 30
0.0
 11
2000.0000000000421
 21
-0.0025511389934536
 31
0.0
 12
2012.2676761359601
 22
-0.0025511389934536
 32
0.0
 13
2012.2676761359601
 23
-0.0025511389934536
 33
0.0
210
0.0
220
0.0
230
1.0
  0
SOLID
  5
653D2
  8
S-OBRYS
  6
CONTINUOUS
 10
2000.0000000000421
 20
-0.0025511389934536
 30
0.0
 11
2000.0000000000421
 21
-526.00255113898993
 31
0.0
 12
2024.0000354950589
 22
-526.00255113898993
 32
0.0
 13
2024.0000354950589
 23
-526.00255113898993
 33
0.0
210
0.0
220
0.0
230
1.0
  0
SOLID
  5
653D3
  8
S-OBRYS
  6
CONTINUOUS
 10
-2000.0000000000421
 20
-0.0025511389934536
 30
0.0
 11
-2012.2676761359601
 21
-0.0025511389934536
 31
0.0
 12
-2024.0000354950589
 22
-526.00255113898993
 32
0.0
 13
-2024.0000354950589
 23
-526.00255113898993
 33
0.0
210
0.0
220
0.0
230
-1.0
  0
SOLID
  5
653D4
  8
S-OBRYS
  6
CONTINUOUS
 10
2000.0000000000421
 20
-526.00255113898993
 30
0.0
 11
2000.0000000000421
 21
-545.98193239837519
 31
0.0
 12
2670.0000000000268
 22
-545.98193239837519
 32
0.0
 13
2670.0000000000268
 23
-545.98193239837519
 33
0.0
  0
SOLID
  5
653D5
  8
S-OBRYS
  6
CONTINUOUS
 10
-2000.0000000000421
 20
-526.00255113898993
 30
0.0
 11
-2024.0000354950589
 21
-526.00255113898993
 31
0.0
 12
-2670.0000000000268
 22
-545.98193239837519
 32
0.0
 13
-2670.0000000000268
 23
-545.98193239837519
 33
0.0
210
0.0
220
0.0
230
-1.0
  0
SOLID
  5
653D6
  8
S-OBRYS
  6
CONTINUOUS
 10
2000.0000000000421
 20
-545.98193239837519
 30
0.0
 11
2000.0000000000421
 21
-550.00255113897902
 31
0.0
 12
2670.0000000000268
 22
-550.00255113897902
 32
0.0
 13
2670.0000000000268
 23
-550.00255113897902
 33
0.0
  0
SOLID
  5
653D7
  8
S-OBRYS
  6
CONTINUOUS
 10
-2000.0000000000421
 20
-545.98193239837519
 30
0.0
 11
-2669.9999999999241
 21
-545.98193239837519
 31
0.0
 12
-2670.0000000000268
 22
-550.00255113897902
 32
0.0
 13
-2670.0000000000268
 23
-550.00255113897902
 33
0.0
210
0.0
220
0.0
230
-1.0
  0
SOLID
  5
653D8
  8
S-OBRYS
  6
CONTINUOUS
 10
2670.0000000000268
 20
-545.98193239837519
 30
0.0
 11
2670.0000000000418
 21
-550.00255113897902
 31
0.0
 12
2800.0000000000568
 22
-550.00255113897902
 32
0.0
 13
2800.0000000000568
 23
-550.00255113897902
 33
0.0
  0
SOLID
  5
653D9
  8
S-OBRYS
  6
CONTINUOUS
 10
2000.0000000000421
 20
-550.00255113897902
 30
0.0
 11
2000.0000000000421
 21
-550.00255113897902
 31
0.0
 12
2670.0000000000268
 22
-550.00255113897902
 32
0.0
 13
2670.0000000000268
 23
-550.00255113897902
 33
0.0
210
0.0
220
0.0
230
1.0
  0
SOLID
  5
653DA
  8
S-OBRYS
  6
CONTINUOUS
 10
2670.0000000000418
 20
-550.00255113897902
 30
0.0
 11
2670.0000000000418
 21
-550.00255113897902
 31
0.0
 12
2800.0000000000568
 22
-550.00255113897902
 32
0.0
 13
2800.0000000000568
 23
-550.00255113897902
 33
0.0
210
0.0
220
0.0
230
1.0
  0
LINE
  5
653DB
  8
S-OBRYS
  6
CONTINUOUS
 10
2000.0000000000421
 20
549.9974488602569
 30
0.0
 11
2000.0000000000421
 21
-0.0025511389934536
 31
0.0
  0
LINE
  5
653DC
  8
S-OBRYS
  6
CONTINUOUS
 10
2012.2676761359601
 20
-0.0025511389934536
 30
0.0
 11
2000.0000000000421
 21
549.9974488602569
 31
0.0
  0
LINE
  5
653DD
  8
S-OBRYS
  6
CONTINUOUS
 10
2000.0000000000421
 20
-0.0025511389934536
 30
0.0
 11
2012.2676761359601
 21
-0.0025511389934536
 31
0.0
  0
LINE
  5
653DE
  8
S-OBRYS
  6
CONTINUOUS
 10
2000.0000000000421
 20
-0.0025511389934536
 30
0.0
 11
2012.2676761359601
 21
-0.0025511389934536
 31
0.0
  0
LINE
  5
653DF
  8
S-OBRYS
  6
CONTINUOUS
 10
2000.0000000000421
 20
-0.0025511389934536
 30
0.0
 11
2000.0000000000421
 21
-526.00255113898993
 31
0.0
  0
LINE
  5
653E0
  8
S-OBRYS
  6
CONTINUOUS
 10
2012.2676761359601
 20
-0.0025511389934536
 30
0.0
 11
2024.0000354950589
 21
-526.00255113898993
 31
0.0
  0
LINE
  5
653E1
  8
S-OBRYS
  6
CONTINUOUS
 10
2000.0000000000421
 20
-526.00255113898993
 30
0.0
 11
2000.0000000000421
 21
-545.98193239837519
 31
0.0
  0
LINE
  5
653E2
  8
S-OBRYS
  6
CONTINUOUS
 10
2024.0000354950589
 20
-526.00255113898993
 30
0.0
 11
2670.0000000000268
 21
-545.98193239837519
 31
0.0
  0
LINE
  5
653E3
  8
S-OBRYS
  6
CONTINUOUS
 10
2000.0000000000421
 20
-545.98193239837519
 30
0.0
 11
2000.0000000000421
 21
-550.00255113897902
 31
0.0
  0
LINE
  5
653E4
  8
S-OBRYS
  6
CONTINUOUS
 10
2670.0000000000268
 20
-545.98193239837519
 30
0.0
 11
2670.0000000000418
 21
-550.00255113897902
 31
0.0
  0
LINE
  5
653E5
  8
S-OBRYS
  6
CONTINUOUS
 10
2000.0000000000421
 20
-550.00255113897902
 30
0.0
 11
2670.0000000000268
 21
-550.00255113897902
 31
0.0
  0
LINE
  5
653E6
  8
S-OBRYS
  6
CONTINUOUS
 10
2670.0000000000418
 20
-550.00255113897902
 30
0.0
 11
2800.0000000000568
 21
-550.00255113897902
 31
0.0
  0
ENDBLK
  5
653E8
  8
0
  0
BLOCK
  8
0
  2
*X99
 70
     1
 10
0.0
 20
0.0
 30
0.0
  3
*X99
  1

  0
LINE
  5
653EF
  8
0
  6
CONTINUOUS
 62
     0
 10
2800.00000000004
 20
654.33382523685566
 30
0.0
 11
2754.3363763758612
 21
699.99744886103508
 31
0.0
  0
LINE
  5
653F0
  8
0
  6
CONTINUOUS
 62
     0
 10
2740.0000000000368
 20
624.53126402616181
 30
0.0
 11
2670.00000000004
 21
694.53126402615806
 31
0.0
  0
LINE
  5
653F1
  8
0
  6
CONTINUOUS
 62
     0
 10
2670.00000000004
 20
694.53126402615806
 30
0.0
 11
2664.5338151651781
 21
699.99744886102053
 31
0.0
  0
LINE
  5
653F2
  8
0
  6
CONTINUOUS
 62
     0
 10
2741.5338151651699
 20
622.99744886102405
 30
0.0
 11
2740.0000000000368
 21
624.53126402616181
 31
0.0
  0
LINE
  5
653F3
  8
0
  6
CONTINUOUS
 62
     0
 10
2603.2868620971822
 20
671.44184071832569
 30
0.0
 11
2600.0000000000332
 21
674.72870281547512
 31
0.0
  0
LINE
  5
653F4
  8
0
  6
CONTINUOUS
 62
     0
 10
2600.0000000000332
 20
674.72870281547512
 30
0.0
 11
2574.7312539544769
 21
699.99744886103144
 31
0.0
  0
LINE
  5
653F5
  8
0
  6
CONTINUOUS
 62
     0
 10
2651.7312539544769
 20
622.99744886103144
 30
0.0
 11
2609.4443918573311
 21
665.28431095817723
 31
0.0
  0
LINE
  5
653F6
  8
0
  6
CONTINUOUS
 62
     0
 10
2561.9286927437902
 20
622.99744886103497
 30
0.0
 11
2540.0000000000359
 21
644.92614160478468
 31
0.0
  0
LINE
  5
653F7
  8
0
  6
CONTINUOUS
 62
     0
 10
2740.00000000004
 20
-632.70459292351734
 30
0.0
 11
2730.2979582154881
 21
-623.00255113896492
 31
0.0
  0
LINE
  5
653F8
  8
0
  6
CONTINUOUS
 62
     0
 10
2800.0000000000441
 20
-692.70459292352098
 30
0.0
 11
2740.00000000004
 21
-632.70459292351734
 31
0.0
  0
LINE
  5
653F9
  8
0
  6
CONTINUOUS
 62
     0
 10
2670.00000000004
 20
-652.50715413421494
 30
0.0
 11
2640.495397004805
 21
-623.00255113897936
 31
0.0
  0
LINE
  5
653FA
  8
0
  6
CONTINUOUS
 62
     0
 10
2717.4953970047859
 20
-700.00255113896492
 30
0.0
 11
2670.00000000004
 21
-652.50715413421494
 31
0.0
  0
LINE
  5
653FB
  8
0
  6
CONTINUOUS
 62
     0
 10
2600.00000000004
 20
-672.30971534490516
 30
0.0
 11
2598.593417944765
 21
-670.9031332896302
 31
0.0
  0
LINE
  5
653FC
  8
0
  6
CONTINUOUS
 62
     0
 10
2590.0994178493752
 20
-662.40913319423987
 30
0.0
 11
2550.6928357941042
 21
-623.00255113896856
 31
0.0
  0
LINE
  5
653FD
  8
0
  6
CONTINUOUS
 62
     0
 10
2627.6928357941042
 20
-700.00255113896856
 30
0.0
 11
2600.00000000004
 21
-672.30971534490516
 31
0.0
  0
ENDBLK
  5
653FF
  8
0
  0
BLOCK
  8
0
  2
*X100
 70
     1
 10
0.0
 20
0.0
 30
0.0
  3
*X100
  1

  0
LINE
  5
65401
  8
0
  6
CONTINUOUS
 62
     0
 10
450.00000000003268
 20
-657.76862319080817
 30
0.0
 11
414.23392794820018
 21
-622.00255113897583
 31
0.0
  0
LINE
  5
65402
  8
0
  6
CONTINUOUS
 62
     0
 10
388.00000000003638
 20
-685.57118440149861
 30
0.0
 11
324.43136673751718
 21
-622.00255113897947
 31
0.0
  0
LINE
  5
65403
  8
0
  6
CONTINUOUS
 62
     0
 10
402.43136673751718
 20
-700.00255113897583
 30
0.0
 11
388.00000000003638
 21
-685.57118440149861
 31
0.0
  0
LINE
  5
65404
  8
0
  6
CONTINUOUS
 62
     0
 10
312.62880552682691
 20
-700.00255113897583
 30
0.0
 11
234.62880552682691
 21
-622.00255113897583
 31
0.0
  0
LINE
  5
65405
  8
0
  6
CONTINUOUS
 62
     0
 10
222.82624431612561
 20
-700.00255113897583
 30
0.0
 11
144.82624431612561
 21
-622.00255113897583
 31
0.0
  0
LINE
  5
65406
  8
0
  6
CONTINUOUS
 62
     0
 10
88.000000000032742
 20
-654.97886803356948
 30
0.0
 11
55.023683105442622
 21
-622.00255113897947
 31
0.0
  0
LINE
  5
65407
  8
0
  6
CONTINUOUS
 62
     0
 10
133.02368310544259
 20
-700.00255113897583
 30
0.0
 11
88.000000000032742
 21
-654.97886803356948
 31
0.0
  0
LINE
  5
65408
  8
0
  6
CONTINUOUS
 62
     0
 10
43.221121894745011
 20
-700.00255113896856
 30
0.0
 11
0.0000000000400178
 21
-656.78142924426345
 31
0.0
  0
ENDBLK
  5
6540A
  8
0
  0
BLOCK
  8
0
  2
*X101
 70
     1
 10
0.0
 20
0.0
 30
0.0
  3
*X101
  1

  0
LINE
  5
6540C
  8
0
  6
CONTINUOUS
 62
     0
 10
450.00000000003268
 20
664.2313768091916
 30
0.0
 11
414.23392794820018
 21
699.99744886102405
 31
0.0
  0
LINE
  5
6540D
  8
0
  6
CONTINUOUS
 62
     0
 10
388.00000000003638
 20
636.42881559850139
 30
0.0
 11
324.43136673751718
 21
699.99744886102053
 31
0.0
  0
LINE
  5
6540E
  8
0
  6
CONTINUOUS
 62
     0
 10
402.43136673751718
 20
621.99744886102405
 30
0.0
 11
388.00000000003638
 21
636.42881559850139
 31
0.0
  0
LINE
  5
6540F
  8
0
  6
CONTINUOUS
 62
     0
 10
312.62880552682691
 20
621.99744886102405
 30
0.0
 11
234.62880552682691
 21
699.99744886102405
 31
0.0
  0
LINE
  5
65410
  8
0
  6
CONTINUOUS
 62
     0
 10
222.82624431612561
 20
621.99744886102405
 30
0.0
 11
144.82624431612561
 21
699.99744886102405
 31
0.0
  0
LINE
  5
65411
  8
0
  6
CONTINUOUS
 62
     0
 10
88.000000000032742
 20
667.0211319664304
 30
0.0
 11
55.023683105442622
 21
699.99744886102053
 31
0.0
  0
LINE
  5
65412
  8
0
  6
CONTINUOUS
 62
     0
 10
133.02368310544259
 20
621.99744886102405
 30
0.0
 11
88.000000000032742
 21
667.0211319664304
 31
0.0
  0
LINE
  5
65413
  8
0
  6
CONTINUOUS
 62
     0
 10
43.221121894745011
 20
621.99744886103144
 30
0.0
 11
0.0000000000400178
 21
665.21857075573644
 31
0.0
  0
ENDBLK
  5
65415
  8
0
  0
BLOCK
  8
0
  2
*U102
 70
     1
 10
0.0
 20
0.0
 30
0.0
  3
*U102
  1

  0
SOLID
  5
6543F
  8
S-OBRYS
  6
CONTINUOUS
 10
-7.4303002125019191
 20
199.86193804923201
 30
0.0
 11
-106.0799013385006
 21
154.63598606144831
 31
0.0
 12
114.36798504699919
 22
154.63598606144831
 32
0.0
 13
114.36798504699919
 23
154.63598606144831
 33
0.0
210
0.0
220
0.0
230
1.0
  0
SOLID
  5
65440
  8
S-OBRYS
  6
CONTINUOUS
 10
-106.0799013385006
 20
154.63598606144831
 30
0.0
 11
-123.65704524996811
 21
146.5777368891373
 31
0.0
 12
-7.9187739383873028
 22
146.5777368891373
 32
0.0
 13
-7.9187739383873028
 23
146.5777368891373
 33
0.0
210
0.0
220
0.0
230
1.0
  0
SOLID
  5
65441
  8
S-OBRYS
  6
CONTINUOUS
 10
106.0799013385006
 20
154.63598606144831
 30
0.0
 11
-6.5672195654881156
 21
154.63598606144831
 31
0.0
 12
7.9187739383873028
 22
146.5777368891373
 32
0.0
 13
7.9187739383873028
 23
146.5777368891373
 33
0.0
210
0.0
220
0.0
230
-1.0
  0
SOLID
  5
65442
  8
S-OBRYS
  6
CONTINUOUS
 10
6.5672195654881156
 20
154.63598606144831
 30
0.0
 11
72.201549540798865
 21
146.5777368891373
 31
0.0
 12
136.06970470668469
 22
146.5777368891373
 32
0.0
 13
136.06970470668469
 23
146.5777368891373
 33
0.0
210
0.0
220
0.0
230
1.0
  0
SOLID
  5
65443
  8
S-OBRYS
  6
CONTINUOUS
 10
-6.5672195654881156
 20
154.63598606144831
 30
0.0
 11
-114.36798504699919
 21
154.63598606144831
 31
0.0
 12
-136.06970470668469
 22
146.5777368891373
 32
0.0
 13
-136.06970470668469
 23
146.5777368891373
 33
0.0
210
0.0
220
0.0
230
-1.0
  0
SOLID
  5
65444
  8
S-OBRYS
  6
CONTINUOUS
 10
-123.65704524996811
 20
146.5777368891373
 30
0.0
 11
-139.0112327472724
 21
139.5386030392437
 31
0.0
 12
-20.572744427763961
 22
139.5386030392437
 32
0.0
 13
-20.572744427763961
 23
139.5386030392437
 33
0.0
210
0.0
220
0.0
230
1.0
  0
SOLID
  5
65445
  8
S-OBRYS
  6
CONTINUOUS
 10
123.65704524996811
 20
146.5777368891373
 30
0.0
 11
7.9187739383873028
 21
146.5777368891373
 31
0.0
 12
20.572744427763961
 22
139.5386030392437
 32
0.0
 13
20.572744427763961
 23
139.5386030392437
 33
0.0
210
0.0
220
0.0
230
-1.0
  0
SOLID
  5
65446
  8
S-OBRYS
  6
CONTINUOUS
 10
-72.201549540798865
 20
146.5777368891373
 30
0.0
 11
-136.0697047066846
 21
146.5777368891373
 31
0.0
 12
-129.53519906752251
 22
139.5386030392437
 32
0.0
 13
-129.53519906752251
 23
139.5386030392437
 33
0.0
210
0.0
220
0.0
230
-1.0
  0
SOLID
  5
65447
  8
S-OBRYS
  6
CONTINUOUS
 10
136.0697047066846
 20
146.5777368891373
 30
0.0
 11
129.5351990675228
 21
139.5386030392437
 31
0.0
 12
143.09108860080289
 22
139.5386030392437
 32
0.0
 13
143.09108860080289
 23
139.5386030392437
 33
0.0
210
0.0
220
0.0
230
1.0
  0
SOLID
  5
65448
  8
S-OBRYS
  6
CONTINUOUS
 10
-139.0112327472724
 20
139.5386030392437
 30
0.0
 11
-146.577746761573
 21
136.06973144098379
 31
0.0
 12
-26.808596703322301
 22
136.06973144098379
 32
0.0
 13
-26.808596703322301
 23
136.06973144098379
 33
0.0
210
0.0
220
0.0
230
1.0
  0
SOLID
  5
65449
  8
S-OBRYS
  6
CONTINUOUS
 10
139.0112327472724
 20
139.5386030392437
 30
0.0
 11
20.572744427763961
 21
139.5386030392437
 31
0.0
 12
26.808596703322301
 22
136.06973144098379
 32
0.0
 13
26.808596703322301
 23
136.06973144098379
 33
0.0
210
0.0
220
0.0
230
-1.0
  0
SOLID
  5
6544A
  8
S-OBRYS
  6
CONTINUOUS
 10
129.53519906752311
 20
139.5386030392437
 30
0.0
 11
136.25658556636
 21
136.06973144098379
 31
0.0
 12
146.55121305505739
 22
136.06973144098379
 32
0.0
 13
146.55121305505739
 23
136.06973144098379
 33
0.0
210
0.0
220
0.0
230
1.0
  0
SOLID
  5
6544B
  8
S-OBRYS
  6
CONTINUOUS
 10
-129.53519906752311
 20
139.5386030392437
 30
0.0
 11
-143.09108860080289
 21
139.5386030392437
 31
0.0
 12
-146.55121305505739
 22
136.06973144098379
 32
0.0
 13
-146.55121305505739
 23
136.06973144098379
 33
0.0
210
0.0
220
0.0
230
-1.0
  0
SOLID
  5
6544C
  8
S-OBRYS
  6
CONTINUOUS
 10
-146.577746761573
 20
136.06973144098379
 30
0.0
 11
-146.71532458895959
 21
135.69921976065609
 31
0.0
 12
-146.17862225930841
 22
135.69921976065609
 32
0.0
 13
-146.17862225930841
 23
135.69921976065609
 33
0.0
  0
SOLID
  5
6544D
  8
S-OBRYS
  6
CONTINUOUS
 10
-146.577746761573
 20
136.06973144098379
 30
0.0
 11
-146.1786222593083
 21
135.69921976065609
 31
0.0
 12
-27.47465079020499
 22
135.69921976065609
 32
0.0
 13
-27.47465079020499
 23
135.69921976065609
 33
0.0
210
0.0
220
0.0
230
1.0
  0
SOLID
  5
6544E
  8
S-OBRYS
  6
CONTINUOUS
 10
146.577746761573
 20
136.06973144098379
 30
0.0
 11
26.808596703322301
 21
136.06973144098379
 31
0.0
 12
27.47465079020499
 22
135.69921976065609
 32
0.0
 13
27.47465079020499
 23
135.69921976065609
 33
0.0
210
0.0
220
0.0
230
-1.0
  0
SOLID
  5
6544F
  8
S-OBRYS
  6
CONTINUOUS
 10
136.25658556636
 20
136.06973144098379
 30
0.0
 11
136.9744997742728
 21
135.69921976065609
 31
0.0
 12
146.92079044913899
 22
135.69921976065609
 32
0.0
 13
146.92079044913899
 23
135.69921976065609
 33
0.0
  0
SOLID
  5
65450
  8
S-OBRYS
  6
CONTINUOUS
 10
-136.25658556636
 20
136.06973144098379
 30
0.0
 11
-146.55121305505739
 21
136.06973144098379
 31
0.0
 12
-146.92079044913899
 22
135.69921976065609
 32
0.0
 13
-146.92079044913899
 23
135.69921976065609
 33
0.0
210
0.0
220
0.0
230
-1.0
  0
SOLID
  5
65451
  8
S-OBRYS
  6
CONTINUOUS
 10
-146.71532458895959
 20
135.69921976065609
 30
0.0
 11
-147.97074803455669
 21
132.3182312744525
 31
0.0
 12
-142.53653641325681
 22
132.3182312744525
 32
0.0
 13
-142.53653641325681
 23
132.3182312744525
 33
0.0
  0
SOLID
  5
65452
  8
S-OBRYS
  6
CONTINUOUS
 10
146.71532458895959
 20
135.69921976065609
 30
0.0
 11
146.17862225930841
 21
135.69921976065609
 31
0.0
 12
142.53653641325681
 22
132.3182312744525
 32
0.0
 13
142.53653641325681
 23
132.3182312744525
 33
0.0
210
0.0
220
0.0
230
-1.0
  0
SOLID
  5
65453
  8
S-OBRYS
  6
CONTINUOUS
 10
-146.1786222593083
 20
135.69921976065609
 30
0.0
 11
-142.5365364132567
 21
132.3182312744525
 31
0.0
 12
-33.552519096401468
 22
132.3182312744525
 32
0.0
 13
-33.552519096401468
 23
132.3182312744525
 33
0.0
  0
SOLID
  5
65454
  8
S-OBRYS
  6
CONTINUOUS
 10
146.1786222593083
 20
135.69921976065609
 30
0.0
 11
27.47465079020499
 21
135.69921976065609
 31
0.0
 12
33.552519096401468
 22
132.3182312744525
 32
0.0
 13
33.552519096401468
 23
132.3182312744525
 33
0.0
210
0.0
220
0.0
230
-1.0
  0
SOLID
  5
65455
  8
S-OBRYS
  6
CONTINUOUS
 10
136.9744997742728
 20
135.69921976065609
 30
0.0
 11
143.5256013991617
 21
132.3182312744525
 31
0.0
 12
149.81095848922959
 22
132.3182312744525
 32
0.0
 13
149.81095848922959
 23
132.3182312744525
 33
0.0
210
0.0
220
0.0
230
1.0
  0
SOLID
  5
65456
  8
S-OBRYS
  6
CONTINUOUS
 10
-136.9744997742728
 20
135.69921976065609
 30
0.0
 11
-146.92079044913899
 21
135.69921976065609
 31
0.0
 12
-149.81095848922959
 22
132.3182312744525
 32
0.0
 13
-149.81095848922959
 23
132.3182312744525
 33
0.0
210
0.0
220
0.0
230
-1.0
  0
SOLID
  5
65457
  8
S-OBRYS
  6
CONTINUOUS
 10
-147.97074803455669
 20
132.3182312744525
 30
0.0
 11
-151.0521169139048
 21
124.0197780797475
 31
0.0
 12
-133.5972338844588
 22
124.0197780797475
 32
0.0
 13
-133.5972338844588
 23
124.0197780797475
 33
0.0
210
0.0
220
0.0
230
1.0
  0
SOLID
  5
65458
  8
S-OBRYS
  6
CONTINUOUS
 10
147.97074803455669
 20
132.3182312744525
 30
0.0
 11
142.53653641325681
 21
132.3182312744525
 31
0.0
 12
133.5972338844588
 22
124.0197780797475
 32
0.0
 13
133.5972338844588
 23
124.0197780797475
 33
0.0
210
0.0
220
0.0
230
-1.0
  0
SOLID
  5
65459
  8
S-OBRYS
  6
CONTINUOUS
 10
-142.5365364132567
 20
132.3182312744525
 30
0.0
 11
-133.59723388445869
 21
124.0197780797475
 31
0.0
 12
-48.470317801828479
 22
124.0197780797475
 32
0.0
 13
-48.470317801828479
 23
124.0197780797475
 33
0.0
210
0.0
220
0.0
230
1.0
  0
SOLID
  5
6545A
  8
S-OBRYS
  6
CONTINUOUS
 10
142.5365364132567
 20
132.3182312744525
 30
0.0
 11
33.552519096401468
 21
132.3182312744525
 31
0.0
 12
48.470317801828479
 22
124.0197780797475
 32
0.0
 13
48.470317801828479
 23
124.0197780797475
 33
0.0
210
0.0
220
0.0
230
-1.0
  0
SOLID
  5
6545B
  8
S-OBRYS
  6
CONTINUOUS
 10
-143.5256013991617
 20
132.3182312744525
 30
0.0
 11
-149.81095848922959
 21
132.3182312744525
 31
0.0
 12
-156.90471947167379
 22
124.0197780797475
 32
0.0
 13
-156.90471947167379
 23
124.0197780797475
 33
0.0
210
0.0
220
0.0
230
-1.0
  0
SOLID
  5
6545C
  8
S-OBRYS
  6
CONTINUOUS
 10
-151.0521169139048
 20
124.0197780797475
 30
0.0
 11
-162.0470583125522
 21
94.409234795978335
 31
0.0
 12
-101.7000118064241
 22
94.409234795978335
 32
0.0
 13
-101.7000118064241
 23
94.409234795978335
 33
0.0
210
0.0
220
0.0
230
1.0
  0
SOLID
  5
6545D
  8
S-OBRYS
  6
CONTINUOUS
 10
151.0521169139048
 20
124.0197780797475
 30
0.0
 11
133.5972338844588
 21
124.0197780797475
 31
0.0
 12
101.7000118064241
 22
94.409234795978335
 32
0.0
 13
101.7000118064241
 23
94.409234795978335
 33
0.0
210
0.0
220
0.0
230
-1.0
  0
SOLID
  5
6545E
  8
S-OBRYS
  6
CONTINUOUS
 10
133.59723388445869
 20
124.0197780797475
 30
0.0
 11
48.470317801828479
 21
124.0197780797475
 31
0.0
 12
101.7000118064241
 22
94.409234795978335
 32
0.0
 13
101.7000118064241
 23
94.409234795978335
 33
0.0
210
0.0
220
0.0
230
-1.0
  0
SOLID
  5
6545F
  8
S-OBRYS
  6
CONTINUOUS
 10
-162.0470583125522
 20
94.409234795978335
 30
0.0
 11
-199.8619479216687
 21
-7.4302734782037438
 31
0.0
 12
-148.81695672466711
 22
-7.4302734782037438
 32
0.0
 13
-148.81695672466711
 23
-7.4302734782037438
 33
0.0
210
0.0
220
0.0
230
1.0
  0
SOLID
  5
65460
  8
S-OBRYS
  6
CONTINUOUS
 10
162.0470583125522
 20
94.409234795978335
 30
0.0
 11
101.7000118064241
 21
94.409234795978335
 31
0.0
 12
148.81695672466711
 22
-7.4302734782037438
 32
0.0
 13
148.81695672466711
 23
-7.4302734782037438
 33
0.0
210
0.0
220
0.0
230
-1.0
  0
SOLID
  5
65461
  8
S-OBRYS
  6
CONTINUOUS
 10
-199.8619479216687
 20
-7.4302734782037438
 30
0.0
 11
-195.00201376120179
 21
-18.031057880888518
 31
0.0
 12
-153.72150293915519
 22
-18.031057880888518
 32
0.0
 13
-153.72150293915519
 23
-18.031057880888518
 33
0.0
210
0.0
220
0.0
230
1.0
  0
SOLID
  5
65462
  8
S-OBRYS
  6
CONTINUOUS
 10
199.8619479216687
 20
-7.4302734782037438
 30
0.0
 11
148.81695672466711
 21
-7.4302734782037438
 31
0.0
 12
153.72150293915519
 22
-18.031057880888518
 32
0.0
 13
153.72150293915519
 23
-18.031057880888518
 33
0.0
210
0.0
220
0.0
230
-1.0
  0
SOLID
  5
65463
  8
S-OBRYS
  6
CONTINUOUS
 10
-195.00201376120179
 20
-18.031057880888518
 30
0.0
 11
-139.29683524889569
 21
-139.53858617738231
 31
0.0
 12
-129.53523567425751
 22
-139.53858617738231
 32
0.0
 13
-129.53523567425751
 23
-139.53858617738231
 33
0.0
210
0.0
220
0.0
230
1.0
  0
SOLID
  5
65464
  8
S-OBRYS
  6
CONTINUOUS
 10
195.00201376120179
 20
-18.031057880888518
 30
0.0
 11
153.72150293915519
 21
-18.031057880888518
 31
0.0
 12
129.53523567425751
 22
-139.53858617738231
 32
0.0
 13
129.53523567425751
 23
-139.53858617738231
 33
0.0
210
0.0
220
0.0
230
-1.0
  0
SOLID
  5
65465
  8
S-OBRYS
  6
CONTINUOUS
 10
139.29683524889569
 20
-139.53858617738231
 30
0.0
 11
129.53523567425759
 21
-139.53858617738231
 31
0.0
 12
136.0697413134194
 22
-146.57772002727569
 32
0.0
 13
136.0697413134194
 23
-146.57772002727569
 33
0.0
210
0.0
220
0.0
230
-1.0
  0
SOLID
  5
65466
  8
S-OBRYS
  6
CONTINUOUS
 10
-129.53523567425751
 20
-139.53858617738231
 30
0.0
 11
-136.0697413134194
 21
-146.57772002727569
 31
0.0
 12
-125.2121400426451
 22
-146.57772002727569
 32
0.0
 13
-125.2121400426451
 23
-146.57772002727569
 33
0.0
210
0.0
220
0.0
230
1.0
  0
SOLID
  5
65467
  8
S-OBRYS
  6
CONTINUOUS
 10
-136.0697413134194
 20
-146.57772002727569
 30
0.0
 11
-128.64834715820271
 21
-152.9542450331025
 31
0.0
 12
-121.2959867224501
 22
-152.9542450331025
 32
0.0
 13
-121.2959867224501
 23
-152.9542450331025
 33
0.0
210
0.0
220
0.0
230
1.0
  0
SOLID
  5
65468
  8
S-OBRYS
  6
CONTINUOUS
 10
136.0697413134194
 20
-146.57772002727569
 30
0.0
 11
125.2121400426451
 21
-146.57772002727569
 31
0.0
 12
121.2959867224501
 22
-152.9542450331025
 32
0.0
 13
121.2959867224501
 23
-152.9542450331025
 33
0.0
210
0.0
220
0.0
230
-1.0
  0
SOLID
  5
65469
  8
S-OBRYS
  6
CONTINUOUS
 10
-128.64834715820271
 20
-152.9542450331025
 30
0.0
 11
-124.4155441826761
 21
-156.5911053660374
 31
0.0
 12
-118.6470868850928
 22
-156.5911053660374
 32
0.0
 13
-118.6470868850928
 23
-156.5911053660374
 33
0.0
210
0.0
220
0.0
230
1.0
  0
SOLID
  5
6546A
  8
S-OBRYS
  6
CONTINUOUS
 10
128.64834715820271
 20
-152.9542450331025
 30
0.0
 11
121.2959867224501
 21
-152.9542450331025
 31
0.0
 12
118.6470868850928
 22
-156.5911053660374
 32
0.0
 13
118.6470868850928
 23
-156.5911053660374
 33
0.0
210
0.0
220
0.0
230
-1.0
  0
SOLID
  5
6546B
  8
S-OBRYS
  6
CONTINUOUS
 10
124.4155441826761
 20
-156.5911053660374
 30
0.0
 11
118.6470868850928
 21
-156.5911053660374
 31
0.0
 12
112.0270211232598
 22
-165.6802578628913
 32
0.0
 13
112.0270211232598
 23
-165.6802578628913
 33
0.0
210
0.0
220
0.0
230
-1.0
  0
LINE
  5
6546C
  8
S-OBRYS
  6
CONTINUOUS
 10
-7.4303002125019191
 20
199.86193804923201
 30
0.0
 11
-106.0799013385006
 21
154.63598606144831
 31
0.0
  0
LINE
  5
6546D
  8
S-OBRYS
  6
CONTINUOUS
 10
114.36798504699919
 20
154.63598606144831
 30
0.0
 11
-7.4303002125019191
 21
199.86193804923201
 31
0.0
  0
LINE
  5
6546E
  8
S-OBRYS
  6
CONTINUOUS
 10
-106.0799013385006
 20
154.63598606144831
 30
0.0
 11
-123.65704524996811
 21
146.5777368891373
 31
0.0
  0
LINE
  5
6546F
  8
S-OBRYS
  6
CONTINUOUS
 10
114.36798504699919
 20
154.63598606144831
 30
0.0
 11
136.06970470668469
 21
146.5777368891373
 31
0.0
  0
LINE
  5
65470
  8
S-OBRYS
  6
CONTINUOUS
 10
-123.65704524996811
 20
146.5777368891373
 30
0.0
 11
-139.0112327472724
 21
139.5386030392437
 31
0.0
  0
LINE
  5
65471
  8
S-OBRYS
  6
CONTINUOUS
 10
-7.9187739383873028
 20
146.5777368891373
 30
0.0
 11
-20.572744427763961
 21
139.5386030392437
 31
0.0
  0
LINE
  5
65472
  8
S-OBRYS
  6
CONTINUOUS
 10
136.0697047066846
 20
146.5777368891373
 30
0.0
 11
129.53519906752251
 21
139.5386030392437
 31
0.0
  0
LINE
  5
65473
  8
S-OBRYS
  6
CONTINUOUS
 10
129.53519906752251
 20
139.5386030392437
 30
0.0
 11
72.201549540798865
 21
146.5777368891373
 31
0.0
  0
LINE
  5
65474
  8
S-OBRYS
  6
CONTINUOUS
 10
136.0697047066846
 20
146.5777368891373
 30
0.0
 11
129.5351990675228
 21
139.5386030392437
 31
0.0
  0
LINE
  5
65475
  8
S-OBRYS
  6
CONTINUOUS
 10
143.09108860080289
 20
139.5386030392437
 30
0.0
 11
136.0697047066846
 21
146.5777368891373
 31
0.0
  0
LINE
  5
65476
  8
S-OBRYS
  6
CONTINUOUS
 10
-139.0112327472724
 20
139.5386030392437
 30
0.0
 11
-146.577746761573
 21
136.06973144098379
 31
0.0
  0
LINE
  5
65477
  8
S-OBRYS
  6
CONTINUOUS
 10
-20.572744427763961
 20
139.5386030392437
 30
0.0
 11
-26.808596703322301
 21
136.06973144098379
 31
0.0
  0
LINE
  5
65478
  8
S-OBRYS
  6
CONTINUOUS
 10
129.53519906752311
 20
139.5386030392437
 30
0.0
 11
136.25658556636
 21
136.06973144098379
 31
0.0
  0
LINE
  5
65479
  8
S-OBRYS
  6
CONTINUOUS
 10
143.09108860080289
 20
139.5386030392437
 30
0.0
 11
146.55121305505739
 21
136.06973144098379
 31
0.0
  0
LINE
  5
6547A
  8
S-OBRYS
  6
CONTINUOUS
 10
-146.577746761573
 20
136.06973144098379
 30
0.0
 11
-146.71532458895959
 21
135.69921976065609
 31
0.0
  0
LINE
  5
6547B
  8
S-OBRYS
  6
CONTINUOUS
 10
-146.17862225930841
 20
135.69921976065609
 30
0.0
 11
-146.577746761573
 21
136.06973144098379
 31
0.0
  0
LINE
  5
6547C
  8
S-OBRYS
  6
CONTINUOUS
 10
-146.577746761573
 20
136.06973144098379
 30
0.0
 11
-146.1786222593083
 21
135.69921976065609
 31
0.0
  0
LINE
  5
6547D
  8
S-OBRYS
  6
CONTINUOUS
 10
-26.808596703322301
 20
136.06973144098379
 30
0.0
 11
-27.47465079020499
 21
135.69921976065609
 31
0.0
  0
LINE
  5
6547E
  8
S-OBRYS
  6
CONTINUOUS
 10
136.25658556636
 20
136.06973144098379
 30
0.0
 11
136.9744997742728
 21
135.69921976065609
 31
0.0
  0
LINE
  5
6547F
  8
S-OBRYS
  6
CONTINUOUS
 10
146.55121305505739
 20
136.06973144098379
 30
0.0
 11
146.92079044913899
 21
135.69921976065609
 31
0.0
  0
LINE
  5
65480
  8
S-OBRYS
  6
CONTINUOUS
 10
-146.71532458895959
 20
135.69921976065609
 30
0.0
 11
-147.97074803455669
 21
132.3182312744525
 31
0.0
  0
LINE
  5
65481
  8
S-OBRYS
  6
CONTINUOUS
 10
-146.17862225930841
 20
135.69921976065609
 30
0.0
 11
-142.53653641325681
 21
132.3182312744525
 31
0.0
  0
LINE
  5
65482
  8
S-OBRYS
  6
CONTINUOUS
 10
-146.1786222593083
 20
135.69921976065609
 30
0.0
 11
-142.5365364132567
 21
132.3182312744525
 31
0.0
  0
LINE
  5
65483
  8
S-OBRYS
  6
CONTINUOUS
 10
-27.47465079020499
 20
135.69921976065609
 30
0.0
 11
-33.552519096401468
 21
132.3182312744525
 31
0.0
  0
LINE
  5
65484
  8
S-OBRYS
  6
CONTINUOUS
 10
136.9744997742728
 20
135.69921976065609
 30
0.0
 11
143.5256013991617
 21
132.3182312744525
 31
0.0
  0
LINE
  5
65485
  8
S-OBRYS
  6
CONTINUOUS
 10
146.92079044913899
 20
135.69921976065609
 30
0.0
 11
149.81095848922959
 21
132.3182312744525
 31
0.0
  0
LINE
  5
65486
  8
S-OBRYS
  6
CONTINUOUS
 10
-147.97074803455669
 20
132.3182312744525
 30
0.0
 11
-151.0521169139048
 21
124.0197780797475
 31
0.0
  0
LINE
  5
65487
  8
S-OBRYS
  6
CONTINUOUS
 10
-142.53653641325681
 20
132.3182312744525
 30
0.0
 11
-133.5972338844588
 21
124.0197780797475
 31
0.0
  0
LINE
  5
65488
  8
S-OBRYS
  6
CONTINUOUS
 10
-142.5365364132567
 20
132.3182312744525
 30
0.0
 11
-133.59723388445869
 21
124.0197780797475
 31
0.0
  0
LINE
  5
65489
  8
S-OBRYS
  6
CONTINUOUS
 10
-33.552519096401468
 20
132.3182312744525
 30
0.0
 11
-48.470317801828479
 21
124.0197780797475
 31
0.0
  0
LINE
  5
6548A
  8
S-OBRYS
  6
CONTINUOUS
 10
149.81095848922959
 20
132.3182312744525
 30
0.0
 11
156.90471947167379
 21
124.0197780797475
 31
0.0
  0
LINE
  5
6548B
  8
S-OBRYS
  6
CONTINUOUS
 10
156.90471947167379
 20
124.0197780797475
 30
0.0
 11
143.5256013991617
 21
132.3182312744525
 31
0.0
  0
LINE
  5
6548C
  8
S-OBRYS
  6
CONTINUOUS
 10
-151.0521169139048
 20
124.0197780797475
 30
0.0
 11
-162.0470583125522
 21
94.409234795978335
 31
0.0
  0
LINE
  5
6548D
  8
S-OBRYS
  6
CONTINUOUS
 10
-48.470317801828479
 20
124.0197780797475
 30
0.0
 11
-101.7000118064241
 21
94.409234795978335
 31
0.0
  0
LINE
  5
6548E
  8
S-OBRYS
  6
CONTINUOUS
 10
-101.7000118064241
 20
94.409234795978335
 30
0.0
 11
-133.59723388445869
 21
124.0197780797475
 31
0.0
  0
LINE
  5
6548F
  8
S-OBRYS
  6
CONTINUOUS
 10
-162.0470583125522
 20
94.409234795978335
 30
0.0
 11
-199.8619479216687
 21
-7.4302734782037438
 31
0.0
  0
LINE
  5
65490
  8
S-OBRYS
  6
CONTINUOUS
 10
-101.7000118064241
 20
94.409234795978335
 30
0.0
 11
-148.81695672466711
 21
-7.4302734782037438
 31
0.0
  0
LINE
  5
65491
  8
S-OBRYS
  6
CONTINUOUS
 10
-199.8619479216687
 20
-7.4302734782037438
 30
0.0
 11
-195.00201376120179
 21
-18.031057880888518
 31
0.0
  0
LINE
  5
65492
  8
S-OBRYS
  6
CONTINUOUS
 10
-148.81695672466711
 20
-7.4302734782037438
 30
0.0
 11
-153.72150293915519
 21
-18.031057880888518
 31
0.0
  0
LINE
  5
65493
  8
S-OBRYS
  6
CONTINUOUS
 10
-195.00201376120179
 20
-18.031057880888518
 30
0.0
 11
-139.29683524889569
 21
-139.53858617738231
 31
0.0
  0
LINE
  5
65494
  8
S-OBRYS
  6
CONTINUOUS
 10
-153.72150293915519
 20
-18.031057880888518
 30
0.0
 11
-129.53523567425751
 21
-139.53858617738231
 31
0.0
  0
LINE
  5
65495
  8
S-OBRYS
  6
CONTINUOUS
 10
-129.53523567425759
 20
-139.53858617738231
 30
0.0
 11
-136.0697413134194
 21
-146.57772002727569
 31
0.0
  0
LINE
  5
65496
  8
S-OBRYS
  6
CONTINUOUS
 10
-125.2121400426451
 20
-146.57772002727569
 30
0.0
 11
-129.53523567425751
 21
-139.53858617738231
 31
0.0
  0
LINE
  5
65497
  8
S-OBRYS
  6
CONTINUOUS
 10
-136.0697413134194
 20
-146.57772002727569
 30
0.0
 11
-128.64834715820271
 21
-152.9542450331025
 31
0.0
  0
LINE
  5
65498
  8
S-OBRYS
  6
CONTINUOUS
 10
-125.2121400426451
 20
-146.57772002727569
 30
0.0
 11
-121.2959867224501
 21
-152.9542450331025
 31
0.0
  0
LINE
  5
65499
  8
S-OBRYS
  6
CONTINUOUS
 10
-128.64834715820271
 20
-152.9542450331025
 30
0.0
 11
-124.4155441826761
 21
-156.5911053660374
 31
0.0
  0
LINE
  5
6549A
  8
S-OBRYS
  6
CONTINUOUS
 10
-121.2959867224501
 20
-152.9542450331025
 30
0.0
 11
-118.6470868850928
 21
-156.5911053660374
 31
0.0
  0
LINE
  5
6549B
  8
S-OBRYS
  6
CONTINUOUS
 10
-118.6470868850928
 20
-156.5911053660374
 30
0.0
 11
-112.0270211232598
 21
-165.6802578628913
 31
0.0
  0
LINE
  5
6549C
  8
S-OBRYS
  6
CONTINUOUS
 10
-112.0270211232598
 20
-165.6802578628913
 30
0.0
 11
-124.4155441826761
 21
-156.5911053660374
 31
0.0
  0
ENDBLK
  5
6549E
  8
0
  0
BLOCK
  8
0
  2
*U103
 70
     1
 10
0.0
 20
0.0
 30
0.0
  3
*U103
  1

  0
TEXT
  5
654A0
  8
S-OBRYS
  6
CONTINUOUS
 62
     7
 10
-4492.504190469981
 20
399856.64953468938
 30
0.0
 40
100.0
  1
2810
 41
0.8
  0
ENDBLK
  5
654A2
  8
0
  0
BLOCK
  8
0
  2
*U104
 70
     1
 10
0.0
 20
0.0
 30
0.0
  3
*U104
  1

  0
TEXT
  5
654A4
  8
S-OBRYS
  6
CONTINUOUS
 62
     7
 10
-4508.2856873770052
 20
399674.62269929168
 30
0.0
 40
100.0
  1
1915
 41
0.8
  0
ENDBLK
  5
654A6
  8
0
  0
BLOCK
  8
0
  2
*U105
 70
     1
 10
0.0
 20
0.0
 30
0.0
  3
*U105
  1

  0
TEXT
  5
654A8
  8
S-OBRYS
  6
CONTINUOUS
 62
     7
 10
-5599.4761635674813
 20
399674.62269929168
 30
0.0
 40
100.0
  1
355
 41
0.8
  0
ENDBLK
  5
654AA
  8
0
  0
BLOCK
  8
0
  2
*U106
 70
     1
 10
0.0
 20
0.0
 30
0.0
  3
*U106
  1

  0
TEXT
  5
654AC
  8
S-OBRYS
  6
CONTINUOUS
 62
     7
 10
-5860.0342885540249
 20
399137.89458782331
 30
0.0
 40
100.0
  1
440
 50
90.0
 41
0.8
  0
ENDBLK
  5
654AE
  8
0
  0
BLOCK
  8
0
  2
*U107
 70
     1
 10
0.0
 20
0.0
 30
0.0
  3
*U107
  1

  0
TEXT
  5
654B0
  8
S-OBRYS
  6
CONTINUOUS
 62
     7
 10
-5485.1522314224849
 20
399154.50350004621
 30
0.0
 40
100.0
  1
370
 50
90.0
 41
0.8
  0
ENDBLK
  5
654B2
  8
0
  0
BLOCK
  8
0
  2
*U108
 70
     1
 10
0.0
 20
0.0
 30
0.0
  3
*U108
  1

  0
TEXT
  5
654B4
  8
S-OBRYS
  6
CONTINUOUS
 62
     7
 10
-5312.9761635674813
 20
398797.41009020159
 30
0.0
 40
100.0
  1
218
 41
0.8
  0
ENDBLK
  5
654B6
  8
0
  0
BLOCK
  8
0
  2
*U109
 70
     1
 10
0.0
 20
0.0
 30
0.0
  3
*U109
  1

  0
TEXT
  5
654B8
  8
S-OBRYS
  6
CONTINUOUS
 62
     7
 10
-4999.9761635674813
 20
398797.41009020159
 30
0.0
 40
100.0
  1
408
 41
0.8
  0
ENDBLK
  5
654BA
  8
0
  0
BLOCK
  8
0
  2
*U110
 70
     1
 10
0.0
 20
0.0
 30
0.0
  3
*U110
  1

  0
TEXT
  5
654BC
  8
S-OBRYS
  6
CONTINUOUS
 62
     7
 10
-3263.315641742322
 20
399621.22198990698
 30
0.0
 40
100.0
  1
\U+220521
 50
48.51376466933975
 41
0.8
  0
ENDBLK
  5
654BE
  8
0
  0
BLOCK
  8
0
  2
*U111
 70
     1
 10
0.0
 20
0.0
 30
0.0
  3
*U111
  1

  0
TEXT
  5
654C0
  8
S-OBRYS
  6
CONTINUOUS
 62
     7
 10
-4164.2624095844803
 20
402855.49299339647
 30
0.0
 40
100.0
  1
3000
 50
24.99999999845878
 41
0.8
  0
ENDBLK
  5
654C2
  8
0
  0
BLOCK
  8
0
  2
*U112
 70
     1
 10
0.0
 20
0.0
 30
0.0
  3
*U112
  1

  0
TEXT
  5
654C4
  8
S-OBRYS
  6
CONTINUOUS
 62
     7
 10
-5536.7772212571072
 20
403614.18548120093
 30
0.0
 40
100.0
  1
\U+2205120
 41
0.8
  0
ENDBLK
  5
654C6
  8
0
  0
BLOCK
  8
0
  2
*U113
 70
     1
 10
0.0
 20
0.0
 30
0.0
  3
*U113
  1

  0
TEXT
  5
654C8
  8
S-OBRYS
  6
CONTINUOUS
 62
     7
 10
-5870.2946808005827
 20
402940.99924674729
 30
0.0
 40
100.0
  1
720
 50
90.0
 41
0.8
  0
ENDBLK
  5
654CA
  8
0
  0
BLOCK
  8
0
  2
*U114
 70
     1
 10
0.0
 20
0.0
 30
0.0
  3
*U114
  1

  0
TEXT
  5
654CC
  8
S-OBRYS
  6
CONTINUOUS
 62
     7
 10
-4455.7106716702401
 20
402055.34623791889
 30
0.0
 40
100.0
  1
2165
 41
0.8
  0
ENDBLK
  5
654CE
  8
0
  0
BLOCK
  8
0
  2
*U115
 70
     1
 10
0.0
 20
0.0
 30
0.0
  3
*U115
  1

  0
TEXT
  5
654D0
  8
S-OBRYS
  6
CONTINUOUS
 62
     7
 10
-4928.4352548007073
 20
403074.57290565519
 30
0.0
 40
100.0
  1
25°
 50
282.50000000000011
 41
0.8
  0
ENDBLK
  5
654D2
  8
0
  0
BLOCK
  8
0
  2
*U116
 70
     1
 10
0.0
 20
0.0
 30
0.0
  3
*U116
  1

  0
TEXT
  5
654D4
  8
S-OBRYS
  6
CONTINUOUS
 62
     7
 10
-2814.2865434878458
 20
404710.15229591483
 30
0.0
 40
100.0
  1
1000
 50
295.00000000000142
 41
0.8
  0
ENDBLK
  5
654D6
  8
0
  0
BLOCK
  8
0
  2
*U117
 70
     1
 10
0.0
 20
0.0
 30
0.0
  3
*U117
  1

  0
TEXT
  5
654D8
  8
S-OBRYS
  6
CONTINUOUS
 62
     7
 10
8848.3593267149936
 20
399636.5198541701
 30
0.0
 40
100.0
  1
2810
 41
0.8
  0
ENDBLK
  5
654DA
  8
0
  0
BLOCK
  8
0
  2
*U118
 70
     1
 10
0.0
 20
0.0
 30
0.0
  3
*U118
  1

  0
TEXT
  5
654DC
  8
S-OBRYS
  6
CONTINUOUS
 62
     7
 10
8832.5778298079695
 20
399454.49301877228
 30
0.0
 40
100.0
  1
1915
 41
0.8
  0
ENDBLK
  5
654DE
  8
0
  0
BLOCK
  8
0
  2
*U119
 70
     1
 10
0.0
 20
0.0
 30
0.0
  3
*U119
  1

  0
TEXT
  5
654E0
  8
S-OBRYS
  6
CONTINUOUS
 62
     7
 10
9250.1558481446227
 20
402635.36331287661
 30
0.0
 40
100.0
  1
3000
 50
24.999999998479598
 41
0.8
  0
ENDBLK
  5
654E2
  8
0
  0
BLOCK
  8
0
  2
*U120
 70
     1
 10
0.0
 20
0.0
 30
0.0
  3
*U120
  1

  0
TEXT
  5
654E4
  8
S-OBRYS
  6
CONTINUOUS
 62
     7
 10
7741.3873536174933
 20
399454.49301877228
 30
0.0
 40
100.0
  1
355
 41
0.8
  0
ENDBLK
  5
654E6
  8
0
  0
BLOCK
  8
0
  2
*U121
 70
     1
 10
0.0
 20
0.0
 30
0.0
  3
*U121
  1

  0
TEXT
  5
654E8
  8
S-OBRYS
  6
CONTINUOUS
 62
     7
 10
7209.7580524352379
 20
398917.76490730402
 30
0.0
 40
100.0
  1
440
 50
90.0
 41
0.8
  0
ENDBLK
  5
654EA
  8
0
  0
BLOCK
  8
0
  2
*U122
 70
     1
 10
0.0
 20
0.0
 30
0.0
  3
*U122
  1

  0
TEXT
  5
654EC
  8
S-OBRYS
  6
CONTINUOUS
 62
     7
 10
7527.381080618361
 20
398934.37381952681
 30
0.0
 40
100.0
  1
370
 50
90.0
 41
0.8
  0
ENDBLK
  5
654EE
  8
0
  0
BLOCK
  8
0
  2
*U123
 70
     1
 10
0.0
 20
0.0
 30
0.0
  3
*U123
  1

  0
TEXT
  5
654F0
  8
S-OBRYS
  6
CONTINUOUS
 62
     7
 10
7877.6410364715766
 20
403394.05580068158
 30
0.0
 40
100.0
  1
\U+2205120
 41
0.8
  0
ENDBLK
  5
654F2
  8
0
  0
BLOCK
  8
0
  2
*U124
 70
     1
 10
0.0
 20
0.0
 30
0.0
  3
*U124
  1

  0
TEXT
  5
654F4
  8
S-OBRYS
  6
CONTINUOUS
 62
     7
 10
7544.123576928102
 20
402720.86956622801
 30
0.0
 40
100.0
  1
720
 50
90.0
 41
0.8
  0
ENDBLK
  5
654F6
  8
0
  0
BLOCK
  8
0
  2
*U125
 70
     1
 10
0.0
 20
0.0
 30
0.0
  3
*U125
  1

  0
TEXT
  5
654F8
  8
S-OBRYS
  6
CONTINUOUS
 62
     7
 10
8485.9830029279783
 20
402854.44322513579
 30
0.0
 40
100.0
  1
25°
 50
282.50000000000011
 41
0.8
  0
ENDBLK
  5
654FA
  8
0
  0
BLOCK
  8
0
  2
*U126
 70
     1
 10
0.0
 20
0.0
 30
0.0
  3
*U126
  1

  0
TEXT
  5
654FC
  8
S-OBRYS
  6
CONTINUOUS
 62
     7
 10
10600.131714240841
 20
404490.02261539543
 30
0.0
 40
100.0
  1
1000
 50
295.00000000000142
 41
0.8
  0
ENDBLK
  5
654FE
  8
0
  0
BLOCK
  8
0
  2
*U127
 70
     1
 10
0.0
 20
0.0
 30
0.0
  3
*U127
  1

  0
TEXT
  5
65500
  8
S-OBRYS
  6
CONTINUOUS
 62
     7
 10
10077.54787544228
 20
399401.09230938798
 30
0.0
 40
100.0
  1
\U+220521
 50
48.513764669450183
 41
0.8
  0
ENDBLK
  5
65502
  8
0
  0
BLOCK
  8
0
  2
*U128
 70
     1
 10
0.0
 20
0.0
 30
0.0
  3
*U128
  1

  0
TEXT
  5
65504
  8
S-OBRYS
  6
CONTINUOUS
 62
     7
 10
8027.8873536174942
 20
398577.28040968219
 30
0.0
 40
100.0
  1
218
 41
0.8
  0
ENDBLK
  5
65506
  8
0
  0
BLOCK
  8
0
  2
*U129
 70
     1
 10
0.0
 20
0.0
 30
0.0
  3
*U129
  1

  0
TEXT
  5
65508
  8
S-OBRYS
  6
CONTINUOUS
 62
     7
 10
8340.8873536174942
 20
398577.28040968219
 30
0.0
 40
100.0
  1
408
 41
0.8
  0
ENDBLK
  5
6550A
  8
0
  0
BLOCK
  8
0
  2
*U130
 70
     1
 10
0.0
 20
0.0
 30
0.0
  3
*U130
  1

  0
TEXT
  5
6550C
  8
S-OBRYS
  6
CONTINUOUS
 62
     7
 10
8958.7075860584446
 20
401835.2165573996
 30
0.0
 40
100.0
  1
2165
 41
0.8
  0
ENDBLK
  5
6550E
  8
0
  0
BLOCK
  8
0
  2
*U131
 70
     1
 10
0.0
 20
0.0
 30
0.0
  3
*U131
  1

  0
TEXT
  5
65551
  8
OBRYS
  6
CONTINUOUS
 10
-6213.8960437978549
 20
406777.34704840078
 30
0.0
 40
400.0
  1
Mixér obilí  MO2
  7
R
  0
ENDBLK
  5
65553
  8
0
  0
BLOCK
  8
0
  2
*U132
 70
     1
 10
0.0
 20
0.0
 30
0.0
  3
*U132
  1

  0
TEXT
  5
65555
  8
S-OBRYS
  6
CONTINUOUS
 62
     7
 10
22504.756873056402
 20
400843.17696736299
 30
0.0
 40
100.0
  1
3000
 50
24.999999998455269
 41
0.8
  0
ENDBLK
  5
65557
  8
0
  0
BLOCK
  8
0
  2
*U133
 70
     1
 10
0.0
 20
0.0
 30
0.0
  3
*U133
  1

  0
TEXT
  5
65559
  8
S-OBRYS
  6
CONTINUOUS
 62
     7
 10
21132.242061383778
 20
401601.86945516733
 30
0.0
 40
100.0
  1
\U+2205120
 41
0.8
  0
ENDBLK
  5
6555B
  8
0
  0
BLOCK
  8
0
  2
*U134
 70
     1
 10
0.0
 20
0.0
 30
0.0
  3
*U134
  1

  0
TEXT
  5
6555D
  8
S-OBRYS
  6
CONTINUOUS
 62
     7
 10
21740.584027840141
 20
401062.25687962159
 30
0.0
 40
100.0
  1
25°
 50
282.50000000000011
 41
0.8
  0
ENDBLK
  5
6555F
  8
0
  0
BLOCK
  8
0
  2
*U135
 70
     1
 10
0.0
 20
0.0
 30
0.0
  3
*U135
  1

  0
TEXT
  5
65561
  8
S-OBRYS
  6
CONTINUOUS
 62
     7
 10
23854.7327391531
 20
402697.83626988123
 30
0.0
 40
100.0
  1
1000
 50
295.00000000000148
 41
0.8
  0
ENDBLK
  5
65563
  8
0
  0
BLOCK
  8
0
  2
*U136
 70
     1
 10
0.0
 20
0.0
 30
0.0
  3
*U136
  1

  0
TEXT
  5
65565
  8
S-OBRYS
  6
CONTINUOUS
 62
     7
 10
22213.308610970649
 20
400043.03021188529
 30
0.0
 40
100.0
  1
2165
 41
0.8
  0
ENDBLK
  5
65567
  8
0
  0
BLOCK
  8
0
  2
*U137
 70
     1
 10
0.0
 20
0.0
 30
0.0
  3
*U137
  1

  0
TEXT
  5
65569
  8
S-OBRYS
  6
CONTINUOUS
 62
     7
 10
20270.96268496574
 20
401442.94719189813
 30
0.0
 40
100.0
  1
MIN.200
 41
0.8
  0
ENDBLK
  5
6556B
  8
0
  0
BLOCK
  8
0
  2
*U138
 70
     1
 10
0.0
 20
0.0
 30
0.0
  3
*U138
  1

  0
TEXT
  5
6556D
  8
S-OBRYS
  6
CONTINUOUS
 62
     7
 10
24551.083472561691
 20
402205.25257108372
 30
0.0
 40
100.0
  1
MIN.400
 41
0.8
  0
ENDBLK
  5
6556F
  8
0
  0
BLOCK
  8
0
  2
*U139
 70
     1
 10
0.0
 20
0.0
 30
0.0
  3
*U139
  1

  0
TEXT
  5
65571
  8
S-OBRYS
  6
CONTINUOUS
 62
     7
 10
22694.958354811981
 20
400649.36850967252
 30
0.0
 40
100.0
  1
3000
 50
24.999999998268521
 41
0.8
  0
ENDBLK
  5
65573
  8
0
  0
BLOCK
  8
0
  2
*U140
 70
     1
 10
0.0
 20
0.0
 30
0.0
  3
*U140
  1

  0
TEXT
  5
65575
  8
S-OBRYS
  6
CONTINUOUS
 62
     7
 10
21322.44354314333
 20
401408.06099747273
 30
0.0
 40
100.0
  1
\U+2205120
 41
0.8
  0
ENDBLK
  5
65577
  8
0
  0
BLOCK
  8
0
  2
*U141
 70
     1
 10
0.0
 20
0.0
 30
0.0
  3
*U141
  1

  0
TEXT
  5
65579
  8
S-OBRYS
  6
CONTINUOUS
 62
     7
 10
21095.1144606669
 20
400734.87476301909
 30
0.0
 40
100.0
  1
720
 50
90.0
 41
0.8
  0
ENDBLK
  5
6557B
  8
0
  0
BLOCK
  8
0
  2
*U142
 70
     1
 10
0.0
 20
0.0
 30
0.0
  3
*U142
  1

  0
TEXT
  5
6557D
  8
S-OBRYS
  6
CONTINUOUS
 62
     7
 10
21930.785509599689
 20
400868.44842192688
 30
0.0
 40
100.0
  1
25°
 50
282.50000000000011
 41
0.8
  0
ENDBLK
  5
6557F
  8
0
  0
BLOCK
  8
0
  2
*U143
 70
     1
 10
0.0
 20
0.0
 30
0.0
  3
*U143
  1

  0
TEXT
  5
65581
  8
S-OBRYS
  6
CONTINUOUS
 62
     7
 10
24063.448925712841
 20
402464.32289961173
 30
0.0
 40
100.0
  1
900
 50
295.00000000000148
 41
0.8
  0
ENDBLK
  5
65583
  8
0
  0
BLOCK
  8
0
  2
*U144
 70
     1
 10
0.0
 20
0.0
 30
0.0
  3
*U144
  1

  0
TEXT
  5
65585
  8
S-OBRYS
  6
CONTINUOUS
 62
     7
 10
21098.955612661081
 20
404752.82897467841
 30
0.0
 40
100.0
  1
3000
 50
24.999999998273012
 41
0.8
  0
ENDBLK
  5
65587
  8
0
  0
BLOCK
  8
0
  2
*U145
 70
     1
 10
0.0
 20
0.0
 30
0.0
  3
*U145
  1

  0
TEXT
  5
65589
  8
S-OBRYS
  6
CONTINUOUS
 62
     7
 10
19726.440800992299
 20
405511.52146247867
 30
0.0
 40
100.0
  1
\U+2205120
 41
0.8
  0
ENDBLK
  5
6558B
  8
0
  0
BLOCK
  8
0
  2
*U146
 70
     1
 10
0.0
 20
0.0
 30
0.0
  3
*U146
  1

  0
TEXT
  5
6558D
  8
S-OBRYS
  6
CONTINUOUS
 62
     7
 10
19499.111718515858
 20
404838.33522802527
 30
0.0
 40
100.0
  1
720
 50
90.0
 41
0.8
  0
ENDBLK
  5
6558F
  8
0
  0
BLOCK
  8
0
  2
*U147
 70
     1
 10
0.0
 20
0.0
 30
0.0
  3
*U147
  1

  0
TEXT
  5
65591
  8
S-OBRYS
  6
CONTINUOUS
 62
     7
 10
20334.782767448662
 20
404971.90888693312
 30
0.0
 40
100.0
  1
25°
 50
282.50000000000011
 41
0.8
  0
ENDBLK
  5
65593
  8
0
  0
BLOCK
  8
0
  2
*U148
 70
     1
 10
0.0
 20
0.0
 30
0.0
  3
*U148
  1

  0
TEXT
  5
65595
  8
S-OBRYS
  6
CONTINUOUS
 62
     7
 10
22467.446183561839
 20
406567.78336461762
 30
0.0
 40
100.0
  1
900
 50
295.00000000000148
 41
0.8
  0
ENDBLK
  5
65597
  8
0
  0
BLOCK
  8
0
  2
*U149
 70
     1
 10
0.0
 20
0.0
 30
0.0
  3
*U149
  1

  0
TEXT
  5
65599
  8
S-OBRYS
  6
CONTINUOUS
 62
     7
 10
20080.761203206199
 20
401636.75564959279
 30
0.0
 40
100.0
  1
MIN.200
 41
0.8
  0
ENDBLK
  5
6559B
  8
0
  0
BLOCK
  8
0
  2
*U150
 70
     1
 10
0.0
 20
0.0
 30
0.0
  3
*U150
  1

  0
TEXT
  5
6559D
  8
S-OBRYS
  6
CONTINUOUS
 62
     7
 10
20904.540376930501
 20
400928.68322071381
 30
0.0
 40
100.0
  1
720
 50
90.0
 41
0.8
  0
ENDBLK
  5
6559F
  8
0
  0
BLOCK
  8
0
  2
*U151
 70
     1
 10
0.0
 20
0.0
 30
0.0
  3
*U151
  1

  0
TEXT
  5
655A1
  8
S-OBRYS
  6
CONTINUOUS
 62
     7
 10
24360.881990802201
 20
402399.06102877832
 30
0.0
 40
100.0
  1
MIN.400
 41
0.8
  0
ENDBLK
  5
655A3
  8
0
  0
BLOCK
  8
0
  2
*U152
 70
     1
 10
0.0
 20
0.0
 30
0.0
  3
*U152
  1

  0
TEXT
  5
655A5
  8
S-OBRYS
  6
CONTINUOUS
 62
     7
 10
-3782.6305260619911
 20
403737.9379477633
 30
0.0
 40
100.0
  1
3000
 50
24.999999998455269
 41
0.8
  0
ENDBLK
  5
655A7
  8
0
  0
BLOCK
  8
0
  2
*U153
 70
     1
 10
0.0
 20
0.0
 30
0.0
  3
*U153
  1

  0
TEXT
  5
655A9
  8
S-OBRYS
  6
CONTINUOUS
 62
     7
 10
-5155.1453377346106
 20
404496.63043556781
 30
0.0
 40
100.0
  1
\U+2205120
 41
0.8
  0
ENDBLK
  5
655AB
  8
0
  0
BLOCK
  8
0
  2
*U154
 70
     1
 10
0.0
 20
0.0
 30
0.0
  3
*U154
  1

  0
TEXT
  5
655AD
  8
S-OBRYS
  6
CONTINUOUS
 62
     7
 10
-5488.662797278088
 20
403823.44420111418
 30
0.0
 40
100.0
  1
720
 50
90.0
 41
0.8
  0
ENDBLK
  5
655AF
  8
0
  0
BLOCK
  8
0
  2
*U155
 70
     1
 10
0.0
 20
0.0
 30
0.0
  3
*U155
  1

  0
TEXT
  5
655B1
  8
S-OBRYS
  6
CONTINUOUS
 62
     7
 10
-2432.654659965322
 20
405592.59725028143
 30
0.0
 40
100.0
  1
1000
 50
295.00000000000142
 41
0.8
  0
ENDBLK
  5
655B3
  8
0
  0
BLOCK
  8
0
  2
*U156
 70
     1
 10
0.0
 20
0.0
 30
0.0
  3
*U156
  1

  0
TEXT
  5
655B5
  8
S-OBRYS
  6
CONTINUOUS
 62
     7
 10
-4074.078788147744
 20
402937.79119228572
 30
0.0
 40
100.0
  1
2165
 41
0.8
  0
ENDBLK
  5
655B7
  8
0
  0
BLOCK
  8
0
  2
*U157
 70
     1
 10
0.0
 20
0.0
 30
0.0
  3
*U157
  1

  0
TEXT
  5
655FA
  8
S-OBRYS
  6
CONTINUOUS
 62
     7
 10
-6478.518733847839
 20
397748.7306717952
 30
0.0
 40
100.0
  1
MIN.200
 41
0.8
  0
ENDBLK
  5
655FC
  8
0
  0
BLOCK
  8
0
  2
*U158
 70
     1
 10
0.0
 20
0.0
 30
0.0
  3
*U158
  1

  0
TEXT
  5
655FE
  8
S-OBRYS
  6
CONTINUOUS
 62
     7
 10
-2198.3979462518309
 20
398511.03605098079
 30
0.0
 40
100.0
  1
MIN.400
 41
0.8
  0
ENDBLK
  5
65600
  8
0
  0
BLOCK
  8
0
  2
*U159
 70
     1
 10
0.0
 20
0.0
 30
0.0
  3
*U159
  1

  0
TEXT
  5
65602
  8
S-OBRYS
  6
CONTINUOUS
 62
     7
 10
-4054.52306399801
 20
396955.15198956587
 30
0.0
 40
100.0
  1
3000
 50
24.999999998438291
 41
0.8
  0
ENDBLK
  5
65604
  8
0
  0
BLOCK
  8
0
  2
*U160
 70
     1
 10
0.0
 20
0.0
 30
0.0
  3
*U160
  1

  0
TEXT
  5
65606
  8
S-OBRYS
  6
CONTINUOUS
 62
     7
 10
-5427.0378756702476
 20
397713.84447736992
 30
0.0
 40
100.0
  1
\U+2205120
 41
0.8
  0
ENDBLK
  5
65608
  8
0
  0
BLOCK
  8
0
  2
*U161
 70
     1
 10
0.0
 20
0.0
 30
0.0
  3
*U161
  1

  0
TEXT
  5
6560A
  8
S-OBRYS
  6
CONTINUOUS
 62
     7
 10
-5654.739560123533
 20
397040.65824291628
 30
0.0
 40
100.0
  1
720
 50
90.0
 41
0.8
  0
ENDBLK
  5
6560C
  8
0
  0
BLOCK
  8
0
  2
*U162
 70
     1
 10
0.0
 20
0.0
 30
0.0
  3
*U162
  1

  0
TEXT
  5
6560E
  8
S-OBRYS
  6
CONTINUOUS
 62
     7
 10
-2704.5471979009881
 20
398809.81129208358
 30
0.0
 40
100.0
  1
1000
 50
295.00000000000148
 41
0.8
  0
ENDBLK
  5
65610
  8
0
  0
BLOCK
  8
0
  2
*U163
 70
     1
 10
0.0
 20
0.0
 30
0.0
  3
*U163
  1

  0
TEXT
  5
65612
  8
S-OBRYS
  6
CONTINUOUS
 62
     7
 10
-4345.9713260833823
 20
396155.00523408788
 30
0.0
 40
100.0
  1
2165
 41
0.8
  0
ENDBLK
  5
65614
  8
0
  0
BLOCK
  8
0
  2
*U164
 70
     1
 10
0.0
 20
0.0
 30
0.0
  3
*U164
  1

  0
TEXT
  5
65616
  8
S-OBRYS
  6
CONTINUOUS
 62
     7
 10
-4184.4270474911964
 20
401290.38180649921
 30
0.0
 40
100.0
  1
2810
 41
0.8
  0
ENDBLK
  5
65618
  8
0
  0
BLOCK
  8
0
  2
*U165
 70
     1
 10
0.0
 20
0.0
 30
0.0
  3
*U165
  1

  0
TEXT
  5
6561A
  8
S-OBRYS
  6
CONTINUOUS
 62
     7
 10
-4200.2085443982187
 20
401108.35497110139
 30
0.0
 40
100.0
  1
1915
 41
0.8
  0
ENDBLK
  5
6561C
  8
0
  0
BLOCK
  8
0
  2
*U166
 70
     1
 10
0.0
 20
0.0
 30
0.0
  3
*U166
  1

  0
TEXT
  5
6561E
  8
S-OBRYS
  6
CONTINUOUS
 62
     7
 10
-5291.3990205886957
 20
401108.35497110139
 30
0.0
 40
100.0
  1
355
 41
0.8
  0
ENDBLK
  5
65620
  8
0
  0
BLOCK
  8
0
  2
*U167
 70
     1
 10
0.0
 20
0.0
 30
0.0
  3
*U167
  1

  0
TEXT
  5
65622
  8
S-OBRYS
  6
CONTINUOUS
 62
     7
 10
-5823.0283217709512
 20
400571.62685963308
 30
0.0
 40
100.0
  1
440
 50
90.0
 41
0.8
  0
ENDBLK
  5
65624
  8
0
  0
BLOCK
  8
0
  2
*U168
 70
     1
 10
0.0
 20
0.0
 30
0.0
  3
*U168
  1

  0
TEXT
  5
65626
  8
S-OBRYS
  6
CONTINUOUS
 62
     7
 10
-5505.4052935878281
 20
400588.23577185598
 30
0.0
 40
100.0
  1
370
 50
90.0
 41
0.8
  0
ENDBLK
  5
65628
  8
0
  0
BLOCK
  8
0
  2
*U169
 70
     1
 10
0.0
 20
0.0
 30
0.0
  3
*U169
  1

  0
TEXT
  5
6562A
  8
S-OBRYS
  6
CONTINUOUS
 62
     7
 10
-2955.2384987628502
 20
401054.9542617164
 30
0.0
 40
100.0
  1
\U+220521
 50
48.513764669118821
 41
0.8
  0
ENDBLK
  5
6562C
  8
0
  0
BLOCK
  8
0
  2
*U170
 70
     1
 10
0.0
 20
0.0
 30
0.0
  3
*U170
  1

  0
TEXT
  5
6562E
  8
S-OBRYS
  6
CONTINUOUS
 62
     7
 10
-5004.8990205886957
 20
400231.14236201131
 30
0.0
 40
100.0
  1
218
 41
0.8
  0
ENDBLK
  5
65630
  8
0
  0
BLOCK
  8
0
  2
*U171
 70
     1
 10
0.0
 20
0.0
 30
0.0
  3
*U171
  1

  0
TEXT
  5
65632
  8
S-OBRYS
  6
CONTINUOUS
 62
     7
 10
-4691.8990205886948
 20
400231.14236201131
 30
0.0
 40
100.0
  1
408
 41
0.8
  0
ENDBLK
  5
65634
  8
0
  0
ENDSEC
  0
SECTION
  2
ENTITIES
  0
TEXT
  5
2F7A5
  8
KOTY
 10
-393803.77638965531
 20
-299016.15321175661
 30
0.0
 40
150.0
  1

 41
0.7
  7
ROMANT
  0
TEXT
  5
3AD8B
  8
KOTY
 10
-14797.18019204357
 20
454294.55370899959
 30
0.0
 40
150.0
  1

 41
0.7
  7
ROMANT
  0
TEXT
  5
404AD
  8
KOTY
 10
44010.2314385153
 20
465617.23741859582
 30
0.0
 40
92.0
  1

 41
0.7
  7
CYRILLIC
  0
TEXT
  5
404B4
  8
KOTY
 10
39575.071591094718
 20
465613.29777162091
 30
0.0
 40
92.0
  1

 41
0.7
  7
CYRILLIC
  0
TEXT
  5
40B14
  8
KOTY
 10
5856.0590664841584
 20
486921.1132385282
 30
0.0
 40
150.0
  1

 41
0.7
  7
ROMANT
  0
TEXT
  5
40BFC
  8
KOTY
 10
8767.7265956277752
 20
466337.2608060218
 30
0.0
 40
150.0
  1

 41
0.7
  7
ROMANS
  0
TEXT
  5
51A7C
  8
KOTY
 10
-47677.341387967608
 20
395133.71812193602
 30
0.0
 40
150.0
  1

 41
0.7
  7
ROMANS
  0
TEXT
  5
51A94
  8
KOTY
 10
-45176.819295693742
 20
395133.7181219359
 30
0.0
 40
150.0
  1

 41
0.7
  7
ROMANS
  0
TEXT
  5
51A9B
  8
KOTY
 10
-48084.423320344351
 20
397411.27855615731
 30
0.0
 40
150.0
  1

 41
0.7
  7
ROMANT
  0
TEXT
  5
51B05
  8
RAZ
 62
     6
 10
-47365.887544580757
 20
392999.37567832542
 30
0.0
 40
193.54103193599991
  1

 41
0.8
  7
R08
  0
TEXT
  5
51B06
  8
RAZ
 62
     1
 10
-47245.037660778231
 20
393401.77274166199
 30
0.0
 40
125.41458869452801
  1

  7
ROMANS
  0
TEXT
  5
58307
  8
KOTY
 10
22966.528519463162
 20
383405.87475258159
 30
0.0
 40
150.0
  1

 41
0.7
  7
ROMANS
  0
TEXT
  5
58308
  8
KOTY
 10
22966.528519463169
 20
383855.87475258159
 30
0.0
 40
150.0
  1

 41
0.7
  7
ROMANS
  0
TEXT
  5
58315
  8
KOTY
 10
25467.050611737021
 20
383855.87475258141
 30
0.0
 40
150.0
  1

 41
0.7
  7
ROMANS
  0
TEXT
  5
58316
  8
KOTY
 10
25467.050611737021
 20
383405.87475258141
 30
0.0
 40
150.0
  1

 41
0.7
  7
ROMANS
  0
TEXT
  5
5833F
  8
KOTY
 10
22966.528519463162
 20
385205.87475258153
 30
0.0
 40
150.0
  1

 41
0.7
  7
ROMANS
  0
TEXT
  5
58340
  8
KOTY
 10
22966.528519463169
 20
385655.87475258159
 30
0.0
 40
150.0
  1

 41
0.7
  7
ROMANS
  0
TEXT
  5
58354
  8
KOTY
 10
25467.050611737021
 20
385655.87475258141
 30
0.0
 40
150.0
  1

 41
0.7
  7
ROMANS
  0
TEXT
  5
58355
  8
KOTY
 10
25467.050611737021
 20
385205.87475258141
 30
0.0
 40
150.0
  1

 41
0.7
  7
ROMANS
  0
TEXT
  5
58397
  8
KOTY
 10
25467.050611737039
 20
390605.87475258129
 30
0.0
 40
150.0
  1

 41
0.7
  7
ROMANS
  0
TEXT
  5
58398
  8
KOTY
 10
25467.050611737039
 20
391055.87475258141
 30
0.0
 40
150.0
  1

 41
0.7
  7
ROMANS
  0
TEXT
  5
583C1
  8
KOTY
 10
25467.050611737031
 20
389255.87475258141
 30
0.0
 40
150.0
  1

 41
0.7
  7
ROMANS
  0
TEXT
  5
58C84
  8
KOTY
 10
22966.52851946322
 20
387905.87475258153
 30
0.0
 40
150.0
  1

 41
0.7
  7
ROMANS
  0
INSERT
  5
5A11D
  8
SILNA
  6
CONTINUOUS
  2
A$C5B1234F8
 10
21045.108802659091
 20
799530.18634617259
 30
0.0
 50
134.99999999999989
  0
LINE
  5
630FB
  8
S-OBRYS
  6
CONTINUOUS
 10
-9317.3245871225408
 20
393402.81400089961
 30
0.0
 11
1182.675412877463
 21
393402.81400089961
 31
0.0
  0
LINE
  5
630FC
  8
S-OBRYS
  6
CONTINUOUS
 10
1182.675412877463
 20
393402.81400089961
 30
0.0
 11
1182.675412877463
 21
408252.81400089961
 31
0.0
  0
LINE
  5
630FD
  8
S-OBRYS
  6
CONTINUOUS
 10
1182.675412877463
 20
408252.81400089961
 30
0.0
 11
-9317.3245871225372
 21
408252.81400089961
 31
0.0
  0
LINE
  5
630FE
  8
S-OBRYS
  6
CONTINUOUS
 10
-9317.3245871225372
 20
408252.81400089961
 30
0.0
 11
-9317.3245871225408
 21
393402.81400089961
 31
0.0
  0
LINE
  5
64351
  8
S-OBRYS
  6
CONTINUOUS
 10
-2544.6133063029811
 20
400905.91257391882
 30
0.0
 11
-5354.6133063029811
 21
400905.91257391882
 31
0.0
  0
LINE
  5
64352
  8
S-OBRYS
  6
CONTINUOUS
 10
-5354.6133063029811
 20
400465.91257391882
 30
0.0
 11
-2544.6133063029779
 21
400465.91257391882
 31
0.0
  0
DIMENSION
  5
64353
  8
S-OBRYS
  6
CONTINUOUS
  2
*D64
 10
-2544.6133063029811
 20
401265.38180649921
 30
0.0
 11
-4032.0460951102432
 21
401265.38180649921
 31
0.0
 70
   128
 13
-5354.6133063029793
 23
400905.91257391882
 33
0.0
 14
-2544.6133063029811
 24
400905.91257391882
 34
0.0
  0
DIMENSION
  5
64354
  8
S-OBRYS
  6
CONTINUOUS
  2
*D65
 10
-4999.6133063029811
 20
401083.35497110151
 30
0.0
 11
-4042.1133063029811
 21
401158.35497110151
 31
0.0
 70
     0
 13
-3084.6133063029811
 23
400905.91257391882
 33
0.0
 14
-4999.6133063029811
 24
401083.35497110151
 34
0.0
  0
DIMENSION
  5
64355
  8
S-OBRYS
  6
CONTINUOUS
  2
*D66
 10
-2274.4993452047638
 20
404413.6066188761
 30
0.0
 11
-3665.65739540715
 21
403847.65231032961
 31
0.0
 70
     0
 13
-5265.4599613240607
 23
403729.13760969078
 33
0.0
 14
-2491.9815987924412
 24
404879.99881681561
 34
0.0
 50
24.99999999845528
  0
LINE
  5
64356
  8
S-OBRYS
  6
CONTINUOUS
 10
-5354.6133063029811
 20
400685.91257391887
 30
0.0
 11
-2488.9871255289149
 21
400685.91257391887
 31
0.0
  0
LINE
  5
64357
  8
S-OBRYS
  6
CONTINUOUS
 10
-5162.1760244873258
 20
404146.51891981799
 30
0.0
 11
-2876.7233155300491
 21
405212.24302035588
 31
0.0
  0
LINE
  5
64358
  8
S-OBRYS
  6
CONTINUOUS
 10
-5189.8959542651792
 20
404160.02017253498
 30
0.0
 11
-2886.84554652714
 21
405233.95021478011
 31
0.0
  0
LINE
  5
64359
  8
S-OBRYS
  6
CONTINUOUS
 10
-5304.6691472584243
 20
403825.13918435579
 30
0.0
 11
-2751.1224279835701
 21
405015.87757501018
 31
0.0
  0
LINE
  5
6435A
  8
S-OBRYS
  6
CONTINUOUS
 10
-4971.5545811575867
 20
403737.72991539992
 30
0.0
 11
-3148.8241868372352
 21
404587.68305702339
 31
0.0
  0
DIMENSION
  5
6435B
  8
S-OBRYS
  6
CONTINUOUS
  2
*D67
 10
-4999.6133063029811
 20
401083.35497110151
 30
0.0
 11
-5177.1133063029811
 21
401158.35497110151
 31
0.0
 70
     0
  1
355
 13
-5354.6133063029811
 23
400935.91257391882
 33
0.0
 14
-4999.6133063029811
 24
400905.91257391882
 34
0.0
  0
LINE
  5
6435C
  8
S-OBRYS
  6
CONTINUOUS
 10
-5037.1133063029802
 20
400465.91257391882
 30
0.0
 11
-4962.1133063029811
 21
400465.91257391882
 31
0.0
  0
DIMENSION
  5
6435D
  8
S-OBRYS
  6
CONTINUOUS
  2
*D68
 10
-5798.0283217708857
 20
400465.91257391882
 30
0.0
 11
-5798.0283217709512
 21
400685.91257391887
 31
0.0
 70
   128
 13
-5354.6133063029811
 23
400905.91257391882
 33
0.0
 14
-5354.6133063029811
 24
400465.91257391882
 34
0.0
 50
90.0
  0
LINE
  5
6435E
  8
S-OBRYS
  6
CONTINUOUS
 10
-5354.6133063029811
 20
400905.91257391882
 30
0.0
 11
-5354.6133063029811
 21
400465.91257391882
 31
0.0
  0
LINE
  5
6435F
  8
S-OBRYS
  6
CONTINUOUS
 10
-5354.6133063029811
 20
400905.91257391882
 30
0.0
 11
-5354.6133063029811
 21
400465.91257391882
 31
0.0
  0
DIMENSION
  5
64360
  8
S-OBRYS
  6
CONTINUOUS
  2
*D69
 10
-5480.4052935877644
 20
400870.91257391882
 30
0.0
 11
-5480.4052935878281
 21
400702.52148614172
 31
0.0
 70
   128
 13
-5019.6133063029811
 23
400500.91257391882
 33
0.0
 14
-5019.6133063029811
 24
400870.91257391882
 34
0.0
 50
90.0
  0
CIRCLE
  5
64361
  8
S-OBRYS
  6
CONTINUOUS
 10
-4999.6133063029811
 20
400500.91257391882
 30
0.0
 40
10.0
  0
CIRCLE
  5
64362
  8
S-OBRYS
  6
CONTINUOUS
 10
-4999.6133063029811
 20
400870.91257391882
 30
0.0
 40
10.0
  0
DIMENSION
  5
64363
  8
S-OBRYS
  6
CONTINUOUS
  2
*D70
 10
-5064.6691472584198
 20
404471.63043556758
 30
0.0
 11
-5004.6691472584207
 21
404471.63043556758
 31
0.0
 70
   128
  1
%%c<>
 13
-4944.6691472584198
 23
404297.7299153998
 33
0.0
 14
-5064.6691472584198
 24
404297.7299153998
 34
0.0
  0
LINE
  5
64364
  8
S-OBRYS
  6
CONTINUOUS
 10
-5072.1691472584207
 20
404297.7299153998
 30
0.0
 11
-4937.1691472584207
 21
404297.7299153998
 31
0.0
  0
LINE
  5
64365
  8
S-OBRYS
  6
CONTINUOUS
 10
-5047.224988213864
 20
403577.72991539992
 30
0.0
 11
-4962.1133063029811
 21
403577.72991539992
 31
0.0
  0
LINE
  5
64366
  8
S-OBRYS
  6
CONTINUOUS
 10
-5172.2982554844166
 20
404168.22611424228
 30
0.0
 11
-4962.1133063029811
 21
403717.48303613567
 31
0.0
  0
LINE
  5
64367
  8
S-OBRYS
  6
CONTINUOUS
 10
-5047.224988213864
 20
403577.72991539992
 30
0.0
 11
-5144.1956178396786
 21
403785.68410171871
 31
0.0
  0
LINE
  5
64368
  8
S-OBRYS
  6
CONTINUOUS
 10
-5265.4599613240607
 20
403729.13760969078
 30
0.0
 11
-5020.7568588241656
 21
403843.24454036058
 31
0.0
  0
LINE
  5
64369
  8
S-OBRYS
  6
CONTINUOUS
 10
-5267.0671189681379
 20
403732.58417038078
 30
0.0
 11
-5022.3640164682438
 21
403846.69110105082
 31
0.0
  0
LINE
  5
6436A
  8
S-OBRYS
  6
CONTINUOUS
 10
-5270.9568993403846
 20
403757.86637797783
 30
0.0
 11
-5279.206428584399
 21
403775.55755053263
 31
0.0
  0
LINE
  5
6436B
  8
S-OBRYS
  6
CONTINUOUS
 10
-5277.4455051601908
 20
403754.84069139342
 30
0.0
 11
-5177.5035986474441
 21
403801.44436777092
 31
0.0
  0
LINE
  5
6436C
  8
S-OBRYS
  6
CONTINUOUS
 10
-5286.2789676497741
 20
403773.78411283431
 30
0.0
 11
-5265.4599613240607
 21
403729.13760969078
 31
0.0
  0
DIMENSION
  5
6436D
  8
S-OBRYS
  6
CONTINUOUS
  2
*D71
 10
-5463.6627972780216
 20
404297.7299153998
 30
0.0
 11
-5538.662797278088
 21
403937.72991539998
 31
0.0
 70
     0
 13
-5037.1133063029802
 23
403577.72991539992
 33
0.0
 14
-5072.1691472584207
 24
404297.7299153998
 34
0.0
 50
90.0
  0
LINE
  5
6436E
  8
S-OBRYS
  6
CONTINUOUS
 10
-5267.0671189681379
 20
403732.58417038078
 30
0.0
 11
-5277.4455051601908
 21
403754.84069139342
 31
0.0
  0
LINE
  5
6436F
  8
S-OBRYS
  6
CONTINUOUS
 10
-5004.6691472584207
 20
404263.52154988749
 30
0.0
 11
-5004.6691472584207
 21
404377.51716539991
 31
0.0
  0
LINE
  5
64370
  8
S-OBRYS
  6
CONTINUOUS
 10
-5171.7925185404556
 20
403923.21050154732
 30
0.0
 11
-5214.2294515965978
 21
403903.42183467461
 31
0.0
  0
LINE
  5
64371
  8
S-OBRYS
  6
CONTINUOUS
 10
-5279.206428584399
 20
403775.55755053263
 30
0.0
 11
-5196.5821475860866
 21
403814.08588551171
 31
0.0
  0
LINE
  5
64372
  8
S-OBRYS
  6
CONTINUOUS
 10
-5276.2609381112343
 20
403780.40925665729
 30
0.0
 11
-5184.3938791938299
 21
403823.24756976258
 31
0.0
  0
LINE
  5
64373
  8
S-OBRYS
  6
CONTINUOUS
 10
-5195.5121112037741
 20
403847.09069525183
 30
0.0
 11
-5228.8067560424161
 21
403918.49129152409
 31
0.0
  0
LINE
  5
64374
  8
S-OBRYS
  6
CONTINUOUS
 10
-5190.0273925571819
 20
403851.520351574
 30
0.0
 11
-5200.3985468952269
 21
403873.76136382559
 31
0.0
  0
LINE
  5
64375
  8
S-OBRYS
  6
CONTINUOUS
 10
-5069.8685698572326
 20
403948.56494454917
 30
0.0
 11
-5286.2789676497741
 21
403773.78411283431
 31
0.0
  0
LINE
  5
64376
  8
S-OBRYS
  6
CONTINUOUS
 10
-5228.8067560424161
 20
403918.49129152409
 30
0.0
 11
-5320.6738149598214
 21
403875.65297841892
 31
0.0
  0
LINE
  5
64377
  8
S-OBRYS
  6
CONTINUOUS
 10
-5320.6738149598214
 20
403875.65297841892
 30
0.0
 11
-5276.2609381112343
 21
403780.40925665729
 31
0.0
  0
LINE
  5
64378
  8
S-OBRYS
  6
CONTINUOUS
 10
-5219.056565659499
 20
403913.7736141886
 30
0.0
 11
-5200.3985468952269
 21
403873.76136382559
 31
0.0
  0
LINE
  5
64379
  8
S-OBRYS
  6
CONTINUOUS
 10
-5269.498606271206
 20
403852.5929436583
 30
0.0
 11
-5244.0365346241961
 21
403864.46610265988
 31
0.0
  0
LINE
  5
6437A
  8
S-OBRYS
  6
CONTINUOUS
 10
-5247.3938478035561
 20
403805.18913614831
 30
0.0
 11
-5269.498606271206
 21
403852.5929436583
 31
0.0
  0
LINE
  5
6437B
  8
S-OBRYS
  6
CONTINUOUS
 10
-5244.0365346241961
 20
403864.46610265988
 30
0.0
 11
-5258.8647294103212
 21
403882.52654937241
 31
0.0
  0
LINE
  5
6437C
  8
S-OBRYS
  6
CONTINUOUS
 10
-5274.7402855011196
 20
403897.0721349715
 30
0.0
 11
-5224.1451964917396
 21
403788.57061644708
 31
0.0
  0
LINE
  5
6437D
  8
S-OBRYS
  6
CONTINUOUS
 10
-5263.0071501908651
 20
403880.59490683908
 30
0.0
 11
-5264.2768641114599
 21
403883.3178171289
 31
0.0
  0
LINE
  5
6437E
  8
S-OBRYS
  6
CONTINUOUS
 10
-5269.6599104524939
 20
403877.49267378118
 30
0.0
 11
-5270.929624373086
 21
403880.215584071
 31
0.0
  0
LINE
  5
6437F
  8
S-OBRYS
  6
CONTINUOUS
 10
-5270.929624373086
 20
403880.215584071
 30
0.0
 11
-5264.2768641114599
 21
403883.3178171289
 31
0.0
  0
LINE
  5
64380
  8
S-OBRYS
  6
CONTINUOUS
 10
-5273.802331233037
 20
403875.5610312479
 30
0.0
 11
-5258.8647294103212
 21
403882.52654937241
 31
0.0
  0
LINE
  5
64381
  8
S-OBRYS
  6
CONTINUOUS
 10
-5286.3371769328069
 20
403802.01782054279
 30
0.0
 11
-5292.5389476557029
 21
403799.1258873606
 31
0.0
  0
LINE
  5
64382
  8
S-OBRYS
  6
CONTINUOUS
 10
-5316.7993468611448
 20
403851.15248135099
 30
0.0
 11
-5292.5389476557029
 21
403799.1258873606
 31
0.0
  0
LINE
  5
64383
  8
S-OBRYS
  6
CONTINUOUS
 10
-5310.5975761382506
 20
403854.04441453319
 30
0.0
 11
-5316.7993468611448
 21
403851.15248135099
 31
0.0
  0
LINE
  5
64384
  8
S-OBRYS
  6
CONTINUOUS
 10
-5269.498606271206
 20
403852.5929436583
 30
0.0
 11
-5273.802331233037
 21
403875.5610312479
 31
0.0
  0
LINE
  5
64385
  8
S-OBRYS
  6
CONTINUOUS
 10
-5224.8757146149755
 20
403823.37559154752
 30
0.0
 11
-5216.2641444170949
 21
403804.90801966161
 31
0.0
  0
LINE
  5
64386
  8
S-OBRYS
  6
CONTINUOUS
 10
-5247.3938478035561
 20
403805.18913614831
 30
0.0
 11
-5241.7262160641039
 21
403793.03486066009
 31
0.0
  0
LINE
  5
64387
  8
S-OBRYS
  6
CONTINUOUS
 10
-5224.8757146149755
 20
403823.37559154752
 30
0.0
 11
-5244.0365346241961
 21
403864.46610265988
 31
0.0
  0
LINE
  5
64388
  8
S-OBRYS
  6
CONTINUOUS
 10
-5225.2583363823951
 20
403910.8816810064
 30
0.0
 11
-5219.056565659499
 21
403913.7736141886
 31
0.0
  0
LINE
  5
64389
  8
S-OBRYS
  6
CONTINUOUS
 10
-5004.6691472584207
 20
404266.47991539992
 30
0.0
 11
-5004.6691472584207
 21
403892.05429853138
 31
0.0
  0
POLYLINE
  5
6438A
  8
S-OBRYS
  6
CONTINUOUS
 66
     1
 10
0.0
 20
0.0
 30
0.0
  0
VERTEX
  5
6550F
  8
S-OBRYS
  6
CONTINUOUS
 10
-5113.3357000291317
 20
403913.45932466589
 30
0.0
  0
VERTEX
  5
65510
  8
S-OBRYS
  6
CONTINUOUS
 10
-5088.8258768367159
 20
403860.8978392093
 30
0.0
  0
VERTEX
  5
65511
  8
S-OBRYS
  6
CONTINUOUS
 10
-5075.5566091970004
 20
403867.08540032781
 30
0.0
  0
SEQEND
  5
65512
  8
S-OBRYS
  6
CONTINUOUS
  0
LINE
  5
6438B
  8
S-OBRYS
  6
CONTINUOUS
 10
-5101.6006322715511
 20
403922.93698804901
 30
0.0
 11
-5075.5566091970004
 21
403867.08540032781
 31
0.0
  0
POLYLINE
  5
6438C
  8
S-OBRYS
  6
CONTINUOUS
 66
     1
 10
0.0
 20
0.0
 30
0.0
  0
VERTEX
  5
65513
  8
S-OBRYS
  6
CONTINUOUS
 10
-5140.7619728344953
 20
403891.30887893558
 30
0.0
  0
VERTEX
  5
65514
  8
S-OBRYS
  6
CONTINUOUS
 10
-5169.5469320576376
 20
403953.0384231963
 30
0.0
  0
VERTEX
  5
65515
  8
S-OBRYS
  6
CONTINUOUS
 10
-5182.816199697354
 20
403946.85086207773
 30
0.0
  0
VERTEX
  5
65516
  8
S-OBRYS
  6
CONTINUOUS
 10
-5152.4970405920758
 20
403881.83121555252
 30
0.0
  0
SEQEND
  5
65517
  8
S-OBRYS
  6
CONTINUOUS
  0
POLYLINE
  5
6438D
  8
S-OBRYS
  6
CONTINUOUS
 66
     1
 10
0.0
 20
0.0
 30
0.0
  0
VERTEX
  5
65518
  8
S-OBRYS
  6
CONTINUOUS
 10
-5152.4970405920758
 20
403881.83121555252
 30
0.0
  0
VERTEX
  5
65519
  8
S-OBRYS
  6
CONTINUOUS
 10
-5133.1070279808227
 20
403840.24919931882
 30
0.0
  0
VERTEX
  5
6551A
  8
S-OBRYS
  6
CONTINUOUS
 10
-5119.8377603411063
 20
403846.43676043733
 30
0.0
  0
VERTEX
  5
6551B
  8
S-OBRYS
  6
CONTINUOUS
 10
-5140.7619728344953
 20
403891.30887893558
 30
0.0
  0
SEQEND
  5
6551C
  8
S-OBRYS
  6
CONTINUOUS
  0
LINE
  5
6438E
  8
S-OBRYS
  6
CONTINUOUS
 10
-5187.9422988538536
 20
403830.85718028038
 30
0.0
 11
-5181.7405281309584
 21
403833.74911346257
 31
0.0
  0
LINE
  5
6438F
  8
S-OBRYS
  6
CONTINUOUS
 10
-5196.5821475860866
 20
403814.08588551171
 30
0.0
 11
-5188.3326183420722
 21
403796.39471295691
 31
0.0
  0
LINE
  5
64390
  8
S-OBRYS
  6
CONTINUOUS
 10
-5184.3938791938299
 20
403823.24756976258
 30
0.0
 11
-5195.5121112037741
 21
403847.09069525183
 31
0.0
  0
LINE
  5
64391
  8
S-OBRYS
  6
CONTINUOUS
 10
-5177.5035986474441
 20
403801.44436777092
 30
0.0
 11
-5167.1252124553903
 21
403779.18784675829
 31
0.0
  0
LINE
  5
64392
  8
S-OBRYS
  6
CONTINUOUS
 10
-5181.7405281309584
 20
403833.74911346257
 30
0.0
 11
-5190.0273925571819
 21
403851.520351574
 31
0.0
  0
LINE
  5
64393
  8
S-OBRYS
  6
CONTINUOUS
 10
-5144.1307091377166
 20
403863.88955984928
 30
0.0
 11
-5186.5676421938588
 21
403844.10089297662
 31
0.0
  0
LINE
  5
64394
  8
S-OBRYS
  6
CONTINUOUS
 10
-5095.7448318845454
 20
403875.73558619199
 30
0.0
 11
-5126.7567153889349
 21
403861.27450742008
 31
0.0
  0
LINE
  5
64395
  8
S-OBRYS
  6
CONTINUOUS
 10
-5131.6160935054168
 20
403952.6617549854
 30
0.0
 11
-5162.6279770098081
 21
403938.20067621348
 31
0.0
  0
LINE
  5
64396
  8
S-OBRYS
  6
CONTINUOUS
 10
-5125.2657809135299
 20
403973.68706308672
 30
0.0
 11
-5101.6006322715511
 21
403922.93698804901
 31
0.0
  0
POLYLINE
  5
64397
  8
S-OBRYS
  6
CONTINUOUS
 66
     1
 10
0.0
 20
0.0
 30
0.0
  0
VERTEX
  5
6551D
  8
S-OBRYS
  6
CONTINUOUS
 10
-5125.2657809135299
 20
403973.68706308672
 30
0.0
  0
VERTEX
  5
6551E
  8
S-OBRYS
  6
CONTINUOUS
 10
-5138.5350485532472
 20
403967.49950196821
 30
0.0
  0
VERTEX
  5
6551F
  8
S-OBRYS
  6
CONTINUOUS
 10
-5113.3357000291317
 20
403913.45932466589
 30
0.0
  0
SEQEND
  5
65520
  8
S-OBRYS
  6
CONTINUOUS
  0
LINE
  5
64398
  8
S-OBRYS
  6
CONTINUOUS
 10
-5087.2906613070327
 20
403985.92674023297
 30
0.0
 11
-5123.1712576217578
 21
403969.19534339232
 31
0.0
  0
LINE
  5
64399
  8
S-OBRYS
  6
CONTINUOUS
 10
-5041.7705361740454
 20
403888.30851686292
 30
0.0
 11
-5077.6511324887733
 21
403871.57712002209
 31
0.0
  0
LINE
  5
6439A
  8
S-OBRYS
  6
CONTINUOUS
 10
-5064.6691472584198
 20
404297.7299153998
 30
0.0
 11
-5064.6691472584198
 21
404218.41439164849
 31
0.0
  0
LINE
  5
6439B
  8
S-OBRYS
  6
CONTINUOUS
 10
-5004.6691472584207
 20
404297.7299153998
 30
0.0
 11
-5004.6691472584207
 21
404231.84020424011
 31
0.0
  0
LINE
  5
6439C
  8
S-OBRYS
  6
CONTINUOUS
 10
-4898.6137958287218
 20
403756.35921197402
 30
0.0
 11
-4904.5060374081768
 21
403768.99516481842
 31
0.0
  0
LINE
  5
6439D
  8
S-OBRYS
  6
CONTINUOUS
 10
-4884.656102239659
 20
403577.72991539992
 30
0.0
 11
-4588.2251630359424
 21
403577.72991539992
 31
0.0
  0
ARC
  5
6439E
  8
S-OBRYS
  6
CONTINUOUS
 10
-4849.2449776762878
 20
403703.21961654478
 30
0.0
 40
6.3377718662374596
 50
265.0337458889889
 51
93.570080793390304
  0
LINE
  5
6439F
  8
S-OBRYS
  6
CONTINUOUS
 10
-4962.1133063029811
 20
403717.48303613567
 30
0.0
 11
-4962.1133063029811
 21
403577.72991539992
 31
0.0
  0
LINE
  5
643A0
  8
S-OBRYS
  6
CONTINUOUS
 10
-4917.8566219169224
 20
403711.62390644301
 30
0.0
 11
-4898.4077606651508
 21
403720.69305938709
 31
0.0
  0
ARC
  5
643A1
  8
S-OBRYS
  6
CONTINUOUS
 10
-4905.3841440233437
 20
403703.21961654478
 30
0.0
 40
6.3377718662374596
 50
86.429919206609682
 51
274.96625411101121
  0
POLYLINE
  5
643A2
  8
S-OBRYS
  6
CONTINUOUS
 66
     1
 10
0.0
 20
0.0
 30
0.0
  0
VERTEX
  5
65521
  8
S-OBRYS
  6
CONTINUOUS
 10
-4909.9710993982408
 20
403667.58911329549
 30
0.0
  0
VERTEX
  5
65522
  8
S-OBRYS
  6
CONTINUOUS
 10
-4904.2505666267598
 20
403655.32139117812
 30
0.0
  0
VERTEX
  5
65523
  8
S-OBRYS
  6
CONTINUOUS
 10
-4864.0233354700249
 20
403674.0796571328
 30
0.0
  0
VERTEX
  5
65524
  8
S-OBRYS
  6
CONTINUOUS
 10
-4869.7438682415086
 20
403686.34737925028
 30
0.0
  0
SEQEND
  5
65525
  8
S-OBRYS
  6
CONTINUOUS
  0
LINE
  5
643A3
  8
S-OBRYS
  6
CONTINUOUS
 10
-4877.7584533284526
 20
403651.0217916526
 30
0.0
 11
-4927.722161025391
 21
403758.16930858302
 31
0.0
  0
POLYLINE
  5
643A4
  8
S-OBRYS
  6
CONTINUOUS
 66
     1
 10
0.0
 20
0.0
 30
0.0
  0
VERTEX
  5
65526
  8
S-OBRYS
  6
CONTINUOUS
 10
-4890.5821620236156
 20
403731.03524447768
 30
0.0
  0
VERTEX
  5
65527
  8
S-OBRYS
  6
CONTINUOUS
 10
-4896.3026947951003
 20
403743.3029665951
 30
0.0
  0
VERTEX
  5
65528
  8
S-OBRYS
  6
CONTINUOUS
 10
-4936.5299259518324
 20
403724.54470064043
 30
0.0
  0
VERTEX
  5
65529
  8
S-OBRYS
  6
CONTINUOUS
 10
-4930.8093931803533
 20
403712.27697852289
 30
0.0
  0
SEQEND
  5
6552A
  8
S-OBRYS
  6
CONTINUOUS
  0
LINE
  5
643A5
  8
S-OBRYS
  6
CONTINUOUS
 10
-4945.0460430631501
 20
403734.7074995031
 30
0.0
 11
-4898.6137958287218
 21
403756.35921197402
 31
0.0
  0
LINE
  5
643A6
  8
S-OBRYS
  6
CONTINUOUS
 10
-4911.7966956655473
 20
403750.21192482329
 30
0.0
 11
-4906.3830865930759
 21
403738.6024027025
 31
0.0
  0
ARC
  5
643A7
  8
S-OBRYS
  6
CONTINUOUS
 10
-4916.8755280650867
 20
403671.0625738473
 30
0.0
 40
7.728910881886959
 50
333.2940746431978
 51
76.705925358075291
  0
POLYLINE
  5
643A8
  8
S-OBRYS
  6
CONTINUOUS
 66
     1
 10
0.0
 20
0.0
 30
0.0
  0
VERTEX
  5
6552B
  8
S-OBRYS
  6
CONTINUOUS
 10
-4925.6822205584567
 20
403701.2817213526
 30
0.0
  0
VERTEX
  5
6552C
  8
S-OBRYS
  6
CONTINUOUS
 10
-4915.0982720201346
 20
403678.58437046589
 30
0.0
  0
SEQEND
  5
6552D
  8
S-OBRYS
  6
CONTINUOUS
  0
LINE
  5
643A9
  8
S-OBRYS
  6
CONTINUOUS
 10
-4945.0460430631501
 20
403734.7074995031
 30
0.0
 11
-4950.9382846426006
 21
403747.34345234762
 31
0.0
  0
ARC
  5
643AA
  8
S-OBRYS
  6
CONTINUOUS
 10
-4932.5866492253053
 20
403704.75518190442
 30
0.0
 40
7.728910881886959
 50
333.2940746431978
 51
76.705925358075291
  0
LINE
  5
643AB
  8
S-OBRYS
  6
CONTINUOUS
 10
-4931.8631432263282
 20
403740.85478665383
 30
0.0
 11
-4926.4495341538568
 21
403729.24526453292
 31
0.0
  0
LINE
  5
643AC
  8
S-OBRYS
  6
CONTINUOUS
 10
-4902.1455007567056
 20
403677.93129838601
 30
0.0
 11
-4882.6966395049349
 21
403687.00045133021
 31
0.0
  0
POLYLINE
  5
643AD
  8
S-OBRYS
  6
CONTINUOUS
 66
     1
 10
0.0
 20
0.0
 30
0.0
  0
VERTEX
  5
6552E
  8
S-OBRYS
  6
CONTINUOUS
 10
-4880.5611380471782
 20
403709.54508920951
 30
0.0
  0
VERTEX
  5
6552F
  8
S-OBRYS
  6
CONTINUOUS
 10
-4885.4549894017264
 20
403720.03998730727
 30
0.0
  0
SEQEND
  5
65530
  8
S-OBRYS
  6
CONTINUOUS
  0
ARC
  5
643AE
  8
S-OBRYS
  6
CONTINUOUS
 10
-4883.6777333567688
 20
403727.56178392592
 30
0.0
 40
7.728910881886959
 50
153.2940746431978
 51
256.70592535807532
  0
POLYLINE
  5
643AF
  8
S-OBRYS
  6
CONTINUOUS
 66
     1
 10
0.0
 20
0.0
 30
0.0
  0
VERTEX
  5
65531
  8
S-OBRYS
  6
CONTINUOUS
 10
-4904.8354895011871
 20
403696.90563757397
 30
0.0
  0
VERTEX
  5
65532
  8
S-OBRYS
  6
CONTINUOUS
 10
-4849.7936321984453
 20
403696.90563757397
 30
0.0
  0
SEQEND
  5
65533
  8
S-OBRYS
  6
CONTINUOUS
  0
POLYLINE
  5
643B0
  8
S-OBRYS
  6
CONTINUOUS
 66
     1
 10
0.0
 20
0.0
 30
0.0
  0
VERTEX
  5
65534
  8
S-OBRYS
  6
CONTINUOUS
 10
-4849.6396266282682
 20
403709.54508920951
 30
0.0
  0
VERTEX
  5
65535
  8
S-OBRYS
  6
CONTINUOUS
 10
-4904.9894950713642
 20
403709.54508920951
 30
0.0
  0
SEQEND
  5
65536
  8
S-OBRYS
  6
CONTINUOUS
  0
ARC
  5
643B1
  8
S-OBRYS
  6
CONTINUOUS
 10
-4867.9666121965529
 20
403693.86917586881
 30
0.0
 40
7.728910881886959
 50
156.86676636108001
 51
256.70592535807532
  0
LINE
  5
643B2
  8
S-OBRYS
  6
CONTINUOUS
 10
-4790.5522718997008
 20
404303.04967526038
 30
0.0
 11
-4833.4240087605058
 21
404394.98841165268
 31
0.0
  0
LINE
  5
643B3
  8
S-OBRYS
  6
CONTINUOUS
 10
-4944.6691472584198
 20
404297.7299153998
 30
0.0
 11
-4944.6691472584198
 21
404274.37131062709
 31
0.0
  0
LINE
  5
643B4
  8
S-OBRYS
  6
CONTINUOUS
 10
-4420.7786947887498
 20
404475.4779260506
 30
0.0
 11
-4463.6504316495511
 21
404567.41666244279
 31
0.0
  0
CIRCLE
  5
643B5
  8
S-OBRYS
  6
CONTINUOUS
 10
-3084.6133063029811
 20
400870.91257391882
 30
0.0
 40
10.0
  0
CIRCLE
  5
643B6
  8
S-OBRYS
  6
CONTINUOUS
 10
-3084.6133063029811
 20
400500.91257391882
 30
0.0
 40
10.0
  0
LINE
  5
643B7
  8
S-OBRYS
  6
CONTINUOUS
 10
-3084.6133063029811
 20
400905.91257391882
 30
0.0
 11
-3084.6133063029811
 21
400465.91257391882
 31
0.0
  0
LINE
  5
643B8
  8
S-OBRYS
  6
CONTINUOUS
 10
-2544.6133063029811
 20
400905.91257391882
 30
0.0
 11
-2544.6133063029779
 21
400465.91257391882
 31
0.0
  0
LINE
  5
643B9
  8
S-OBRYS
  6
CONTINUOUS
 10
-2652.7936866455311
 20
404805.0109087259
 30
0.0
 11
-2491.9815987924412
 21
404879.99881681561
 31
0.0
  0
POLYLINE
  5
643BA
  8
S-OBRYS
  6
CONTINUOUS
 66
     1
 10
0.0
 20
0.0
 30
0.0
 70
     1
  0
VERTEX
  5
65537
  8
S-OBRYS
  6
CONTINUOUS
 10
-3451.6221462270619
 20
404944.1632929375
 30
0.0
  0
VERTEX
  5
65538
  8
S-OBRYS
  6
CONTINUOUS
 10
-3428.7603120083149
 20
404954.8239413132
 30
0.0
  0
VERTEX
  5
65539
  8
S-OBRYS
  6
CONTINUOUS
 10
-3386.017310057367
 20
404863.16127782612
 30
0.0
  0
VERTEX
  5
6553A
  8
S-OBRYS
  6
CONTINUOUS
 10
-3408.879144276118
 20
404852.50062945043
 30
0.0
  0
SEQEND
  5
6553B
  8
S-OBRYS
  6
CONTINUOUS
  0
LINE
  5
643BB
  8
S-OBRYS
  6
CONTINUOUS
 10
-3046.5817098094021
 20
405649.49204961449
 30
0.0
 11
-2652.793686645527
 21
404805.0109087259
 31
0.0
  0
LINE
  5
643BC
  8
S-OBRYS
  6
CONTINUOUS
 10
-2684.654200478923
 20
404748.96018039982
 30
0.0
 11
-2906.5287878927852
 21
405224.77176859399
 31
0.0
  0
LINE
  5
643BD
  8
S-OBRYS
  6
CONTINUOUS
 10
-3148.8241868372352
 20
404578.18119922158
 30
0.0
 11
-3030.5141076796099
 21
404578.18119922158
 31
0.0
  0
LINE
  5
643BE
  8
S-OBRYS
  6
CONTINUOUS
 10
-3030.5141076796058
 20
404605.26997140801
 30
0.0
 11
-3148.824186837232
 21
404605.26997140801
 31
0.0
  0
LINE
  5
643BF
  8
S-OBRYS
  6
CONTINUOUS
 10
-3166.5828310861179
 20
404643.35350689851
 30
0.0
 11
-3038.4245844252769
 21
404703.11467877222
 31
0.0
  0
LINE
  5
643C0
  8
S-OBRYS
  6
CONTINUOUS
 10
-3139.6691472584212
 20
403577.72991539992
 30
0.0
 11
-3039.6691472584212
 21
403577.72991539992
 31
0.0
  0
LINE
  5
643C1
  8
S-OBRYS
  6
CONTINUOUS
 10
-3139.6691472584212
 20
403602.2878463745
 30
0.0
 11
-3039.6691472584212
 21
403602.2878463745
 31
0.0
  0
LINE
  5
643C2
  8
S-OBRYS
  6
CONTINUOUS
 10
-2992.798848071383
 20
404605.26997140801
 30
0.0
 11
-3106.9057787413731
 21
404849.9730739079
 31
0.0
  0
LINE
  5
643C3
  8
S-OBRYS
  6
CONTINUOUS
 10
-3109.6691472584212
 20
404578.18119922158
 30
0.0
 11
-3109.6691472584239
 21
403602.2878463745
 31
0.0
  0
LINE
  5
643C4
  8
S-OBRYS
  6
CONTINUOUS
 10
-3139.6691472584212
 20
403577.72991539992
 30
0.0
 11
-3139.6691472584212
 21
403602.2878463745
 31
0.0
  0
POLYLINE
  5
643C5
  8
S-OBRYS
  6
CONTINUOUS
 66
     1
 10
0.0
 20
0.0
 30
0.0
 70
     1
  0
VERTEX
  5
6553C
  8
S-OBRYS
  6
CONTINUOUS
 10
-3995.4068184490538
 20
404690.59233589307
 30
0.0
  0
VERTEX
  5
6553D
  8
S-OBRYS
  6
CONTINUOUS
 10
-3972.5449842303069
 20
404701.25298426882
 30
0.0
  0
VERTEX
  5
6553E
  8
S-OBRYS
  6
CONTINUOUS
 10
-3929.8019822793581
 20
404609.59032078157
 30
0.0
  0
VERTEX
  5
6553F
  8
S-OBRYS
  6
CONTINUOUS
 10
-3952.6638164981091
 20
404598.929672406
 30
0.0
  0
SEQEND
  5
65540
  8
S-OBRYS
  6
CONTINUOUS
  0
LINE
  5
643C6
  8
S-OBRYS
  6
CONTINUOUS
 10
-3148.8241868372352
 20
404605.26997140801
 30
0.0
 11
-3148.8241868372352
 21
404578.18119922158
 31
0.0
  0
LINE
  5
643C7
  8
S-OBRYS
  6
CONTINUOUS
 10
-3148.8241868372352
 20
404605.26997140801
 30
0.0
 11
-3166.5828310861179
 21
404643.35350689851
 31
0.0
  0
LINE
  5
643C8
  8
S-OBRYS
  6
CONTINUOUS
 10
-3077.614142644376
 20
403602.2878463745
 30
0.0
 11
-3077.614142644376
 21
404578.18119922158
 31
0.0
  0
LINE
  5
643C9
  8
S-OBRYS
  6
CONTINUOUS
 10
-3069.6691472584212
 20
404578.18119922158
 30
0.0
 11
-3069.6691472584212
 21
403602.2878463745
 31
0.0
  0
LINE
  5
643CA
  8
S-OBRYS
  6
CONTINUOUS
 10
-3039.6691472584212
 20
403577.72991539992
 30
0.0
 11
-3039.6691472584212
 21
403602.2878463745
 31
0.0
  0
LINE
  5
643CB
  8
S-OBRYS
  6
CONTINUOUS
 10
-2797.5801402627221
 20
404588.87637063529
 30
0.0
 11
-2868.0065440729709
 21
404739.90628099302
 31
0.0
  0
LINE
  5
643CC
  8
S-OBRYS
  6
CONTINUOUS
 10
-3024.5196206176661
 20
404590.47833224712
 30
0.0
 11
-2652.933427932639
 21
404763.75181956083
 31
0.0
  0
LINE
  5
643CD
  8
S-OBRYS
  6
CONTINUOUS
 10
-3030.5141076796058
 20
404605.26997140801
 30
0.0
 11
-3030.5141076796099
 21
404578.18119922158
 31
0.0
  0
LINE
  5
643CE
  8
S-OBRYS
  6
CONTINUOUS
 10
-3030.5141076796058
 20
404605.26997140801
 30
0.0
 11
-2999.5350270893582
 21
404619.71575392981
 31
0.0
  0
LINE
  5
643CF
  8
S-OBRYS
  6
CONTINUOUS
 10
-2999.5350270893582
 20
404619.71575392981
 30
0.0
 11
-3038.4245844252769
 21
404703.11467877222
 31
0.0
  0
LINE
  5
643D0
  8
S-OBRYS
  6
CONTINUOUS
 10
-3129.7641747054258
 20
405612.58636761602
 30
0.0
 11
-3096.9103810103879
 21
405627.90634321532
 31
0.0
  0
LINE
  5
643D1
  8
S-OBRYS
  6
CONTINUOUS
 10
-3103.5018963317639
 20
405237.24689077417
 30
0.0
 11
-3056.0999434220398
 21
405259.35078442749
 31
0.0
  0
LINE
  5
643D2
  8
S-OBRYS
  6
CONTINUOUS
 10
-3070.2372244954349
 20
405252.7584619975
 30
0.0
 11
-3217.6059194987179
 21
405568.7916482985
 31
0.0
  0
LINE
  5
643D3
  8
S-OBRYS
  6
CONTINUOUS
 10
-3044.9150183645429
 20
405306.86905492959
 30
0.0
 11
-3182.027904778105
 21
405600.90858873451
 31
0.0
  0
LINE
  5
643D4
  8
S-OBRYS
  6
CONTINUOUS
 10
-3158.3269283232439
 20
405611.96053556132
 30
0.0
 11
-2997.1552549995758
 21
405266.32676672848
 31
0.0
  0
LINE
  5
643D5
  8
S-OBRYS
  6
CONTINUOUS
 10
-3020.7450654344029
 20
405594.08518694958
 30
0.0
 11
-3486.8547435060718
 21
405376.73467452469
 31
0.0
  0
LINE
  5
643D6
  8
S-OBRYS
  6
CONTINUOUS
 10
-2995.2207342266379
 20
405539.34808203322
 30
0.0
 11
-3166.6090075364741
 21
405459.42841767089
 31
0.0
  0
LINE
  5
643D7
  8
S-OBRYS
  6
CONTINUOUS
 10
-3134.6259518683842
 20
405623.01248238789
 30
0.0
 11
-2981.310208830062
 21
405294.22581041913
 31
0.0
  0
LINE
  5
643D8
  8
S-OBRYS
  6
CONTINUOUS
 10
-3114.6067387899388
 20
405211.55824037542
 30
0.0
 11
-2923.945581294407
 21
405300.4649982283
 31
0.0
  0
LINE
  5
643D9
  8
S-OBRYS
  6
CONTINUOUS
 10
-3103.3576619901469
 20
405187.43451732892
 30
0.0
 11
-2912.696504494616
 21
405276.3412751818
 31
0.0
  0
LINE
  5
643DA
  8
S-OBRYS
  6
CONTINUOUS
 10
-3392.9055842667808
 20
405522.07505520323
 30
0.0
 11
-3366.3830510946141
 21
405465.197299266
 31
0.0
  0
POLYLINE
  5
643DB
  8
S-OBRYS
  6
CONTINUOUS
 66
     1
 10
0.0
 20
0.0
 30
0.0
 70
     1
  0
VERTEX
  5
65541
  8
S-OBRYS
  6
CONTINUOUS
 10
-3183.0246669240119
 20
405428.92187569622
 30
0.0
  0
VERTEX
  5
65542
  8
S-OBRYS
  6
CONTINUOUS
 10
-3170.936282267347
 20
405434.5587820363
 30
0.0
  0
VERTEX
  5
65543
  8
S-OBRYS
  6
CONTINUOUS
 10
-3239.49043471297
 20
405581.57363638561
 30
0.0
  0
VERTEX
  5
65544
  8
S-OBRYS
  6
CONTINUOUS
 10
-3251.5788193696349
 20
405575.93673004548
 30
0.0
  0
SEQEND
  5
65545
  8
S-OBRYS
  6
CONTINUOUS
  0
LINE
  5
643DC
  8
S-OBRYS
  6
CONTINUOUS
 10
-3265.6397224182192
 20
405554.53813181189
 30
0.0
 11
-3208.4551184519992
 21
405431.90535285982
 31
0.0
  0
LINE
  5
643DD
  8
S-OBRYS
  6
CONTINUOUS
 10
-3313.0261693147618
 20
405559.32343812421
 30
0.0
 11
-3286.5036361426
 21
405502.4456821871
 31
0.0
  0
LINE
  5
643DE
  8
S-OBRYS
  6
CONTINUOUS
 10
-3366.3830510946141
 20
405465.197299266
 30
0.0
 11
-3344.4377015924802
 21
405452.21436254791
 31
0.0
  0
LINE
  5
643DF
  8
S-OBRYS
  6
CONTINUOUS
 10
-3366.3830510946141
 20
405465.197299266
 30
0.0
 11
-3286.5036361426
 21
405502.4456821871
 31
0.0
  0
LINE
  5
643E0
  8
S-OBRYS
  6
CONTINUOUS
 10
-3208.4551184519992
 20
405431.90535285982
 30
0.0
 11
-3403.7008291679631
 21
405340.86078273098
 31
0.0
  0
LINE
  5
643E1
  8
S-OBRYS
  6
CONTINUOUS
 10
-3472.960345971991
 20
405431.97714300873
 30
0.0
 11
-3435.6054109207262
 21
405351.86922627612
 31
0.0
  0
LINE
  5
643E2
  8
S-OBRYS
  6
CONTINUOUS
 10
-3361.3978255920301
 20
405360.58699726139
 30
0.0
 11
-3418.5824295582461
 21
405483.21977621358
 31
0.0
  0
LINE
  5
643E3
  8
S-OBRYS
  6
CONTINUOUS
 10
-3403.7008291679631
 20
405340.86078273098
 30
0.0
 11
-3435.6054109207262
 21
405351.86922627612
 31
0.0
  0
LINE
  5
643E4
  8
S-OBRYS
  6
CONTINUOUS
 10
-3382.6091926300151
 20
405499.99437208183
 30
0.0
 11
-3460.885433134179
 21
405463.49356168322
 31
0.0
  0
LINE
  5
643E5
  8
S-OBRYS
  6
CONTINUOUS
 10
-3460.885433134179
 20
405463.49356168322
 30
0.0
 11
-3472.960345971991
 21
405431.97714300873
 31
0.0
  0
LINE
  5
643E6
  8
S-OBRYS
  6
CONTINUOUS
 10
-3344.4377015924802
 20
405452.21436254791
 30
0.0
 11
-3290.6643283644921
 21
405477.28929828887
 31
0.0
  0
LINE
  5
643E7
  8
S-OBRYS
  6
CONTINUOUS
 10
-3286.5036361426
 20
405502.4456821871
 30
0.0
 11
-3290.6643283644921
 21
405477.28929828887
 31
0.0
  0
LINE
  5
643E8
  8
S-OBRYS
  6
CONTINUOUS
 10
-3095.645966046417
 20
405220.39979391033
 30
0.0
 11
-3103.5018963317639
 21
405237.24689077417
 31
0.0
  0
LINE
  5
643E9
  8
S-OBRYS
  6
CONTINUOUS
 10
-3114.6067387899388
 20
405211.55824037542
 30
0.0
 11
-3103.3576619901469
 21
405187.43451732892
 31
0.0
  0
LINE
  5
643EA
  8
S-OBRYS
  6
CONTINUOUS
 10
-3189.5232735426471
 20
405474.41871345759
 30
0.0
 11
-3176.44325379673
 21
405480.518026834
 31
0.0
  0
LINE
  5
643EB
  8
S-OBRYS
  6
CONTINUOUS
 10
-3221.3573354875962
 20
405459.57424658252
 30
0.0
 11
-3201.6116581993119
 21
405468.78180711751
 31
0.0
  0
LINE
  5
643EC
  8
S-OBRYS
  6
CONTINUOUS
 10
-3392.9055842667808
 20
405522.07505520323
 30
0.0
 11
-3313.0261693147618
 21
405559.32343812421
 31
0.0
  0
LINE
  5
643ED
  8
S-OBRYS
  6
CONTINUOUS
 10
-3252.737505382619
 20
405526.86923808919
 30
0.0
 11
-3232.9918280943311
 21
405536.07679862418
 31
0.0
  0
LINE
  5
643EE
  8
S-OBRYS
  6
CONTINUOUS
 10
-3265.6397224182192
 20
405554.53813181189
 30
0.0
 11
-3302.7297776780001
 21
405537.24275500292
 31
0.0
  0
LINE
  5
643EF
  8
S-OBRYS
  6
CONTINUOUS
 10
-3217.6059194987179
 20
405568.7916482985
 30
0.0
 11
-3176.080856743069
 21
405588.15510306682
 31
0.0
  0
LINE
  5
643F0
  8
S-OBRYS
  6
CONTINUOUS
 10
-3220.9034434376699
 20
405541.71370496432
 30
0.0
 11
-3207.8234236917529
 21
405547.81301834062
 31
0.0
  0
LINE
  5
643F1
  8
S-OBRYS
  6
CONTINUOUS
 10
-3182.027904778105
 20
405600.90858873451
 30
0.0
 11
-3134.6259518683801
 21
405623.01248238789
 31
0.0
  0
LINE
  5
643F2
  8
S-OBRYS
  6
CONTINUOUS
 10
-2695.1215976090612
 20
404895.78340671788
 30
0.0
 11
-2534.3095097559749
 21
404970.77131480759
 31
0.0
  0
LINE
  5
643F3
  8
S-OBRYS
  6
CONTINUOUS
 10
-2491.9815987924412
 20
404879.99881681561
 30
0.0
 11
-2885.7696219563122
 21
405724.47995770437
 31
0.0
  0
LINE
  5
643F4
  8
S-OBRYS
  6
CONTINUOUS
 10
-3016.5311285603611
 20
405495.79597801832
 30
0.0
 11
-2982.3454790425062
 21
405511.73700818751
 31
0.0
  0
LINE
  5
643F5
  8
S-OBRYS
  6
CONTINUOUS
 10
-2948.456415135021
 20
405309.5457860186
 30
0.0
 11
-3096.9103810103879
 21
405627.90634321532
 31
0.0
  0
LINE
  5
643F6
  8
S-OBRYS
  6
CONTINUOUS
 10
-3002.8544745153922
 20
405466.4662987694
 30
0.0
 11
-3055.958292973588
 21
405580.34780495852
 31
0.0
  0
LINE
  5
643F7
  8
S-OBRYS
  6
CONTINUOUS
 10
-3018.2762889469632
 20
405459.27498859738
 30
0.0
 11
-3002.8544745153922
 21
405466.4662987694
 31
0.0
  0
LINE
  5
643F8
  8
S-OBRYS
  6
CONTINUOUS
 10
-2981.310208830062
 20
405294.22581041913
 30
0.0
 11
-2949.7089174157081
 21
405308.96173461323
 31
0.0
  0
LINE
  5
643F9
  8
S-OBRYS
  6
CONTINUOUS
 10
-3056.0999434220398
 20
405259.35078442749
 30
0.0
 11
-3044.9150183645429
 21
405306.86905492959
 31
0.0
  0
LINE
  5
643FA
  8
S-OBRYS
  6
CONTINUOUS
 10
-3043.1950121306868
 20
405161.04326162068
 30
0.0
 11
-3064.0488715037031
 21
405205.76450736559
 31
0.0
  0
LINE
  5
643FB
  8
S-OBRYS
  6
CONTINUOUS
 10
-3059.6720501608261
 20
405153.35989260359
 30
0.0
 11
-3080.5259095338411
 21
405198.08113834838
 31
0.0
  0
LINE
  5
643FC
  8
S-OBRYS
  6
CONTINUOUS
 10
-2912.696504494616
 20
405276.3412751818
 30
0.0
 11
-2923.945581294407
 21
405300.4649982283
 31
0.0
  0
LINE
  5
643FD
  8
S-OBRYS
  6
CONTINUOUS
 10
-2914.683070556297
 20
405220.96936414129
 30
0.0
 11
-2935.5369299293129
 21
405265.69060988602
 31
0.0
  0
LINE
  5
643FE
  8
S-OBRYS
  6
CONTINUOUS
 10
-2931.160108586439
 20
405213.2859951242
 30
0.0
 11
-2952.013967959454
 21
405258.00724086887
 31
0.0
  0
LINE
  5
643FF
  8
S-OBRYS
  6
CONTINUOUS
 10
-2886.84554652714
 20
405233.95021478011
 30
0.0
 11
-2876.7233155300491
 21
405212.24302035588
 31
0.0
  0
LINE
  5
64400
  8
S-OBRYS
  6
CONTINUOUS
 10
-2949.7089174157081
 20
405308.96173461323
 30
0.0
 11
-2948.456415135021
 21
405309.5457860186
 31
0.0
  0
LINE
  5
64401
  8
S-OBRYS
  6
CONTINUOUS
 10
-2949.7089174157081
 20
405308.96173461323
 30
0.0
 11
-2941.8529871303581
 21
405292.11463774921
 31
0.0
  0
ARC
  5
64402
  8
S-OBRYS
  6
CONTINUOUS
 10
-2713.4206291834489
 20
404926.23893201421
 30
0.0
 40
40.930215194313092
 50
109.794542439354
 51
143.14825172434541
  0
LINE
  5
64403
  8
S-OBRYS
  6
CONTINUOUS
 10
-2811.1983358739199
 20
405090.23487352702
 30
0.0
 11
-2732.7774818820758
 21
404922.06080942921
 31
0.0
  0
LINE
  5
64404
  8
S-OBRYS
  6
CONTINUOUS
 10
-2755.3245215355819
 20
404900.51317298051
 30
0.0
 11
-2737.6143771350371
 21
404908.77154894138
 31
0.0
  0
ARC
  5
64405
  8
S-OBRYS
  6
CONTINUOUS
 10
-2741.8405597524429
 20
404917.83462681179
 30
0.0
 40
10.0
 50
294.99999999969617
 51
24.99999999853728
  0
ARC
  5
64406
  8
S-OBRYS
  6
CONTINUOUS
 10
-2795.555363207844
 20
405102.37743754371
 30
0.0
 40
40.930215194313092
 50
266.851748274687
 51
300.20545756127621
  0
ARC
  5
64407
  8
S-OBRYS
  6
CONTINUOUS
 10
-2820.261413744287
 20
405086.0086909096
 30
0.0
 40
10.0
 50
24.99999999853728
 51
114.9999999996962
  0
LINE
  5
64408
  8
S-OBRYS
  6
CONTINUOUS
 10
-2842.1977407622398
 20
405086.81339281891
 30
0.0
 11
-2824.4875963616942
 21
405095.07176878001
 31
0.0
  0
LINE
  5
64409
  8
S-OBRYS
  6
CONTINUOUS
 10
-3003.3545284067809
 20
405556.79105994251
 30
0.0
 11
-2842.542440553691
 21
405631.77896803227
 31
0.0
  0
LINE
  5
6440A
  8
S-OBRYS
  6
CONTINUOUS
 10
-2885.7696219563122
 20
405724.47995770437
 30
0.0
 11
-3046.5817098094021
 21
405649.49204961449
 31
0.0
  0
LINE
  5
6440B
  8
S-OBRYS
  6
CONTINUOUS
 10
-3029.1182812310908
 20
405482.52571608278
 30
0.0
 11
-3013.6964667995198
 21
405489.71702625492
 31
0.0
  0
LINE
  5
6440C
  8
S-OBRYS
  6
CONTINUOUS
 10
-3042.2816389286199
 20
405551.01812570973
 30
0.0
 11
-3008.0959894107659
 21
405566.95915587893
 31
0.0
  0
LINE
  5
6440D
  8
S-OBRYS
  6
CONTINUOUS
 10
-3392.9055842667808
 20
405522.07505520323
 30
0.0
 11
-3313.0261693147618
 21
405559.32343812421
 31
0.0
  0
DIMENSION
  5
6440E
  8
S-OBRYS
  6
CONTINUOUS
  2
*D72
 10
-4588.2251630359424
 20
403577.72991539992
 30
0.0
 11
-4478.1998062193888
 21
403878.57849149639
 31
0.0
 70
     2
 13
-5304.6691472584243
 23
403825.13918435579
 33
0.0
 14
-2751.1224279835701
 24
405015.87757501018
 34
0.0
 15
-4884.656102239659
 25
403577.72991539992
 35
0.0
 16
-4534.1356524489092
 26
403768.3136448632
 36
0.0
1001
ACAD
1000
DSTYLE
1002
{
1070
   271
1070
     0
1002
}
  0
DIMENSION
  5
6440F
  8
S-OBRYS
  6
CONTINUOUS
  2
*D73
 10
-2177.18928905754
 20
404985.59495484061
 30
0.0
 11
-2320.525335900194
 21
405470.44521798933
 31
0.0
 70
     1
 13
-3352.9658767907708
 23
405540.69924666372
 33
0.0
 14
-2930.3476150500228
 24
404634.39145962702
 34
0.0
  0
LINE
  5
64410
  8
S-OBRYS
  6
CONTINUOUS
 10
-3104.6133063029811
 20
400500.91257391882
 30
0.0
 11
-3064.6133063029811
 21
400500.91257391882
 31
0.0
  0
LINE
  5
64411
  8
S-OBRYS
  6
CONTINUOUS
 10
-3084.6133063029811
 20
400480.91257391882
 30
0.0
 11
-3084.6133063029811
 21
400520.91257391882
 31
0.0
  0
LINE
  5
64412
  8
S-OBRYS
  6
CONTINUOUS
 10
-3104.6133063029811
 20
400870.91257391882
 30
0.0
 11
-3064.6133063029811
 21
400870.91257391882
 31
0.0
  0
LINE
  5
64413
  8
S-OBRYS
  6
CONTINUOUS
 10
-3084.6133063029811
 20
400850.91257391882
 30
0.0
 11
-3084.6133063029811
 21
400890.91257391882
 31
0.0
  0
DIMENSION
  5
64414
  8
S-OBRYS
  6
CONTINUOUS
  2
*D74
 10
-3091.2377073117241
 20
400863.42142505659
 30
0.0
 11
-2925.8193376520649
 21
401163.70119813061
 31
0.0
 70
     3
  1
%%c21
 15
-3077.988905294304
 25
400878.40372278081
 35
0.0
 40
0.0
1001
ACAD
1000
DSTYLE
1002
{
1070
   288
1070
     1
1002
}
  0
LINE
  5
64415
  8
S-OBRYS
  6
CONTINUOUS
 10
-5019.6133063029811
 20
400870.91257391882
 30
0.0
 11
-4979.6133063029811
 21
400870.91257391882
 31
0.0
  0
LINE
  5
64416
  8
S-OBRYS
  6
CONTINUOUS
 10
-4999.6133063029811
 20
400850.91257391882
 30
0.0
 11
-4999.6133063029811
 21
400890.91257391882
 31
0.0
  0
LINE
  5
64417
  8
S-OBRYS
  6
CONTINUOUS
 10
-5019.6133063029811
 20
400500.91257391882
 30
0.0
 11
-4979.6133063029811
 21
400500.91257391882
 31
0.0
  0
LINE
  5
64418
  8
S-OBRYS
  6
CONTINUOUS
 10
-4999.6133063029811
 20
400480.91257391882
 30
0.0
 11
-4999.6133063029811
 21
400520.91257391882
 31
0.0
  0
CIRCLE
  5
64419
  8
S-OBRYS
  6
CONTINUOUS
 10
-4999.6133063029811
 20
400625.91257391882
 30
0.0
 40
60.0
  0
CIRCLE
  5
6441A
  8
S-OBRYS
  6
CONTINUOUS
 10
-4781.6133063029811
 20
400625.91257391882
 30
0.0
 40
10.0
  0
LINE
  5
6441B
  8
S-OBRYS
  6
CONTINUOUS
 10
-4801.6133063029811
 20
400625.91257391882
 30
0.0
 11
-4761.6133063029811
 21
400625.91257391882
 31
0.0
  0
LINE
  5
6441C
  8
S-OBRYS
  6
CONTINUOUS
 10
-4781.6133063029811
 20
400605.91257391882
 30
0.0
 11
-4781.6133063029811
 21
400645.91257391882
 31
0.0
  0
LINE
  5
6441D
  8
S-OBRYS
  6
CONTINUOUS
 10
-5074.6133063029811
 20
400625.91257391882
 30
0.0
 11
-4924.6133063029811
 21
400625.91257391882
 31
0.0
  0
LINE
  5
6441E
  8
S-OBRYS
  6
CONTINUOUS
 10
-4999.6133063029811
 20
400550.91257391882
 30
0.0
 11
-4999.6133063029811
 21
400700.91257391882
 31
0.0
  0
DIMENSION
  5
6441F
  8
S-OBRYS
  6
CONTINUOUS
  2
*D75
 10
-4781.6133063029811
 20
400206.14236201142
 30
0.0
 11
-4890.6133063029811
 21
400206.14236201142
 31
0.0
 70
   128
 13
-4999.6133063029811
 23
400565.91257391882
 33
0.0
 14
-4781.6133063029811
 24
400605.91257391882
 34
0.0
  0
CIRCLE
  5
64420
  8
S-OBRYS
  6
CONTINUOUS
 10
-4373.6133063029802
 20
400625.91257391882
 30
0.0
 40
10.0
  0
LINE
  5
64421
  8
S-OBRYS
  6
CONTINUOUS
 10
-4393.6133063029811
 20
400625.91257391882
 30
0.0
 11
-4353.6133063029811
 21
400625.91257391882
 31
0.0
  0
LINE
  5
64422
  8
S-OBRYS
  6
CONTINUOUS
 10
-4373.6133063029802
 20
400605.91257391882
 30
0.0
 11
-4373.6133063029802
 21
400645.91257391882
 31
0.0
  0
DIMENSION
  5
64423
  8
S-OBRYS
  6
CONTINUOUS
  2
*D76
 10
-4373.6133063029802
 20
400206.14236201142
 30
0.0
 11
-4577.6133063029811
 21
400281.14236201142
 31
0.0
 70
     0
 13
-4781.6133063029811
 23
400602.76257391879
 33
0.0
 14
-4373.6133063029802
 24
400602.76257391879
 34
0.0
  0
DIMENSION
  5
64424
  8
S-OBRYS
  6
CONTINUOUS
  2
*D77
 10
-2838.7265242751641
 20
402912.79119228577
 30
0.0
 11
-3921.6978357667922
 21
402987.79119228577
 31
0.0
 70
     0
  1
2165
 13
-5004.6691472584207
 23
404219.96558288188
 33
0.0
 14
-2838.7265242751641
 24
404677.11507590383
 34
0.0
  0
INSERT
  5
64425
  8
S-OBRYS
  6
CONTINUOUS
  2
*U131
 10
0.0
 20
0.0
 30
0.0
  0
DIMENSION
  5
64A5F
  8
S-OBRYS
  6
CONTINUOUS
  2
*D88
 10
-2546.391883140604
 20
397630.82066067832
 30
0.0
 11
-3937.5499333431371
 21
397064.86635213211
 31
0.0
 70
     0
 13
-5537.3524992596967
 23
396946.35165149288
 33
0.0
 14
-2763.8741367280791
 24
398097.21285861777
 34
0.0
 50
24.999999998438302
  0
LINE
  5
64A60
  8
S-OBRYS
  6
CONTINUOUS
 10
-5434.0685624229627
 20
397363.73296162009
 30
0.0
 11
-3148.6158534656861
 21
398429.45706215809
 31
0.0
  0
LINE
  5
64A61
  8
S-OBRYS
  6
CONTINUOUS
 10
-5461.7884922008161
 20
397377.23421433708
 30
0.0
 11
-3158.7380844627769
 21
398451.16425658233
 31
0.0
  0
LINE
  5
64A62
  8
S-OBRYS
  6
CONTINUOUS
 10
-5576.5616851940613
 20
397042.35322615789
 30
0.0
 11
-3023.014965919207
 21
398233.09161681251
 31
0.0
  0
LINE
  5
64A63
  8
S-OBRYS
  6
CONTINUOUS
 10
-5243.4471190932227
 20
396954.94395720202
 30
0.0
 11
-3420.7167247728721
 21
397804.89709882549
 31
0.0
  0
DIMENSION
  5
64A64
  8
S-OBRYS
  6
CONTINUOUS
  2
*D89
 10
-5336.5616851940576
 20
397688.8444773698
 30
0.0
 11
-5276.5616851940567
 21
397688.8444773698
 31
0.0
 70
   128
  1
%%c<>
 13
-5216.5616851940576
 23
397514.94395720202
 33
0.0
 14
-5336.5616851940576
 24
397514.94395720202
 34
0.0
  0
LINE
  5
64A65
  8
S-OBRYS
  6
CONTINUOUS
 10
-5344.0616851940567
 20
397514.94395720202
 30
0.0
 11
-5209.0616851940576
 21
397514.94395720202
 31
0.0
  0
LINE
  5
64A66
  8
S-OBRYS
  6
CONTINUOUS
 10
-5319.1175261495009
 20
396794.94395720202
 30
0.0
 11
-5234.005844238618
 21
396794.94395720202
 31
0.0
  0
LINE
  5
64A67
  8
S-OBRYS
  6
CONTINUOUS
 10
-5444.1907934200526
 20
397385.4401560445
 30
0.0
 11
-5234.005844238618
 21
396934.69707793789
 31
0.0
  0
LINE
  5
64A68
  8
S-OBRYS
  6
CONTINUOUS
 10
-5319.1175261495009
 20
396794.94395720202
 30
0.0
 11
-5416.0881557753164
 21
397002.89814352081
 31
0.0
  0
LINE
  5
64A69
  8
S-OBRYS
  6
CONTINUOUS
 10
-5537.3524992596967
 20
396946.35165149288
 30
0.0
 11
-5292.6493967598026
 21
397060.45858216292
 31
0.0
  0
LINE
  5
64A6A
  8
S-OBRYS
  6
CONTINUOUS
 10
-5538.9596569037749
 20
396949.79821218288
 30
0.0
 11
-5294.2565544038798
 21
397063.90514285298
 31
0.0
  0
LINE
  5
64A6B
  8
S-OBRYS
  6
CONTINUOUS
 10
-5542.8494372760206
 20
396975.0804197801
 30
0.0
 11
-5551.0989665200359
 21
396992.77159233473
 31
0.0
  0
LINE
  5
64A6C
  8
S-OBRYS
  6
CONTINUOUS
 10
-5549.3380430958268
 20
396972.05473319557
 30
0.0
 11
-5449.3961365830801
 21
397018.65840957302
 31
0.0
  0
LINE
  5
64A6D
  8
S-OBRYS
  6
CONTINUOUS
 10
-5558.1715055854111
 20
396990.99815463647
 30
0.0
 11
-5537.3524992596967
 21
396946.35165149288
 31
0.0
  0
DIMENSION
  5
64A6E
  8
S-OBRYS
  6
CONTINUOUS
  2
*D90
 10
-5629.7395601234703
 20
397514.94395720202
 30
0.0
 11
-5629.739560123533
 21
397154.94395720208
 31
0.0
 70
   128
 13
-5309.005844238618
 23
396794.94395720202
 33
0.0
 14
-5344.0616851940567
 24
397514.94395720202
 34
0.0
 50
90.0
  0
LINE
  5
64A6F
  8
S-OBRYS
  6
CONTINUOUS
 10
-5538.9596569037749
 20
396949.79821218288
 30
0.0
 11
-5549.3380430958268
 21
396972.05473319557
 31
0.0
  0
LINE
  5
64A70
  8
S-OBRYS
  6
CONTINUOUS
 10
-5276.5616851940567
 20
397480.73559168959
 30
0.0
 11
-5276.5616851940567
 21
397594.73120720201
 31
0.0
  0
LINE
  5
64A71
  8
S-OBRYS
  6
CONTINUOUS
 10
-5443.6850564760944
 20
397140.42454334948
 30
0.0
 11
-5486.1219895322356
 21
397120.63587647671
 31
0.0
  0
LINE
  5
64A72
  8
S-OBRYS
  6
CONTINUOUS
 10
-5551.0989665200359
 20
396992.77159233473
 30
0.0
 11
-5468.4746855217227
 21
397031.29992731393
 31
0.0
  0
LINE
  5
64A73
  8
S-OBRYS
  6
CONTINUOUS
 10
-5548.1534760468712
 20
396997.6232984594
 30
0.0
 11
-5456.2864171294677
 21
397040.4616115648
 31
0.0
  0
LINE
  5
64A74
  8
S-OBRYS
  6
CONTINUOUS
 10
-5467.4046491394101
 20
397064.30473705399
 30
0.0
 11
-5500.6992939780539
 21
397135.70533332642
 31
0.0
  0
LINE
  5
64A75
  8
S-OBRYS
  6
CONTINUOUS
 10
-5461.9199304928179
 20
397068.7343933761
 30
0.0
 11
-5472.2910848308638
 21
397090.9754056278
 31
0.0
  0
LINE
  5
64A76
  8
S-OBRYS
  6
CONTINUOUS
 10
-5341.7611077928696
 20
397165.77898635139
 30
0.0
 11
-5558.1715055854111
 21
396990.99815463647
 31
0.0
  0
LINE
  5
64A77
  8
S-OBRYS
  6
CONTINUOUS
 10
-5500.6992939780539
 20
397135.70533332642
 30
0.0
 11
-5592.5663528954574
 21
397092.86702022102
 31
0.0
  0
LINE
  5
64A78
  8
S-OBRYS
  6
CONTINUOUS
 10
-5592.5663528954574
 20
397092.86702022102
 30
0.0
 11
-5548.1534760468712
 21
396997.6232984594
 31
0.0
  0
LINE
  5
64A79
  8
S-OBRYS
  6
CONTINUOUS
 10
-5490.949103595136
 20
397130.9876559907
 30
0.0
 11
-5472.2910848308638
 21
397090.9754056278
 31
0.0
  0
LINE
  5
64A7A
  8
S-OBRYS
  6
CONTINUOUS
 10
-5541.3911442068411
 20
397069.80698546051
 30
0.0
 11
-5515.929072559833
 21
397081.68014446198
 31
0.0
  0
LINE
  5
64A7B
  8
S-OBRYS
  6
CONTINUOUS
 10
-5519.2863857391931
 20
397022.40317795047
 30
0.0
 11
-5541.3911442068411
 21
397069.80698546051
 31
0.0
  0
LINE
  5
64A7C
  8
S-OBRYS
  6
CONTINUOUS
 10
-5515.929072559833
 20
397081.68014446198
 30
0.0
 11
-5530.7572673459581
 21
397099.74059117452
 31
0.0
  0
LINE
  5
64A7D
  8
S-OBRYS
  6
CONTINUOUS
 10
-5546.6328234367566
 20
397114.28617677372
 30
0.0
 11
-5496.0377344273757
 21
397005.78465824918
 31
0.0
  0
LINE
  5
64A7E
  8
S-OBRYS
  6
CONTINUOUS
 10
-5534.8996881265002
 20
397097.80894864129
 30
0.0
 11
-5536.1694020470968
 21
397100.531858931
 31
0.0
  0
LINE
  5
64A7F
  8
S-OBRYS
  6
CONTINUOUS
 10
-5541.5524483881309
 20
397094.70671558328
 30
0.0
 11
-5542.8221623087229
 21
397097.4296258731
 31
0.0
  0
LINE
  5
64A80
  8
S-OBRYS
  6
CONTINUOUS
 10
-5542.8221623087229
 20
397097.4296258731
 30
0.0
 11
-5536.1694020470968
 21
397100.531858931
 31
0.0
  0
LINE
  5
64A81
  8
S-OBRYS
  6
CONTINUOUS
 10
-5545.6948691686739
 20
397092.77507305011
 30
0.0
 11
-5530.7572673459581
 21
397099.74059117452
 31
0.0
  0
LINE
  5
64A82
  8
S-OBRYS
  6
CONTINUOUS
 10
-5558.2297148684447
 20
397019.23186234501
 30
0.0
 11
-5564.4314855913399
 21
397016.33992916282
 31
0.0
  0
LINE
  5
64A83
  8
S-OBRYS
  6
CONTINUOUS
 10
-5588.6918847967827
 20
397068.36652315321
 30
0.0
 11
-5564.4314855913399
 21
397016.33992916282
 31
0.0
  0
LINE
  5
64A84
  8
S-OBRYS
  6
CONTINUOUS
 10
-5582.4901140738884
 20
397071.25845633529
 30
0.0
 11
-5588.6918847967827
 21
397068.36652315321
 31
0.0
  0
LINE
  5
64A85
  8
S-OBRYS
  6
CONTINUOUS
 10
-5541.3911442068411
 20
397069.80698546051
 30
0.0
 11
-5545.6948691686739
 21
397092.77507305011
 31
0.0
  0
LINE
  5
64A86
  8
S-OBRYS
  6
CONTINUOUS
 10
-5496.7682525506134
 20
397040.58963334962
 30
0.0
 11
-5488.1566823527319
 21
397022.12206146371
 31
0.0
  0
LINE
  5
64A87
  8
S-OBRYS
  6
CONTINUOUS
 10
-5519.2863857391931
 20
397022.40317795047
 30
0.0
 11
-5513.61875399974
 21
397010.24890246219
 31
0.0
  0
LINE
  5
64A88
  8
S-OBRYS
  6
CONTINUOUS
 10
-5496.7682525506134
 20
397040.58963334962
 30
0.0
 11
-5515.929072559833
 21
397081.68014446198
 31
0.0
  0
LINE
  5
64A89
  8
S-OBRYS
  6
CONTINUOUS
 10
-5497.1508743180311
 20
397128.0957228085
 30
0.0
 11
-5490.949103595136
 21
397130.9876559907
 31
0.0
  0
LINE
  5
64A8A
  8
S-OBRYS
  6
CONTINUOUS
 10
-5276.5616851940567
 20
397483.69395720202
 30
0.0
 11
-5276.5616851940567
 21
397109.26834033348
 31
0.0
  0
POLYLINE
  5
64A8B
  8
S-OBRYS
  6
CONTINUOUS
 66
     1
 10
0.0
 20
0.0
 30
0.0
  0
VERTEX
  5
655B8
  8
S-OBRYS
  6
CONTINUOUS
 10
-5385.2282379647704
 20
397130.67336646799
 30
0.0
  0
VERTEX
  5
655B9
  8
S-OBRYS
  6
CONTINUOUS
 10
-5360.7184147723528
 20
397078.1118810114
 30
0.0
  0
VERTEX
  5
655BA
  8
S-OBRYS
  6
CONTINUOUS
 10
-5347.4491471326364
 20
397084.29944213002
 30
0.0
  0
SEQEND
  5
655BB
  8
S-OBRYS
  6
CONTINUOUS
  0
LINE
  5
64A8C
  8
S-OBRYS
  6
CONTINUOUS
 10
-5373.4931702071881
 20
397140.15102985117
 30
0.0
 11
-5347.4491471326364
 21
397084.29944213002
 31
0.0
  0
POLYLINE
  5
64A8D
  8
S-OBRYS
  6
CONTINUOUS
 66
     1
 10
0.0
 20
0.0
 30
0.0
  0
VERTEX
  5
655BC
  8
S-OBRYS
  6
CONTINUOUS
 10
-5412.6545107701313
 20
397108.52292073768
 30
0.0
  0
VERTEX
  5
655BD
  8
S-OBRYS
  6
CONTINUOUS
 10
-5441.4394699932755
 20
397170.2524649984
 30
0.0
  0
VERTEX
  5
655BE
  8
S-OBRYS
  6
CONTINUOUS
 10
-5454.708737632991
 20
397164.06490387989
 30
0.0
  0
VERTEX
  5
655BF
  8
S-OBRYS
  6
CONTINUOUS
 10
-5424.3895785277118
 20
397099.04525735462
 30
0.0
  0
SEQEND
  5
655C0
  8
S-OBRYS
  6
CONTINUOUS
  0
POLYLINE
  5
64A8E
  8
S-OBRYS
  6
CONTINUOUS
 66
     1
 10
0.0
 20
0.0
 30
0.0
  0
VERTEX
  5
655C1
  8
S-OBRYS
  6
CONTINUOUS
 10
-5424.3895785277118
 20
397099.04525735462
 30
0.0
  0
VERTEX
  5
655C2
  8
S-OBRYS
  6
CONTINUOUS
 10
-5404.9995659164597
 20
397057.46324112097
 30
0.0
  0
VERTEX
  5
655C3
  8
S-OBRYS
  6
CONTINUOUS
 10
-5391.7302982767433
 20
397063.6508022396
 30
0.0
  0
VERTEX
  5
655C4
  8
S-OBRYS
  6
CONTINUOUS
 10
-5412.6545107701313
 20
397108.52292073768
 30
0.0
  0
SEQEND
  5
655C5
  8
S-OBRYS
  6
CONTINUOUS
  0
LINE
  5
64A8F
  8
S-OBRYS
  6
CONTINUOUS
 10
-5459.8348367894896
 20
397048.0712220826
 30
0.0
 11
-5453.6330660665953
 21
397050.96315526479
 31
0.0
  0
LINE
  5
64A90
  8
S-OBRYS
  6
CONTINUOUS
 10
-5468.4746855217227
 20
397031.29992731393
 30
0.0
 11
-5460.2251562777092
 21
397013.60875475901
 31
0.0
  0
LINE
  5
64A91
  8
S-OBRYS
  6
CONTINUOUS
 10
-5456.2864171294677
 20
397040.4616115648
 30
0.0
 11
-5467.4046491394101
 21
397064.30473705399
 31
0.0
  0
LINE
  5
64A92
  8
S-OBRYS
  6
CONTINUOUS
 10
-5449.3961365830801
 20
397018.65840957302
 30
0.0
 11
-5439.0177503910272
 21
396996.4018885605
 31
0.0
  0
LINE
  5
64A93
  8
S-OBRYS
  6
CONTINUOUS
 10
-5453.6330660665953
 20
397050.96315526479
 30
0.0
 11
-5461.9199304928179
 21
397068.7343933761
 31
0.0
  0
LINE
  5
64A94
  8
S-OBRYS
  6
CONTINUOUS
 10
-5416.0232470733536
 20
397081.1036016515
 30
0.0
 11
-5458.4601801294948
 21
397061.31493477873
 31
0.0
  0
LINE
  5
64A95
  8
S-OBRYS
  6
CONTINUOUS
 10
-5367.6373698201824
 20
397092.94962799421
 30
0.0
 11
-5398.6492533245728
 21
397078.4885492223
 31
0.0
  0
LINE
  5
64A96
  8
S-OBRYS
  6
CONTINUOUS
 10
-5403.5086314410546
 20
397169.8757967875
 30
0.0
 11
-5434.520514945445
 21
397155.4147180157
 31
0.0
  0
LINE
  5
64A97
  8
S-OBRYS
  6
CONTINUOUS
 10
-5397.1583188491677
 20
397190.90110488888
 30
0.0
 11
-5373.4931702071881
 21
397140.15102985117
 31
0.0
  0
POLYLINE
  5
64A98
  8
S-OBRYS
  6
CONTINUOUS
 66
     1
 10
0.0
 20
0.0
 30
0.0
  0
VERTEX
  5
655C6
  8
S-OBRYS
  6
CONTINUOUS
 10
-5397.1583188491677
 20
397190.90110488888
 30
0.0
  0
VERTEX
  5
655C7
  8
S-OBRYS
  6
CONTINUOUS
 10
-5410.4275864888841
 20
397184.71354377031
 30
0.0
  0
VERTEX
  5
655C8
  8
S-OBRYS
  6
CONTINUOUS
 10
-5385.2282379647704
 20
397130.67336646799
 30
0.0
  0
SEQEND
  5
655C9
  8
S-OBRYS
  6
CONTINUOUS
  0
LINE
  5
64A99
  8
S-OBRYS
  6
CONTINUOUS
 10
-5359.1831992426714
 20
397203.14078203519
 30
0.0
 11
-5395.0637955573939
 21
397186.40938519442
 31
0.0
  0
LINE
  5
64A9A
  8
S-OBRYS
  6
CONTINUOUS
 10
-5313.6630741096806
 20
397105.52255866508
 30
0.0
 11
-5349.5436704244094
 21
397088.79116182431
 31
0.0
  0
LINE
  5
64A9B
  8
S-OBRYS
  6
CONTINUOUS
 10
-5336.5616851940576
 20
397514.94395720202
 30
0.0
 11
-5336.5616851940576
 21
397435.62843345059
 31
0.0
  0
LINE
  5
64A9C
  8
S-OBRYS
  6
CONTINUOUS
 10
-5276.5616851940567
 20
397514.94395720202
 30
0.0
 11
-5276.5616851940567
 21
397449.05424604227
 31
0.0
  0
LINE
  5
64A9D
  8
S-OBRYS
  6
CONTINUOUS
 10
-5170.5063337643578
 20
396973.57325377612
 30
0.0
 11
-5176.3985753438137
 21
396986.20920662052
 31
0.0
  0
LINE
  5
64A9E
  8
S-OBRYS
  6
CONTINUOUS
 10
-5156.5486401752969
 20
396794.94395720202
 30
0.0
 11
-4860.1177009715802
 21
396794.94395720202
 31
0.0
  0
ARC
  5
64A9F
  8
S-OBRYS
  6
CONTINUOUS
 10
-5121.1375156119238
 20
396920.43365834688
 30
0.0
 40
6.3377718662374596
 50
265.0337458889889
 51
93.570080793390304
  0
LINE
  5
64AA0
  8
S-OBRYS
  6
CONTINUOUS
 10
-5234.005844238618
 20
396934.69707793789
 30
0.0
 11
-5234.005844238618
 21
396794.94395720202
 31
0.0
  0
LINE
  5
64AA1
  8
S-OBRYS
  6
CONTINUOUS
 10
-5189.7491598525603
 20
396928.83794824517
 30
0.0
 11
-5170.3002986007887
 21
396937.90710118931
 31
0.0
  0
ARC
  5
64AA2
  8
S-OBRYS
  6
CONTINUOUS
 10
-5177.2766819589824
 20
396920.43365834688
 30
0.0
 40
6.3377718662374596
 50
86.429919206609682
 51
274.96625411101121
  0
POLYLINE
  5
64AA3
  8
S-OBRYS
  6
CONTINUOUS
 66
     1
 10
0.0
 20
0.0
 30
0.0
  0
VERTEX
  5
655CA
  8
S-OBRYS
  6
CONTINUOUS
 10
-5181.8636373338777
 20
396884.80315509759
 30
0.0
  0
VERTEX
  5
655CB
  8
S-OBRYS
  6
CONTINUOUS
 10
-5176.1431045623976
 20
396872.53543298028
 30
0.0
  0
VERTEX
  5
655CC
  8
S-OBRYS
  6
CONTINUOUS
 10
-5135.9158734056618
 20
396891.29369893501
 30
0.0
  0
VERTEX
  5
655CD
  8
S-OBRYS
  6
CONTINUOUS
 10
-5141.6364061771446
 20
396903.56142105238
 30
0.0
  0
SEQEND
  5
655CE
  8
S-OBRYS
  6
CONTINUOUS
  0
LINE
  5
64AA4
  8
S-OBRYS
  6
CONTINUOUS
 10
-5149.6509912640904
 20
396868.2358334547
 30
0.0
 11
-5199.6146989610279
 21
396975.38335038512
 31
0.0
  0
POLYLINE
  5
64AA5
  8
S-OBRYS
  6
CONTINUOUS
 66
     1
 10
0.0
 20
0.0
 30
0.0
  0
VERTEX
  5
655CF
  8
S-OBRYS
  6
CONTINUOUS
 10
-5162.4746999592544
 20
396948.24928627978
 30
0.0
  0
VERTEX
  5
655D0
  8
S-OBRYS
  6
CONTINUOUS
 10
-5168.1952327307372
 20
396960.51700839732
 30
0.0
  0
VERTEX
  5
655D1
  8
S-OBRYS
  6
CONTINUOUS
 10
-5208.4224638874693
 20
396941.75874244247
 30
0.0
  0
VERTEX
  5
655D2
  8
S-OBRYS
  6
CONTINUOUS
 10
-5202.7019311159893
 20
396929.49102032499
 30
0.0
  0
SEQEND
  5
655D3
  8
S-OBRYS
  6
CONTINUOUS
  0
LINE
  5
64AA6
  8
S-OBRYS
  6
CONTINUOUS
 10
-5216.9385809987871
 20
396951.92154130532
 30
0.0
 11
-5170.5063337643578
 21
396973.57325377612
 31
0.0
  0
LINE
  5
64AA7
  8
S-OBRYS
  6
CONTINUOUS
 10
-5183.6892336011842
 20
396967.42596662551
 30
0.0
 11
-5178.2756245287128
 21
396955.81644450472
 31
0.0
  0
ARC
  5
64AA8
  8
S-OBRYS
  6
CONTINUOUS
 10
-5188.7680660007254
 20
396888.27661564952
 30
0.0
 40
7.728910881886959
 50
333.2940746431978
 51
76.705925358075291
  0
POLYLINE
  5
64AA9
  8
S-OBRYS
  6
CONTINUOUS
 66
     1
 10
0.0
 20
0.0
 30
0.0
  0
VERTEX
  5
655D4
  8
S-OBRYS
  6
CONTINUOUS
 10
-5197.5747584940946
 20
396918.4957631547
 30
0.0
  0
VERTEX
  5
655D5
  8
S-OBRYS
  6
CONTINUOUS
 10
-5186.9908099557733
 20
396895.79841226799
 30
0.0
  0
SEQEND
  5
655D6
  8
S-OBRYS
  6
CONTINUOUS
  0
LINE
  5
64AAA
  8
S-OBRYS
  6
CONTINUOUS
 10
-5216.9385809987871
 20
396951.92154130532
 30
0.0
 11
-5222.8308225782384
 21
396964.55749414972
 31
0.0
  0
ARC
  5
64AAB
  8
S-OBRYS
  6
CONTINUOUS
 10
-5204.4791871609414
 20
396921.96922370652
 30
0.0
 40
7.728910881886959
 50
333.2940746431978
 51
76.705925358075291
  0
LINE
  5
64AAC
  8
S-OBRYS
  6
CONTINUOUS
 10
-5203.7556811619652
 20
396958.06882845587
 30
0.0
 11
-5198.3420720894937
 21
396946.45930633508
 31
0.0
  0
LINE
  5
64AAD
  8
S-OBRYS
  6
CONTINUOUS
 10
-5174.0380386923434
 20
396895.14534018812
 30
0.0
 11
-5154.5891774405718
 21
396904.21449313231
 31
0.0
  0
POLYLINE
  5
64AAE
  8
S-OBRYS
  6
CONTINUOUS
 66
     1
 10
0.0
 20
0.0
 30
0.0
  0
VERTEX
  5
655D7
  8
S-OBRYS
  6
CONTINUOUS
 10
-5152.4536759828152
 20
396926.75913101173
 30
0.0
  0
VERTEX
  5
655D8
  8
S-OBRYS
  6
CONTINUOUS
 10
-5157.3475273373624
 20
396937.25402910938
 30
0.0
  0
SEQEND
  5
655D9
  8
S-OBRYS
  6
CONTINUOUS
  0
ARC
  5
64AAF
  8
S-OBRYS
  6
CONTINUOUS
 10
-5155.5702712924067
 20
396944.77582572802
 30
0.0
 40
7.728910881886959
 50
153.2940746431978
 51
256.70592535807532
  0
POLYLINE
  5
64AB0
  8
S-OBRYS
  6
CONTINUOUS
 66
     1
 10
0.0
 20
0.0
 30
0.0
  0
VERTEX
  5
655DA
  8
S-OBRYS
  6
CONTINUOUS
 10
-5176.728027436824
 20
396914.11967937608
 30
0.0
  0
VERTEX
  5
655DB
  8
S-OBRYS
  6
CONTINUOUS
 10
-5121.6861701340831
 20
396914.11967937608
 30
0.0
  0
SEQEND
  5
655DC
  8
S-OBRYS
  6
CONTINUOUS
  0
POLYLINE
  5
64AB1
  8
S-OBRYS
  6
CONTINUOUS
 66
     1
 10
0.0
 20
0.0
 30
0.0
  0
VERTEX
  5
655DD
  8
S-OBRYS
  6
CONTINUOUS
 10
-5121.5321645639051
 20
396926.75913101173
 30
0.0
  0
VERTEX
  5
655DE
  8
S-OBRYS
  6
CONTINUOUS
 10
-5176.8820330070012
 20
396926.75913101173
 30
0.0
  0
SEQEND
  5
655DF
  8
S-OBRYS
  6
CONTINUOUS
  0
ARC
  5
64AB2
  8
S-OBRYS
  6
CONTINUOUS
 10
-5139.8591501321898
 20
396911.08321767102
 30
0.0
 40
7.728910881886959
 50
156.86676636108001
 51
256.70592535807532
  0
LINE
  5
64AB3
  8
S-OBRYS
  6
CONTINUOUS
 10
-5062.4448098353387
 20
397520.26371706248
 30
0.0
 11
-5105.3165466961436
 21
397612.20245345478
 31
0.0
  0
LINE
  5
64AB4
  8
S-OBRYS
  6
CONTINUOUS
 10
-5216.5616851940576
 20
397514.94395720202
 30
0.0
 11
-5216.5616851940576
 21
397491.58535242919
 31
0.0
  0
LINE
  5
64AB5
  8
S-OBRYS
  6
CONTINUOUS
 10
-4692.6712327243877
 20
397692.69196785282
 30
0.0
 11
-4735.5429695851881
 21
397784.63070424501
 31
0.0
  0
LINE
  5
64AB6
  8
S-OBRYS
  6
CONTINUOUS
 10
-2924.6862245811681
 20
398022.22495052801
 30
0.0
 11
-2763.8741367280791
 21
398097.21285861777
 31
0.0
  0
POLYLINE
  5
64AB7
  8
S-OBRYS
  6
CONTINUOUS
 66
     1
 10
0.0
 20
0.0
 30
0.0
 70
     1
  0
VERTEX
  5
655E0
  8
S-OBRYS
  6
CONTINUOUS
 10
-3723.5146841627002
 20
398161.37733473972
 30
0.0
  0
VERTEX
  5
655E1
  8
S-OBRYS
  6
CONTINUOUS
 10
-3700.6528499439519
 20
398172.0379831153
 30
0.0
  0
VERTEX
  5
655E2
  8
S-OBRYS
  6
CONTINUOUS
 10
-3657.909847993004
 20
398080.37531962822
 30
0.0
  0
VERTEX
  5
655E3
  8
S-OBRYS
  6
CONTINUOUS
 10
-3680.771682211755
 20
398069.71467125253
 30
0.0
  0
SEQEND
  5
655E4
  8
S-OBRYS
  6
CONTINUOUS
  0
LINE
  5
64AB8
  8
S-OBRYS
  6
CONTINUOUS
 10
-3318.4742477450391
 20
398866.70609141671
 30
0.0
 11
-2924.6862245811649
 21
398022.22495052801
 31
0.0
  0
LINE
  5
64AB9
  8
S-OBRYS
  6
CONTINUOUS
 10
-2956.54673841456
 20
397966.17422220192
 30
0.0
 11
-3178.4213258284221
 21
398441.9858103962
 31
0.0
  0
LINE
  5
64ABA
  8
S-OBRYS
  6
CONTINUOUS
 10
-3420.7167247728721
 20
397795.39524102368
 30
0.0
 11
-3302.4066456152468
 21
397795.39524102368
 31
0.0
  0
LINE
  5
64ABB
  8
S-OBRYS
  6
CONTINUOUS
 10
-3302.4066456152432
 20
397822.48401321023
 30
0.0
 11
-3420.716724772868
 21
397822.48401321023
 31
0.0
  0
LINE
  5
64ABC
  8
S-OBRYS
  6
CONTINUOUS
 10
-3438.4753690217549
 20
397860.56754870072
 30
0.0
 11
-3310.3171223609129
 21
397920.32872057438
 31
0.0
  0
LINE
  5
64ABD
  8
S-OBRYS
  6
CONTINUOUS
 10
-3411.5616851940581
 20
396794.94395720202
 30
0.0
 11
-3311.5616851940581
 21
396794.94395720202
 31
0.0
  0
LINE
  5
64ABE
  8
S-OBRYS
  6
CONTINUOUS
 10
-3411.5616851940581
 20
396819.5018881766
 30
0.0
 11
-3311.5616851940581
 21
396819.5018881766
 31
0.0
  0
LINE
  5
64ABF
  8
S-OBRYS
  6
CONTINUOUS
 10
-3264.6913860070199
 20
397822.48401321023
 30
0.0
 11
-3378.7983166770109
 21
398067.18711571
 31
0.0
  0
LINE
  5
64AC0
  8
S-OBRYS
  6
CONTINUOUS
 10
-3381.5616851940572
 20
397795.39524102368
 30
0.0
 11
-3381.5616851940608
 21
396819.5018881766
 31
0.0
  0
LINE
  5
64AC1
  8
S-OBRYS
  6
CONTINUOUS
 10
-3411.5616851940581
 20
396794.94395720202
 30
0.0
 11
-3411.5616851940581
 21
396819.5018881766
 31
0.0
  0
POLYLINE
  5
64AC2
  8
S-OBRYS
  6
CONTINUOUS
 66
     1
 10
0.0
 20
0.0
 30
0.0
 70
     1
  0
VERTEX
  5
655E5
  8
S-OBRYS
  6
CONTINUOUS
 10
-4267.2993563846903
 20
397907.80637769517
 30
0.0
  0
VERTEX
  5
655E6
  8
S-OBRYS
  6
CONTINUOUS
 10
-4244.437522165942
 20
397918.46702607098
 30
0.0
  0
VERTEX
  5
655E7
  8
S-OBRYS
  6
CONTINUOUS
 10
-4201.6945202149946
 20
397826.80436258367
 30
0.0
  0
VERTEX
  5
655E8
  8
S-OBRYS
  6
CONTINUOUS
 10
-4224.5563544337456
 20
397816.1437142081
 30
0.0
  0
SEQEND
  5
655E9
  8
S-OBRYS
  6
CONTINUOUS
  0
LINE
  5
64AC3
  8
S-OBRYS
  6
CONTINUOUS
 10
-3420.7167247728721
 20
397822.48401321023
 30
0.0
 11
-3420.7167247728721
 21
397795.39524102368
 31
0.0
  0
LINE
  5
64AC4
  8
S-OBRYS
  6
CONTINUOUS
 10
-3420.7167247728721
 20
397822.48401321023
 30
0.0
 11
-3438.4753690217549
 21
397860.56754870072
 31
0.0
  0
LINE
  5
64AC5
  8
S-OBRYS
  6
CONTINUOUS
 10
-3349.5066805800129
 20
396819.5018881766
 30
0.0
 11
-3349.5066805800129
 21
397795.39524102368
 31
0.0
  0
LINE
  5
64AC6
  8
S-OBRYS
  6
CONTINUOUS
 10
-3341.5616851940581
 20
397795.39524102368
 30
0.0
 11
-3341.5616851940581
 21
396819.5018881766
 31
0.0
  0
LINE
  5
64AC7
  8
S-OBRYS
  6
CONTINUOUS
 10
-3311.5616851940581
 20
396794.94395720202
 30
0.0
 11
-3311.5616851940581
 21
396819.5018881766
 31
0.0
  0
LINE
  5
64AC8
  8
S-OBRYS
  6
CONTINUOUS
 10
-3069.4726781983591
 20
397806.09041243739
 30
0.0
 11
-3139.8990820086078
 21
397957.12032279512
 31
0.0
  0
LINE
  5
64AC9
  8
S-OBRYS
  6
CONTINUOUS
 10
-3296.412158553303
 20
397807.69237404922
 30
0.0
 11
-2924.8259658682769
 21
397980.96586136293
 31
0.0
  0
LINE
  5
64ACA
  8
S-OBRYS
  6
CONTINUOUS
 10
-3302.4066456152432
 20
397822.48401321023
 30
0.0
 11
-3302.4066456152468
 21
397795.39524102368
 31
0.0
  0
LINE
  5
64ACB
  8
S-OBRYS
  6
CONTINUOUS
 10
-3302.4066456152432
 20
397822.48401321023
 30
0.0
 11
-3271.4275650249951
 21
397836.92979573191
 31
0.0
  0
LINE
  5
64ACC
  8
S-OBRYS
  6
CONTINUOUS
 10
-3271.4275650249951
 20
397836.92979573191
 30
0.0
 11
-3310.3171223609129
 21
397920.32872057438
 31
0.0
  0
LINE
  5
64ACD
  8
S-OBRYS
  6
CONTINUOUS
 10
-3401.6567126410632
 20
398829.80040941812
 30
0.0
 11
-3368.8029189460258
 21
398845.12038501748
 31
0.0
  0
LINE
  5
64ACE
  8
S-OBRYS
  6
CONTINUOUS
 10
-3375.3944342674008
 20
398454.46093257639
 30
0.0
 11
-3327.9924813576758
 21
398476.56482622959
 31
0.0
  0
LINE
  5
64ACF
  8
S-OBRYS
  6
CONTINUOUS
 10
-3342.1297624310719
 20
398469.97250379971
 30
0.0
 11
-3489.4984574343548
 21
398786.0056901006
 31
0.0
  0
LINE
  5
64AD0
  8
S-OBRYS
  6
CONTINUOUS
 10
-3316.8075563001812
 20
398524.08309673169
 30
0.0
 11
-3453.9204427137411
 21
398818.12263053667
 31
0.0
  0
LINE
  5
64AD1
  8
S-OBRYS
  6
CONTINUOUS
 10
-3430.2194662588809
 20
398829.17457736342
 30
0.0
 11
-3269.0477929352128
 21
398483.54080853058
 31
0.0
  0
LINE
  5
64AD2
  8
S-OBRYS
  6
CONTINUOUS
 10
-3292.6376033700399
 20
398811.2992287518
 30
0.0
 11
-3758.7472814417092
 21
398593.94871632679
 31
0.0
  0
LINE
  5
64AD3
  8
S-OBRYS
  6
CONTINUOUS
 10
-3267.1132721622748
 20
398756.56212383532
 30
0.0
 11
-3438.501545472111
 21
398676.64245947299
 31
0.0
  0
LINE
  5
64AD4
  8
S-OBRYS
  6
CONTINUOUS
 10
-3406.5184898040211
 20
398840.22652418999
 30
0.0
 11
-3253.202746765699
 21
398511.43985222123
 31
0.0
  0
LINE
  5
64AD5
  8
S-OBRYS
  6
CONTINUOUS
 10
-3386.4992767255758
 20
398428.77228217752
 30
0.0
 11
-3195.838119230044
 21
398517.6790400304
 31
0.0
  0
LINE
  5
64AD6
  8
S-OBRYS
  6
CONTINUOUS
 10
-3375.2501999257838
 20
398404.64855913102
 30
0.0
 11
-3184.589042430252
 21
398493.5553169839
 31
0.0
  0
LINE
  5
64AD7
  8
S-OBRYS
  6
CONTINUOUS
 10
-3664.7981222024168
 20
398739.28909700533
 30
0.0
 11
-3638.2755890302501
 21
398682.4113410681
 31
0.0
  0
POLYLINE
  5
64AD8
  8
S-OBRYS
  6
CONTINUOUS
 66
     1
 10
0.0
 20
0.0
 30
0.0
 70
     1
  0
VERTEX
  5
655EA
  8
S-OBRYS
  6
CONTINUOUS
 10
-3454.9172048596479
 20
398646.13591749832
 30
0.0
  0
VERTEX
  5
655EB
  8
S-OBRYS
  6
CONTINUOUS
 10
-3442.828820202983
 20
398651.7728238384
 30
0.0
  0
VERTEX
  5
655EC
  8
S-OBRYS
  6
CONTINUOUS
 10
-3511.3829726486078
 20
398798.78767818777
 30
0.0
  0
VERTEX
  5
655ED
  8
S-OBRYS
  6
CONTINUOUS
 10
-3523.4713573052718
 20
398793.15077184758
 30
0.0
  0
SEQEND
  5
655EE
  8
S-OBRYS
  6
CONTINUOUS
  0
LINE
  5
64AD9
  8
S-OBRYS
  6
CONTINUOUS
 10
-3537.5322603538561
 20
398771.75217361399
 30
0.0
 11
-3480.3476563876361
 21
398649.11939466192
 31
0.0
  0
LINE
  5
64ADA
  8
S-OBRYS
  6
CONTINUOUS
 10
-3584.9187072504001
 20
398776.53747992631
 30
0.0
 11
-3558.3961740782361
 21
398719.6597239892
 31
0.0
  0
LINE
  5
64ADB
  8
S-OBRYS
  6
CONTINUOUS
 10
-3638.2755890302501
 20
398682.4113410681
 30
0.0
 11
-3616.3302395281171
 21
398669.42840435001
 31
0.0
  0
LINE
  5
64ADC
  8
S-OBRYS
  6
CONTINUOUS
 10
-3638.2755890302501
 20
398682.4113410681
 30
0.0
 11
-3558.3961740782361
 21
398719.6597239892
 31
0.0
  0
LINE
  5
64ADD
  8
S-OBRYS
  6
CONTINUOUS
 10
-3480.3476563876361
 20
398649.11939466192
 30
0.0
 11
-3675.5933671036
 21
398558.07482453319
 31
0.0
  0
LINE
  5
64ADE
  8
S-OBRYS
  6
CONTINUOUS
 10
-3744.852883907628
 20
398649.19118481089
 30
0.0
 11
-3707.4979488563622
 21
398569.08326807822
 31
0.0
  0
LINE
  5
64ADF
  8
S-OBRYS
  6
CONTINUOUS
 10
-3633.2903635276671
 20
398577.8010390636
 30
0.0
 11
-3690.4749674938839
 21
398700.43381801568
 31
0.0
  0
LINE
  5
64AE0
  8
S-OBRYS
  6
CONTINUOUS
 10
-3675.5933671036
 20
398558.07482453319
 30
0.0
 11
-3707.4979488563622
 21
398569.08326807822
 31
0.0
  0
LINE
  5
64AE1
  8
S-OBRYS
  6
CONTINUOUS
 10
-3654.501730565652
 20
398717.20841388399
 30
0.0
 11
-3732.777971069816
 21
398680.70760348532
 31
0.0
  0
LINE
  5
64AE2
  8
S-OBRYS
  6
CONTINUOUS
 10
-3732.777971069816
 20
398680.70760348532
 30
0.0
 11
-3744.852883907628
 21
398649.19118481089
 31
0.0
  0
LINE
  5
64AE3
  8
S-OBRYS
  6
CONTINUOUS
 10
-3616.3302395281171
 20
398669.42840435001
 30
0.0
 11
-3562.5568663001291
 21
398694.50334009097
 31
0.0
  0
LINE
  5
64AE4
  8
S-OBRYS
  6
CONTINUOUS
 10
-3558.3961740782361
 20
398719.6597239892
 30
0.0
 11
-3562.5568663001291
 21
398694.50334009097
 31
0.0
  0
LINE
  5
64AE5
  8
S-OBRYS
  6
CONTINUOUS
 10
-3367.538503982054
 20
398437.61383571237
 30
0.0
 11
-3375.3944342674008
 21
398454.46093257639
 31
0.0
  0
LINE
  5
64AE6
  8
S-OBRYS
  6
CONTINUOUS
 10
-3386.4992767255758
 20
398428.77228217752
 30
0.0
 11
-3375.2501999257838
 21
398404.64855913102
 31
0.0
  0
LINE
  5
64AE7
  8
S-OBRYS
  6
CONTINUOUS
 10
-3461.415811478284
 20
398691.63275525981
 30
0.0
 11
-3448.3357917323669
 21
398697.73206863611
 31
0.0
  0
LINE
  5
64AE8
  8
S-OBRYS
  6
CONTINUOUS
 10
-3493.2498734232331
 20
398676.78828838462
 30
0.0
 11
-3473.5041961349489
 21
398685.99584891961
 31
0.0
  0
LINE
  5
64AE9
  8
S-OBRYS
  6
CONTINUOUS
 10
-3664.7981222024168
 20
398739.28909700533
 30
0.0
 11
-3584.9187072504001
 21
398776.53747992631
 31
0.0
  0
LINE
  5
64AEA
  8
S-OBRYS
  6
CONTINUOUS
 10
-3524.630043318256
 20
398744.08327989129
 30
0.0
 11
-3504.8843660299681
 21
398753.2908404264
 31
0.0
  0
LINE
  5
64AEB
  8
S-OBRYS
  6
CONTINUOUS
 10
-3537.5322603538561
 20
398771.75217361399
 30
0.0
 11
-3574.6223156136371
 21
398754.45679680508
 31
0.0
  0
LINE
  5
64AEC
  8
S-OBRYS
  6
CONTINUOUS
 10
-3489.4984574343548
 20
398786.0056901006
 30
0.0
 11
-3447.973394678706
 21
398805.3691448691
 31
0.0
  0
LINE
  5
64AED
  8
S-OBRYS
  6
CONTINUOUS
 10
-3492.7959813733069
 20
398758.92774676642
 30
0.0
 11
-3479.7159616273898
 21
398765.02706014272
 31
0.0
  0
LINE
  5
64AEE
  8
S-OBRYS
  6
CONTINUOUS
 10
-3453.9204427137411
 20
398818.12263053667
 30
0.0
 11
-3406.518489804017
 21
398840.22652418999
 31
0.0
  0
LINE
  5
64AEF
  8
S-OBRYS
  6
CONTINUOUS
 10
-2967.0141355446981
 20
398112.99744851998
 30
0.0
 11
-2806.2020476916109
 21
398187.98535660969
 31
0.0
  0
LINE
  5
64AF0
  8
S-OBRYS
  6
CONTINUOUS
 10
-2763.8741367280791
 20
398097.21285861777
 30
0.0
 11
-3157.6621598919492
 21
398941.69399950647
 31
0.0
  0
LINE
  5
64AF1
  8
S-OBRYS
  6
CONTINUOUS
 10
-3288.4236664959972
 20
398713.01001982042
 30
0.0
 11
-3254.2380169781418
 21
398728.95104998961
 31
0.0
  0
LINE
  5
64AF2
  8
S-OBRYS
  6
CONTINUOUS
 10
-3220.3489530706579
 20
398526.75982782082
 30
0.0
 11
-3368.8029189460258
 21
398845.12038501748
 31
0.0
  0
LINE
  5
64AF3
  8
S-OBRYS
  6
CONTINUOUS
 10
-3274.7470124510301
 20
398683.6803405715
 30
0.0
 11
-3327.8508309092258
 21
398797.56184676068
 31
0.0
  0
LINE
  5
64AF4
  8
S-OBRYS
  6
CONTINUOUS
 10
-3290.1688268826001
 20
398676.48903039948
 30
0.0
 11
-3274.7470124510301
 21
398683.6803405715
 31
0.0
  0
LINE
  5
64AF5
  8
S-OBRYS
  6
CONTINUOUS
 10
-3253.202746765699
 20
398511.43985222123
 30
0.0
 11
-3221.601455351346
 21
398526.17577641527
 31
0.0
  0
LINE
  5
64AF6
  8
S-OBRYS
  6
CONTINUOUS
 10
-3327.9924813576758
 20
398476.56482622959
 30
0.0
 11
-3316.8075563001812
 21
398524.08309673169
 31
0.0
  0
LINE
  5
64AF7
  8
S-OBRYS
  6
CONTINUOUS
 10
-3315.0875500663242
 20
398378.2573034229
 30
0.0
 11
-3335.9414094393392
 21
398422.97854916769
 31
0.0
  0
LINE
  5
64AF8
  8
S-OBRYS
  6
CONTINUOUS
 10
-3331.5645880964621
 20
398370.57393440581
 30
0.0
 11
-3352.418447469478
 21
398415.29518015048
 31
0.0
  0
LINE
  5
64AF9
  8
S-OBRYS
  6
CONTINUOUS
 10
-3184.589042430252
 20
398493.5553169839
 30
0.0
 11
-3195.838119230044
 21
398517.6790400304
 31
0.0
  0
LINE
  5
64AFA
  8
S-OBRYS
  6
CONTINUOUS
 10
-3186.575608491934
 20
398438.18340594339
 30
0.0
 11
-3207.4294678649499
 21
398482.90465168818
 31
0.0
  0
LINE
  5
64AFB
  8
S-OBRYS
  6
CONTINUOUS
 10
-3203.0526465220751
 20
398430.5000369263
 30
0.0
 11
-3223.906505895091
 21
398475.22128267097
 31
0.0
  0
LINE
  5
64AFC
  8
S-OBRYS
  6
CONTINUOUS
 10
-3158.7380844627769
 20
398451.16425658233
 30
0.0
 11
-3148.6158534656861
 21
398429.45706215809
 31
0.0
  0
LINE
  5
64AFD
  8
S-OBRYS
  6
CONTINUOUS
 10
-3221.601455351346
 20
398526.17577641527
 30
0.0
 11
-3220.3489530706579
 21
398526.75982782082
 31
0.0
  0
LINE
  5
64AFE
  8
S-OBRYS
  6
CONTINUOUS
 10
-3221.601455351346
 20
398526.17577641527
 30
0.0
 11
-3213.745525065995
 21
398509.32867955143
 31
0.0
  0
ARC
  5
64AFF
  8
S-OBRYS
  6
CONTINUOUS
 10
-2985.3131671190858
 20
398143.45297381643
 30
0.0
 40
40.930215194313092
 50
109.794542439354
 51
143.14825172434541
  0
LINE
  5
64B00
  8
S-OBRYS
  6
CONTINUOUS
 10
-3083.0908738095568
 20
398307.44891532918
 30
0.0
 11
-3004.6700198177132
 21
398139.27485123131
 31
0.0
  0
LINE
  5
64B01
  8
S-OBRYS
  6
CONTINUOUS
 10
-3027.2170594712188
 20
398117.72721478262
 30
0.0
 11
-3009.5069150706731
 21
398125.98559074348
 31
0.0
  0
ARC
  5
64B02
  8
S-OBRYS
  6
CONTINUOUS
 10
-3013.7330976880799
 20
398135.04866861389
 30
0.0
 40
10.0
 50
294.99999999969617
 51
24.99999999853728
  0
ARC
  5
64B03
  8
S-OBRYS
  6
CONTINUOUS
 10
-3067.4479011434819
 20
398319.59147934592
 30
0.0
 40
40.930215194313092
 50
266.851748274687
 51
300.20545756127621
  0
ARC
  5
64B04
  8
S-OBRYS
  6
CONTINUOUS
 10
-3092.1539516799239
 20
398303.2227327117
 30
0.0
 40
10.0
 50
24.99999999853728
 51
114.9999999996962
  0
LINE
  5
64B05
  8
S-OBRYS
  6
CONTINUOUS
 10
-3114.0902786978768
 20
398304.02743462112
 30
0.0
 11
-3096.3801342973311
 21
398312.28581058211
 31
0.0
  0
LINE
  5
64B06
  8
S-OBRYS
  6
CONTINUOUS
 10
-3275.2470663424178
 20
398774.00510174461
 30
0.0
 11
-3114.4349784893279
 21
398848.99300983449
 31
0.0
  0
LINE
  5
64B07
  8
S-OBRYS
  6
CONTINUOUS
 10
-3157.6621598919492
 20
398941.69399950647
 30
0.0
 11
-3318.4742477450391
 21
398866.70609141671
 31
0.0
  0
LINE
  5
64B08
  8
S-OBRYS
  6
CONTINUOUS
 10
-3301.0108191667282
 20
398699.73975788499
 30
0.0
 11
-3285.5890047351568
 21
398706.93106805708
 31
0.0
  0
LINE
  5
64B09
  8
S-OBRYS
  6
CONTINUOUS
 10
-3314.1741768642569
 20
398768.23216751177
 30
0.0
 11
-3279.9885273464029
 21
398784.17319768108
 31
0.0
  0
LINE
  5
64B0A
  8
S-OBRYS
  6
CONTINUOUS
 10
-3664.7981222024168
 20
398739.28909700533
 30
0.0
 11
-3584.9187072504001
 21
398776.53747992631
 31
0.0
  0
DIMENSION
  5
64B0B
  8
S-OBRYS
  6
CONTINUOUS
  2
*D91
 10
-4860.1177009715802
 20
396794.94395720202
 30
0.0
 11
-4750.0923441550403
 21
397095.79253329849
 31
0.0
 70
     2
 13
-5576.5616851940613
 23
397042.35322615789
 33
0.0
 14
-3023.014965919207
 24
398233.09161681251
 34
0.0
 15
-5156.5486401752969
 25
396794.94395720202
 35
0.0
 16
-4806.0281903845762
 26
396985.5276866653
 36
0.0
1001
ACAD
1000
DSTYLE
1002
{
1070
   271
1070
     0
1002
}
  0
DIMENSION
  5
64B0C
  8
S-OBRYS
  6
CONTINUOUS
  2
*D92
 10
-2449.0818269932352
 20
398202.80899664247
 30
0.0
 11
-2592.417873835861
 21
398687.65925979149
 31
0.0
 70
     1
 13
-3624.8584147264078
 23
398757.91328846582
 33
0.0
 14
-3202.2401529856579
 24
397851.60550142912
 34
0.0
  0
DIMENSION
  5
64B0D
  8
S-OBRYS
  6
CONTINUOUS
  2
*D93
 10
-3110.6190622108011
 20
396130.00523408788
 30
0.0
 11
-4193.5903737024291
 21
396205.00523408788
 31
0.0
 70
     0
  1
2165
 13
-5276.5616851940567
 23
397437.1796246841
 33
0.0
 14
-3110.6190622108011
 24
397894.32911770599
 34
0.0
  0
LINE
  5
64B0E
  8
S-OBRYS
  6
CONTINUOUS
 10
-5792.5663528954574
 20
396614.69607886719
 30
0.0
 11
-5792.5663528954574
 21
397678.28688808071
 31
0.0
  0
LINE
  5
64B0F
  8
S-OBRYS
  6
CONTINUOUS
 10
-5792.5663528954574
 20
397678.28688808071
 30
0.0
 11
-5918.0755191557946
 21
397590.576318726
 31
0.0
  0
LINE
  5
64B10
  8
S-OBRYS
  6
CONTINUOUS
 10
-5792.5663528954574
 20
397614.22600963339
 30
0.0
 11
-5918.0755191557946
 21
397526.51544027863
 31
0.0
  0
LINE
  5
64B11
  8
S-OBRYS
  6
CONTINUOUS
 10
-5792.5663528954574
 20
397543.2396376899
 30
0.0
 11
-5918.0755191557946
 21
397455.52906833519
 31
0.0
  0
LINE
  5
64B12
  8
S-OBRYS
  6
CONTINUOUS
 10
-5792.5663528954574
 20
397470.52193053649
 30
0.0
 11
-5918.0755191557946
 21
397382.81136118178
 31
0.0
  0
LINE
  5
64B13
  8
S-OBRYS
  6
CONTINUOUS
 10
-5792.5663528954574
 20
397399.53555859288
 30
0.0
 11
-5918.0755191557946
 21
397311.82498923817
 31
0.0
  0
DIMENSION
  5
64B14
  8
S-OBRYS
  6
CONTINUOUS
  2
*D86
 10
-5792.5663528954574
 20
397723.7306717952
 30
0.0
 11
-6240.4234957526014
 21
397798.7306717952
 31
0.0
 70
     0
  1
MIN.200
 13
-5592.5663528954574
 23
397092.02609788021
 33
0.0
 14
-5792.5663528954574
 24
397092.02609788021
 34
0.0
  0
LINE
  5
64B15
  8
S-OBRYS
  6
CONTINUOUS
 10
-5792.5663528954574
 20
397678.28688808071
 30
0.0
 11
-5918.0755191557946
 21
397590.576318726
 31
0.0
  0
LINE
  5
64B16
  8
S-OBRYS
  6
CONTINUOUS
 10
-5792.5663528954574
 20
397614.22600963339
 30
0.0
 11
-5918.0755191557946
 21
397526.51544027863
 31
0.0
  0
LINE
  5
64B17
  8
S-OBRYS
  6
CONTINUOUS
 10
-5792.5663528954574
 20
397543.2396376899
 30
0.0
 11
-5918.0755191557946
 21
397455.52906833519
 31
0.0
  0
LINE
  5
64B18
  8
S-OBRYS
  6
CONTINUOUS
 10
-5792.5663528954574
 20
397470.52193053649
 30
0.0
 11
-5918.0755191557946
 21
397382.81136118178
 31
0.0
  0
LINE
  5
64B19
  8
S-OBRYS
  6
CONTINUOUS
 10
-5792.5663528954574
 20
397399.53555859288
 30
0.0
 11
-5918.0755191557946
 21
397311.82498923817
 31
0.0
  0
LINE
  5
64B1A
  8
S-OBRYS
  6
CONTINUOUS
 10
-5792.5663528954574
 20
397312.96681356151
 30
0.0
 11
-5918.0755191557946
 21
397225.2562442068
 31
0.0
  0
LINE
  5
64B1B
  8
S-OBRYS
  6
CONTINUOUS
 10
-5792.5663528954574
 20
397228.12940373982
 30
0.0
 11
-5918.0755191557946
 21
397140.418834385
 31
0.0
  0
LINE
  5
64B1C
  8
S-OBRYS
  6
CONTINUOUS
 10
-5792.5663528954574
 20
397141.56065870827
 30
0.0
 11
-5918.0755191557946
 21
397053.85008935351
 31
0.0
  0
LINE
  5
64B1D
  8
S-OBRYS
  6
CONTINUOUS
 10
-5792.5663528954574
 20
397054.99191367673
 30
0.0
 11
-5918.0755191557946
 21
396967.28134432208
 31
0.0
  0
LINE
  5
64B1E
  8
S-OBRYS
  6
CONTINUOUS
 10
-5792.5663528954574
 20
396971.88594083622
 30
0.0
 11
-5918.0755191557946
 21
396884.17537148157
 31
0.0
  0
LINE
  5
64B1F
  8
S-OBRYS
  6
CONTINUOUS
 10
-5792.5663528954574
 20
396887.04858190019
 30
0.0
 11
-5918.0755191557946
 21
396799.33801254549
 31
0.0
  0
LINE
  5
64B20
  8
S-OBRYS
  6
CONTINUOUS
 10
-5792.5663528954574
 20
396809.13671646052
 30
0.0
 11
-5918.0755191557946
 21
396721.42614710581
 31
0.0
  0
LINE
  5
64B21
  8
S-OBRYS
  6
CONTINUOUS
 10
-5792.5663528954574
 20
396736.41895842139
 30
0.0
 11
-5918.0755191557946
 21
396648.70838906668
 31
0.0
  0
LINE
  5
64B22
  8
S-OBRYS
  6
CONTINUOUS
 10
-5792.5663528954574
 20
396646.38744119892
 30
0.0
 11
-5918.0755191557946
 21
396558.67687184428
 31
0.0
  0
LINE
  5
64B23
  8
S-OBRYS
  6
CONTINUOUS
 10
-5792.5663528954574
 20
397678.28688808071
 30
0.0
 11
-5918.0755191557946
 21
397590.576318726
 31
0.0
  0
LINE
  5
64B24
  8
S-OBRYS
  6
CONTINUOUS
 10
-5792.5663528954574
 20
397614.22600963339
 30
0.0
 11
-5918.0755191557946
 21
397526.51544027863
 31
0.0
  0
LINE
  5
64B25
  8
S-OBRYS
  6
CONTINUOUS
 10
-5792.5663528954574
 20
397543.2396376899
 30
0.0
 11
-5918.0755191557946
 21
397455.52906833519
 31
0.0
  0
LINE
  5
64B26
  8
S-OBRYS
  6
CONTINUOUS
 10
-5792.5663528954574
 20
397470.52193053649
 30
0.0
 11
-5918.0755191557946
 21
397382.81136118178
 31
0.0
  0
LINE
  5
64B27
  8
S-OBRYS
  6
CONTINUOUS
 10
-5792.5663528954574
 20
397399.53555859288
 30
0.0
 11
-5918.0755191557946
 21
397311.82498923817
 31
0.0
  0
LINE
  5
64B28
  8
S-OBRYS
  6
CONTINUOUS
 10
-5792.5663528954574
 20
397312.96681356151
 30
0.0
 11
-5918.0755191557946
 21
397225.2562442068
 31
0.0
  0
LINE
  5
64B29
  8
S-OBRYS
  6
CONTINUOUS
 10
-5792.5663528954574
 20
397228.12940373982
 30
0.0
 11
-5918.0755191557946
 21
397140.418834385
 31
0.0
  0
LINE
  5
64B2A
  8
S-OBRYS
  6
CONTINUOUS
 10
-5792.5663528954574
 20
397141.56065870827
 30
0.0
 11
-5918.0755191557946
 21
397053.85008935351
 31
0.0
  0
LINE
  5
64B2B
  8
S-OBRYS
  6
CONTINUOUS
 10
-5792.5663528954574
 20
397054.99191367673
 30
0.0
 11
-5918.0755191557946
 21
396967.28134432208
 31
0.0
  0
LINE
  5
64B2C
  8
S-OBRYS
  6
CONTINUOUS
 10
-5792.5663528954574
 20
396971.88594083622
 30
0.0
 11
-5918.0755191557946
 21
396884.17537148157
 31
0.0
  0
LINE
  5
64B2D
  8
S-OBRYS
  6
CONTINUOUS
 10
-5792.5663528954574
 20
396887.04858190019
 30
0.0
 11
-5918.0755191557946
 21
396799.33801254549
 31
0.0
  0
LINE
  5
64B2E
  8
S-OBRYS
  6
CONTINUOUS
 10
-5792.5663528954574
 20
396809.13671646052
 30
0.0
 11
-5918.0755191557946
 21
396721.42614710581
 31
0.0
  0
LINE
  5
64B2F
  8
S-OBRYS
  6
CONTINUOUS
 10
-5792.5663528954574
 20
396736.41895842139
 30
0.0
 11
-5918.0755191557946
 21
396648.70838906668
 31
0.0
  0
LINE
  5
64B30
  8
S-OBRYS
  6
CONTINUOUS
 10
-5792.5663528954574
 20
396646.38744119892
 30
0.0
 11
-5918.0755191557946
 21
396558.67687184428
 31
0.0
  0
LINE
  5
64B31
  8
S-OBRYS
  6
CONTINUOUS
 10
-2363.8741367280199
 20
397371.46483897499
 30
0.0
 11
-2363.8741367280199
 21
398435.05564818851
 31
0.0
  0
LINE
  5
64B32
  8
S-OBRYS
  6
CONTINUOUS
 10
-2363.8741367280199
 20
398435.05564818851
 30
0.0
 11
-2238.3649704676832
 21
398347.34507883381
 31
0.0
  0
LINE
  5
64B33
  8
S-OBRYS
  6
CONTINUOUS
 10
-2363.8741367280199
 20
398370.99476974132
 30
0.0
 11
-2238.3649704676832
 21
398283.28420038649
 31
0.0
  0
LINE
  5
64B34
  8
S-OBRYS
  6
CONTINUOUS
 10
-2363.8741367280199
 20
398300.0083977977
 30
0.0
 11
-2238.3649704676832
 21
398212.297828443
 31
0.0
  0
LINE
  5
64B35
  8
S-OBRYS
  6
CONTINUOUS
 10
-2363.8741367280199
 20
398227.29069064441
 30
0.0
 11
-2238.3649704676832
 21
398139.58012128959
 31
0.0
  0
LINE
  5
64B36
  8
S-OBRYS
  6
CONTINUOUS
 10
-2363.8741367280199
 20
398156.30431870092
 30
0.0
 11
-2238.3649704676832
 21
398068.5937493461
 31
0.0
  0
LINE
  5
64B37
  8
S-OBRYS
  6
CONTINUOUS
 10
-2363.8741367280199
 20
398069.73557366931
 30
0.0
 11
-2238.3649704676832
 21
397982.02500431472
 31
0.0
  0
LINE
  5
64B38
  8
S-OBRYS
  6
CONTINUOUS
 10
-2363.8741367280199
 20
397984.89816384768
 30
0.0
 11
-2238.3649704676832
 21
397897.18759449298
 31
0.0
  0
LINE
  5
64B39
  8
S-OBRYS
  6
CONTINUOUS
 10
-2363.8741367280199
 20
397898.32941881608
 30
0.0
 11
-2238.3649704676832
 21
397810.61884946137
 31
0.0
  0
LINE
  5
64B3A
  8
S-OBRYS
  6
CONTINUOUS
 10
-2363.8741367280199
 20
397811.76067378459
 30
0.0
 11
-2238.3649704676832
 21
397724.05010442989
 31
0.0
  0
LINE
  5
64B3B
  8
S-OBRYS
  6
CONTINUOUS
 10
-2363.8741367280199
 20
397728.65470094408
 30
0.0
 11
-2238.3649704676832
 21
397640.94413158938
 31
0.0
  0
LINE
  5
64B3C
  8
S-OBRYS
  6
CONTINUOUS
 10
-2363.8741367280199
 20
397643.81734200811
 30
0.0
 11
-2238.3649704676832
 21
397556.10677265341
 31
0.0
  0
LINE
  5
64B3D
  8
S-OBRYS
  6
CONTINUOUS
 10
-2363.8741367280199
 20
397565.90547656838
 30
0.0
 11
-2238.3649704676832
 21
397478.19490721362
 31
0.0
  0
LINE
  5
64B3E
  8
S-OBRYS
  6
CONTINUOUS
 10
-2363.8741367280199
 20
397493.18771852931
 30
0.0
 11
-2238.3649704676832
 21
397405.47714917461
 31
0.0
  0
LINE
  5
64B3F
  8
S-OBRYS
  6
CONTINUOUS
 10
-2363.8741367280199
 20
397403.15620130679
 30
0.0
 11
-2238.3649704676832
 21
397315.44563195208
 31
0.0
  0
DIMENSION
  5
64B40
  8
S-OBRYS
  6
CONTINUOUS
  2
*D87
 10
-2363.8741367280199
 20
398486.03605098079
 30
0.0
 11
-1960.302708156592
 21
398486.03605098079
 31
0.0
 70
   128
  1
MIN.400
 13
-2763.8741367280199
 23
398094.06285861781
 33
0.0
 14
-2363.8741367280199
 24
398094.06285861781
 34
0.0
  0
VIEWPORT
  5
1FAB5
 67
     1
  8
0
  6
ČERCHOVANÁ
 10
12.669026204836801
 20
9.4585013259736659
 30
0.0
 40
41.707206501782828
 41
24.2248555085413
 68
     1
 69
     1
1001
ACAD
1000
MVIEW
1002
{
1070
    16
1010
0.0
1020
0.0
1030
0.0
1010
0.0
1020
0.0
1030
1.0
1040
0.0
1040
24.2248555085413
1040
12.669026204836801
1040
9.4585013259736659
1040
50.0
1040
0.0
1040
0.0
1070
     0
1070
   100
1070
     1
1070
     1
1070
     0
1070
     0
1070
     0
1070
     0
1040
0.0
1040
0.0
1040
0.0
1040
10.0
1040
10.0
1040
10.0
1040
10.0
1070
     0
1002
{
1002
}
1002
}
  0
VIEWPORT
  5
1FAB7
 67
     1
  8
2-VZT
  6
ČERCHOVANÁ
 10
5.24999976158142
 20
3.99999976158142
 30
0.0
 40
8.3999996185302717
 41
6.3999996185302717
 68
     2
 69
     2
1001
ACAD
1000
MVIEW
1002
{
1070
    16
1010
0.0
1020
0.0
1030
0.0
1010
0.0
1020
0.0
1030
1.0
1040
0.0
1040
517776.44812413253
1040
-335493.7046016907
1040
-205251.99203018961
1040
50.0
1040
0.0
1040
0.0
1070
     0
1070
   100
1070
     1
1070
     0
1070
     0
1070
     0
1070
     0
1070
     0
1040
0.0
1040
0.0
1040
0.0
1040
1.0
1040
1.0
1040
1.0
1040
1.0
1070
     0
1002
{
1002
}
1002
}
  0
ENDSEC
  0
EOF
