  0
SECTION
  2
HEADER
  9
$ACADVER
  1
AC1009
  9
$INSBASE
 10
0.0
 20
0.0
 30
0.0
  9
$EXTMIN
 10
-9317.3245871225408
 20
393402.81400089961
 30
0.0
  9
$EXTMAX
 10
27797.920683803721
 20
799643.3234279257
 30
0.0
  9
$LIMMIN
 10
-127022.6804658414
 20
-67144.462473645661
  9
$LIMMAX
 10
-873.19720690528334
 20
6755.1563308572058
  9
$ORTHOMODE
 70
     1
  9
$REGENMODE
 70
     1
  9
$FILLMODE
 70
     1
  9
$QTEXTMODE
 70
     0
  9
$MIRRTEXT
 70
     0
  9
$DRAGMODE
 70
     2
  9
$LTSCALE
 40
50.0
  9
$OSMODE
 70
   679
  9
$ATTMODE
 70
     1
  9
$TEXTSIZE
 40
200.0
  9
$TRACEWID
 40
10.0
  9
$TEXTSTYLE
  7
R
  9
$CLAYER
  8
HLADINA1
  9
$CELTYPE
  6
CONTINUOUS
  9
$CECOLOR
 62
   256
  9
$DIMSCALE
 40
50.0
  9
$DIMASZ
 40
2.0
  9
$DIMEXO
 40
0.063
  9
$DIMDLI
 40
5.0
  9
$DIMRND
 40
0.0
  9
$DIMDLE
 40
0.0
  9
$DIMEXE
 40
0.2
  9
$DIMTP
 40
0.0
  9
$DIMTM
 40
0.0
  9
$DIMTXT
 40
2.0
  9
$DIMCEN
 40
2.0
  9
$DIMTSZ
 40
0.0
  9
$DIMTOL
 70
     0
  9
$DIMLIM
 70
     0
  9
$DIMTIH
 70
     0
  9
$DIMTOH
 70
     0
  9
$DIMSE1
 70
     0
  9
$DIMSE2
 70
     0
  9
$DIMTAD
 70
     1
  9
$DIMZIN
 70
    12
  9
$DIMBLK
  1

  9
$DIMASO
 70
     1
  9
$DIMSHO
 70
     0
  9
$DIMPOST
  1

  9
$DIMAPOST
  1

  9
$DIMALT
 70
     0
  9
$DIMALTD
 70
     2
  9
$DIMALTF
 40
25.399999999999999
  9
$DIMLFAC
 40
1.0
  9
$DIMTOFL
 70
     1
  9
$DIMTVP
 40
0.0
  9
$DIMTIX
 70
     0
  9
$DIMSOXD
 70
     0
  9
$DIMSAH
 70
     1
  9
$DIMBLK1
  1
OPEN
  9
$DIMBLK2
  1
OPEN
  9
$DIMSTYLE
  2
EMBABA
  9
$DIMCLRD
 70
     0
  9
$DIMCLRE
 70
     0
  9
$DIMCLRT
 70
     7
  9
$DIMTFAC
 40
1.0
  9
$DIMGAP
 40
0.5
  9
$LUNITS
 70
     2
  9
$LUPREC
 70
     0
  9
$SKETCHINC
 40
10.0
  9
$FILLETRAD
 40
400.0
  9
$AUNITS
 70
     0
  9
$AUPREC
 70
     4
  9
$MENU
  1
ACAD
  9
$ELEVATION
 40
0.0
  9
$PELEVATION
 40
0.0
  9
$THICKNESS
 40
0.0
  9
$LIMCHECK
 70
     0
  9
$BLIPMODE
 70
     0
  9
$CHAMFERA
 40
0.0
  9
$CHAMFERB
 40
0.0
  9
$SKPOLY
 70
     0
  9
$TDCREATE
 40
2450205.720229167
  9
$TDUPDATE
 40
2453528.4846650688
  9
$TDINDWG
 40
42.315811319399998
  9
$TDUSRTIMER
 40
42.315811319399998
  9
$USRTIMER
 70
     1
  9
$ANGBASE
 50
0.0
  9
$ANGDIR
 70
     0
  9
$PDMODE
 70
     2
  9
$PDSIZE
 40
-5.0
  9
$PLINEWID
 40
0.0
  9
$COORDS
 70
     0
  9
$SPLFRAME
 70
     0
  9
$SPLINETYPE
 70
     6
  9
$SPLINESEGS
 70
     8
  9
$ATTDIA
 70
     0
  9
$ATTREQ
 70
     1
  9
$HANDLING
 70
     1
  9
$HANDSEED
  5
65BA8
  9
$SURFTAB1
 70
    18
  9
$SURFTAB2
 70
    18
  9
$SURFTYPE
 70
     6
  9
$SURFU
 70
    18
  9
$SURFV
 70
    18
  9
$UCSNAME
  2

  9
$UCSORG
 10
0.0
 20
0.0
 30
0.0
  9
$UCSXDIR
 10
1.0
 20
0.0
 30
0.0
  9
$UCSYDIR
 10
0.0
 20
1.0
 30
0.0
  9
$PUCSNAME
  2

  9
$PUCSORG
 10
0.0
 20
0.0
 30
0.0
  9
$PUCSXDIR
 10
1.0
 20
0.0
 30
0.0
  9
$PUCSYDIR
 10
0.0
 20
1.0
 30
0.0
  9
$USERI1
 70
     0
  9
$USERI2
 70
     0
  9
$USERI3
 70
     0
  9
$USERI4
 70
     0
  9
$USERI5
 70
     0
  9
$USERR1
 40
0.0
  9
$USERR2
 40
50.0
  9
$USERR3
 40
0.0
  9
$USERR4
 40
0.0
  9
$USERR5
 40
0.0
  9
$WORLDVIEW
 70
     1
  9
$SHADEDGE
 70
     3
  9
$SHADEDIF
 70
    70
  9
$TILEMODE
 70
     1
  9
$MAXACTVP
 70
    16
  9
$PLIMCHECK
 70
     0
  9
$PEXTMIN
 10
1.049999952316284
 20
0.7999999523162842
 30
0.0
  9
$PEXTMAX
 10
9.4499995708465558
 20
7.1999995708465558
 30
0.0
  9
$PLIMMIN
 10
-0.2500002402958907
 20
-0.2499999962453767
  9
$PLIMMAX
 10
10.74999951940821
 20
8.2499997634587316
  9
$UNITMODE
 70
     0
  9
$VISRETAIN
 70
     0
  9
$PLINEGEN
 70
     0
  9
$PSLTSCALE
 70
     1
  0
ENDSEC
  0
SECTION
  2
TABLES
  0
TABLE
  2
VPORT
 70
     4
  0
VPORT
  2
*ACTIVE
 70
     0
 10
0.0
 20
0.0
 11
1.0
 21
1.0
 12
4065.63698307611
 22
403089.87162994902
 13
0.0
 23
0.0
 14
1.0
 24
1.0
 15
1.0
 25
1.0
 16
0.0
 26
0.0
 36
1.0
 17
0.0
 27
0.0
 37
0.0
 40
48157.838666312527
 41
1.6116303219106951
 42
50.0
 43
0.0
 44
0.0
 50
0.0
 51
0.0
 71
     0
 72
   100
 73
     1
 74
     0
 75
     0
 76
     1
 77
     0
 78
     0
  0
ENDTAB
  0
TABLE
  2
LTYPE
 70
    13
  0
LTYPE
  2
CONTINUOUS
 70
     0
  3
Solid line
 72
    65
 73
     0
 40
0.0
  0
LTYPE
  2
ČERCHOVANÁ
 70
     0
  3
Čerchovaná __ . __ . __ . __ . __ . __ . __ . _
 72
    65
 73
     4
 40
1.0
 49
0.5
 49
-0.25
 49
0.0
 49
-0.25
  0
ENDTAB
  0
TABLE
  2
LAYER
 70
    37
  0
LAYER
  2
0
 70
     0
 62
     7
  6
CONTINUOUS
  0
LAYER
  2
RAZ
 70
     0
 62
     7
  6
CONTINUOUS
  0
LAYER
  2
KOTY
 70
     0
 62
     2
  6
CONTINUOUS
  0
LAYER
  2
DEFPOINTS
 70
     0
 62
     7
  6
CONTINUOUS
  0
LAYER
  2
2-VZT
 70
     0
 62
     4
  6
CONTINUOUS
  0
LAYER
  2
SILNA
 70
     0
 62
     7
  6
CONTINUOUS
  0
LAYER
  2
OBRYS
 70
     0
 62
     7
  6
CONTINUOUS
  0
LAYER
  2
S-OBRYS
 70
     0
 62
     7
  6
CONTINUOUS
  0
LAYER
  2
HLADINA1
 70
     0
 62
   160
  6
CONTINUOUS
  0
ENDTAB
  0
TABLE
  2
STYLE
 70
    11
  0
STYLE
  2
STANDARD
 70
     0
 40
0.0
 41
0.8
 50
0.0
 71
     0
 42
200.0
  3
ROMANS.SHX
  4

  0
STYLE
  2
R
 70
     0
 40
0.0
 41
1.0
 50
0.0
 71
     0
 42
200.0
  3
romans.shx
  4

  0
STYLE
  2
ROMANS
 70
     0
 40
0.0
 41
0.8
 50
0.0
 71
     0
 42
300.0
  3
ROMANS.shx
  4

  0
STYLE
  2
R08
 70
     0
 40
0.0
 41
0.8
 50
0.0
 71
     0
 42
800.0
  3
ROMANS.shx
  4

  0
STYLE
  2
ROMANT
 70
     0
 40
0.0
 41
0.7
 50
0.0
 71
     0
 42
3.0
  3
romant
  4

  0
STYLE
  2
CYRILLIC
 70
     0
 40
2.2999999999999989
 41
0.7
 50
0.0
 71
     0
 42
2.2999999999999989
  3
cyrillic
  4

  0
ENDTAB
  0
TABLE
  2
VIEW
 70
     0
  0
ENDTAB
  0
TABLE
  2
UCS
 70
     0
  0
ENDTAB
  0
TABLE
  2
APPID
 70
     6
  0
APPID
  2
ACAD
 70
     0
  0
APPID
  2
PHOENIX7010
 70
     0
  0
APPID
  2
CONTENTBLOCKICON
 70
     0
  0
APPID
  2
CONTENTLONGBLOCKNAME
 70
     0
  0
APPID
  2
ACAD_DSTYLE_DIMTEXT_FILL
 70
     0
  0
APPID
  2
DCO15
 70
     0
  0
ENDTAB
  0
TABLE
  2
DIMSTYLE
 70
     9
  0
DIMSTYLE
  2
STANDARD
 70
     0
  3

  4

  5

  6
OPEN
  7
OPEN
 40
1.0
 41
80.0
 42
1.0
 43
0.0
 44
1.0
 45
0.0
 46
0.8
 47
0.0
 48
0.0
140
70.0
141
-3.0
142
0.0
143
0.0394
144
1.0
145
1.0
146
0.5
147
1.0
 71
     0
 72
     0
 73
     0
 74
     0
 75
     0
 76
     0
 77
     0
 78
     8
170
     0
171
     2
172
     1
173
     1
174
     0
175
     0
176
     7
177
     7
178
     2
  0
DIMSTYLE
  2
EMBABA
 70
     0
  3

  4

  5

  6
OPEN
  7
OPEN
 40
50.0
 41
2.0
 42
0.063
 43
5.0
 44
0.2
 45
0.0
 46
0.0
 47
0.0
 48
0.0
140
2.0
141
2.0
142
0.0
143
25.399999999999999
144
1.0
145
0.0
146
1.0
147
0.5
 71
     0
 72
     0
 73
     0
 74
     0
 75
     0
 76
     0
 77
     1
 78
    12
170
     0
171
     2
172
     1
173
     1
174
     0
175
     0
176
     0
177
     0
178
     7
  0
ENDTAB
  0
ENDSEC
  0
SECTION
  2
BLOCKS
  0
BLOCK
  8
0
  2
$MODEL_SPACE
 70
     0
 10
0.0
 20
0.0
 30
0.0
  3
$MODEL_SPACE
  1

  0
ENDBLK
  5
9
  8
0
  0
BLOCK
 67
     1
  8
0
  2
$PAPER_SPACE
 70
     0
 10
0.0
 20
0.0
 30
0.0
  3
$PAPER_SPACE
  1

  0
ENDBLK
  5
E
 67
     1
  8
0
  0
BLOCK
  8
0
  2
_OPEN
 70
     0
 10
0.0
 20
0.0
 30
0.0
  3
_OPEN
  1

  0
LINE
  5
28
  8
0
  6
BYBLOCK
 62
     0
 10
-1.0
 20
0.1666666666666666
 30
0.0
 11
0.0
 21
0.0
 31
0.0
  0
LINE
  5
29
  8
0
  6
BYBLOCK
 62
     0
 10
0.0
 20
0.0
 30
0.0
 11
-1.0
 21
-0.1666666666666666
 31
0.0
  0
LINE
  5
2A
  8
0
  6
BYBLOCK
 62
     0
 10
0.0
 20
0.0
 30
0.0
 11
-1.0
 21
0.0
 31
0.0
  0
ENDBLK
  5
2C
  8
0
  0
BLOCK
  8
0
  2
_CLOSEDBLANK
 70
     0
 10
0.0
 20
0.0
 30
0.0
  3
_CLOSEDBLANK
  1

  0
LINE
  5
59CF6
  8
0
  6
BYBLOCK
 62
     0
 10
-1.0
 20
0.1666666666666666
 30
0.0
 11
0.0
 21
0.0
 31
0.0
  0
LINE
  5
59CF7
  8
0
  6
BYBLOCK
 62
     0
 10
0.0
 20
0.0
 30
0.0
 11
-1.0
 21
-0.1666666666666666
 31
0.0
  0
LINE
  5
59CF8
  8
0
  6
BYBLOCK
 62
     0
 10
-1.0
 20
0.1666666666666666
 30
0.0
 11
-1.0
 21
-0.1666666666666666
 31
0.0
  0
ENDBLK
  5
59CF9
  8
0
  0
BLOCK
  8
0
  2
A$C5B1234F8
 70
     0
 10
0.0
 20
0.0
 30
0.0
  3
A$C5B1234F8
  1

  0
POLYLINE
  5
5A113
  8
SILNA
  6
CONTINUOUS
 66
     1
 10
0.0
 20
0.0
 30
0.0
  0
VERTEX
  5
65761
  8
SILNA
  6
CONTINUOUS
 10
899.99999542257865
 20
900.0
 30
0.0
  0
VERTEX
  5
65762
  8
SILNA
  6
CONTINUOUS
 10
527.20778928679283
 20
900.0
 30
0.0
  0
VERTEX
  5
65763
  8
SILNA
  6
CONTINUOUS
 10
-0.0000045774213504
 20
372.79220613581128
 30
0.0
  0
VERTEX
  5
65764
  8
SILNA
  6
CONTINUOUS
 10
-0.0000045774213504
 20
0.0
 30
0.0
  0
SEQEND
  5
65765
  8
SILNA
  6
CONTINUOUS
  0
LINE
  5
5A114
  8
SILNA
  6
CONTINUOUS
 10
-0.0000045774213504
 20
0.0
 30
0.0
 11
159.99999542257859
 21
0.0
 31
0.0
  0
ARC
  5
5A115
  8
SILNA
  6
CONTINUOUS
 10
899.99999542257865
 20
0.0
 30
0.0
 40
740.0
 50
90.0
 51
180.0
  0
LINE
  5
5A116
  8
SILNA
  6
CONTINUOUS
 10
899.99999542257865
 20
900.0
 30
0.0
 11
899.99999542257865
 21
740.0
 31
0.0
  0
ENDBLK
  5
5A11A
  8
0
  0
BLOCK
  8
0
  2
*D63
 70
     1
 10
0.0
 20
0.0
 30
0.0
  3
*D63
  1

  0
LINE
  5
6518A
  8
S-OBRYS
  6
CONTINUOUS
 62
     0
 10
-5498.1845047058841
 20
400956.0720252273
 30
0.0
 11
-5498.1845047058841
 21
401322.39125780761
 31
0.0
  0
LINE
  5
6518B
  8
S-OBRYS
  6
CONTINUOUS
 62
     0
 10
-2688.184504705885
 20
400956.0720252273
 30
0.0
 11
-2688.184504705885
 21
401322.39125780761
 31
0.0
  0
LINE
  5
6518C
  8
S-OBRYS
  6
CONTINUOUS
 62
     0
 10
-5398.1845047058841
 20
401312.39125780761
 30
0.0
 11
-2788.184504705885
 21
401312.39125780761
 31
0.0
  0
INSERT
  5
6518D
  8
S-OBRYS
  6
CONTINUOUS
 62
     0
  2
_OPEN
 10
-5498.1845047058841
 20
401312.39125780761
 30
0.0
 41
100.0
 42
100.0
 43
100.0
 50
180.0
  0
INSERT
  5
6518E
  8
S-OBRYS
  6
CONTINUOUS
 62
     0
  2
_OPEN
 10
-2688.184504705885
 20
401312.39125780761
 30
0.0
 41
100.0
 42
100.0
 43
100.0
  0
INSERT
  5
6518F
  8
HLADINA1
  6
CONTINUOUS
  2
*U140
 10
0.0
 20
0.0
 30
0.0
  0
POINT
  5
65190
  8
DEFPOINTS
  6
CONTINUOUS
 62
     0
 10
-5498.1845047058841
 20
400952.92202522722
 30
0.0
  0
POINT
  5
65191
  8
DEFPOINTS
  6
CONTINUOUS
 62
     0
 10
-2688.184504705885
 20
400952.92202522722
 30
0.0
  0
POINT
  5
65192
  8
DEFPOINTS
  6
CONTINUOUS
 62
     0
 10
-2688.184504705885
 20
401312.39125780761
 30
0.0
  0
ENDBLK
  5
647A3
  8
0
  0
BLOCK
  8
0
  2
*D64
 70
     1
 10
0.0
 20
0.0
 30
0.0
  3
*D64
  1

  0
LINE
  5
65193
  8
S-OBRYS
  6
CONTINUOUS
 62
     0
 10
-3228.184504705885
 20
400956.0720252273
 30
0.0
 11
-3228.184504705885
 21
401140.3644224098
 31
0.0
  0
LINE
  5
65194
  8
S-OBRYS
  6
CONTINUOUS
 62
     0
 10
-5143.184504705885
 20
401133.51442240988
 30
0.0
 11
-5143.184504705885
 21
401140.3644224098
 31
0.0
  0
LINE
  5
65195
  8
S-OBRYS
  6
CONTINUOUS
 62
     0
 10
-3328.184504705885
 20
401130.3644224098
 30
0.0
 11
-5043.184504705885
 21
401130.3644224098
 31
0.0
  0
INSERT
  5
65196
  8
S-OBRYS
  6
CONTINUOUS
 62
     0
  2
_OPEN
 10
-3228.184504705885
 20
401130.3644224098
 30
0.0
 41
100.0
 42
100.0
 43
100.0
  0
INSERT
  5
65197
  8
S-OBRYS
  6
CONTINUOUS
 62
     0
  2
_OPEN
 10
-5143.184504705885
 20
401130.3644224098
 30
0.0
 41
100.0
 42
100.0
 43
100.0
 50
180.0
  0
INSERT
  5
65198
  8
HLADINA1
  6
CONTINUOUS
  2
*U141
 10
0.0
 20
0.0
 30
0.0
  0
POINT
  5
65199
  8
DEFPOINTS
  6
CONTINUOUS
 62
     0
 10
-3228.184504705885
 20
400952.92202522722
 30
0.0
  0
POINT
  5
6519A
  8
DEFPOINTS
  6
CONTINUOUS
 62
     0
 10
-5143.184504705885
 20
401130.3644224098
 30
0.0
  0
POINT
  5
6519B
  8
DEFPOINTS
  6
CONTINUOUS
 62
     0
 10
-5143.184504705885
 20
401130.3644224098
 30
0.0
  0
ENDBLK
  5
647AF
  8
0
  0
BLOCK
  8
0
  2
*D65
 70
     1
 10
0.0
 20
0.0
 30
0.0
  3
*D65
  1

  0
LINE
  5
64F9C
  8
S-OBRYS
  6
CONTINUOUS
 62
     0
 10
-5407.6999122025454
 20
403601.85737282672
 30
0.0
 11
-5132.7677221439671
 21
403012.26338852878
 31
0.0
  0
LINE
  5
64F9D
  8
S-OBRYS
  6
CONTINUOUS
 62
     0
 10
-2634.2215496709691
 20
404752.71857995179
 30
0.0
 11
-2413.8443609921669
 21
404280.11817367031
 31
0.0
  0
LINE
  5
64F9E
  8
S-OBRYS
  6
CONTINUOUS
 62
     0
 10
-5046.3631260561533
 20
403063.58829257061
 30
0.0
 11
-2508.701322314213
 21
404246.91942536947
 31
0.0
  0
INSERT
  5
64F9F
  8
S-OBRYS
  6
CONTINUOUS
 62
     0
  2
_OPEN
 10
-5136.9939047610969
 20
403021.32646639919
 30
0.0
 41
100.0
 42
100.0
 43
100.0
 50
204.99999999826849
  0
INSERT
  5
64FA0
  8
S-OBRYS
  6
CONTINUOUS
 62
     0
  2
_OPEN
 10
-2418.0705436092981
 20
404289.1812515409
 30
0.0
 41
100.0
 42
100.0
 43
100.0
 50
24.999999998268521
  0
INSERT
  5
64FA1
  8
HLADINA1
  6
CONTINUOUS
  2
*U135
 10
0.0
 20
0.0
 30
0.0
  0
POINT
  5
64FA2
  8
DEFPOINTS
  6
CONTINUOUS
 62
     0
 10
-5409.0311597269611
 20
403604.71224235598
 30
0.0
  0
POINT
  5
64FA3
  8
DEFPOINTS
  6
CONTINUOUS
 62
     0
 10
-2635.5527971953852
 20
404755.57344948099
 30
0.0
  0
POINT
  5
64FA4
  8
DEFPOINTS
  6
CONTINUOUS
 62
     0
 10
-2418.0705436092981
 20
404289.1812515409
 30
0.0
  0
ENDBLK
  5
647BB
  8
0
  0
BLOCK
  8
0
  2
*D66
 70
     1
 10
0.0
 20
0.0
 30
0.0
  3
*D66
  1

  0
LINE
  5
6519C
  8
S-OBRYS
  6
CONTINUOUS
 62
     0
 10
-5498.184504705886
 20
400986.07202522719
 30
0.0
 11
-5498.184504705886
 21
401140.3644224098
 31
0.0
  0
LINE
  5
6519D
  8
S-OBRYS
  6
CONTINUOUS
 62
     0
 10
-5143.184504705885
 20
400956.0720252273
 30
0.0
 11
-5143.184504705885
 21
401140.3644224098
 31
0.0
  0
LINE
  5
6519E
  8
S-OBRYS
  6
CONTINUOUS
 62
     0
 10
-5398.184504705885
 20
401130.3644224098
 30
0.0
 11
-5243.184504705885
 21
401130.3644224098
 31
0.0
  0
INSERT
  5
6519F
  8
S-OBRYS
  6
CONTINUOUS
 62
     0
  2
_OPEN
 10
-5498.184504705886
 20
401130.3644224098
 30
0.0
 41
100.0
 42
100.0
 43
100.0
 50
180.0
  0
INSERT
  5
651A0
  8
S-OBRYS
  6
CONTINUOUS
 62
     0
  2
_OPEN
 10
-5143.184504705885
 20
401130.3644224098
 30
0.0
 41
100.0
 42
100.0
 43
100.0
  0
INSERT
  5
651A1
  8
HLADINA1
  6
CONTINUOUS
  2
*U142
 10
0.0
 20
0.0
 30
0.0
  0
POINT
  5
651A2
  8
DEFPOINTS
  6
CONTINUOUS
 62
     0
 10
-5498.184504705886
 20
400982.92202522722
 30
0.0
  0
POINT
  5
651A3
  8
DEFPOINTS
  6
CONTINUOUS
 62
     0
 10
-5143.184504705885
 20
400952.92202522722
 30
0.0
  0
POINT
  5
651A4
  8
DEFPOINTS
  6
CONTINUOUS
 62
     0
 10
-5143.184504705885
 20
401130.3644224098
 30
0.0
  0
ENDBLK
  5
647C7
  8
0
  0
BLOCK
  8
0
  2
*D67
 70
     1
 10
0.0
 20
0.0
 30
0.0
  3
*D67
  1

  0
LINE
  5
651A5
  8
S-OBRYS
  6
CONTINUOUS
 62
     0
 10
-5501.3345047058847
 20
400952.92202522722
 30
0.0
 11
-5972.1154549484418
 21
400952.92202522722
 31
0.0
  0
LINE
  5
651A6
  8
S-OBRYS
  6
CONTINUOUS
 62
     0
 10
-5501.3345047058847
 20
400512.92202522722
 30
0.0
 11
-5972.1154549484418
 21
400512.92202522722
 31
0.0
  0
LINE
  5
651A7
  8
S-OBRYS
  6
CONTINUOUS
 62
     0
 10
-5962.1154549484427
 20
400852.92202522722
 30
0.0
 11
-5962.1154549484427
 21
400612.92202522722
 31
0.0
  0
INSERT
  5
651A8
  8
S-OBRYS
  6
CONTINUOUS
 62
     0
  2
_OPEN
 10
-5962.1154549484427
 20
400952.92202522722
 30
0.0
 41
100.0
 42
100.0
 43
100.0
 50
90.0
  0
INSERT
  5
651A9
  8
S-OBRYS
  6
CONTINUOUS
 62
     0
  2
_OPEN
 10
-5962.1154549484427
 20
400512.92202522722
 30
0.0
 41
100.0
 42
100.0
 43
100.0
 50
270.0
  0
INSERT
  5
651AA
  8
HLADINA1
  6
CONTINUOUS
  2
*U143
 10
0.0
 20
0.0
 30
0.0
  0
POINT
  5
651AB
  8
DEFPOINTS
  6
CONTINUOUS
 62
     0
 10
-5498.184504705886
 20
400952.92202522722
 30
0.0
  0
POINT
  5
651AC
  8
DEFPOINTS
  6
CONTINUOUS
 62
     0
 10
-5498.184504705886
 20
400512.92202522722
 30
0.0
  0
POINT
  5
651AD
  8
DEFPOINTS
  6
CONTINUOUS
 62
     0
 10
-5962.1154549484427
 20
400512.92202522722
 30
0.0
  0
ENDBLK
  5
647D3
  8
0
  0
BLOCK
  8
0
  2
*D68
 70
     1
 10
0.0
 20
0.0
 30
0.0
  3
*D68
  1

  0
LINE
  5
651AE
  8
S-OBRYS
  6
CONTINUOUS
 62
     0
 10
-5166.3345047058847
 20
400547.92202522722
 30
0.0
 11
-5694.7122848878435
 21
400547.92202522722
 31
0.0
  0
LINE
  5
651AF
  8
S-OBRYS
  6
CONTINUOUS
 62
     0
 10
-5166.3345047058847
 20
400917.92202522722
 30
0.0
 11
-5694.7122848878435
 21
400917.92202522722
 31
0.0
  0
LINE
  5
651B0
  8
S-OBRYS
  6
CONTINUOUS
 62
     0
 10
-5684.7122848878444
 20
400647.92202522722
 30
0.0
 11
-5684.7122848878444
 21
400817.92202522722
 31
0.0
  0
INSERT
  5
651B1
  8
S-OBRYS
  6
CONTINUOUS
 62
     0
  2
_OPEN
 10
-5684.7122848878444
 20
400547.92202522722
 30
0.0
 41
100.0
 42
100.0
 43
100.0
 50
270.0
  0
INSERT
  5
651B2
  8
S-OBRYS
  6
CONTINUOUS
 62
     0
  2
_OPEN
 10
-5684.7122848878444
 20
400917.92202522722
 30
0.0
 41
100.0
 42
100.0
 43
100.0
 50
90.0
  0
INSERT
  5
651B3
  8
HLADINA1
  6
CONTINUOUS
  2
*U144
 10
0.0
 20
0.0
 30
0.0
  0
POINT
  5
651B4
  8
DEFPOINTS
  6
CONTINUOUS
 62
     0
 10
-5163.184504705885
 20
400547.92202522722
 30
0.0
  0
POINT
  5
651B5
  8
DEFPOINTS
  6
CONTINUOUS
 62
     0
 10
-5163.184504705885
 20
400917.92202522722
 30
0.0
  0
POINT
  5
651B6
  8
DEFPOINTS
  6
CONTINUOUS
 62
     0
 10
-5684.7122848878444
 20
400917.92202522722
 30
0.0
  0
ENDBLK
  5
647DF
  8
0
  0
BLOCK
  8
0
  2
*D69
 70
     1
 10
0.0
 20
0.0
 30
0.0
  3
*D69
  1

  0
LINE
  5
64FC0
  8
S-OBRYS
  6
CONTINUOUS
 62
     0
 10
-5088.2403456613247
 20
404176.45454806532
 30
0.0
 11
-5088.2403456613247
 21
404357.20506823307
 31
0.0
  0
LINE
  5
64FC1
  8
S-OBRYS
  6
CONTINUOUS
 62
     0
 10
-5208.2403456613247
 20
404176.45454806532
 30
0.0
 11
-5208.2403456613247
 21
404357.20506823307
 31
0.0
  0
LINE
  5
64FC2
  8
S-OBRYS
  6
CONTINUOUS
 62
     0
 10
-4988.2403456613238
 20
404347.20506823307
 30
0.0
 11
-4888.2403456613247
 21
404347.20506823307
 31
0.0
  0
LINE
  5
64FC3
  8
S-OBRYS
  6
CONTINUOUS
 62
     0
 10
-5308.2403456613238
 20
404347.20506823307
 30
0.0
 11
-5408.2403456613247
 21
404347.20506823307
 31
0.0
  0
LINE
  5
64FC4
  8
S-OBRYS
  6
CONTINUOUS
 62
     0
 10
-5088.2403456613247
 20
404347.20506823307
 30
0.0
 11
-5208.2403456613247
 21
404347.20506823307
 31
0.0
  0
INSERT
  5
64FC5
  8
S-OBRYS
  6
CONTINUOUS
 62
     0
  2
_OPEN
 10
-5088.2403456613247
 20
404347.20506823307
 30
0.0
 41
100.0
 42
100.0
 43
100.0
 50
180.0
  0
INSERT
  5
64FC6
  8
S-OBRYS
  6
CONTINUOUS
 62
     0
  2
_OPEN
 10
-5208.2403456613247
 20
404347.20506823307
 30
0.0
 41
100.0
 42
100.0
 43
100.0
  0
INSERT
  5
64FC7
  8
HLADINA1
  6
CONTINUOUS
  2
*U136
 10
0.0
 20
0.0
 30
0.0
  0
POINT
  5
64FC8
  8
DEFPOINTS
  6
CONTINUOUS
 62
     0
 10
-5088.2403456613247
 20
404173.30454806529
 30
0.0
  0
POINT
  5
64FC9
  8
DEFPOINTS
  6
CONTINUOUS
 62
     0
 10
-5208.2403456613247
 20
404173.30454806529
 30
0.0
  0
POINT
  5
64FCA
  8
DEFPOINTS
  6
CONTINUOUS
 62
     0
 10
-5208.2403456613247
 20
404347.20506823307
 30
0.0
  0
ENDBLK
  5
647ED
  8
0
  0
BLOCK
  8
0
  2
*D70
 70
     1
 10
0.0
 20
0.0
 30
0.0
  3
*D70
  1

  0
LINE
  5
64FCB
  8
S-OBRYS
  6
CONTINUOUS
 62
     0
 10
-5183.8345047058847
 20
403453.30454806518
 30
0.0
 11
-5617.2339956809274
 21
403453.30454806518
 31
0.0
  0
LINE
  5
64FCC
  8
S-OBRYS
  6
CONTINUOUS
 62
     0
 10
-5218.8903456613252
 20
404173.30454806529
 30
0.0
 11
-5617.2339956809255
 21
404173.30454806529
 31
0.0
  0
LINE
  5
64FCD
  8
S-OBRYS
  6
CONTINUOUS
 62
     0
 10
-5607.2339956809255
 20
403553.30454806529
 30
0.0
 11
-5607.2339956809255
 21
404073.30454806529
 31
0.0
  0
INSERT
  5
64FCE
  8
S-OBRYS
  6
CONTINUOUS
 62
     0
  2
_OPEN
 10
-5607.2339956809274
 20
403453.30454806518
 30
0.0
 41
100.0
 42
100.0
 43
100.0
 50
270.0
  0
INSERT
  5
64FCF
  8
S-OBRYS
  6
CONTINUOUS
 62
     0
  2
_OPEN
 10
-5607.2339956809255
 20
404173.30454806529
 30
0.0
 41
100.0
 42
100.0
 43
100.0
 50
90.0
  0
INSERT
  5
64FD0
  8
HLADINA1
  6
CONTINUOUS
  2
*U137
 10
0.0
 20
0.0
 30
0.0
  0
POINT
  5
64FD1
  8
DEFPOINTS
  6
CONTINUOUS
 62
     0
 10
-5180.684504705885
 20
403453.30454806518
 30
0.0
  0
POINT
  5
64FD2
  8
DEFPOINTS
  6
CONTINUOUS
 62
     0
 10
-5215.7403456613238
 20
404173.30454806529
 30
0.0
  0
POINT
  5
64FD3
  8
DEFPOINTS
  6
CONTINUOUS
 62
     0
 10
-5607.2339956809255
 20
404173.30454806529
 30
0.0
  0
ENDBLK
  5
647F9
  8
0
  0
BLOCK
  8
0
  2
*D71
 70
     1
 10
0.0
 20
0.0
 30
0.0
  3
*D71
  1

  0
LINE
  5
65ABB
  8
S-OBRYS
  6
CONTINUOUS
 62
     0
 10
-4728.6463614388476
 20
403453.30454806518
 30
0.0
 11
-4653.8227269202034
 21
403453.30454806518
 31
0.0
  0
ARC
  5
65ABC
  8
S-OBRYS
  6
CONTINUOUS
 62
     0
 10
-5978.8112351356249
 20
403453.30454806518
 30
0.0
 40
1314.988508215441
 50
4.3581821538627876
 51
20.64181784613865
  0
INSERT
  5
65ABD
  8
S-OBRYS
  6
CONTINUOUS
 62
     0
  2
_OPEN
 10
-4663.8227269201889
 20
403453.30454806518
 30
0.0
 41
100.0
 42
100.0
 43
100.0
 50
272.17909107693191
  0
INSERT
  5
65ABE
  8
S-OBRYS
  6
CONTINUOUS
 62
     0
  2
_OPEN
 10
-4787.0269102762677
 20
404009.04270561627
 30
0.0
 41
100.0
 42
100.0
 43
100.0
 50
112.8209089230695
  0
TEXT
  8
S-OBRYS
  40
100
  5
65BA6
  62
7
  72
0
  71
0
 10
-4821.77
 20
403577.
 30
0.000000
  1
25%%d
  0
POINT
  5
65AC0
  8
DEFPOINTS
  6
CONTINUOUS
 62
     0
 10
-4677.7068508518269
 20
403643.88827752852
 30
0.0
  0
POINT
  5
65AC1
  8
DEFPOINTS
  6
CONTINUOUS
 62
     0
 10
-5028.227300642553
 20
403453.30454806518
 30
0.0
  0
POINT
  5
65AC2
  8
DEFPOINTS
  6
CONTINUOUS
 62
     0
 10
-5448.2403456613101
 20
403700.71381702123
 30
0.0
  0
POINT
  5
65AC3
  8
DEFPOINTS
  6
CONTINUOUS
 62
     0
 10
-2894.6936263864918
 20
404891.45220767549
 30
0.0
  0
POINT
  5
65AC4
  8
DEFPOINTS
  6
CONTINUOUS
 62
     0
 10
-4731.7963614388418
 20
403453.30454806518
 30
0.0
  0
ENDBLK
  5
64806
  8
0
  0
BLOCK
  8
0
  2
*D72
 70
     1
 10
0.0
 20
0.0
 30
0.0
  3
*D72
  1

  0
LINE
  5
64FDE
  8
S-OBRYS
  6
CONTINUOUS
 62
     0
 10
-3493.6822056645178
 20
405417.60512685362
 30
0.0
 11
-2734.3156713306962
 21
405771.7035571601
 31
0.0
  0
LINE
  5
64FDF
  8
S-OBRYS
  6
CONTINUOUS
 62
     0
 10
-3071.063943923742
 20
404511.29733981693
 30
0.0
 11
-2311.69740958995
 21
404865.39577012352
 31
0.0
  0
LINE
  5
64FE0
  8
S-OBRYS
  6
CONTINUOUS
 62
     0
 10
-2701.1169230269729
 20
405676.84659583902
 30
0.0
 11
-2363.0223136343702
 21
404951.8003662097
 31
0.0
  0
INSERT
  5
64FE1
  8
S-OBRYS
  6
CONTINUOUS
 62
     0
  2
_OPEN
 10
-2743.3787492010451
 20
405767.4773745428
 30
0.0
 41
100.0
 42
100.0
 43
100.0
 50
115.00000000000141
  0
INSERT
  5
64FE2
  8
S-OBRYS
  6
CONTINUOUS
 62
     0
  2
_OPEN
 10
-2320.7604874602989
 20
404861.16958750598
 30
0.0
 41
100.0
 42
100.0
 43
100.0
 50
295.00000000000142
  0
INSERT
  5
64FE3
  8
HLADINA1
  6
CONTINUOUS
  2
*U138
 10
0.0
 20
0.0
 30
0.0
  0
POINT
  5
64FE4
  8
DEFPOINTS
  6
CONTINUOUS
 62
     0
 10
-3496.5370751936862
 20
405416.27387932921
 30
0.0
  0
POINT
  5
64FE5
  8
DEFPOINTS
  6
CONTINUOUS
 62
     0
 10
-3073.9188134529109
 20
404509.96609229239
 30
0.0
  0
POINT
  5
64FE6
  8
DEFPOINTS
  6
CONTINUOUS
 62
     0
 10
-2320.7604874602989
 20
404861.16958750598
 30
0.0
  0
ENDBLK
  5
64812
  8
0
  0
BLOCK
  8
0
  2
*D73
 70
     1
 10
0.0
 20
0.0
 30
0.0
  3
*D73
  1

  0
LINE
  5
651B7
  8
S-OBRYS
  6
CONTINUOUS
 62
     0
 10
-2937.341755655129
 20
401246.81913241412
 30
0.0
 11
-3155.3160936096679
 21
401000.32466271112
 31
0.0
  0
LINE
  5
651B8
  8
S-OBRYS
  6
CONTINUOUS
 62
     0
 10
-3301.0529158020508
 20
400835.51938774338
 30
0.0
 11
-3367.2969258895318
 21
400760.60789912171
 31
0.0
  0
INSERT
  5
651B9
  8
HLADINA1
  6
CONTINUOUS
  2
*U145
 10
0.0
 20
0.0
 30
0.0
  0
LINE
  5
651BA
  8
S-OBRYS
  6
CONTINUOUS
 62
     0
 10
-3234.8089057145412
 20
400910.43087636522
 30
0.0
 11
-3221.5601036971489
 21
400925.41317408939
 31
0.0
  0
INSERT
  5
651BB
  8
S-OBRYS
  6
CONTINUOUS
 62
     0
  2
_OPEN
 10
-3234.8089057145412
 20
400910.43087636522
 30
0.0
 41
100.0
 42
100.0
 43
100.0
 50
48.513764669118821
  0
INSERT
  5
651BC
  8
S-OBRYS
  6
CONTINUOUS
 62
     0
  2
_OPEN
 10
-3221.5601036971489
 20
400925.41317408939
 30
0.0
 41
100.0
 42
100.0
 43
100.0
 50
228.51376466911881
  0
POINT
  5
651BD
  8
DEFPOINTS
  6
CONTINUOUS
 62
     0
 10
-3221.5601036971489
 20
400925.41317408939
 30
0.0
  0
POINT
  5
651BE
  8
DEFPOINTS
  6
CONTINUOUS
 62
     0
 10
-3234.8089057145412
 20
400910.43087636522
 30
0.0
  0
ENDBLK
  5
6481D
  8
0
  0
BLOCK
  8
0
  2
*D74
 70
     1
 10
0.0
 20
0.0
 30
0.0
  3
*D74
  1

  0
LINE
  5
651BF
  8
S-OBRYS
  6
CONTINUOUS
 62
     0
 10
-5143.184504705885
 20
400609.7720252272
 30
0.0
 11
-5143.184504705885
 21
400243.15181331983
 31
0.0
  0
LINE
  5
651C0
  8
S-OBRYS
  6
CONTINUOUS
 62
     0
 10
-4925.184504705885
 20
400649.7720252272
 30
0.0
 11
-4925.184504705885
 21
400243.15181331983
 31
0.0
  0
LINE
  5
651C1
  8
S-OBRYS
  6
CONTINUOUS
 62
     0
 10
-5243.184504705885
 20
400253.15181331971
 30
0.0
 11
-5343.184504705885
 21
400253.15181331971
 31
0.0
  0
LINE
  5
651C2
  8
S-OBRYS
  6
CONTINUOUS
 62
     0
 10
-4825.184504705885
 20
400253.15181331971
 30
0.0
 11
-4725.184504705885
 21
400253.15181331971
 31
0.0
  0
LINE
  5
651C3
  8
S-OBRYS
  6
CONTINUOUS
 62
     0
 10
-5143.184504705885
 20
400253.15181331971
 30
0.0
 11
-4925.184504705885
 21
400253.15181331971
 31
0.0
  0
INSERT
  5
651C4
  8
S-OBRYS
  6
CONTINUOUS
 62
     0
  2
_OPEN
 10
-5143.184504705885
 20
400253.15181331971
 30
0.0
 41
100.0
 42
100.0
 43
100.0
  0
INSERT
  5
651C5
  8
S-OBRYS
  6
CONTINUOUS
 62
     0
  2
_OPEN
 10
-4925.184504705885
 20
400253.15181331971
 30
0.0
 41
100.0
 42
100.0
 43
100.0
 50
180.0
  0
INSERT
  5
651C6
  8
HLADINA1
  6
CONTINUOUS
  2
*U146
 10
0.0
 20
0.0
 30
0.0
  0
POINT
  5
651C7
  8
DEFPOINTS
  6
CONTINUOUS
 62
     0
 10
-5143.184504705885
 20
400612.92202522722
 30
0.0
  0
POINT
  5
651C8
  8
DEFPOINTS
  6
CONTINUOUS
 62
     0
 10
-4925.184504705885
 20
400652.92202522722
 30
0.0
  0
POINT
  5
651C9
  8
DEFPOINTS
  6
CONTINUOUS
 62
     0
 10
-4925.184504705885
 20
400253.15181331971
 30
0.0
  0
ENDBLK
  5
6482B
  8
0
  0
BLOCK
  8
0
  2
*D75
 70
     1
 10
0.0
 20
0.0
 30
0.0
  3
*D75
  1

  0
LINE
  5
651CA
  8
S-OBRYS
  6
CONTINUOUS
 62
     0
 10
-4925.184504705885
 20
400646.62202522717
 30
0.0
 11
-4925.184504705885
 21
400243.15181331983
 31
0.0
  0
LINE
  5
651CB
  8
S-OBRYS
  6
CONTINUOUS
 62
     0
 10
-4517.184504705885
 20
400646.62202522717
 30
0.0
 11
-4517.184504705885
 21
400243.15181331983
 31
0.0
  0
LINE
  5
651CC
  8
S-OBRYS
  6
CONTINUOUS
 62
     0
 10
-4825.184504705885
 20
400253.15181331971
 30
0.0
 11
-4617.184504705885
 21
400253.15181331971
 31
0.0
  0
INSERT
  5
651CD
  8
S-OBRYS
  6
CONTINUOUS
 62
     0
  2
_OPEN
 10
-4925.184504705885
 20
400253.15181331971
 30
0.0
 41
100.0
 42
100.0
 43
100.0
 50
180.0
  0
INSERT
  5
651CE
  8
S-OBRYS
  6
CONTINUOUS
 62
     0
  2
_OPEN
 10
-4517.184504705885
 20
400253.15181331971
 30
0.0
 41
100.0
 42
100.0
 43
100.0
  0
INSERT
  5
651CF
  8
HLADINA1
  6
CONTINUOUS
  2
*U147
 10
0.0
 20
0.0
 30
0.0
  0
POINT
  5
651D0
  8
DEFPOINTS
  6
CONTINUOUS
 62
     0
 10
-4925.184504705885
 20
400649.7720252272
 30
0.0
  0
POINT
  5
651D1
  8
DEFPOINTS
  6
CONTINUOUS
 62
     0
 10
-4517.184504705885
 20
400649.7720252272
 30
0.0
  0
POINT
  5
651D2
  8
DEFPOINTS
  6
CONTINUOUS
 62
     0
 10
-4517.184504705885
 20
400253.15181331971
 30
0.0
  0
ENDBLK
  5
64837
  8
0
  0
BLOCK
  8
0
  2
*D83
 70
     1
 10
0.0
 20
0.0
 30
0.0
  3
*D83
  1

  0
LINE
  5
651E8
  8
S-OBRYS
  6
CONTINUOUS
 62
     0
 10
-5351.0028716591187
 20
396645.23805021739
 30
0.0
 11
-5076.0706816002494
 21
396055.64406591892
 31
0.0
  0
LINE
  5
651E9
  8
S-OBRYS
  6
CONTINUOUS
 62
     0
 10
-2577.5245091275428
 20
397796.09925734228
 30
0.0
 11
-2357.1473204486251
 21
397323.49885106069
 31
0.0
  0
LINE
  5
651EA
  8
S-OBRYS
  6
CONTINUOUS
 62
     0
 10
-4989.6660855124646
 20
396106.96896996081
 30
0.0
 11
-2452.0042817706999
 21
397290.30010275979
 31
0.0
  0
INSERT
  5
651EB
  8
S-OBRYS
  6
CONTINUOUS
 62
     0
  2
_OPEN
 10
-5080.2968642173801
 20
396064.70714378927
 30
0.0
 41
100.0
 42
100.0
 43
100.0
 50
204.99999999827449
  0
INSERT
  5
651EC
  8
S-OBRYS
  6
CONTINUOUS
 62
     0
  2
_OPEN
 10
-2361.3735030657558
 20
397332.56192893122
 30
0.0
 41
100.0
 42
100.0
 43
100.0
 50
24.999999998274468
  0
INSERT
  5
651ED
  8
HLADINA1
  6
CONTINUOUS
  2
*U150
 10
0.0
 20
0.0
 30
0.0
  0
POINT
  5
651EE
  8
DEFPOINTS
  6
CONTINUOUS
 62
     0
 10
-5352.3341191835352
 20
396648.09291974659
 30
0.0
  0
POINT
  5
651EF
  8
DEFPOINTS
  6
CONTINUOUS
 62
     0
 10
-2578.8557566519298
 20
397798.95412687148
 30
0.0
  0
POINT
  5
651F0
  8
DEFPOINTS
  6
CONTINUOUS
 62
     0
 10
-2361.3735030657558
 20
397332.56192893122
 30
0.0
  0
ENDBLK
  5
650F6
  8
0
  0
BLOCK
  8
0
  2
*D84
 70
     1
 10
0.0
 20
0.0
 30
0.0
  3
*D84
  1

  0
LINE
  5
651F1
  8
S-OBRYS
  6
CONTINUOUS
 62
     0
 10
-5031.5433051178989
 20
397219.8352254557
 30
0.0
 11
-5031.5433051178989
 21
397400.58574562351
 31
0.0
  0
LINE
  5
651F2
  8
S-OBRYS
  6
CONTINUOUS
 62
     0
 10
-5151.5433051178989
 20
397219.8352254557
 30
0.0
 11
-5151.5433051178989
 21
397400.58574562351
 31
0.0
  0
LINE
  5
651F3
  8
S-OBRYS
  6
CONTINUOUS
 62
     0
 10
-4931.5433051178989
 20
397390.58574562351
 30
0.0
 11
-4831.5433051178989
 21
397390.58574562351
 31
0.0
  0
LINE
  5
651F4
  8
S-OBRYS
  6
CONTINUOUS
 62
     0
 10
-5251.5433051178979
 20
397390.58574562351
 30
0.0
 11
-5351.5433051178989
 21
397390.58574562351
 31
0.0
  0
LINE
  5
651F5
  8
S-OBRYS
  6
CONTINUOUS
 62
     0
 10
-5031.5433051178989
 20
397390.58574562351
 30
0.0
 11
-5151.5433051178989
 21
397390.58574562351
 31
0.0
  0
INSERT
  5
651F6
  8
S-OBRYS
  6
CONTINUOUS
 62
     0
  2
_OPEN
 10
-5031.5433051178989
 20
397390.58574562351
 30
0.0
 41
100.0
 42
100.0
 43
100.0
 50
180.0
  0
INSERT
  5
651F7
  8
S-OBRYS
  6
CONTINUOUS
 62
     0
  2
_OPEN
 10
-5151.5433051178989
 20
397390.58574562351
 30
0.0
 41
100.0
 42
100.0
 43
100.0
  0
INSERT
  5
651F8
  8
HLADINA1
  6
CONTINUOUS
  2
*U151
 10
0.0
 20
0.0
 30
0.0
  0
POINT
  5
651F9
  8
DEFPOINTS
  6
CONTINUOUS
 62
     0
 10
-5031.5433051178989
 20
397216.68522545567
 30
0.0
  0
POINT
  5
651FA
  8
DEFPOINTS
  6
CONTINUOUS
 62
     0
 10
-5151.5433051178989
 20
397216.68522545567
 30
0.0
  0
POINT
  5
651FB
  8
DEFPOINTS
  6
CONTINUOUS
 62
     0
 10
-5151.5433051178989
 20
397390.58574562351
 30
0.0
  0
ENDBLK
  5
65104
  8
0
  0
BLOCK
  8
0
  2
*D85
 70
     1
 10
0.0
 20
0.0
 30
0.0
  3
*D85
  1

  0
LINE
  5
651FC
  8
S-OBRYS
  6
CONTINUOUS
 62
     0
 10
-5127.1374641624579
 20
396496.68522545567
 30
0.0
 11
-5454.3485780704596
 21
396496.68522545567
 31
0.0
  0
LINE
  5
651FD
  8
S-OBRYS
  6
CONTINUOUS
 62
     0
 10
-5162.1933051178994
 20
397216.68522545567
 30
0.0
 11
-5454.3485780704596
 21
397216.68522545567
 31
0.0
  0
LINE
  5
651FE
  8
S-OBRYS
  6
CONTINUOUS
 62
     0
 10
-5444.3485780704596
 20
396596.68522545561
 30
0.0
 11
-5444.3485780704596
 21
397116.68522545567
 31
0.0
  0
INSERT
  5
651FF
  8
S-OBRYS
  6
CONTINUOUS
 62
     0
  2
_OPEN
 10
-5444.3485780704596
 20
396496.68522545567
 30
0.0
 41
100.0
 42
100.0
 43
100.0
 50
270.0
  0
INSERT
  5
65200
  8
S-OBRYS
  6
CONTINUOUS
 62
     0
  2
_OPEN
 10
-5444.3485780704596
 20
397216.68522545567
 30
0.0
 41
100.0
 42
100.0
 43
100.0
 50
90.0
  0
INSERT
  5
65201
  8
HLADINA1
  6
CONTINUOUS
  2
*U152
 10
0.0
 20
0.0
 30
0.0
  0
POINT
  5
65202
  8
DEFPOINTS
  6
CONTINUOUS
 62
     0
 10
-5123.9874641624601
 20
396496.68522545567
 30
0.0
  0
POINT
  5
65203
  8
DEFPOINTS
  6
CONTINUOUS
 62
     0
 10
-5159.0433051178989
 20
397216.68522545567
 30
0.0
  0
POINT
  5
65204
  8
DEFPOINTS
  6
CONTINUOUS
 62
     0
 10
-5444.3485780704596
 20
397216.68522545567
 30
0.0
  0
ENDBLK
  5
65110
  8
0
  0
BLOCK
  8
0
  2
*D86
 70
     1
 10
0.0
 20
0.0
 30
0.0
  3
*D86
  1

  0
LINE
  5
65B64
  8
S-OBRYS
  6
CONTINUOUS
 62
     0
 10
-4671.9493208954373
 20
396496.68522545567
 30
0.0
 11
-4597.1256863767476
 21
396496.68522545567
 31
0.0
  0
ARC
  5
65B65
  8
S-OBRYS
  6
CONTINUOUS
 62
     0
 10
-5922.1141945919371
 20
396496.68522545567
 30
0.0
 40
1314.98850821519
 50
4.3581821538636278
 51
20.641817846137808
  0
INSERT
  5
65B66
  8
S-OBRYS
  6
CONTINUOUS
 62
     0
  2
_OPEN
 10
-4607.1256863767494
 20
396496.68522545567
 30
0.0
 41
100.0
 42
100.0
 43
100.0
 50
272.17909107693242
  0
INSERT
  5
65B67
  8
S-OBRYS
  6
CONTINUOUS
 62
     0
  2
_OPEN
 10
-4730.3298697328128
 20
397052.42338300671
 30
0.0
 41
100.0
 42
100.0
 43
100.0
 50
112.820908923069
  0
TEXT
  8
S-OBRYS
  40
100
  5
65BA7
  62
7
  72
0
  71
0
 10
-4765.07
 20
396621.
 30
0.000000
  1
25%%d
  0
POINT
  5
65B69
  8
DEFPOINTS
  6
CONTINUOUS
 62
     0
 10
-4621.0098103084019
 20
396687.26895491901
 30
0.0
  0
POINT
  5
65B6A
  8
DEFPOINTS
  6
CONTINUOUS
 62
     0
 10
-4971.5302600991417
 20
396496.68522545567
 30
0.0
  0
POINT
  5
65B6B
  8
DEFPOINTS
  6
CONTINUOUS
 62
     0
 10
-5391.5433051178852
 20
396744.09449441149
 30
0.0
  0
POINT
  5
65B6C
  8
DEFPOINTS
  6
CONTINUOUS
 62
     0
 10
-2837.9965858430519
 20
397934.83288506599
 30
0.0
  0
POINT
  5
65B6D
  8
DEFPOINTS
  6
CONTINUOUS
 62
     0
 10
-4675.0993208954169
 20
396496.68522545567
 30
0.0
  0
ENDBLK
  5
6511D
  8
0
  0
BLOCK
  8
0
  2
*D87
 70
     1
 10
0.0
 20
0.0
 30
0.0
  3
*D87
  1

  0
LINE
  5
6520F
  8
S-OBRYS
  6
CONTINUOUS
 62
     0
 10
-3436.9851651210629
 20
398460.98580424383
 30
0.0
 11
-2677.6186307872708
 21
398815.08423455042
 31
0.0
  0
LINE
  5
65210
  8
S-OBRYS
  6
CONTINUOUS
 62
     0
 10
-3014.3669033803449
 20
397554.67801720719
 30
0.0
 11
-2255.0003690465242
 21
397908.77644751378
 31
0.0
  0
LINE
  5
65211
  8
S-OBRYS
  6
CONTINUOUS
 62
     0
 10
-2644.4198824835771
 20
398720.22727322928
 30
0.0
 11
-2306.325273090974
 21
397995.18104360002
 31
0.0
  0
INSERT
  5
65212
  8
S-OBRYS
  6
CONTINUOUS
 62
     0
  2
_OPEN
 10
-2686.6817086576489
 20
398810.85805193288
 30
0.0
 41
100.0
 42
100.0
 43
100.0
 50
115.00000000000151
  0
INSERT
  5
65213
  8
S-OBRYS
  6
CONTINUOUS
 62
     0
  2
_OPEN
 10
-2264.0634469169022
 20
397904.5502648963
 30
0.0
 41
100.0
 42
100.0
 43
100.0
 50
295.00000000000148
  0
INSERT
  5
65214
  8
HLADINA1
  6
CONTINUOUS
  2
*U153
 10
0.0
 20
0.0
 30
0.0
  0
POINT
  5
65215
  8
DEFPOINTS
  6
CONTINUOUS
 62
     0
 10
-3439.8400346502308
 20
398459.65455671941
 30
0.0
  0
POINT
  5
65216
  8
DEFPOINTS
  6
CONTINUOUS
 62
     0
 10
-3017.2217729095141
 20
397553.34676968271
 30
0.0
  0
POINT
  5
65217
  8
DEFPOINTS
  6
CONTINUOUS
 62
     0
 10
-2264.0634469169022
 20
397904.5502648963
 30
0.0
  0
ENDBLK
  5
65129
  8
0
  0
BLOCK
  8
0
  2
*D88
 70
     1
 10
0.0
 20
0.0
 30
0.0
  3
*D88
  1

  0
LINE
  5
651D3
  8
S-OBRYS
  6
CONTINUOUS
 62
     0
 10
-5407.5479728192977
 20
396796.91736613389
 30
0.0
 11
-5407.5479728192977
 21
397435.47194004891
 31
0.0
  0
LINE
  5
651D4
  8
S-OBRYS
  6
CONTINUOUS
 62
     0
 10
-5607.5479728192986
 20
396796.91736613389
 30
0.0
 11
-5607.5479728192986
 21
397435.47194004891
 31
0.0
  0
LINE
  5
651D5
  8
S-OBRYS
  6
CONTINUOUS
 62
     0
 10
-5307.5479728192986
 20
397425.47194004891
 30
0.0
 11
-5207.5479728192977
 21
397425.47194004891
 31
0.0
  0
LINE
  5
651D6
  8
S-OBRYS
  6
CONTINUOUS
 62
     0
 10
-5707.5479728192977
 20
397425.47194004891
 30
0.0
 11
-6303.2622585335839
 21
397425.47194004891
 31
0.0
  0
LINE
  5
651D7
  8
S-OBRYS
  6
CONTINUOUS
 62
     0
 10
-5407.5479728192977
 20
397425.47194004891
 30
0.0
 11
-5607.5479728192986
 21
397425.47194004891
 31
0.0
  0
INSERT
  5
651D8
  8
S-OBRYS
  6
CONTINUOUS
 62
     0
  2
_OPEN
 10
-5407.5479728192977
 20
397425.47194004891
 30
0.0
 41
100.0
 42
100.0
 43
100.0
 50
180.0
  0
INSERT
  5
651D9
  8
S-OBRYS
  6
CONTINUOUS
 62
     0
  2
_OPEN
 10
-5607.5479728192986
 20
397425.47194004891
 30
0.0
 41
100.0
 42
100.0
 43
100.0
  0
INSERT
  5
651DA
  8
HLADINA1
  6
CONTINUOUS
  2
*U148
 10
0.0
 20
0.0
 30
0.0
  0
POINT
  5
651DB
  8
DEFPOINTS
  6
CONTINUOUS
 62
     0
 10
-5407.5479728192977
 20
396793.76736613392
 30
0.0
  0
POINT
  5
651DC
  8
DEFPOINTS
  6
CONTINUOUS
 62
     0
 10
-5607.5479728192986
 20
396793.76736613392
 30
0.0
  0
POINT
  5
651DD
  8
DEFPOINTS
  6
CONTINUOUS
 62
     0
 10
-5607.5479728192986
 20
397425.47194004891
 30
0.0
  0
ENDBLK
  5
65137
  8
0
  0
BLOCK
  8
0
  2
*D89
 70
     1
 10
0.0
 20
0.0
 30
0.0
  3
*D89
  1

  0
LINE
  5
651DE
  8
S-OBRYS
  6
CONTINUOUS
 62
     0
 10
-2578.8557566519198
 20
397798.95412687148
 30
0.0
 11
-2578.8557566519198
 21
398197.77731923439
 31
0.0
  0
LINE
  5
651DF
  8
S-OBRYS
  6
CONTINUOUS
 62
     0
 10
-2178.8557566519198
 20
397798.95412687148
 30
0.0
 11
-2178.8557566519198
 21
398197.77731923439
 31
0.0
  0
LINE
  5
651E0
  8
S-OBRYS
  6
CONTINUOUS
 62
     0
 10
-2478.8557566519198
 20
398187.7773192345
 30
0.0
 11
-2278.8557566519189
 21
398187.7773192345
 31
0.0
  0
LINE
  5
651E1
  8
S-OBRYS
  6
CONTINUOUS
 62
     0
 10
-2178.8557566519198
 20
398187.7773192345
 30
0.0
 11
-1527.4271852233489
 21
398187.7773192345
 31
0.0
  0
INSERT
  5
651E2
  8
S-OBRYS
  6
CONTINUOUS
 62
     0
  2
_OPEN
 10
-2578.8557566519198
 20
398187.7773192345
 30
0.0
 41
100.0
 42
100.0
 43
100.0
 50
180.0
  0
INSERT
  5
651E3
  8
S-OBRYS
  6
CONTINUOUS
 62
     0
  2
_OPEN
 10
-2178.8557566519198
 20
398187.7773192345
 30
0.0
 41
100.0
 42
100.0
 43
100.0
  0
INSERT
  5
651E4
  8
HLADINA1
  6
CONTINUOUS
  2
*U149
 10
0.0
 20
0.0
 30
0.0
  0
POINT
  5
651E5
  8
DEFPOINTS
  6
CONTINUOUS
 62
     0
 10
-2578.8557566519198
 20
397795.8041268714
 30
0.0
  0
POINT
  5
651E6
  8
DEFPOINTS
  6
CONTINUOUS
 62
     0
 10
-2178.8557566519198
 20
397795.8041268714
 30
0.0
  0
POINT
  5
651E7
  8
DEFPOINTS
  6
CONTINUOUS
 62
     0
 10
-2178.8557566519198
 20
398187.7773192345
 30
0.0
  0
ENDBLK
  5
65144
  8
0
  0
BLOCK
  8
0
  2
*U90
 70
     1
 10
0.0
 20
0.0
 30
0.0
  3
*U90
  1

  0
TEXT
  5
65753
  8
SILNA
  6
CONTINUOUS
 10
-16.449777305735289
 20
47.447339193138752
 30
0.0
 40
80.0
  1
1b
  7
R
  0
ENDBLK
  5
65755
  8
0
  0
BLOCK
  8
0
  2
*U91
 70
     1
 10
0.0
 20
0.0
 30
0.0
  3
*U91
  1

  0
TEXT
  5
65757
  8
SILNA
  6
CONTINUOUS
 10
23.348488544496441
 20
49.591841048852068
 30
0.0
 40
20.0
  1
1a
  7
R
  0
ENDBLK
  5
65759
  8
0
  0
BLOCK
  8
0
  2
*U92
 70
     1
 10
0.0
 20
0.0
 30
0.0
  3
*U92
  1

  0
TEXT
  5
6575B
  8
SILNA
  6
CONTINUOUS
 10
-3.9222036020662499
 20
557.31871110200882
 30
0.0
 40
100.0
  1
příruba prosévačka
  7
R
  0
ENDBLK
  5
6575D
  8
0
  0
BLOCK
  8
0
  2
*U93
 70
     1
 10
0.0
 20
0.0
 30
0.0
  3
*U93
  1

  0
SOLID
  5
65935
  8
HLADINA1
  6
CONTINUOUS
 10
0.0000000000009095
 20
139.99744886101851
 30
0.0
 11
-18.32564214838867
 21
132.40671934395951
 31
0.0
 12
0.0000000000008972
 22
132.40671934395951
 32
0.0
 13
0.0000000000008972
 23
132.40671934395951
 33
0.0
210
0.0
220
0.0
230
1.0
  0
SOLID
  5
65936
  8
HLADINA1
  6
CONTINUOUS
 10
0.0000000000009332
 20
139.99744886101851
 30
0.0
 11
0.0000000000009263
 21
132.40671934395951
 31
0.0
 12
45.472905011396342
 22
132.40671934395951
 32
0.0
 13
45.472905011396342
 23
132.40671934395951
 33
0.0
210
0.0
220
0.0
230
1.0
  0
SOLID
  5
65937
  8
HLADINA1
  6
CONTINUOUS
 10
-18.32564214838867
 20
132.40671934395951
 30
0.0
 11
-51.120036686711217
 21
118.82283635637209
 31
0.0
 12
0.0000000000008752
 22
118.82283635637209
 32
0.0
 13
0.0000000000008752
 23
118.82283635637209
 33
0.0
  0
SOLID
  5
65938
  8
HLADINA1
  6
CONTINUOUS
 10
18.32564214838867
 20
132.40671934395951
 30
0.0
 11
-0.0000000000008972
 21
132.40671934395951
 31
0.0
 12
-0.0000000000008752
 22
118.82283635637209
 32
0.0
 13
-0.0000000000008752
 23
118.82283635637209
 33
0.0
210
0.0
220
0.0
230
-1.0
  0
SOLID
  5
65939
  8
HLADINA1
  6
CONTINUOUS
 10
0.0000000000009263
 20
132.40671934395951
 30
0.0
 11
0.0000000000009141
 21
118.82283635637209
 31
0.0
 12
70.563549776822697
 22
118.82283635637209
 32
0.0
 13
70.563549776822697
 23
118.82283635637209
 33
0.0
  0
SOLID
  5
6593A
  8
HLADINA1
  6
CONTINUOUS
 10
-0.0000000000009263
 20
132.40671934395951
 30
0.0
 11
-45.472905011396342
 21
132.40671934395951
 31
0.0
 12
-70.563549776822697
 22
118.82283635637209
 32
0.0
 13
-70.563549776822697
 23
118.82283635637209
 33
0.0
210
0.0
220
0.0
230
-1.0
  0
SOLID
  5
6593B
  8
HLADINA1
  6
CONTINUOUS
 10
-51.120036686711217
 20
118.82283635637209
 30
0.0
 11
-63.634272730830311
 21
113.6392700641597
 31
0.0
 12
0.0000000000008669
 22
113.6392700641597
 32
0.0
 13
0.0000000000008669
 23
113.6392700641597
 33
0.0
210
0.0
220
0.0
230
1.0
  0
SOLID
  5
6593C
  8
HLADINA1
  6
CONTINUOUS
 10
51.120036686711217
 20
118.82283635637209
 30
0.0
 11
-0.0000000000008752
 21
118.82283635637209
 31
0.0
 12
-0.0000000000008669
 22
113.6392700641597
 32
0.0
 13
-0.0000000000008669
 23
113.6392700641597
 33
0.0
210
0.0
220
0.0
230
-1.0
  0
SOLID
  5
6593D
  8
HLADINA1
  6
CONTINUOUS
 10
-0.0000000000009141
 20
118.82283635637209
 30
0.0
 11
-43.257964790378153
 21
118.82283635637209
 31
0.0
 12
-0.0000000000008669
 22
113.6392700641597
 32
0.0
 13
-0.0000000000008669
 23
113.6392700641597
 33
0.0
210
0.0
220
0.0
230
-1.0
  0
SOLID
  5
6593E
  8
HLADINA1
  6
CONTINUOUS
 10
43.257964790378153
 20
118.82283635637209
 30
0.0
 11
69.752660745180563
 21
113.6392700641597
 31
0.0
 12
80.138059552472512
 22
113.6392700641597
 32
0.0
 13
80.138059552472512
 23
113.6392700641597
 33
0.0
210
0.0
220
0.0
230
1.0
  0
SOLID
  5
6593F
  8
HLADINA1
  6
CONTINUOUS
 10
-43.257964790378153
 20
118.82283635637209
 30
0.0
 11
-70.563549776822697
 21
118.82283635637209
 31
0.0
 12
-80.138059552472512
 22
113.6392700641597
 32
0.0
 13
-80.138059552472512
 23
113.6392700641597
 33
0.0
210
0.0
220
0.0
230
-1.0
  0
SOLID
  5
65940
  8
HLADINA1
  6
CONTINUOUS
 10
-63.634272730830311
 20
113.6392700641597
 30
0.0
 11
-71.315354411059985
 21
110.45766185851311
 31
0.0
 12
-5.0574841518304217
 22
110.45766185851311
 32
0.0
 13
-5.0574841518304217
 23
110.45766185851311
 33
0.0
210
0.0
220
0.0
230
1.0
  0
SOLID
  5
65941
  8
HLADINA1
  6
CONTINUOUS
 10
63.634272730830311
 20
113.6392700641597
 30
0.0
 11
-0.0000000000009095
 21
113.6392700641597
 31
0.0
 12
5.0574841518304217
 22
110.45766185851311
 32
0.0
 13
5.0574841518304217
 23
110.45766185851311
 33
0.0
210
0.0
220
0.0
230
-1.0
  0
SOLID
  5
65942
  8
HLADINA1
  6
CONTINUOUS
 10
-69.752660745180563
 20
113.6392700641597
 30
0.0
 11
-80.138059552472512
 21
113.6392700641597
 31
0.0
 12
-86.014773989985784
 22
110.45766185851311
 32
0.0
 13
-86.014773989985784
 23
110.45766185851311
 33
0.0
210
0.0
220
0.0
230
-1.0
  0
SOLID
  5
65943
  8
HLADINA1
  6
CONTINUOUS
 10
-71.315354411059985
 20
110.45766185851311
 30
0.0
 11
-98.994949366115677
 21
98.992398227135112
 31
0.0
 12
-23.282666312648029
 22
98.992398227135112
 32
0.0
 13
-23.282666312648029
 23
98.992398227135112
 33
0.0
210
0.0
220
0.0
230
1.0
  0
SOLID
  5
65944
  8
HLADINA1
  6
CONTINUOUS
 10
71.315354411059985
 20
110.45766185851311
 30
0.0
 11
5.0574841518304217
 21
110.45766185851311
 31
0.0
 12
23.282666312648029
 22
98.992398227135112
 32
0.0
 13
23.282666312648029
 23
98.992398227135112
 33
0.0
210
0.0
220
0.0
230
-1.0
  0
SOLID
  5
65945
  8
HLADINA1
  6
CONTINUOUS
 10
-98.994949366115677
 20
98.992398227135112
 30
0.0
 11
-110.3533115346694
 21
71.570886233467292
 31
0.0
 12
-66.871899607022399
 22
71.570886233467292
 32
0.0
 13
-66.871899607022399
 23
71.570886233467292
 33
0.0
210
0.0
220
0.0
230
1.0
  0
SOLID
  5
65946
  8
HLADINA1
  6
CONTINUOUS
 10
98.994949366115677
 20
98.992398227135112
 30
0.0
 11
23.282666312648029
 21
98.992398227135112
 31
0.0
 12
66.871899607022399
 22
71.570886233467292
 32
0.0
 13
66.871899607022399
 23
71.570886233467292
 33
0.0
210
0.0
220
0.0
230
-1.0
  0
SOLID
  5
65947
  8
HLADINA1
  6
CONTINUOUS
 10
-110.3533115346694
 20
71.570886233467292
 30
0.0
 11
-139.99999999999909
 21
-0.0025511389815165
 31
0.0
 12
-100.3210092793351
 22
-0.0025511389815165
 32
0.0
 13
-100.3210092793351
 23
-0.0025511389815165
 33
0.0
210
0.0
220
0.0
230
1.0
  0
SOLID
  5
65948
  8
HLADINA1
  6
CONTINUOUS
 10
110.3533115346694
 20
71.570886233467292
 30
0.0
 11
66.871899607022399
 21
71.570886233467292
 31
0.0
 12
100.3210092793351
 22
-0.0025511389815165
 32
0.0
 13
100.3210092793351
 23
-0.0025511389815165
 33
0.0
210
0.0
220
0.0
230
-1.0
  0
SOLID
  5
65949
  8
HLADINA1
  6
CONTINUOUS
 10
-139.99999999999909
 20
-0.0025511389815165
 30
0.0
 11
-139.99999999999909
 21
-0.0025511389815165
 31
0.0
 12
-100.3210092793351
 22
-0.0025511389815165
 32
0.0
 13
-100.3210092793351
 23
-0.0025511389815165
 33
0.0
210
0.0
220
0.0
230
1.0
  0
SOLID
  5
6594A
  8
HLADINA1
  6
CONTINUOUS
 10
-139.99999999999909
 20
-0.0025511389815165
 30
0.0
 11
-139.99999999999909
 21
-0.0025511389815165
 31
0.0
 12
-100.3210092793351
 22
-0.0025511389815165
 32
0.0
 13
-100.3210092793351
 23
-0.0025511389815165
 33
0.0
210
0.0
220
0.0
230
1.0
  0
SOLID
  5
6594B
  8
HLADINA1
  6
CONTINUOUS
 10
-139.99999999999909
 20
-0.0025511389815165
 30
0.0
 11
-117.02828563153059
 21
-72.883147809960434
 31
0.0
 12
-91.980753483793407
 22
-72.883147809960434
 32
0.0
 13
-91.980753483793407
 23
-72.883147809960434
 33
0.0
210
0.0
220
0.0
230
1.0
  0
SOLID
  5
6594C
  8
HLADINA1
  6
CONTINUOUS
 10
139.99999999999909
 20
-0.0025511389815165
 30
0.0
 11
100.3210092793351
 21
-0.0025511389815165
 31
0.0
 12
91.980753483793407
 22
-72.883147809960434
 32
0.0
 13
91.980753483793407
 23
-72.883147809960434
 33
0.0
210
0.0
220
0.0
230
-1.0
  0
SOLID
  5
6594D
  8
HLADINA1
  6
CONTINUOUS
 10
-117.02828563153059
 20
-72.883147809960434
 30
0.0
 11
-114.69621614817829
 21
-80.281925833171329
 31
0.0
 12
-86.424720604643284
 22
-80.281925833171329
 32
0.0
 13
-86.424720604643284
 23
-80.281925833171329
 33
0.0
  0
SOLID
  5
6594E
  8
HLADINA1
  6
CONTINUOUS
 10
117.02828563153059
 20
-72.883147809960434
 30
0.0
 11
91.980753483793407
 21
-72.883147809960434
 31
0.0
 12
86.424720604643284
 22
-80.281925833171329
 32
0.0
 13
86.424720604643284
 23
-80.281925833171329
 33
0.0
210
0.0
220
0.0
230
-1.0
  0
SOLID
  5
6594F
  8
HLADINA1
  6
CONTINUOUS
 10
114.69621614817829
 20
-80.281925833171329
 30
0.0
 11
86.424720604643284
 21
-80.281925833171329
 31
0.0
 12
47.931742838711259
 22
-131.54170131277371
 32
0.0
 13
47.931742838711259
 23
-131.54170131277371
 33
0.0
210
0.0
220
0.0
230
-1.0
  0
LINE
  5
65950
  8
HLADINA1
  6
CONTINUOUS
 10
0.0000000000008972
 20
132.40671934395951
 30
0.0
 11
0.0000000000009095
 21
139.99744886101851
 31
0.0
  0
LINE
  5
65951
  8
HLADINA1
  6
CONTINUOUS
 10
0.0000000000009332
 20
139.99744886101851
 30
0.0
 11
0.0000000000009263
 21
132.40671934395951
 31
0.0
  0
LINE
  5
65952
  8
HLADINA1
  6
CONTINUOUS
 10
-18.32564214838867
 20
132.40671934395951
 30
0.0
 11
-51.120036686711217
 21
118.82283635637209
 31
0.0
  0
LINE
  5
65953
  8
HLADINA1
  6
CONTINUOUS
 10
0.0000000000008972
 20
132.40671934395951
 30
0.0
 11
0.0000000000008752
 21
118.82283635637209
 31
0.0
  0
LINE
  5
65954
  8
HLADINA1
  6
CONTINUOUS
 10
0.0000000000009263
 20
132.40671934395951
 30
0.0
 11
0.0000000000009141
 21
118.82283635637209
 31
0.0
  0
LINE
  5
65955
  8
HLADINA1
  6
CONTINUOUS
 10
45.472905011396342
 20
132.40671934395951
 30
0.0
 11
70.563549776822697
 21
118.82283635637209
 31
0.0
  0
LINE
  5
65956
  8
HLADINA1
  6
CONTINUOUS
 10
-51.120036686711217
 20
118.82283635637209
 30
0.0
 11
-63.634272730830311
 21
113.6392700641597
 31
0.0
  0
LINE
  5
65957
  8
HLADINA1
  6
CONTINUOUS
 10
43.257964790378153
 20
118.82283635637209
 30
0.0
 11
0.0000000000008669
 21
113.6392700641597
 31
0.0
  0
LINE
  5
65958
  8
HLADINA1
  6
CONTINUOUS
 10
0.0000000000008669
 20
113.6392700641597
 30
0.0
 11
0.0000000000009141
 21
118.82283635637209
 31
0.0
  0
LINE
  5
65959
  8
HLADINA1
  6
CONTINUOUS
 10
70.563549776822697
 20
118.82283635637209
 30
0.0
 11
80.138059552472512
 21
113.6392700641597
 31
0.0
  0
LINE
  5
6595A
  8
HLADINA1
  6
CONTINUOUS
 10
-63.634272730830311
 20
113.6392700641597
 30
0.0
 11
-71.315354411059985
 21
110.45766185851311
 31
0.0
  0
LINE
  5
6595B
  8
HLADINA1
  6
CONTINUOUS
 10
0.0000000000009095
 20
113.6392700641597
 30
0.0
 11
-5.0574841518304217
 21
110.45766185851311
 31
0.0
  0
LINE
  5
6595C
  8
HLADINA1
  6
CONTINUOUS
 10
80.138059552472512
 20
113.6392700641597
 30
0.0
 11
86.014773989985784
 21
110.45766185851311
 31
0.0
  0
LINE
  5
6595D
  8
HLADINA1
  6
CONTINUOUS
 10
86.014773989985784
 20
110.45766185851311
 30
0.0
 11
69.752660745180563
 21
113.6392700641597
 31
0.0
  0
LINE
  5
6595E
  8
HLADINA1
  6
CONTINUOUS
 10
-71.315354411059985
 20
110.45766185851311
 30
0.0
 11
-98.994949366115677
 21
98.992398227135112
 31
0.0
  0
LINE
  5
6595F
  8
HLADINA1
  6
CONTINUOUS
 10
-5.0574841518304217
 20
110.45766185851311
 30
0.0
 11
-23.282666312648029
 21
98.992398227135112
 31
0.0
  0
LINE
  5
65960
  8
HLADINA1
  6
CONTINUOUS
 10
-98.994949366115677
 20
98.992398227135112
 30
0.0
 11
-110.3533115346694
 21
71.570886233467292
 31
0.0
  0
LINE
  5
65961
  8
HLADINA1
  6
CONTINUOUS
 10
-23.282666312648029
 20
98.992398227135112
 30
0.0
 11
-66.871899607022399
 21
71.570886233467292
 31
0.0
  0
LINE
  5
65962
  8
HLADINA1
  6
CONTINUOUS
 10
-110.3533115346694
 20
71.570886233467292
 30
0.0
 11
-139.99999999999909
 21
-0.0025511389815165
 31
0.0
  0
LINE
  5
65963
  8
HLADINA1
  6
CONTINUOUS
 10
-66.871899607022399
 20
71.570886233467292
 30
0.0
 11
-100.3210092793351
 21
-0.0025511389815165
 31
0.0
  0
LINE
  5
65964
  8
HLADINA1
  6
CONTINUOUS
 10
-139.99999999999909
 20
-0.0025511389815165
 30
0.0
 11
-100.3210092793351
 21
-0.0025511389815165
 31
0.0
  0
LINE
  5
65965
  8
HLADINA1
  6
CONTINUOUS
 10
-139.99999999999909
 20
-0.0025511389815165
 30
0.0
 11
-100.3210092793351
 21
-0.0025511389815165
 31
0.0
  0
LINE
  5
65966
  8
HLADINA1
  6
CONTINUOUS
 10
-139.99999999999909
 20
-0.0025511389815165
 30
0.0
 11
-117.02828563153059
 21
-72.883147809960434
 31
0.0
  0
LINE
  5
65967
  8
HLADINA1
  6
CONTINUOUS
 10
-100.3210092793351
 20
-0.0025511389815165
 30
0.0
 11
-91.980753483793407
 21
-72.883147809960434
 31
0.0
  0
LINE
  5
65968
  8
HLADINA1
  6
CONTINUOUS
 10
-117.02828563153059
 20
-72.883147809960434
 30
0.0
 11
-114.69621614817829
 21
-80.281925833171329
 31
0.0
  0
LINE
  5
65969
  8
HLADINA1
  6
CONTINUOUS
 10
-91.980753483793407
 20
-72.883147809960434
 30
0.0
 11
-86.424720604643284
 21
-80.281925833171329
 31
0.0
  0
LINE
  5
6596A
  8
HLADINA1
  6
CONTINUOUS
 10
-86.424720604643284
 20
-80.281925833171329
 30
0.0
 11
-47.931742838711259
 21
-131.54170131277371
 31
0.0
  0
LINE
  5
6596B
  8
HLADINA1
  6
CONTINUOUS
 10
-47.931742838711259
 20
-131.54170131277371
 30
0.0
 11
-114.69621614817829
 21
-80.281925833171329
 31
0.0
  0
ENDBLK
  5
6596D
  8
0
  0
BLOCK
  8
0
  2
*U94
 70
     1
 10
0.0
 20
0.0
 30
0.0
  3
*U94
  1

  0
SOLID
  5
65978
  8
HLADINA1
  6
CONTINUOUS
 10
2000.0000000000421
 20
549.9974488602569
 30
0.0
 11
2000.0000000000421
 21
-0.0025511389934536
 31
0.0
 12
2012.2676761359601
 22
-0.0025511389934536
 32
0.0
 13
2012.2676761359601
 23
-0.0025511389934536
 33
0.0
210
0.0
220
0.0
230
1.0
  0
SOLID
  5
65979
  8
HLADINA1
  6
CONTINUOUS
 10
2000.0000000000421
 20
-0.0025511389934536
 30
0.0
 11
2000.0000000000421
 21
-0.0025511389934536
 31
0.0
 12
2012.2676761359601
 22
-0.0025511389934536
 32
0.0
 13
2012.2676761359601
 23
-0.0025511389934536
 33
0.0
210
0.0
220
0.0
230
1.0
  0
SOLID
  5
6597A
  8
HLADINA1
  6
CONTINUOUS
 10
2000.0000000000421
 20
-0.0025511389934536
 30
0.0
 11
2000.0000000000421
 21
-0.0025511389934536
 31
0.0
 12
2012.2676761359601
 22
-0.0025511389934536
 32
0.0
 13
2012.2676761359601
 23
-0.0025511389934536
 33
0.0
210
0.0
220
0.0
230
1.0
  0
SOLID
  5
6597B
  8
HLADINA1
  6
CONTINUOUS
 10
2000.0000000000421
 20
-0.0025511389934536
 30
0.0
 11
2000.0000000000421
 21
-526.00255113898993
 31
0.0
 12
2024.0000354950589
 22
-526.00255113898993
 32
0.0
 13
2024.0000354950589
 23
-526.00255113898993
 33
0.0
210
0.0
220
0.0
230
1.0
  0
SOLID
  5
6597C
  8
HLADINA1
  6
CONTINUOUS
 10
-2000.0000000000421
 20
-0.0025511389934536
 30
0.0
 11
-2012.2676761359601
 21
-0.0025511389934536
 31
0.0
 12
-2024.0000354950589
 22
-526.00255113898993
 32
0.0
 13
-2024.0000354950589
 23
-526.00255113898993
 33
0.0
210
0.0
220
0.0
230
-1.0
  0
SOLID
  5
6597D
  8
HLADINA1
  6
CONTINUOUS
 10
2000.0000000000421
 20
-526.00255113898993
 30
0.0
 11
2000.0000000000421
 21
-545.98193239837519
 31
0.0
 12
2670.0000000000268
 22
-545.98193239837519
 32
0.0
 13
2670.0000000000268
 23
-545.98193239837519
 33
0.0
  0
SOLID
  5
6597E
  8
HLADINA1
  6
CONTINUOUS
 10
-2000.0000000000421
 20
-526.00255113898993
 30
0.0
 11
-2024.0000354950589
 21
-526.00255113898993
 31
0.0
 12
-2670.0000000000268
 22
-545.98193239837519
 32
0.0
 13
-2670.0000000000268
 23
-545.98193239837519
 33
0.0
210
0.0
220
0.0
230
-1.0
  0
SOLID
  5
6597F
  8
HLADINA1
  6
CONTINUOUS
 10
2000.0000000000421
 20
-545.98193239837519
 30
0.0
 11
2000.0000000000421
 21
-550.00255113897902
 31
0.0
 12
2670.0000000000268
 22
-550.00255113897902
 32
0.0
 13
2670.0000000000268
 23
-550.00255113897902
 33
0.0
  0
SOLID
  5
65980
  8
HLADINA1
  6
CONTINUOUS
 10
-2000.0000000000421
 20
-545.98193239837519
 30
0.0
 11
-2669.9999999999241
 21
-545.98193239837519
 31
0.0
 12
-2670.0000000000268
 22
-550.00255113897902
 32
0.0
 13
-2670.0000000000268
 23
-550.00255113897902
 33
0.0
210
0.0
220
0.0
230
-1.0
  0
SOLID
  5
65981
  8
HLADINA1
  6
CONTINUOUS
 10
2670.0000000000268
 20
-545.98193239837519
 30
0.0
 11
2670.0000000000418
 21
-550.00255113897902
 31
0.0
 12
2800.0000000000568
 22
-550.00255113897902
 32
0.0
 13
2800.0000000000568
 23
-550.00255113897902
 33
0.0
  0
SOLID
  5
65982
  8
HLADINA1
  6
CONTINUOUS
 10
2000.0000000000421
 20
-550.00255113897902
 30
0.0
 11
2000.0000000000421
 21
-550.00255113897902
 31
0.0
 12
2670.0000000000268
 22
-550.00255113897902
 32
0.0
 13
2670.0000000000268
 23
-550.00255113897902
 33
0.0
210
0.0
220
0.0
230
1.0
  0
SOLID
  5
65983
  8
HLADINA1
  6
CONTINUOUS
 10
2670.0000000000418
 20
-550.00255113897902
 30
0.0
 11
2670.0000000000418
 21
-550.00255113897902
 31
0.0
 12
2800.0000000000568
 22
-550.00255113897902
 32
0.0
 13
2800.0000000000568
 23
-550.00255113897902
 33
0.0
210
0.0
220
0.0
230
1.0
  0
LINE
  5
65984
  8
HLADINA1
  6
CONTINUOUS
 10
2000.0000000000421
 20
549.9974488602569
 30
0.0
 11
2000.0000000000421
 21
-0.0025511389934536
 31
0.0
  0
LINE
  5
65985
  8
HLADINA1
  6
CONTINUOUS
 10
2012.2676761359601
 20
-0.0025511389934536
 30
0.0
 11
2000.0000000000421
 21
549.9974488602569
 31
0.0
  0
LINE
  5
65986
  8
HLADINA1
  6
CONTINUOUS
 10
2000.0000000000421
 20
-0.0025511389934536
 30
0.0
 11
2012.2676761359601
 21
-0.0025511389934536
 31
0.0
  0
LINE
  5
65987
  8
HLADINA1
  6
CONTINUOUS
 10
2000.0000000000421
 20
-0.0025511389934536
 30
0.0
 11
2012.2676761359601
 21
-0.0025511389934536
 31
0.0
  0
LINE
  5
65988
  8
HLADINA1
  6
CONTINUOUS
 10
2000.0000000000421
 20
-0.0025511389934536
 30
0.0
 11
2000.0000000000421
 21
-526.00255113898993
 31
0.0
  0
LINE
  5
65989
  8
HLADINA1
  6
CONTINUOUS
 10
2012.2676761359601
 20
-0.0025511389934536
 30
0.0
 11
2024.0000354950589
 21
-526.00255113898993
 31
0.0
  0
LINE
  5
6598A
  8
HLADINA1
  6
CONTINUOUS
 10
2000.0000000000421
 20
-526.00255113898993
 30
0.0
 11
2000.0000000000421
 21
-545.98193239837519
 31
0.0
  0
LINE
  5
6598B
  8
HLADINA1
  6
CONTINUOUS
 10
2024.0000354950589
 20
-526.00255113898993
 30
0.0
 11
2670.0000000000268
 21
-545.98193239837519
 31
0.0
  0
LINE
  5
6598C
  8
HLADINA1
  6
CONTINUOUS
 10
2000.0000000000421
 20
-545.98193239837519
 30
0.0
 11
2000.0000000000421
 21
-550.00255113897902
 31
0.0
  0
LINE
  5
6598D
  8
HLADINA1
  6
CONTINUOUS
 10
2670.0000000000268
 20
-545.98193239837519
 30
0.0
 11
2670.0000000000418
 21
-550.00255113897902
 31
0.0
  0
LINE
  5
6598E
  8
HLADINA1
  6
CONTINUOUS
 10
2000.0000000000421
 20
-550.00255113897902
 30
0.0
 11
2670.0000000000268
 21
-550.00255113897902
 31
0.0
  0
LINE
  5
6598F
  8
HLADINA1
  6
CONTINUOUS
 10
2670.0000000000418
 20
-550.00255113897902
 30
0.0
 11
2800.0000000000568
 21
-550.00255113897902
 31
0.0
  0
ENDBLK
  5
65991
  8
0
  0
BLOCK
  8
0
  2
*X95
 70
     1
 10
0.0
 20
0.0
 30
0.0
  3
*X95
  1

  0
LINE
  5
65998
  8
0
  6
CONTINUOUS
 62
     0
 10
2800.00000000004
 20
654.33382523685566
 30
0.0
 11
2754.3363763758612
 21
699.99744886103508
 31
0.0
  0
LINE
  5
65999
  8
0
  6
CONTINUOUS
 62
     0
 10
2740.0000000000368
 20
624.53126402616181
 30
0.0
 11
2670.00000000004
 21
694.53126402615806
 31
0.0
  0
LINE
  5
6599A
  8
0
  6
CONTINUOUS
 62
     0
 10
2670.00000000004
 20
694.53126402615806
 30
0.0
 11
2664.5338151651781
 21
699.99744886102053
 31
0.0
  0
LINE
  5
6599B
  8
0
  6
CONTINUOUS
 62
     0
 10
2741.5338151651699
 20
622.99744886102405
 30
0.0
 11
2740.0000000000368
 21
624.53126402616181
 31
0.0
  0
LINE
  5
6599C
  8
0
  6
CONTINUOUS
 62
     0
 10
2603.2868620971822
 20
671.44184071832569
 30
0.0
 11
2600.0000000000332
 21
674.72870281547512
 31
0.0
  0
LINE
  5
6599D
  8
0
  6
CONTINUOUS
 62
     0
 10
2600.0000000000332
 20
674.72870281547512
 30
0.0
 11
2574.7312539544769
 21
699.99744886103144
 31
0.0
  0
LINE
  5
6599E
  8
0
  6
CONTINUOUS
 62
     0
 10
2651.7312539544769
 20
622.99744886103144
 30
0.0
 11
2609.4443918573311
 21
665.28431095817723
 31
0.0
  0
LINE
  5
6599F
  8
0
  6
CONTINUOUS
 62
     0
 10
2561.9286927437902
 20
622.99744886103497
 30
0.0
 11
2540.0000000000359
 21
644.92614160478468
 31
0.0
  0
LINE
  5
659A0
  8
0
  6
CONTINUOUS
 62
     0
 10
2740.00000000004
 20
-632.70459292351734
 30
0.0
 11
2730.2979582154881
 21
-623.00255113896492
 31
0.0
  0
LINE
  5
659A1
  8
0
  6
CONTINUOUS
 62
     0
 10
2800.0000000000441
 20
-692.70459292352098
 30
0.0
 11
2740.00000000004
 21
-632.70459292351734
 31
0.0
  0
LINE
  5
659A2
  8
0
  6
CONTINUOUS
 62
     0
 10
2670.00000000004
 20
-652.50715413421494
 30
0.0
 11
2640.495397004805
 21
-623.00255113897936
 31
0.0
  0
LINE
  5
659A3
  8
0
  6
CONTINUOUS
 62
     0
 10
2717.4953970047859
 20
-700.00255113896492
 30
0.0
 11
2670.00000000004
 21
-652.50715413421494
 31
0.0
  0
LINE
  5
659A4
  8
0
  6
CONTINUOUS
 62
     0
 10
2600.00000000004
 20
-672.30971534490516
 30
0.0
 11
2598.593417944765
 21
-670.9031332896302
 31
0.0
  0
LINE
  5
659A5
  8
0
  6
CONTINUOUS
 62
     0
 10
2590.0994178493752
 20
-662.40913319423987
 30
0.0
 11
2550.6928357941042
 21
-623.00255113896856
 31
0.0
  0
LINE
  5
659A6
  8
0
  6
CONTINUOUS
 62
     0
 10
2627.6928357941042
 20
-700.00255113896856
 30
0.0
 11
2600.00000000004
 21
-672.30971534490516
 31
0.0
  0
ENDBLK
  5
659A8
  8
0
  0
BLOCK
  8
0
  2
*X96
 70
     1
 10
0.0
 20
0.0
 30
0.0
  3
*X96
  1

  0
LINE
  5
659AA
  8
0
  6
CONTINUOUS
 62
     0
 10
450.00000000003268
 20
-657.76862319080817
 30
0.0
 11
414.23392794820018
 21
-622.00255113897583
 31
0.0
  0
LINE
  5
659AB
  8
0
  6
CONTINUOUS
 62
     0
 10
388.00000000003638
 20
-685.57118440149861
 30
0.0
 11
324.43136673751718
 21
-622.00255113897947
 31
0.0
  0
LINE
  5
659AC
  8
0
  6
CONTINUOUS
 62
     0
 10
402.43136673751718
 20
-700.00255113897583
 30
0.0
 11
388.00000000003638
 21
-685.57118440149861
 31
0.0
  0
LINE
  5
659AD
  8
0
  6
CONTINUOUS
 62
     0
 10
312.62880552682691
 20
-700.00255113897583
 30
0.0
 11
234.62880552682691
 21
-622.00255113897583
 31
0.0
  0
LINE
  5
659AE
  8
0
  6
CONTINUOUS
 62
     0
 10
222.82624431612561
 20
-700.00255113897583
 30
0.0
 11
144.82624431612561
 21
-622.00255113897583
 31
0.0
  0
LINE
  5
659AF
  8
0
  6
CONTINUOUS
 62
     0
 10
88.000000000032742
 20
-654.97886803356948
 30
0.0
 11
55.023683105442622
 21
-622.00255113897947
 31
0.0
  0
LINE
  5
659B0
  8
0
  6
CONTINUOUS
 62
     0
 10
133.02368310544259
 20
-700.00255113897583
 30
0.0
 11
88.000000000032742
 21
-654.97886803356948
 31
0.0
  0
LINE
  5
659B1
  8
0
  6
CONTINUOUS
 62
     0
 10
43.221121894745011
 20
-700.00255113896856
 30
0.0
 11
0.0000000000400178
 21
-656.78142924426345
 31
0.0
  0
ENDBLK
  5
659B3
  8
0
  0
BLOCK
  8
0
  2
*X97
 70
     1
 10
0.0
 20
0.0
 30
0.0
  3
*X97
  1

  0
LINE
  5
659B5
  8
0
  6
CONTINUOUS
 62
     0
 10
450.00000000003268
 20
664.2313768091916
 30
0.0
 11
414.23392794820018
 21
699.99744886102405
 31
0.0
  0
LINE
  5
659B6
  8
0
  6
CONTINUOUS
 62
     0
 10
388.00000000003638
 20
636.42881559850139
 30
0.0
 11
324.43136673751718
 21
699.99744886102053
 31
0.0
  0
LINE
  5
659B7
  8
0
  6
CONTINUOUS
 62
     0
 10
402.43136673751718
 20
621.99744886102405
 30
0.0
 11
388.00000000003638
 21
636.42881559850139
 31
0.0
  0
LINE
  5
659B8
  8
0
  6
CONTINUOUS
 62
     0
 10
312.62880552682691
 20
621.99744886102405
 30
0.0
 11
234.62880552682691
 21
699.99744886102405
 31
0.0
  0
LINE
  5
659B9
  8
0
  6
CONTINUOUS
 62
     0
 10
222.82624431612561
 20
621.99744886102405
 30
0.0
 11
144.82624431612561
 21
699.99744886102405
 31
0.0
  0
LINE
  5
659BA
  8
0
  6
CONTINUOUS
 62
     0
 10
88.000000000032742
 20
667.0211319664304
 30
0.0
 11
55.023683105442622
 21
699.99744886102053
 31
0.0
  0
LINE
  5
659BB
  8
0
  6
CONTINUOUS
 62
     0
 10
133.02368310544259
 20
621.99744886102405
 30
0.0
 11
88.000000000032742
 21
667.0211319664304
 31
0.0
  0
LINE
  5
659BC
  8
0
  6
CONTINUOUS
 62
     0
 10
43.221121894745011
 20
621.99744886103144
 30
0.0
 11
0.0000000000400178
 21
665.21857075573644
 31
0.0
  0
ENDBLK
  5
659BE
  8
0
  0
BLOCK
  8
0
  2
*U98
 70
     1
 10
0.0
 20
0.0
 30
0.0
  3
*U98
  1

  0
SOLID
  5
659E8
  8
HLADINA1
  6
CONTINUOUS
 10
-7.4303002125019191
 20
199.86193804923201
 30
0.0
 11
-106.0799013385006
 21
154.63598606144831
 31
0.0
 12
114.36798504699919
 22
154.63598606144831
 32
0.0
 13
114.36798504699919
 23
154.63598606144831
 33
0.0
210
0.0
220
0.0
230
1.0
  0
SOLID
  5
659E9
  8
HLADINA1
  6
CONTINUOUS
 10
-106.0799013385006
 20
154.63598606144831
 30
0.0
 11
-123.65704524996811
 21
146.5777368891373
 31
0.0
 12
-7.9187739383873028
 22
146.5777368891373
 32
0.0
 13
-7.9187739383873028
 23
146.5777368891373
 33
0.0
210
0.0
220
0.0
230
1.0
  0
SOLID
  5
659EA
  8
HLADINA1
  6
CONTINUOUS
 10
106.0799013385006
 20
154.63598606144831
 30
0.0
 11
-6.5672195654881156
 21
154.63598606144831
 31
0.0
 12
7.9187739383873028
 22
146.5777368891373
 32
0.0
 13
7.9187739383873028
 23
146.5777368891373
 33
0.0
210
0.0
220
0.0
230
-1.0
  0
SOLID
  5
659EB
  8
HLADINA1
  6
CONTINUOUS
 10
6.5672195654881156
 20
154.63598606144831
 30
0.0
 11
72.201549540798865
 21
146.5777368891373
 31
0.0
 12
136.06970470668469
 22
146.5777368891373
 32
0.0
 13
136.06970470668469
 23
146.5777368891373
 33
0.0
210
0.0
220
0.0
230
1.0
  0
SOLID
  5
659EC
  8
HLADINA1
  6
CONTINUOUS
 10
-6.5672195654881156
 20
154.63598606144831
 30
0.0
 11
-114.36798504699919
 21
154.63598606144831
 31
0.0
 12
-136.06970470668469
 22
146.5777368891373
 32
0.0
 13
-136.06970470668469
 23
146.5777368891373
 33
0.0
210
0.0
220
0.0
230
-1.0
  0
SOLID
  5
659ED
  8
HLADINA1
  6
CONTINUOUS
 10
-123.65704524996811
 20
146.5777368891373
 30
0.0
 11
-139.0112327472724
 21
139.5386030392437
 31
0.0
 12
-20.572744427763961
 22
139.5386030392437
 32
0.0
 13
-20.572744427763961
 23
139.5386030392437
 33
0.0
210
0.0
220
0.0
230
1.0
  0
SOLID
  5
659EE
  8
HLADINA1
  6
CONTINUOUS
 10
123.65704524996811
 20
146.5777368891373
 30
0.0
 11
7.9187739383873028
 21
146.5777368891373
 31
0.0
 12
20.572744427763961
 22
139.5386030392437
 32
0.0
 13
20.572744427763961
 23
139.5386030392437
 33
0.0
210
0.0
220
0.0
230
-1.0
  0
SOLID
  5
659EF
  8
HLADINA1
  6
CONTINUOUS
 10
-72.201549540798865
 20
146.5777368891373
 30
0.0
 11
-136.0697047066846
 21
146.5777368891373
 31
0.0
 12
-129.53519906752251
 22
139.5386030392437
 32
0.0
 13
-129.53519906752251
 23
139.5386030392437
 33
0.0
210
0.0
220
0.0
230
-1.0
  0
SOLID
  5
659F0
  8
HLADINA1
  6
CONTINUOUS
 10
136.0697047066846
 20
146.5777368891373
 30
0.0
 11
129.5351990675228
 21
139.5386030392437
 31
0.0
 12
143.09108860080289
 22
139.5386030392437
 32
0.0
 13
143.09108860080289
 23
139.5386030392437
 33
0.0
210
0.0
220
0.0
230
1.0
  0
SOLID
  5
659F1
  8
HLADINA1
  6
CONTINUOUS
 10
-139.0112327472724
 20
139.5386030392437
 30
0.0
 11
-146.577746761573
 21
136.06973144098379
 31
0.0
 12
-26.808596703322301
 22
136.06973144098379
 32
0.0
 13
-26.808596703322301
 23
136.06973144098379
 33
0.0
210
0.0
220
0.0
230
1.0
  0
SOLID
  5
659F2
  8
HLADINA1
  6
CONTINUOUS
 10
139.0112327472724
 20
139.5386030392437
 30
0.0
 11
20.572744427763961
 21
139.5386030392437
 31
0.0
 12
26.808596703322301
 22
136.06973144098379
 32
0.0
 13
26.808596703322301
 23
136.06973144098379
 33
0.0
210
0.0
220
0.0
230
-1.0
  0
SOLID
  5
659F3
  8
HLADINA1
  6
CONTINUOUS
 10
129.53519906752311
 20
139.5386030392437
 30
0.0
 11
136.25658556636
 21
136.06973144098379
 31
0.0
 12
146.55121305505739
 22
136.06973144098379
 32
0.0
 13
146.55121305505739
 23
136.06973144098379
 33
0.0
210
0.0
220
0.0
230
1.0
  0
SOLID
  5
659F4
  8
HLADINA1
  6
CONTINUOUS
 10
-129.53519906752311
 20
139.5386030392437
 30
0.0
 11
-143.09108860080289
 21
139.5386030392437
 31
0.0
 12
-146.55121305505739
 22
136.06973144098379
 32
0.0
 13
-146.55121305505739
 23
136.06973144098379
 33
0.0
210
0.0
220
0.0
230
-1.0
  0
SOLID
  5
659F5
  8
HLADINA1
  6
CONTINUOUS
 10
-146.577746761573
 20
136.06973144098379
 30
0.0
 11
-146.71532458895959
 21
135.69921976065609
 31
0.0
 12
-146.17862225930841
 22
135.69921976065609
 32
0.0
 13
-146.17862225930841
 23
135.69921976065609
 33
0.0
  0
SOLID
  5
659F6
  8
HLADINA1
  6
CONTINUOUS
 10
-146.577746761573
 20
136.06973144098379
 30
0.0
 11
-146.1786222593083
 21
135.69921976065609
 31
0.0
 12
-27.47465079020499
 22
135.69921976065609
 32
0.0
 13
-27.47465079020499
 23
135.69921976065609
 33
0.0
210
0.0
220
0.0
230
1.0
  0
SOLID
  5
659F7
  8
HLADINA1
  6
CONTINUOUS
 10
146.577746761573
 20
136.06973144098379
 30
0.0
 11
26.808596703322301
 21
136.06973144098379
 31
0.0
 12
27.47465079020499
 22
135.69921976065609
 32
0.0
 13
27.47465079020499
 23
135.69921976065609
 33
0.0
210
0.0
220
0.0
230
-1.0
  0
SOLID
  5
659F8
  8
HLADINA1
  6
CONTINUOUS
 10
136.25658556636
 20
136.06973144098379
 30
0.0
 11
136.9744997742728
 21
135.69921976065609
 31
0.0
 12
146.92079044913899
 22
135.69921976065609
 32
0.0
 13
146.92079044913899
 23
135.69921976065609
 33
0.0
  0
SOLID
  5
659F9
  8
HLADINA1
  6
CONTINUOUS
 10
-136.25658556636
 20
136.06973144098379
 30
0.0
 11
-146.55121305505739
 21
136.06973144098379
 31
0.0
 12
-146.92079044913899
 22
135.69921976065609
 32
0.0
 13
-146.92079044913899
 23
135.69921976065609
 33
0.0
210
0.0
220
0.0
230
-1.0
  0
SOLID
  5
659FA
  8
HLADINA1
  6
CONTINUOUS
 10
-146.71532458895959
 20
135.69921976065609
 30
0.0
 11
-147.97074803455669
 21
132.3182312744525
 31
0.0
 12
-142.53653641325681
 22
132.3182312744525
 32
0.0
 13
-142.53653641325681
 23
132.3182312744525
 33
0.0
  0
SOLID
  5
659FB
  8
HLADINA1
  6
CONTINUOUS
 10
146.71532458895959
 20
135.69921976065609
 30
0.0
 11
146.17862225930841
 21
135.69921976065609
 31
0.0
 12
142.53653641325681
 22
132.3182312744525
 32
0.0
 13
142.53653641325681
 23
132.3182312744525
 33
0.0
210
0.0
220
0.0
230
-1.0
  0
SOLID
  5
659FC
  8
HLADINA1
  6
CONTINUOUS
 10
-146.1786222593083
 20
135.69921976065609
 30
0.0
 11
-142.5365364132567
 21
132.3182312744525
 31
0.0
 12
-33.552519096401468
 22
132.3182312744525
 32
0.0
 13
-33.552519096401468
 23
132.3182312744525
 33
0.0
  0
SOLID
  5
659FD
  8
HLADINA1
  6
CONTINUOUS
 10
146.1786222593083
 20
135.69921976065609
 30
0.0
 11
27.47465079020499
 21
135.69921976065609
 31
0.0
 12
33.552519096401468
 22
132.3182312744525
 32
0.0
 13
33.552519096401468
 23
132.3182312744525
 33
0.0
210
0.0
220
0.0
230
-1.0
  0
SOLID
  5
659FE
  8
HLADINA1
  6
CONTINUOUS
 10
136.9744997742728
 20
135.69921976065609
 30
0.0
 11
143.5256013991617
 21
132.3182312744525
 31
0.0
 12
149.81095848922959
 22
132.3182312744525
 32
0.0
 13
149.81095848922959
 23
132.3182312744525
 33
0.0
210
0.0
220
0.0
230
1.0
  0
SOLID
  5
659FF
  8
HLADINA1
  6
CONTINUOUS
 10
-136.9744997742728
 20
135.69921976065609
 30
0.0
 11
-146.92079044913899
 21
135.69921976065609
 31
0.0
 12
-149.81095848922959
 22
132.3182312744525
 32
0.0
 13
-149.81095848922959
 23
132.3182312744525
 33
0.0
210
0.0
220
0.0
230
-1.0
  0
SOLID
  5
65A00
  8
HLADINA1
  6
CONTINUOUS
 10
-147.97074803455669
 20
132.3182312744525
 30
0.0
 11
-151.0521169139048
 21
124.0197780797475
 31
0.0
 12
-133.5972338844588
 22
124.0197780797475
 32
0.0
 13
-133.5972338844588
 23
124.0197780797475
 33
0.0
210
0.0
220
0.0
230
1.0
  0
SOLID
  5
65A01
  8
HLADINA1
  6
CONTINUOUS
 10
147.97074803455669
 20
132.3182312744525
 30
0.0
 11
142.53653641325681
 21
132.3182312744525
 31
0.0
 12
133.5972338844588
 22
124.0197780797475
 32
0.0
 13
133.5972338844588
 23
124.0197780797475
 33
0.0
210
0.0
220
0.0
230
-1.0
  0
SOLID
  5
65A02
  8
HLADINA1
  6
CONTINUOUS
 10
-142.5365364132567
 20
132.3182312744525
 30
0.0
 11
-133.59723388445869
 21
124.0197780797475
 31
0.0
 12
-48.470317801828479
 22
124.0197780797475
 32
0.0
 13
-48.470317801828479
 23
124.0197780797475
 33
0.0
210
0.0
220
0.0
230
1.0
  0
SOLID
  5
65A03
  8
HLADINA1
  6
CONTINUOUS
 10
142.5365364132567
 20
132.3182312744525
 30
0.0
 11
33.552519096401468
 21
132.3182312744525
 31
0.0
 12
48.470317801828479
 22
124.0197780797475
 32
0.0
 13
48.470317801828479
 23
124.0197780797475
 33
0.0
210
0.0
220
0.0
230
-1.0
  0
SOLID
  5
65A04
  8
HLADINA1
  6
CONTINUOUS
 10
-143.5256013991617
 20
132.3182312744525
 30
0.0
 11
-149.81095848922959
 21
132.3182312744525
 31
0.0
 12
-156.90471947167379
 22
124.0197780797475
 32
0.0
 13
-156.90471947167379
 23
124.0197780797475
 33
0.0
210
0.0
220
0.0
230
-1.0
  0
SOLID
  5
65A05
  8
HLADINA1
  6
CONTINUOUS
 10
-151.0521169139048
 20
124.0197780797475
 30
0.0
 11
-162.0470583125522
 21
94.409234795978335
 31
0.0
 12
-101.7000118064241
 22
94.409234795978335
 32
0.0
 13
-101.7000118064241
 23
94.409234795978335
 33
0.0
210
0.0
220
0.0
230
1.0
  0
SOLID
  5
65A06
  8
HLADINA1
  6
CONTINUOUS
 10
151.0521169139048
 20
124.0197780797475
 30
0.0
 11
133.5972338844588
 21
124.0197780797475
 31
0.0
 12
101.7000118064241
 22
94.409234795978335
 32
0.0
 13
101.7000118064241
 23
94.409234795978335
 33
0.0
210
0.0
220
0.0
230
-1.0
  0
SOLID
  5
65A07
  8
HLADINA1
  6
CONTINUOUS
 10
133.59723388445869
 20
124.0197780797475
 30
0.0
 11
48.470317801828479
 21
124.0197780797475
 31
0.0
 12
101.7000118064241
 22
94.409234795978335
 32
0.0
 13
101.7000118064241
 23
94.409234795978335
 33
0.0
210
0.0
220
0.0
230
-1.0
  0
SOLID
  5
65A08
  8
HLADINA1
  6
CONTINUOUS
 10
-162.0470583125522
 20
94.409234795978335
 30
0.0
 11
-199.8619479216687
 21
-7.4302734782037438
 31
0.0
 12
-148.81695672466711
 22
-7.4302734782037438
 32
0.0
 13
-148.81695672466711
 23
-7.4302734782037438
 33
0.0
210
0.0
220
0.0
230
1.0
  0
SOLID
  5
65A09
  8
HLADINA1
  6
CONTINUOUS
 10
162.0470583125522
 20
94.409234795978335
 30
0.0
 11
101.7000118064241
 21
94.409234795978335
 31
0.0
 12
148.81695672466711
 22
-7.4302734782037438
 32
0.0
 13
148.81695672466711
 23
-7.4302734782037438
 33
0.0
210
0.0
220
0.0
230
-1.0
  0
SOLID
  5
65A0A
  8
HLADINA1
  6
CONTINUOUS
 10
-199.8619479216687
 20
-7.4302734782037438
 30
0.0
 11
-195.00201376120179
 21
-18.031057880888518
 31
0.0
 12
-153.72150293915519
 22
-18.031057880888518
 32
0.0
 13
-153.72150293915519
 23
-18.031057880888518
 33
0.0
210
0.0
220
0.0
230
1.0
  0
SOLID
  5
65A0B
  8
HLADINA1
  6
CONTINUOUS
 10
199.8619479216687
 20
-7.4302734782037438
 30
0.0
 11
148.81695672466711
 21
-7.4302734782037438
 31
0.0
 12
153.72150293915519
 22
-18.031057880888518
 32
0.0
 13
153.72150293915519
 23
-18.031057880888518
 33
0.0
210
0.0
220
0.0
230
-1.0
  0
SOLID
  5
65A0C
  8
HLADINA1
  6
CONTINUOUS
 10
-195.00201376120179
 20
-18.031057880888518
 30
0.0
 11
-139.29683524889569
 21
-139.53858617738231
 31
0.0
 12
-129.53523567425751
 22
-139.53858617738231
 32
0.0
 13
-129.53523567425751
 23
-139.53858617738231
 33
0.0
210
0.0
220
0.0
230
1.0
  0
SOLID
  5
65A0D
  8
HLADINA1
  6
CONTINUOUS
 10
195.00201376120179
 20
-18.031057880888518
 30
0.0
 11
153.72150293915519
 21
-18.031057880888518
 31
0.0
 12
129.53523567425751
 22
-139.53858617738231
 32
0.0
 13
129.53523567425751
 23
-139.53858617738231
 33
0.0
210
0.0
220
0.0
230
-1.0
  0
SOLID
  5
65A0E
  8
HLADINA1
  6
CONTINUOUS
 10
139.29683524889569
 20
-139.53858617738231
 30
0.0
 11
129.53523567425759
 21
-139.53858617738231
 31
0.0
 12
136.0697413134194
 22
-146.57772002727569
 32
0.0
 13
136.0697413134194
 23
-146.57772002727569
 33
0.0
210
0.0
220
0.0
230
-1.0
  0
SOLID
  5
65A0F
  8
HLADINA1
  6
CONTINUOUS
 10
-129.53523567425751
 20
-139.53858617738231
 30
0.0
 11
-136.0697413134194
 21
-146.57772002727569
 31
0.0
 12
-125.2121400426451
 22
-146.57772002727569
 32
0.0
 13
-125.2121400426451
 23
-146.57772002727569
 33
0.0
210
0.0
220
0.0
230
1.0
  0
SOLID
  5
65A10
  8
HLADINA1
  6
CONTINUOUS
 10
-136.0697413134194
 20
-146.57772002727569
 30
0.0
 11
-128.64834715820271
 21
-152.9542450331025
 31
0.0
 12
-121.2959867224501
 22
-152.9542450331025
 32
0.0
 13
-121.2959867224501
 23
-152.9542450331025
 33
0.0
210
0.0
220
0.0
230
1.0
  0
SOLID
  5
65A11
  8
HLADINA1
  6
CONTINUOUS
 10
136.0697413134194
 20
-146.57772002727569
 30
0.0
 11
125.2121400426451
 21
-146.57772002727569
 31
0.0
 12
121.2959867224501
 22
-152.9542450331025
 32
0.0
 13
121.2959867224501
 23
-152.9542450331025
 33
0.0
210
0.0
220
0.0
230
-1.0
  0
SOLID
  5
65A12
  8
HLADINA1
  6
CONTINUOUS
 10
-128.64834715820271
 20
-152.9542450331025
 30
0.0
 11
-124.4155441826761
 21
-156.5911053660374
 31
0.0
 12
-118.6470868850928
 22
-156.5911053660374
 32
0.0
 13
-118.6470868850928
 23
-156.5911053660374
 33
0.0
210
0.0
220
0.0
230
1.0
  0
SOLID
  5
65A13
  8
HLADINA1
  6
CONTINUOUS
 10
128.64834715820271
 20
-152.9542450331025
 30
0.0
 11
121.2959867224501
 21
-152.9542450331025
 31
0.0
 12
118.6470868850928
 22
-156.5911053660374
 32
0.0
 13
118.6470868850928
 23
-156.5911053660374
 33
0.0
210
0.0
220
0.0
230
-1.0
  0
SOLID
  5
65A14
  8
HLADINA1
  6
CONTINUOUS
 10
124.4155441826761
 20
-156.5911053660374
 30
0.0
 11
118.6470868850928
 21
-156.5911053660374
 31
0.0
 12
112.0270211232598
 22
-165.6802578628913
 32
0.0
 13
112.0270211232598
 23
-165.6802578628913
 33
0.0
210
0.0
220
0.0
230
-1.0
  0
LINE
  5
65A15
  8
HLADINA1
  6
CONTINUOUS
 10
-7.4303002125019191
 20
199.86193804923201
 30
0.0
 11
-106.0799013385006
 21
154.63598606144831
 31
0.0
  0
LINE
  5
65A16
  8
HLADINA1
  6
CONTINUOUS
 10
114.36798504699919
 20
154.63598606144831
 30
0.0
 11
-7.4303002125019191
 21
199.86193804923201
 31
0.0
  0
LINE
  5
65A17
  8
HLADINA1
  6
CONTINUOUS
 10
-106.0799013385006
 20
154.63598606144831
 30
0.0
 11
-123.65704524996811
 21
146.5777368891373
 31
0.0
  0
LINE
  5
65A18
  8
HLADINA1
  6
CONTINUOUS
 10
114.36798504699919
 20
154.63598606144831
 30
0.0
 11
136.06970470668469
 21
146.5777368891373
 31
0.0
  0
LINE
  5
65A19
  8
HLADINA1
  6
CONTINUOUS
 10
-123.65704524996811
 20
146.5777368891373
 30
0.0
 11
-139.0112327472724
 21
139.5386030392437
 31
0.0
  0
LINE
  5
65A1A
  8
HLADINA1
  6
CONTINUOUS
 10
-7.9187739383873028
 20
146.5777368891373
 30
0.0
 11
-20.572744427763961
 21
139.5386030392437
 31
0.0
  0
LINE
  5
65A1B
  8
HLADINA1
  6
CONTINUOUS
 10
136.0697047066846
 20
146.5777368891373
 30
0.0
 11
129.53519906752251
 21
139.5386030392437
 31
0.0
  0
LINE
  5
65A1C
  8
HLADINA1
  6
CONTINUOUS
 10
129.53519906752251
 20
139.5386030392437
 30
0.0
 11
72.201549540798865
 21
146.5777368891373
 31
0.0
  0
LINE
  5
65A1D
  8
HLADINA1
  6
CONTINUOUS
 10
136.0697047066846
 20
146.5777368891373
 30
0.0
 11
129.5351990675228
 21
139.5386030392437
 31
0.0
  0
LINE
  5
65A1E
  8
HLADINA1
  6
CONTINUOUS
 10
143.09108860080289
 20
139.5386030392437
 30
0.0
 11
136.0697047066846
 21
146.5777368891373
 31
0.0
  0
LINE
  5
65A1F
  8
HLADINA1
  6
CONTINUOUS
 10
-139.0112327472724
 20
139.5386030392437
 30
0.0
 11
-146.577746761573
 21
136.06973144098379
 31
0.0
  0
LINE
  5
65A20
  8
HLADINA1
  6
CONTINUOUS
 10
-20.572744427763961
 20
139.5386030392437
 30
0.0
 11
-26.808596703322301
 21
136.06973144098379
 31
0.0
  0
LINE
  5
65A21
  8
HLADINA1
  6
CONTINUOUS
 10
129.53519906752311
 20
139.5386030392437
 30
0.0
 11
136.25658556636
 21
136.06973144098379
 31
0.0
  0
LINE
  5
65A22
  8
HLADINA1
  6
CONTINUOUS
 10
143.09108860080289
 20
139.5386030392437
 30
0.0
 11
146.55121305505739
 21
136.06973144098379
 31
0.0
  0
LINE
  5
65A23
  8
HLADINA1
  6
CONTINUOUS
 10
-146.577746761573
 20
136.06973144098379
 30
0.0
 11
-146.71532458895959
 21
135.69921976065609
 31
0.0
  0
LINE
  5
65A24
  8
HLADINA1
  6
CONTINUOUS
 10
-146.17862225930841
 20
135.69921976065609
 30
0.0
 11
-146.577746761573
 21
136.06973144098379
 31
0.0
  0
LINE
  5
65A25
  8
HLADINA1
  6
CONTINUOUS
 10
-146.577746761573
 20
136.06973144098379
 30
0.0
 11
-146.1786222593083
 21
135.69921976065609
 31
0.0
  0
LINE
  5
65A26
  8
HLADINA1
  6
CONTINUOUS
 10
-26.808596703322301
 20
136.06973144098379
 30
0.0
 11
-27.47465079020499
 21
135.69921976065609
 31
0.0
  0
LINE
  5
65A27
  8
HLADINA1
  6
CONTINUOUS
 10
136.25658556636
 20
136.06973144098379
 30
0.0
 11
136.9744997742728
 21
135.69921976065609
 31
0.0
  0
LINE
  5
65A28
  8
HLADINA1
  6
CONTINUOUS
 10
146.55121305505739
 20
136.06973144098379
 30
0.0
 11
146.92079044913899
 21
135.69921976065609
 31
0.0
  0
LINE
  5
65A29
  8
HLADINA1
  6
CONTINUOUS
 10
-146.71532458895959
 20
135.69921976065609
 30
0.0
 11
-147.97074803455669
 21
132.3182312744525
 31
0.0
  0
LINE
  5
65A2A
  8
HLADINA1
  6
CONTINUOUS
 10
-146.17862225930841
 20
135.69921976065609
 30
0.0
 11
-142.53653641325681
 21
132.3182312744525
 31
0.0
  0
LINE
  5
65A2B
  8
HLADINA1
  6
CONTINUOUS
 10
-146.1786222593083
 20
135.69921976065609
 30
0.0
 11
-142.5365364132567
 21
132.3182312744525
 31
0.0
  0
LINE
  5
65A2C
  8
HLADINA1
  6
CONTINUOUS
 10
-27.47465079020499
 20
135.69921976065609
 30
0.0
 11
-33.552519096401468
 21
132.3182312744525
 31
0.0
  0
LINE
  5
65A2D
  8
HLADINA1
  6
CONTINUOUS
 10
136.9744997742728
 20
135.69921976065609
 30
0.0
 11
143.5256013991617
 21
132.3182312744525
 31
0.0
  0
LINE
  5
65A2E
  8
HLADINA1
  6
CONTINUOUS
 10
146.92079044913899
 20
135.69921976065609
 30
0.0
 11
149.81095848922959
 21
132.3182312744525
 31
0.0
  0
LINE
  5
65A2F
  8
HLADINA1
  6
CONTINUOUS
 10
-147.97074803455669
 20
132.3182312744525
 30
0.0
 11
-151.0521169139048
 21
124.0197780797475
 31
0.0
  0
LINE
  5
65A30
  8
HLADINA1
  6
CONTINUOUS
 10
-142.53653641325681
 20
132.3182312744525
 30
0.0
 11
-133.5972338844588
 21
124.0197780797475
 31
0.0
  0
LINE
  5
65A31
  8
HLADINA1
  6
CONTINUOUS
 10
-142.5365364132567
 20
132.3182312744525
 30
0.0
 11
-133.59723388445869
 21
124.0197780797475
 31
0.0
  0
LINE
  5
65A32
  8
HLADINA1
  6
CONTINUOUS
 10
-33.552519096401468
 20
132.3182312744525
 30
0.0
 11
-48.470317801828479
 21
124.0197780797475
 31
0.0
  0
LINE
  5
65A33
  8
HLADINA1
  6
CONTINUOUS
 10
149.81095848922959
 20
132.3182312744525
 30
0.0
 11
156.90471947167379
 21
124.0197780797475
 31
0.0
  0
LINE
  5
65A34
  8
HLADINA1
  6
CONTINUOUS
 10
156.90471947167379
 20
124.0197780797475
 30
0.0
 11
143.5256013991617
 21
132.3182312744525
 31
0.0
  0
LINE
  5
65A35
  8
HLADINA1
  6
CONTINUOUS
 10
-151.0521169139048
 20
124.0197780797475
 30
0.0
 11
-162.0470583125522
 21
94.409234795978335
 31
0.0
  0
LINE
  5
65A36
  8
HLADINA1
  6
CONTINUOUS
 10
-48.470317801828479
 20
124.0197780797475
 30
0.0
 11
-101.7000118064241
 21
94.409234795978335
 31
0.0
  0
LINE
  5
65A37
  8
HLADINA1
  6
CONTINUOUS
 10
-101.7000118064241
 20
94.409234795978335
 30
0.0
 11
-133.59723388445869
 21
124.0197780797475
 31
0.0
  0
LINE
  5
65A38
  8
HLADINA1
  6
CONTINUOUS
 10
-162.0470583125522
 20
94.409234795978335
 30
0.0
 11
-199.8619479216687
 21
-7.4302734782037438
 31
0.0
  0
LINE
  5
65A39
  8
HLADINA1
  6
CONTINUOUS
 10
-101.7000118064241
 20
94.409234795978335
 30
0.0
 11
-148.81695672466711
 21
-7.4302734782037438
 31
0.0
  0
LINE
  5
65A3A
  8
HLADINA1
  6
CONTINUOUS
 10
-199.8619479216687
 20
-7.4302734782037438
 30
0.0
 11
-195.00201376120179
 21
-18.031057880888518
 31
0.0
  0
LINE
  5
65A3B
  8
HLADINA1
  6
CONTINUOUS
 10
-148.81695672466711
 20
-7.4302734782037438
 30
0.0
 11
-153.72150293915519
 21
-18.031057880888518
 31
0.0
  0
LINE
  5
65A3C
  8
HLADINA1
  6
CONTINUOUS
 10
-195.00201376120179
 20
-18.031057880888518
 30
0.0
 11
-139.29683524889569
 21
-139.53858617738231
 31
0.0
  0
LINE
  5
65A3D
  8
HLADINA1
  6
CONTINUOUS
 10
-153.72150293915519
 20
-18.031057880888518
 30
0.0
 11
-129.53523567425751
 21
-139.53858617738231
 31
0.0
  0
LINE
  5
65A3E
  8
HLADINA1
  6
CONTINUOUS
 10
-129.53523567425759
 20
-139.53858617738231
 30
0.0
 11
-136.0697413134194
 21
-146.57772002727569
 31
0.0
  0
LINE
  5
65A3F
  8
HLADINA1
  6
CONTINUOUS
 10
-125.2121400426451
 20
-146.57772002727569
 30
0.0
 11
-129.53523567425751
 21
-139.53858617738231
 31
0.0
  0
LINE
  5
65A40
  8
HLADINA1
  6
CONTINUOUS
 10
-136.0697413134194
 20
-146.57772002727569
 30
0.0
 11
-128.64834715820271
 21
-152.9542450331025
 31
0.0
  0
LINE
  5
65A41
  8
HLADINA1
  6
CONTINUOUS
 10
-125.2121400426451
 20
-146.57772002727569
 30
0.0
 11
-121.2959867224501
 21
-152.9542450331025
 31
0.0
  0
LINE
  5
65A42
  8
HLADINA1
  6
CONTINUOUS
 10
-128.64834715820271
 20
-152.9542450331025
 30
0.0
 11
-124.4155441826761
 21
-156.5911053660374
 31
0.0
  0
LINE
  5
65A43
  8
HLADINA1
  6
CONTINUOUS
 10
-121.2959867224501
 20
-152.9542450331025
 30
0.0
 11
-118.6470868850928
 21
-156.5911053660374
 31
0.0
  0
LINE
  5
65A44
  8
HLADINA1
  6
CONTINUOUS
 10
-118.6470868850928
 20
-156.5911053660374
 30
0.0
 11
-112.0270211232598
 21
-165.6802578628913
 31
0.0
  0
LINE
  5
65A45
  8
HLADINA1
  6
CONTINUOUS
 10
-112.0270211232598
 20
-165.6802578628913
 30
0.0
 11
-124.4155441826761
 21
-156.5911053660374
 31
0.0
  0
ENDBLK
  5
65A47
  8
0
  0
BLOCK
  8
0
  2
*U99
 70
     1
 10
0.0
 20
0.0
 30
0.0
  3
*U99
  1

  0
TEXT
  5
65A49
  8
S-OBRYS
  6
CONTINUOUS
 62
     7
 10
8661.3660371404803
 20
399373.22825181449
 30
0.0
 40
100.0
  1
2810
 41
0.8
  0
ENDBLK
  5
65A4B
  8
0
  0
BLOCK
  8
0
  2
*U100
 70
     1
 10
0.0
 20
0.0
 30
0.0
  3
*U100
  1

  0
TEXT
  5
65A4D
  8
S-OBRYS
  6
CONTINUOUS
 62
     7
 10
8645.5845402334544
 20
399191.20141641679
 30
0.0
 40
100.0
  1
1915
 41
0.8
  0
ENDBLK
  5
65A4F
  8
0
  0
BLOCK
  8
0
  2
*U101
 70
     1
 10
0.0
 20
0.0
 30
0.0
  3
*U101
  1

  0
TEXT
  5
65A51
  8
S-OBRYS
  6
CONTINUOUS
 62
     7
 10
9063.1625585653383
 20
402372.07171052619
 30
0.0
 40
100.0
  1
3000
 50
24.999999998252829
 41
0.8
  0
ENDBLK
  5
65A53
  8
0
  0
BLOCK
  8
0
  2
*U102
 70
     1
 10
0.0
 20
0.0
 30
0.0
  3
*U102
  1

  0
TEXT
  5
65A55
  8
S-OBRYS
  6
CONTINUOUS
 62
     7
 10
7554.3940640429782
 20
399191.20141641679
 30
0.0
 40
100.0
  1
355
 41
0.8
  0
ENDBLK
  5
65A57
  8
0
  0
BLOCK
  8
0
  2
*U103
 70
     1
 10
0.0
 20
0.0
 30
0.0
  3
*U103
  1

  0
TEXT
  5
65A59
  8
S-OBRYS
  6
CONTINUOUS
 62
     7
 10
7690.6477468970616
 20
403130.76419832598
 30
0.0
 40
100.0
  1
\U+2205120
 41
0.8
  0
ENDBLK
  5
65A5B
  8
0
  0
BLOCK
  8
0
  2
*U104
 70
     1
 10
0.0
 20
0.0
 30
0.0
  3
*U104
  1

  0
TEXT
  5
65A5D
  8
S-OBRYS
  6
CONTINUOUS
 62
     7
 10
7357.1302873535869
 20
402457.57796387252
 30
0.0
 40
100.0
  1
720
 50
90.0
 41
0.8
  0
ENDBLK
  5
65A5F
  8
0
  0
BLOCK
  8
0
  2
*U105
 70
     1
 10
0.0
 20
0.0
 30
0.0
  3
*U105
  1

  0
TEXT
  5
65A61
  8
S-OBRYS
  6
CONTINUOUS
 62
     7
 10
8298.9897133534323
 20
402591.15162278031
 30
0.0
 40
100.0
  1
25°
 50
282.50000000000011
 41
0.8
  0
ENDBLK
  5
65A63
  8
0
  0
BLOCK
  8
0
  2
*U106
 70
     1
 10
0.0
 20
0.0
 30
0.0
  3
*U106
  1

  0
TEXT
  5
65A65
  8
S-OBRYS
  6
CONTINUOUS
 62
     7
 10
10431.653129466509
 20
404187.0261004651
 30
0.0
 40
100.0
  1
900
 50
295.00000000000142
 41
0.8
  0
ENDBLK
  5
65A67
  8
0
  0
BLOCK
  8
0
  2
*U107
 70
     1
 10
0.0
 20
0.0
 30
0.0
  3
*U107
  1

  0
TEXT
  5
65A69
  8
S-OBRYS
  6
CONTINUOUS
 62
     7
 10
9890.5545858685091
 20
399137.80070703191
 30
0.0
 40
100.0
  1
\U+220521
 50
48.513764669229289
 41
0.8
  0
ENDBLK
  5
65A6B
  8
0
  0
BLOCK
  8
0
  2
*U108
 70
     1
 10
0.0
 20
0.0
 30
0.0
  3
*U108
  1

  0
TEXT
  5
65A6D
  8
S-OBRYS
  6
CONTINUOUS
 62
     7
 10
7840.8940640429792
 20
398313.98880732659
 30
0.0
 40
100.0
  1
218
 41
0.8
  0
ENDBLK
  5
65A6F
  8
0
  0
BLOCK
  8
0
  2
*U109
 70
     1
 10
0.0
 20
0.0
 30
0.0
  3
*U109
  1

  0
TEXT
  5
65A71
  8
S-OBRYS
  6
CONTINUOUS
 62
     7
 10
8153.8940640429782
 20
398313.98880732659
 30
0.0
 40
100.0
  1
408
 41
0.8
  0
ENDBLK
  5
65A73
  8
0
  0
BLOCK
  8
0
  2
*U110
 70
     1
 10
0.0
 20
0.0
 30
0.0
  3
*U110
  1

  0
TEXT
  5
65A75
  8
S-OBRYS
  6
CONTINUOUS
 62
     7
 10
7279.6519981466699
 20
398671.08221717132
 30
0.0
 40
100.0
  1
370
 50
90.0
 41
0.8
  0
ENDBLK
  5
65A77
  8
0
  0
BLOCK
  8
0
  2
*U111
 70
     1
 10
0.0
 20
0.0
 30
0.0
  3
*U111
  1

  0
TEXT
  5
65A79
  8
S-OBRYS
  6
CONTINUOUS
 62
     7
 10
7002.2488280860707
 20
398654.47330494842
 30
0.0
 40
100.0
  1
440
 50
90.0
 41
0.8
  0
ENDBLK
  5
65A7B
  8
0
  0
BLOCK
  8
0
  2
*U112
 70
     1
 10
0.0
 20
0.0
 30
0.0
  3
*U112
  1

  0
TEXT
  5
65A7D
  8
OBRYS
  6
CONTINUOUS
 10
-6128.4832325562766
 20
406564.12495154922
 30
0.0
 40
400.0
  1
Mixér obilí  MO1
  7
R
  0
ENDBLK
  5
65A7F
  8
0
  0
BLOCK
  8
0
  2
*U113
 70
     1
 10
0.0
 20
0.0
 30
0.0
  3
*U113
  1

  0
TEXT
  5
65A81
  8
S-OBRYS
  6
CONTINUOUS
 10
-4093.8594235549522
 20
402888.65372337261
 30
0.0
 40
100.0
  1
2165
 41
0.8
  0
ENDBLK
  5
65A83
  8
0
  0
BLOCK
  8
0
  2
*U114
 70
     1
 10
0.0
 20
0.0
 30
0.0
  3
*U114
  1

  0
TEXT
  5
65AC6
  8
S-OBRYS
  6
CONTINUOUS
 62
     7
 10
8433.5953309556426
 20
397556.53256273433
 30
0.0
 40
125.0
  1
2000
 41
0.8
  0
ENDBLK
  5
65AC8
  8
0
  0
BLOCK
  8
0
  2
*U115
 70
     1
 10
0.0
 20
0.0
 30
0.0
  3
*U115
  1

  0
TEXT
  5
65ACA
  8
S-OBRYS
  6
CONTINUOUS
 62
     7
 10
6620.3802007616096
 20
397553.13833107927
 30
0.0
 40
125.0
  1
2000
 41
0.8
  0
ENDBLK
  5
65ACC
  8
0
  0
BLOCK
  8
0
  2
*U116
 70
     1
 10
0.0
 20
0.0
 30
0.0
  3
*U116
  1

  0
TEXT
  5
65ACE
  8
S-OBRYS
  6
CONTINUOUS
 62
     7
 10
5490.0590989723951
 20
397850.98764224019
 30
0.0
 40
125.0
  1
533
 50
90.0
 41
0.8
  0
ENDBLK
  5
65AD0
  8
0
  0
BLOCK
  8
0
  2
*U117
 70
     1
 10
0.0
 20
0.0
 30
0.0
  3
*U117
  1

  0
TEXT
  5
65AD2
  8
S-OBRYS
  6
CONTINUOUS
 62
     7
 10
5489.1722709559263
 20
396114.17489168502
 30
0.0
 40
125.0
  1
303
 50
90.0
 41
0.8
  0
ENDBLK
  5
65AD4
  8
0
  0
BLOCK
  8
0
  2
*U118
 70
     1
 10
0.0
 20
0.0
 30
0.0
  3
*U118
  1

  0
TEXT
  5
65AD6
  8
S-OBRYS
  6
CONTINUOUS
 62
     7
 10
12487.54846586464
 20
397553.13833107927
 30
0.0
 40
125.0
  1
1053
 41
0.8
  0
ENDBLK
  5
65AD8
  8
0
  0
BLOCK
  8
0
  2
*U119
 70
     1
 10
0.0
 20
0.0
 30
0.0
  3
*U119
  1

  0
TEXT
  5
65ADA
  8
S-OBRYS
  6
CONTINUOUS
 62
     7
 10
10710.437938585261
 20
397553.13833107927
 30
0.0
 40
125.0
  1
2500
 41
0.8
  0
ENDBLK
  5
65ADC
  8
0
  0
BLOCK
  8
0
  2
*U120
 70
     1
 10
0.0
 20
0.0
 30
0.0
  3
*U120
  1

  0
TEXT
  5
65ADE
  8
S-OBRYS
  6
CONTINUOUS
 62
     7
 10
4600.1722756982754
 20
397684.60749336681
 30
0.0
 40
125.0
  1
MIN.200
 41
0.8
  0
ENDBLK
  5
65AE0
  8
0
  0
BLOCK
  8
0
  2
*U121
 70
     1
 10
0.0
 20
0.0
 30
0.0
  3
*U121
  1

  0
TEXT
  5
65AE2
  8
S-OBRYS
  6
CONTINUOUS
 62
     7
 10
13739.20018101783
 20
397690.40349321213
 30
0.0
 40
125.0
  1
MIN.400
 41
0.8
  0
ENDBLK
  5
65AE4
  8
0
  0
BLOCK
  8
0
  2
*U122
 70
     1
 10
0.0
 20
0.0
 30
0.0
  3
*U122
  1

  0
TEXT
  5
65AE6
  8
S-OBRYS
  6
CONTINUOUS
 62
     7
 10
21757.985183787019
 20
399313.55298456078
 30
0.0
 40
100.0
  1
2000
 41
0.8
  0
ENDBLK
  5
65AE8
  8
0
  0
BLOCK
  8
0
  2
*U123
 70
     1
 10
0.0
 20
0.0
 30
0.0
  3
*U123
  1

  0
TEXT
  5
65AEA
  8
S-OBRYS
  6
CONTINUOUS
 62
     7
 10
19944.77005359298
 20
399310.1587529059
 30
0.0
 40
100.0
  1
2000
 41
0.8
  0
ENDBLK
  5
65AEC
  8
0
  0
BLOCK
  8
0
  2
*U124
 70
     1
 10
0.0
 20
0.0
 30
0.0
  3
*U124
  1

  0
TEXT
  5
65AEE
  8
S-OBRYS
  6
CONTINUOUS
 62
     7
 10
18776.35371370853
 20
399636.57949263818
 30
0.0
 40
100.0
  1
533
 50
90.0
 41
0.8
  0
ENDBLK
  5
65AF0
  8
0
  0
BLOCK
  8
0
  2
*U125
 70
     1
 10
0.0
 20
0.0
 30
0.0
  3
*U125
  1

  0
TEXT
  5
65AF2
  8
S-OBRYS
  6
CONTINUOUS
 62
     7
 10
18775.466885692062
 20
397899.76674208313
 30
0.0
 40
100.0
  1
303
 50
90.0
 41
0.8
  0
ENDBLK
  5
65AF4
  8
0
  0
BLOCK
  8
0
  2
*U126
 70
     1
 10
0.0
 20
0.0
 30
0.0
  3
*U126
  1

  0
TEXT
  5
65AF6
  8
S-OBRYS
  6
CONTINUOUS
 62
     7
 10
25813.366890124591
 20
399310.1587529059
 30
0.0
 40
100.0
  1
1053
 41
0.8
  0
ENDBLK
  5
65AF8
  8
0
  0
BLOCK
  8
0
  2
*U127
 70
     1
 10
0.0
 20
0.0
 30
0.0
  3
*U127
  1

  0
TEXT
  5
65AFA
  8
S-OBRYS
  6
CONTINUOUS
 62
     7
 10
24034.827791416628
 20
399310.1587529059
 30
0.0
 40
100.0
  1
2500
 41
0.8
  0
ENDBLK
  5
65AFC
  8
0
  0
BLOCK
  8
0
  2
*U128
 70
     1
 10
0.0
 20
0.0
 30
0.0
  3
*U128
  1

  0
TEXT
  5
65AFE
  8
S-OBRYS
  6
CONTINUOUS
 62
     7
 10
20270.96268496574
 20
401442.94719189813
 30
0.0
 40
100.0
  1
MIN.200
 41
0.8
  0
ENDBLK
  5
65B00
  8
0
  0
BLOCK
  8
0
  2
*U129
 70
     1
 10
0.0
 20
0.0
 30
0.0
  3
*U129
  1

  0
TEXT
  5
65B02
  8
S-OBRYS
  6
CONTINUOUS
 62
     7
 10
24551.083472561691
 20
402205.25257108372
 30
0.0
 40
100.0
  1
MIN.400
 41
0.8
  0
ENDBLK
  5
65B04
  8
0
  0
BLOCK
  8
0
  2
*U130
 70
     1
 10
0.0
 20
0.0
 30
0.0
  3
*U130
  1

  0
TEXT
  5
65B06
  8
S-OBRYS
  6
CONTINUOUS
 62
     7
 10
22694.958354811981
 20
400649.36850967252
 30
0.0
 40
100.0
  1
3000
 50
24.999999998268521
 41
0.8
  0
ENDBLK
  5
65B08
  8
0
  0
BLOCK
  8
0
  2
*U131
 70
     1
 10
0.0
 20
0.0
 30
0.0
  3
*U131
  1

  0
TEXT
  5
65B0A
  8
S-OBRYS
  6
CONTINUOUS
 62
     7
 10
21322.44354314333
 20
401408.06099747273
 30
0.0
 40
100.0
  1
\U+2205120
 41
0.8
  0
ENDBLK
  5
65B0C
  8
0
  0
BLOCK
  8
0
  2
*U132
 70
     1
 10
0.0
 20
0.0
 30
0.0
  3
*U132
  1

  0
TEXT
  5
65B0E
  8
S-OBRYS
  6
CONTINUOUS
 62
     7
 10
21095.1144606669
 20
400734.87476301909
 30
0.0
 40
100.0
  1
720
 50
90.0
 41
0.8
  0
ENDBLK
  5
65B10
  8
0
  0
BLOCK
  8
0
  2
*U133
 70
     1
 10
0.0
 20
0.0
 30
0.0
  3
*U133
  1

  0
TEXT
  5
65B12
  8
S-OBRYS
  6
CONTINUOUS
 62
     7
 10
21930.785509599689
 20
400868.44842192688
 30
0.0
 40
100.0
  1
25°
 50
282.50000000000011
 41
0.8
  0
ENDBLK
  5
65B14
  8
0
  0
BLOCK
  8
0
  2
*U134
 70
     1
 10
0.0
 20
0.0
 30
0.0
  3
*U134
  1

  0
TEXT
  5
65B16
  8
S-OBRYS
  6
CONTINUOUS
 62
     7
 10
24063.448925712841
 20
402464.32289961173
 30
0.0
 40
100.0
  1
900
 50
295.00000000000148
 41
0.8
  0
ENDBLK
  5
65B18
  8
0
  0
BLOCK
  8
0
  2
*U135
 70
     1
 10
0.0
 20
0.0
 30
0.0
  3
*U135
  1

  0
TEXT
  5
65B1A
  8
S-OBRYS
  6
CONTINUOUS
 62
     7
 10
-3926.2017244688909
 20
403613.51258043293
 30
0.0
 40
100.0
  1
3000
 50
24.999999998268521
 41
0.8
  0
ENDBLK
  5
65B1C
  8
0
  0
BLOCK
  8
0
  2
*U136
 70
     1
 10
0.0
 20
0.0
 30
0.0
  3
*U136
  1

  0
TEXT
  5
65B1E
  8
S-OBRYS
  6
CONTINUOUS
 62
     7
 10
-5298.7165361375146
 20
404372.20506823307
 30
0.0
 40
100.0
  1
\U+2205120
 41
0.8
  0
ENDBLK
  5
65B20
  8
0
  0
BLOCK
  8
0
  2
*U137
 70
     1
 10
0.0
 20
0.0
 30
0.0
  3
*U137
  1

  0
TEXT
  5
65B22
  8
S-OBRYS
  6
CONTINUOUS
 62
     7
 10
-5632.2339956809919
 20
403699.0188337795
 30
0.0
 40
100.0
  1
720
 50
90.0
 41
0.8
  0
ENDBLK
  5
65B24
  8
0
  0
BLOCK
  8
0
  2
*U138
 70
     1
 10
0.0
 20
0.0
 30
0.0
  3
*U138
  1

  0
TEXT
  5
65B26
  8
S-OBRYS
  6
CONTINUOUS
 62
     7
 10
-2557.7111535680692
 20
405428.46697037201
 30
0.0
 40
100.0
  1
900
 50
295.00000000000142
 41
0.8
  0
ENDBLK
  5
65B28
  8
0
  0
BLOCK
  8
0
  2
*U139
 70
     1
 10
0.0
 20
0.0
 30
0.0
  3
*U139
  1

  0
TEXT
  5
65B2A
  8
S-OBRYS
  6
CONTINUOUS
 10
-4037.162383011525
 20
395932.03440076299
 30
0.0
 40
100.0
  1
2165
 41
0.8
  0
ENDBLK
  5
65B2C
  8
0
  0
BLOCK
  8
0
  2
*U140
 70
     1
 10
0.0
 20
0.0
 30
0.0
  3
*U140
  1

  0
TEXT
  5
65B6F
  8
S-OBRYS
  6
CONTINUOUS
 62
     7
 10
-4327.9982458940995
 20
401337.39125780761
 30
0.0
 40
100.0
  1
2810
 41
0.8
  0
ENDBLK
  5
65B71
  8
0
  0
BLOCK
  8
0
  2
*U141
 70
     1
 10
0.0
 20
0.0
 30
0.0
  3
*U141
  1

  0
TEXT
  5
65B73
  8
S-OBRYS
  6
CONTINUOUS
 62
     7
 10
-4343.7797428011236
 20
401155.36442240991
 30
0.0
 40
100.0
  1
1915
 41
0.8
  0
ENDBLK
  5
65B75
  8
0
  0
BLOCK
  8
0
  2
*U142
 70
     1
 10
0.0
 20
0.0
 30
0.0
  3
*U142
  1

  0
TEXT
  5
65B77
  8
S-OBRYS
  6
CONTINUOUS
 62
     7
 10
-5434.9702189915997
 20
401155.36442240991
 30
0.0
 40
100.0
  1
355
 41
0.8
  0
ENDBLK
  5
65B79
  8
0
  0
BLOCK
  8
0
  2
*U143
 70
     1
 10
0.0
 20
0.0
 30
0.0
  3
*U143
  1

  0
TEXT
  5
65B7B
  8
S-OBRYS
  6
CONTINUOUS
 62
     7
 10
-5987.1154549485082
 20
400618.63631094148
 30
0.0
 40
100.0
  1
440
 50
90.0
 41
0.8
  0
ENDBLK
  5
65B7D
  8
0
  0
BLOCK
  8
0
  2
*U144
 70
     1
 10
0.0
 20
0.0
 30
0.0
  3
*U144
  1

  0
TEXT
  5
65B7F
  8
S-OBRYS
  6
CONTINUOUS
 62
     7
 10
-5709.712284887908
 20
400635.24522316438
 30
0.0
 40
100.0
  1
370
 50
90.0
 41
0.8
  0
ENDBLK
  5
65B81
  8
0
  0
BLOCK
  8
0
  2
*U145
 70
     1
 10
0.0
 20
0.0
 30
0.0
  3
*U145
  1

  0
TEXT
  5
65B83
  8
S-OBRYS
  6
CONTINUOUS
 62
     7
 10
-3098.8096971657251
 20
401101.96371302492
 30
0.0
 40
100.0
  1
\U+220521
 50
48.513764669118821
 41
0.8
  0
ENDBLK
  5
65B85
  8
0
  0
BLOCK
  8
0
  2
*U146
 70
     1
 10
0.0
 20
0.0
 30
0.0
  3
*U146
  1

  0
TEXT
  5
65B87
  8
S-OBRYS
  6
CONTINUOUS
 62
     7
 10
-5148.4702189915997
 20
400278.15181331983
 30
0.0
 40
100.0
  1
218
 41
0.8
  0
ENDBLK
  5
65B89
  8
0
  0
BLOCK
  8
0
  2
*U147
 70
     1
 10
0.0
 20
0.0
 30
0.0
  3
*U147
  1

  0
TEXT
  5
65B8B
  8
S-OBRYS
  6
CONTINUOUS
 62
     7
 10
-4835.4702189915988
 20
400278.15181331983
 30
0.0
 40
100.0
  1
408
 41
0.8
  0
ENDBLK
  5
65B8D
  8
0
  0
BLOCK
  8
0
  2
*U148
 70
     1
 10
0.0
 20
0.0
 30
0.0
  3
*U148
  1

  0
TEXT
  5
65B8F
  8
S-OBRYS
  6
CONTINUOUS
 62
     7
 10
-6293.5003537716802
 20
397450.47194004891
 30
0.0
 40
100.0
  1
MIN.200
 41
0.8
  0
ENDBLK
  5
65B91
  8
0
  0
BLOCK
  8
0
  2
*U149
 70
     1
 10
0.0
 20
0.0
 30
0.0
  3
*U149
  1

  0
TEXT
  5
65B93
  8
S-OBRYS
  6
CONTINUOUS
 62
     7
 10
-2013.3795661757299
 20
398212.7773192345
 30
0.0
 40
100.0
  1
MIN.400
 41
0.8
  0
ENDBLK
  5
65B95
  8
0
  0
BLOCK
  8
0
  2
*U150
 70
     1
 10
0.0
 20
0.0
 30
0.0
  3
*U150
  1

  0
TEXT
  5
65B97
  8
S-OBRYS
  6
CONTINUOUS
 62
     7
 10
-3869.5046839252791
 20
396656.89325782307
 30
0.0
 40
100.0
  1
3000
 50
24.999999998274468
 41
0.8
  0
ENDBLK
  5
65B99
  8
0
  0
BLOCK
  8
0
  2
*U151
 70
     1
 10
0.0
 20
0.0
 30
0.0
  3
*U151
  1

  0
TEXT
  5
65B9B
  8
S-OBRYS
  6
CONTINUOUS
 62
     7
 10
-5242.0194955940897
 20
397415.58574562351
 30
0.0
 40
100.0
  1
\U+2205120
 41
0.8
  0
ENDBLK
  5
65B9D
  8
0
  0
BLOCK
  8
0
  2
*U152
 70
     1
 10
0.0
 20
0.0
 30
0.0
  3
*U152
  1

  0
TEXT
  5
65B9F
  8
S-OBRYS
  6
CONTINUOUS
 62
     7
 10
-5469.3485780705232
 20
396742.39951116999
 30
0.0
 40
100.0
  1
720
 50
90.0
 41
0.8
  0
ENDBLK
  5
65BA1
  8
0
  0
BLOCK
  8
0
  2
*U153
 70
     1
 10
0.0
 20
0.0
 30
0.0
  3
*U153
  1

  0
TEXT
  5
65BA3
  8
S-OBRYS
  6
CONTINUOUS
 62
     7
 10
-2501.0141130245852
 20
398471.84764776239
 30
0.0
 40
100.0
  1
900
 50
295.00000000000148
 41
0.8
  0
ENDBLK
  5
65BA5
  8
0
  0
ENDSEC
  0
SECTION
  2
ENTITIES
  0
TEXT
  5
2F7A5
  8
KOTY
 10
-393803.77638965531
 20
-299016.15321175661
 30
0.0
 40
150.0
  1

 41
0.7
  7
ROMANT
  0
TEXT
  5
3AD8B
  8
KOTY
 10
-14797.18019204357
 20
454294.55370899959
 30
0.0
 40
150.0
  1

 41
0.7
  7
ROMANT
  0
TEXT
  5
404AD
  8
KOTY
 10
44010.2314385153
 20
465617.23741859582
 30
0.0
 40
92.0
  1

 41
0.7
  7
CYRILLIC
  0
TEXT
  5
404B4
  8
KOTY
 10
39575.071591094718
 20
465613.29777162091
 30
0.0
 40
92.0
  1

 41
0.7
  7
CYRILLIC
  0
TEXT
  5
40B14
  8
KOTY
 10
5856.0590664841584
 20
486921.1132385282
 30
0.0
 40
150.0
  1

 41
0.7
  7
ROMANT
  0
TEXT
  5
40BFC
  8
KOTY
 10
8767.7265956277752
 20
466337.2608060218
 30
0.0
 40
150.0
  1

 41
0.7
  7
ROMANS
  0
TEXT
  5
51A7C
  8
KOTY
 10
-47677.341387967608
 20
395133.71812193602
 30
0.0
 40
150.0
  1

 41
0.7
  7
ROMANS
  0
TEXT
  5
51A94
  8
KOTY
 10
-45176.819295693742
 20
395133.7181219359
 30
0.0
 40
150.0
  1

 41
0.7
  7
ROMANS
  0
TEXT
  5
51A9B
  8
KOTY
 10
-48084.423320344351
 20
397411.27855615731
 30
0.0
 40
150.0
  1

 41
0.7
  7
ROMANT
  0
TEXT
  5
51B05
  8
RAZ
 62
     6
 10
-47365.887544580757
 20
392999.37567832542
 30
0.0
 40
193.54103193599991
  1

 41
0.8
  7
R08
  0
TEXT
  5
51B06
  8
RAZ
 62
     1
 10
-47245.037660778231
 20
393401.77274166199
 30
0.0
 40
125.41458869452801
  1

  7
ROMANS
  0
TEXT
  5
58307
  8
KOTY
 10
22966.528519463162
 20
383405.87475258159
 30
0.0
 40
150.0
  1

 41
0.7
  7
ROMANS
  0
TEXT
  5
58308
  8
KOTY
 10
22966.528519463169
 20
383855.87475258159
 30
0.0
 40
150.0
  1

 41
0.7
  7
ROMANS
  0
TEXT
  5
58315
  8
KOTY
 10
25467.050611737021
 20
383855.87475258141
 30
0.0
 40
150.0
  1

 41
0.7
  7
ROMANS
  0
TEXT
  5
58316
  8
KOTY
 10
25467.050611737021
 20
383405.87475258141
 30
0.0
 40
150.0
  1

 41
0.7
  7
ROMANS
  0
TEXT
  5
5833F
  8
KOTY
 10
22966.528519463162
 20
385205.87475258153
 30
0.0
 40
150.0
  1

 41
0.7
  7
ROMANS
  0
TEXT
  5
58340
  8
KOTY
 10
22966.528519463169
 20
385655.87475258159
 30
0.0
 40
150.0
  1

 41
0.7
  7
ROMANS
  0
TEXT
  5
58354
  8
KOTY
 10
25467.050611737021
 20
385655.87475258141
 30
0.0
 40
150.0
  1

 41
0.7
  7
ROMANS
  0
TEXT
  5
58355
  8
KOTY
 10
25467.050611737021
 20
385205.87475258141
 30
0.0
 40
150.0
  1

 41
0.7
  7
ROMANS
  0
TEXT
  5
58397
  8
KOTY
 10
25467.050611737039
 20
390605.87475258129
 30
0.0
 40
150.0
  1

 41
0.7
  7
ROMANS
  0
TEXT
  5
58398
  8
KOTY
 10
25467.050611737039
 20
391055.87475258141
 30
0.0
 40
150.0
  1

 41
0.7
  7
ROMANS
  0
TEXT
  5
583C1
  8
KOTY
 10
25467.050611737031
 20
389255.87475258141
 30
0.0
 40
150.0
  1

 41
0.7
  7
ROMANS
  0
TEXT
  5
58C84
  8
KOTY
 10
22966.52851946322
 20
387905.87475258153
 30
0.0
 40
150.0
  1

 41
0.7
  7
ROMANS
  0
INSERT
  5
5A11D
  8
SILNA
  6
CONTINUOUS
  2
A$C5B1234F8
 10
21045.108802659091
 20
799530.18634617259
 30
0.0
 50
134.99999999999989
  0
LINE
  5
630FB
  8
S-OBRYS
  6
CONTINUOUS
 10
-9317.3245871225408
 20
393402.81400089961
 30
0.0
 11
1182.675412877463
 21
393402.81400089961
 31
0.0
  0
LINE
  5
630FC
  8
S-OBRYS
  6
CONTINUOUS
 10
1182.675412877463
 20
393402.81400089961
 30
0.0
 11
1182.675412877463
 21
408252.81400089961
 31
0.0
  0
LINE
  5
630FD
  8
S-OBRYS
  6
CONTINUOUS
 10
1182.675412877463
 20
408252.81400089961
 30
0.0
 11
-9317.3245871225372
 21
408252.81400089961
 31
0.0
  0
LINE
  5
630FE
  8
S-OBRYS
  6
CONTINUOUS
 10
-9317.3245871225372
 20
408252.81400089961
 30
0.0
 11
-9317.3245871225408
 21
393402.81400089961
 31
0.0
  0
INSERT
  5
646BD
  8
HLADINA1
  6
CONTINUOUS
  2
*U112
 10
0.0
 20
0.0
 30
0.0
  0
LINE
  5
646BE
  8
S-OBRYS
  6
CONTINUOUS
 10
-5148.2403456613238
 20
402863.90197241452
 30
0.0
 11
-3083.978471173999
 21
402863.65372337261
 31
0.0
  0
INSERT
  5
646BF
  8
S-OBRYS
  6
CONTINUOUS
  2
_OPEN
 10
-2983.9784711739999
 20
402863.65372337261
 30
0.0
 41
100.0
 42
100.0
 43
100.0
  0
INSERT
  5
646C0
  8
HLADINA1
  6
CONTINUOUS
  2
*U113
 10
0.0
 20
0.0
 30
0.0
  0
LINE
  5
646C1
  8
S-OBRYS
  6
CONTINUOUS
 10
-2688.184504705885
 20
400952.92202522722
 30
0.0
 11
-5498.184504705886
 21
400952.92202522722
 31
0.0
  0
LINE
  5
646C2
  8
S-OBRYS
  6
CONTINUOUS
 10
-5498.184504705886
 20
400512.92202522722
 30
0.0
 11
-2688.1845047058819
 21
400512.92202522722
 31
0.0
  0
DIMENSION
  5
646C3
  8
S-OBRYS
  6
CONTINUOUS
  2
*D63
 10
-2688.184504705885
 20
401312.39125780761
 30
0.0
 11
-4175.6172935131472
 21
401312.39125780761
 31
0.0
 70
   128
 13
-5498.1845047058841
 23
400952.92202522722
 33
0.0
 14
-2688.184504705885
 24
400952.92202522722
 34
0.0
  0
DIMENSION
  5
646C4
  8
S-OBRYS
  6
CONTINUOUS
  2
*D64
 10
-5143.184504705885
 20
401130.3644224098
 30
0.0
 11
-4185.684504705885
 21
401205.3644224098
 31
0.0
 70
     0
 13
-3228.184504705885
 23
400952.92202522722
 33
0.0
 14
-5143.184504705885
 24
401130.3644224098
 34
0.0
  0
DIMENSION
  5
646C5
  8
S-OBRYS
  6
CONTINUOUS
  2
*D65
 10
-2418.0705436092981
 20
404289.1812515409
 30
0.0
 11
-3809.228593813692
 21
403723.22694299882
 31
0.0
 70
     0
 13
-5409.0311597269638
 23
403604.71224235609
 33
0.0
 14
-2635.5527971953452
 24
404755.57344948099
 34
0.0
 50
24.99999999826851
  0
LINE
  5
646C6
  8
S-OBRYS
  6
CONTINUOUS
 10
-5498.184504705886
 20
400732.92202522722
 30
0.0
 11
-2632.5583239318189
 21
400732.92202522722
 31
0.0
  0
LINE
  5
646C7
  8
S-OBRYS
  6
CONTINUOUS
 10
-5305.7472228902298
 20
404022.09355248348
 30
0.0
 11
-3020.2945139329531
 21
405087.81765302131
 31
0.0
  0
LINE
  5
646C8
  8
S-OBRYS
  6
CONTINUOUS
 10
-5333.4671526680841
 20
404035.59480520029
 30
0.0
 11
-3030.4167449300439
 21
405109.5248474456
 31
0.0
  0
LINE
  5
646C9
  8
S-OBRYS
  6
CONTINUOUS
 10
-5448.2403456613292
 20
403700.71381702129
 30
0.0
 11
-2894.6936263864732
 21
404891.45220767561
 31
0.0
  0
LINE
  5
646CA
  8
S-OBRYS
  6
CONTINUOUS
 10
-5115.1257795604897
 20
403613.30454806529
 30
0.0
 11
-3292.3953852401391
 21
404463.2576896887
 31
0.0
  0
DIMENSION
  5
646CB
  8
S-OBRYS
  6
CONTINUOUS
  2
*D66
 10
-5143.184504705885
 20
401130.3644224098
 30
0.0
 11
-5320.684504705885
 21
401205.3644224098
 31
0.0
 70
     0
  1
355
 13
-5498.184504705886
 23
400982.92202522722
 33
0.0
 14
-5143.184504705885
 24
400952.92202522722
 34
0.0
  0
LINE
  5
646CC
  8
S-OBRYS
  6
CONTINUOUS
 10
-5180.684504705885
 20
400512.92202522722
 30
0.0
 11
-5105.684504705885
 21
400512.92202522722
 31
0.0
  0
DIMENSION
  5
646CD
  8
S-OBRYS
  6
CONTINUOUS
  2
*D67
 10
-5962.1154549484427
 20
400512.92202522722
 30
0.0
 11
-5962.1154549485082
 21
400732.92202522722
 31
0.0
 70
   128
 13
-5498.184504705886
 23
400952.92202522722
 33
0.0
 14
-5498.184504705886
 24
400512.92202522722
 34
0.0
 50
90.0
  0
LINE
  5
646CE
  8
S-OBRYS
  6
CONTINUOUS
 10
-5498.184504705886
 20
400952.92202522722
 30
0.0
 11
-5498.184504705886
 21
400512.92202522722
 31
0.0
  0
LINE
  5
646CF
  8
S-OBRYS
  6
CONTINUOUS
 10
-5498.184504705886
 20
400952.92202522722
 30
0.0
 11
-5498.184504705886
 21
400512.92202522722
 31
0.0
  0
DIMENSION
  5
646D0
  8
S-OBRYS
  6
CONTINUOUS
  2
*D68
 10
-5684.7122848878444
 20
400917.92202522722
 30
0.0
 11
-5684.712284887908
 21
400749.53093745012
 31
0.0
 70
   128
 13
-5163.184504705885
 23
400547.92202522722
 33
0.0
 14
-5163.184504705885
 24
400917.92202522722
 34
0.0
 50
90.0
  0
CIRCLE
  5
646D1
  8
S-OBRYS
  6
CONTINUOUS
 10
-5143.184504705885
 20
400547.92202522722
 30
0.0
 40
10.0
  0
CIRCLE
  5
646D2
  8
S-OBRYS
  6
CONTINUOUS
 10
-5143.184504705885
 20
400917.92202522722
 30
0.0
 40
10.0
  0
DIMENSION
  5
646D3
  8
S-OBRYS
  6
CONTINUOUS
  2
*D69
 10
-5208.2403456613247
 20
404347.20506823307
 30
0.0
 11
-5148.2403456613238
 21
404347.20506823307
 31
0.0
 70
   128
  1
%%c<>
 13
-5088.2403456613247
 23
404173.30454806529
 33
0.0
 14
-5208.2403456613247
 24
404173.30454806529
 34
0.0
  0
LINE
  5
646D4
  8
S-OBRYS
  6
CONTINUOUS
 10
-5215.7403456613238
 20
404173.30454806529
 30
0.0
 11
-5080.7403456613247
 21
404173.30454806529
 31
0.0
  0
LINE
  5
646D5
  8
S-OBRYS
  6
CONTINUOUS
 10
-5190.796186616768
 20
403453.30454806518
 30
0.0
 11
-5105.684504705885
 21
403453.30454806518
 31
0.0
  0
INSERT
  5
646D6
  8
S-OBRYS
  6
CONTINUOUS
  2
_CLOSEDBLANK
 10
-5148.2403456613238
 20
402863.90197241452
 30
0.0
 41
100.0
 42
100.0
 43
100.0
 50
180.0
  0
LINE
  5
646D7
  8
S-OBRYS
  6
CONTINUOUS
 10
-5315.8694538873197
 20
404043.8007469076
 30
0.0
 11
-5105.684504705885
 21
403593.05766880122
 31
0.0
  0
LINE
  5
646D8
  8
S-OBRYS
  6
CONTINUOUS
 10
-5190.796186616768
 20
403453.30454806518
 30
0.0
 11
-5287.7668162425844
 21
403661.25873438403
 31
0.0
  0
LINE
  5
646D9
  8
S-OBRYS
  6
CONTINUOUS
 10
-5409.0311597269638
 20
403604.71224235609
 30
0.0
 11
-5164.3280572270696
 21
403718.81917302607
 31
0.0
  0
LINE
  5
646DA
  8
S-OBRYS
  6
CONTINUOUS
 10
-5410.638317371041
 20
403608.1588030461
 30
0.0
 11
-5165.9352148711469
 21
403722.26573371619
 31
0.0
  0
LINE
  5
646DB
  8
S-OBRYS
  6
CONTINUOUS
 10
-5414.5280977432894
 20
403633.44101064332
 30
0.0
 11
-5422.7776269873029
 21
403651.13218319789
 31
0.0
  0
LINE
  5
646DC
  8
S-OBRYS
  6
CONTINUOUS
 10
-5421.0167035630939
 20
403630.41532405879
 30
0.0
 11
-5321.0747970503462
 21
403677.0190004363
 31
0.0
  0
LINE
  5
646DD
  8
S-OBRYS
  6
CONTINUOUS
 10
-5429.8501660526781
 20
403649.35874549969
 30
0.0
 11
-5409.0311597269638
 21
403604.71224235609
 31
0.0
  0
DIMENSION
  5
646DE
  8
S-OBRYS
  6
CONTINUOUS
  2
*D70
 10
-5607.2339956809255
 20
404173.30454806529
 30
0.0
 11
-5682.233995680991
 21
403813.30454806529
 31
0.0
 70
     0
 13
-5180.684504705885
 23
403453.30454806518
 33
0.0
 14
-5215.7403456613238
 24
404173.30454806529
 34
0.0
 50
90.0
  0
LINE
  5
646DF
  8
S-OBRYS
  6
CONTINUOUS
 10
-5148.2403456613238
 20
402987.13746839343
 30
0.0
 11
-5148.2403456613238
 21
402813.90197241452
 31
0.0
  0
LINE
  5
646E0
  8
S-OBRYS
  6
CONTINUOUS
 10
-5410.638317371041
 20
403608.1588030461
 30
0.0
 11
-5421.0167035630939
 21
403630.41532405879
 31
0.0
  0
LINE
  5
646E1
  8
S-OBRYS
  6
CONTINUOUS
 10
-5148.2403456613238
 20
404139.09618255292
 30
0.0
 11
-5148.2403456613238
 21
404253.09179806529
 31
0.0
  0
LINE
  5
646E2
  8
S-OBRYS
  6
CONTINUOUS
 10
-5315.3637169433614
 20
403798.7851342127
 30
0.0
 11
-5357.8006499995026
 21
403778.99646733992
 31
0.0
  0
LINE
  5
646E3
  8
S-OBRYS
  6
CONTINUOUS
 10
-5422.7776269873029
 20
403651.13218319789
 30
0.0
 11
-5340.1533459889906
 21
403689.66051817703
 31
0.0
  0
LINE
  5
646E4
  8
S-OBRYS
  6
CONTINUOUS
 10
-5419.8321365141383
 20
403655.98388932273
 30
0.0
 11
-5327.9650775967348
 21
403698.82220242789
 31
0.0
  0
LINE
  5
646E5
  8
S-OBRYS
  6
CONTINUOUS
 10
-5339.0833096066781
 20
403722.6653279172
 30
0.0
 11
-5372.3779544453209
 21
403794.06592418958
 31
0.0
  0
LINE
  5
646E6
  8
S-OBRYS
  6
CONTINUOUS
 10
-5333.5985909600859
 20
403727.09498423932
 30
0.0
 11
-5343.9697452981309
 21
403749.33599649102
 31
0.0
  0
LINE
  5
646E7
  8
S-OBRYS
  6
CONTINUOUS
 10
-5213.4397682601366
 20
403824.13957721449
 30
0.0
 11
-5429.8501660526781
 21
403649.35874549969
 31
0.0
  0
LINE
  5
646E8
  8
S-OBRYS
  6
CONTINUOUS
 10
-5372.3779544453209
 20
403794.06592418958
 30
0.0
 11
-5464.2450133627244
 21
403751.22761108429
 31
0.0
  0
LINE
  5
646E9
  8
S-OBRYS
  6
CONTINUOUS
 10
-5464.2450133627244
 20
403751.22761108429
 30
0.0
 11
-5419.8321365141383
 21
403655.98388932273
 31
0.0
  0
LINE
  5
646EA
  8
S-OBRYS
  6
CONTINUOUS
 10
-5362.627764062403
 20
403789.34824685397
 30
0.0
 11
-5343.9697452981309
 21
403749.33599649102
 31
0.0
  0
LINE
  5
646EB
  8
S-OBRYS
  6
CONTINUOUS
 10
-5413.0698046741081
 20
403728.16757632373
 30
0.0
 11
-5387.6077330271
 21
403740.04073532519
 31
0.0
  0
LINE
  5
646EC
  8
S-OBRYS
  6
CONTINUOUS
 10
-5390.9650462064601
 20
403680.76376881369
 30
0.0
 11
-5413.0698046741081
 21
403728.16757632373
 31
0.0
  0
LINE
  5
646ED
  8
S-OBRYS
  6
CONTINUOUS
 10
-5387.6077330271
 20
403740.04073532519
 30
0.0
 11
-5402.4359278132251
 21
403758.10118203767
 31
0.0
  0
LINE
  5
646EE
  8
S-OBRYS
  6
CONTINUOUS
 10
-5418.3114839040236
 20
403772.64676763682
 30
0.0
 11
-5367.7163948946427
 21
403664.14524911239
 31
0.0
  0
LINE
  5
646EF
  8
S-OBRYS
  6
CONTINUOUS
 10
-5406.5783485937682
 20
403756.16953950451
 30
0.0
 11
-5407.8480625143638
 21
403758.89244979428
 31
0.0
  0
LINE
  5
646F0
  8
S-OBRYS
  6
CONTINUOUS
 10
-5413.2311088553988
 20
403753.06730644649
 30
0.0
 11
-5414.5008227759899
 21
403755.79021673632
 31
0.0
  0
LINE
  5
646F1
  8
S-OBRYS
  6
CONTINUOUS
 10
-5414.5008227759899
 20
403755.79021673632
 30
0.0
 11
-5407.8480625143638
 21
403758.89244979428
 31
0.0
  0
LINE
  5
646F2
  8
S-OBRYS
  6
CONTINUOUS
 10
-5417.3735296359409
 20
403751.13566391327
 30
0.0
 11
-5402.4359278132251
 21
403758.10118203767
 31
0.0
  0
LINE
  5
646F3
  8
S-OBRYS
  6
CONTINUOUS
 10
-5429.9083753357118
 20
403677.59245320823
 30
0.0
 11
-5436.1101460586069
 21
403674.70052002597
 31
0.0
  0
LINE
  5
646F4
  8
S-OBRYS
  6
CONTINUOUS
 10
-5460.3705452640497
 20
403726.72711401642
 30
0.0
 11
-5436.1101460586069
 21
403674.70052002597
 31
0.0
  0
LINE
  5
646F5
  8
S-OBRYS
  6
CONTINUOUS
 10
-5454.1687745411537
 20
403729.61904719868
 30
0.0
 11
-5460.3705452640497
 21
403726.72711401642
 31
0.0
  0
LINE
  5
646F6
  8
S-OBRYS
  6
CONTINUOUS
 10
-5413.0698046741081
 20
403728.16757632373
 30
0.0
 11
-5417.3735296359409
 21
403751.13566391327
 31
0.0
  0
LINE
  5
646F7
  8
S-OBRYS
  6
CONTINUOUS
 10
-5368.4469130178804
 20
403698.95022421278
 30
0.0
 11
-5359.8353428199989
 21
403680.48265232699
 31
0.0
  0
LINE
  5
646F8
  8
S-OBRYS
  6
CONTINUOUS
 10
-5390.9650462064601
 20
403680.76376881369
 30
0.0
 11
-5385.297414467007
 21
403668.60949332552
 31
0.0
  0
LINE
  5
646F9
  8
S-OBRYS
  6
CONTINUOUS
 10
-5368.4469130178804
 20
403698.95022421278
 30
0.0
 11
-5387.6077330271
 21
403740.04073532519
 31
0.0
  0
LINE
  5
646FA
  8
S-OBRYS
  6
CONTINUOUS
 10
-5368.8295347852982
 20
403786.45631367172
 30
0.0
 11
-5362.627764062403
 21
403789.34824685397
 31
0.0
  0
LINE
  5
646FB
  8
S-OBRYS
  6
CONTINUOUS
 10
-5148.2403456613238
 20
404142.05454806529
 30
0.0
 11
-5148.2403456613238
 21
403767.6289311967
 31
0.0
  0
POLYLINE
  5
646FC
  8
S-OBRYS
  6
CONTINUOUS
 66
     1
 10
0.0
 20
0.0
 30
0.0
  0
VERTEX
  5
65A84
  8
S-OBRYS
  6
CONTINUOUS
 10
-5256.9068984320375
 20
403789.03395733121
 30
0.0
  0
VERTEX
  5
65A85
  8
S-OBRYS
  6
CONTINUOUS
 10
-5232.3970752396199
 20
403736.47247187467
 30
0.0
  0
VERTEX
  5
65A86
  8
S-OBRYS
  6
CONTINUOUS
 10
-5219.1278075999026
 20
403742.66003299318
 30
0.0
  0
SEQEND
  5
65A87
  8
S-OBRYS
  6
CONTINUOUS
  0
LINE
  5
646FD
  8
S-OBRYS
  6
CONTINUOUS
 10
-5245.1718306744551
 20
403798.5116207145
 30
0.0
 11
-5219.1278075999026
 21
403742.66003299318
 31
0.0
  0
POLYLINE
  5
646FE
  8
S-OBRYS
  6
CONTINUOUS
 66
     1
 10
0.0
 20
0.0
 30
0.0
  0
VERTEX
  5
65A88
  8
S-OBRYS
  6
CONTINUOUS
 10
-5284.3331712373983
 20
403766.88351160107
 30
0.0
  0
VERTEX
  5
65A89
  8
S-OBRYS
  6
CONTINUOUS
 10
-5313.1181304605416
 20
403828.61305586161
 30
0.0
  0
VERTEX
  5
65A8A
  8
S-OBRYS
  6
CONTINUOUS
 10
-5326.387398100258
 20
403822.42549474322
 30
0.0
  0
VERTEX
  5
65A8B
  8
S-OBRYS
  6
CONTINUOUS
 10
-5296.0682389949798
 20
403757.40584821778
 30
0.0
  0
SEQEND
  5
65A8C
  8
S-OBRYS
  6
CONTINUOUS
  0
POLYLINE
  5
646FF
  8
S-OBRYS
  6
CONTINUOUS
 66
     1
 10
0.0
 20
0.0
 30
0.0
  0
VERTEX
  5
65A8D
  8
S-OBRYS
  6
CONTINUOUS
 10
-5296.0682389949798
 20
403757.40584821778
 30
0.0
  0
VERTEX
  5
65A8E
  8
S-OBRYS
  6
CONTINUOUS
 10
-5276.6782263837267
 20
403715.82383198419
 30
0.0
  0
VERTEX
  5
65A8F
  8
S-OBRYS
  6
CONTINUOUS
 10
-5263.4089587440103
 20
403722.0113931027
 30
0.0
  0
VERTEX
  5
65A90
  8
S-OBRYS
  6
CONTINUOUS
 10
-5284.3331712373983
 20
403766.88351160107
 30
0.0
  0
SEQEND
  5
65A91
  8
S-OBRYS
  6
CONTINUOUS
  0
LINE
  5
64700
  8
S-OBRYS
  6
CONTINUOUS
 10
-5331.5134972567566
 20
403706.43181294581
 30
0.0
 11
-5325.3117265338624
 21
403709.32374612801
 31
0.0
  0
LINE
  5
64701
  8
S-OBRYS
  6
CONTINUOUS
 10
-5340.1533459889906
 20
403689.66051817703
 30
0.0
 11
-5331.9038167449762
 21
403671.96934562229
 31
0.0
  0
LINE
  5
64702
  8
S-OBRYS
  6
CONTINUOUS
 10
-5327.9650775967348
 20
403698.82220242789
 30
0.0
 11
-5339.0833096066781
 21
403722.6653279172
 31
0.0
  0
LINE
  5
64703
  8
S-OBRYS
  6
CONTINUOUS
 10
-5321.0747970503462
 20
403677.0190004363
 30
0.0
 11
-5310.6964108582952
 21
403654.76247942372
 31
0.0
  0
LINE
  5
64704
  8
S-OBRYS
  6
CONTINUOUS
 10
-5325.3117265338624
 20
403709.32374612801
 30
0.0
 11
-5333.5985909600859
 21
403727.09498423932
 31
0.0
  0
LINE
  5
64705
  8
S-OBRYS
  6
CONTINUOUS
 10
-5287.7019075406206
 20
403739.46419251472
 30
0.0
 11
-5330.1388405967627
 21
403719.67552564188
 31
0.0
  0
LINE
  5
64706
  8
S-OBRYS
  6
CONTINUOUS
 10
-5239.3160302874494
 20
403751.31021885743
 30
0.0
 11
-5270.3279137918398
 21
403736.84914008551
 31
0.0
  0
LINE
  5
64707
  8
S-OBRYS
  6
CONTINUOUS
 10
-5275.1872919083216
 20
403828.23638765077
 30
0.0
 11
-5306.1991754127121
 21
403813.77530887892
 31
0.0
  0
LINE
  5
64708
  8
S-OBRYS
  6
CONTINUOUS
 10
-5268.8369793164347
 20
403849.26169575209
 30
0.0
 11
-5245.1718306744551
 21
403798.5116207145
 31
0.0
  0
POLYLINE
  5
64709
  8
S-OBRYS
  6
CONTINUOUS
 66
     1
 10
0.0
 20
0.0
 30
0.0
  0
VERTEX
  5
65A92
  8
S-OBRYS
  6
CONTINUOUS
 10
-5268.8369793164347
 20
403849.26169575209
 30
0.0
  0
VERTEX
  5
65A93
  8
S-OBRYS
  6
CONTINUOUS
 10
-5282.1062469561512
 20
403843.07413463359
 30
0.0
  0
VERTEX
  5
65A94
  8
S-OBRYS
  6
CONTINUOUS
 10
-5256.9068984320375
 20
403789.03395733121
 30
0.0
  0
SEQEND
  5
65A95
  8
S-OBRYS
  6
CONTINUOUS
  0
LINE
  5
6470A
  8
S-OBRYS
  6
CONTINUOUS
 10
-5230.8618597099367
 20
403861.50137289852
 30
0.0
 11
-5266.7424560246618
 21
403844.76997605769
 31
0.0
  0
LINE
  5
6470B
  8
S-OBRYS
  6
CONTINUOUS
 10
-5185.3417345769476
 20
403763.88314952829
 30
0.0
 11
-5221.2223308916764
 21
403747.15175268753
 31
0.0
  0
LINE
  5
6470C
  8
S-OBRYS
  6
CONTINUOUS
 10
-5208.2403456613247
 20
404173.30454806529
 30
0.0
 11
-5208.2403456613247
 21
404093.98902431392
 31
0.0
  0
LINE
  5
6470D
  8
S-OBRYS
  6
CONTINUOUS
 10
-5148.2403456613238
 20
404173.30454806529
 30
0.0
 11
-5148.2403456613238
 21
404107.41483690549
 31
0.0
  0
LINE
  5
6470E
  8
S-OBRYS
  6
CONTINUOUS
 10
-5042.1849942316248
 20
403631.93384463928
 30
0.0
 11
-5048.0772358110808
 21
403644.5697974838
 31
0.0
  0
LINE
  5
6470F
  8
S-OBRYS
  6
CONTINUOUS
 10
-5028.2273006425639
 20
403453.30454806518
 30
0.0
 11
-4731.7963614388464
 21
403453.30454806518
 31
0.0
  0
ARC
  5
64710
  8
S-OBRYS
  6
CONTINUOUS
 10
-4992.8161760791909
 20
403578.79424921022
 30
0.0
 40
6.3377718662374596
 50
265.03374588909259
 51
93.570080793390304
  0
LINE
  5
64711
  8
S-OBRYS
  6
CONTINUOUS
 10
-5105.684504705885
 20
403593.05766880122
 30
0.0
 11
-5105.684504705885
 21
403453.30454806518
 31
0.0
  0
LINE
  5
64712
  8
S-OBRYS
  6
CONTINUOUS
 10
-5061.4278203198273
 20
403587.1985391085
 30
0.0
 11
-5041.9789590680557
 21
403596.26769205253
 31
0.0
  0
ARC
  5
64713
  8
S-OBRYS
  6
CONTINUOUS
 10
-5048.9553424262494
 20
403578.79424921022
 30
0.0
 40
6.3377718662374596
 50
86.429919206609682
 51
274.96625411090741
  0
POLYLINE
  5
64714
  8
S-OBRYS
  6
CONTINUOUS
 66
     1
 10
0.0
 20
0.0
 30
0.0
  0
VERTEX
  5
65A96
  8
S-OBRYS
  6
CONTINUOUS
 10
-5053.5422978011438
 20
403543.16374596092
 30
0.0
  0
VERTEX
  5
65A97
  8
S-OBRYS
  6
CONTINUOUS
 10
-5047.8217650296647
 20
403530.8960238435
 30
0.0
  0
VERTEX
  5
65A98
  8
S-OBRYS
  6
CONTINUOUS
 10
-5007.5945338729289
 20
403549.65428979823
 30
0.0
  0
VERTEX
  5
65A99
  8
S-OBRYS
  6
CONTINUOUS
 10
-5013.3150666444126
 20
403561.92201191583
 30
0.0
  0
SEQEND
  5
65A9A
  8
S-OBRYS
  6
CONTINUOUS
  0
LINE
  5
64715
  8
S-OBRYS
  6
CONTINUOUS
 10
-5021.3296517313574
 20
403526.59642431798
 30
0.0
 11
-5071.2933594282949
 21
403633.74394124828
 31
0.0
  0
POLYLINE
  5
64716
  8
S-OBRYS
  6
CONTINUOUS
 66
     1
 10
0.0
 20
0.0
 30
0.0
  0
VERTEX
  5
65A9B
  8
S-OBRYS
  6
CONTINUOUS
 10
-5034.1533604265214
 20
403606.609877143
 30
0.0
  0
VERTEX
  5
65A9C
  8
S-OBRYS
  6
CONTINUOUS
 10
-5039.8738931980042
 20
403618.87759926048
 30
0.0
  0
VERTEX
  5
65A9D
  8
S-OBRYS
  6
CONTINUOUS
 10
-5080.1011243547373
 20
403600.11933330569
 30
0.0
  0
VERTEX
  5
65A9E
  8
S-OBRYS
  6
CONTINUOUS
 10
-5074.3805915832563
 20
403587.85161118832
 30
0.0
  0
SEQEND
  5
65A9F
  8
S-OBRYS
  6
CONTINUOUS
  0
LINE
  5
64717
  8
S-OBRYS
  6
CONTINUOUS
 10
-5088.6172414660541
 20
403610.28213216859
 30
0.0
 11
-5042.1849942316248
 21
403631.93384463928
 31
0.0
  0
LINE
  5
64718
  8
S-OBRYS
  6
CONTINUOUS
 10
-5055.3678940684513
 20
403625.78655748878
 30
0.0
 11
-5049.9542849959798
 21
403614.17703536787
 31
0.0
  0
ARC
  5
64719
  8
S-OBRYS
  6
CONTINUOUS
 10
-5060.4467264679924
 20
403546.63720651262
 30
0.0
 40
7.728910881886959
 50
333.29407464352568
 51
76.705925358430292
  0
POLYLINE
  5
6471A
  8
S-OBRYS
  6
CONTINUOUS
 66
     1
 10
0.0
 20
0.0
 30
0.0
  0
VERTEX
  5
65AA0
  8
S-OBRYS
  6
CONTINUOUS
 10
-5069.2534189613616
 20
403576.85635401792
 30
0.0
  0
VERTEX
  5
65AA1
  8
S-OBRYS
  6
CONTINUOUS
 10
-5058.6694704230404
 20
403554.15900313121
 30
0.0
  0
SEQEND
  5
65AA2
  8
S-OBRYS
  6
CONTINUOUS
  0
LINE
  5
6471B
  8
S-OBRYS
  6
CONTINUOUS
 10
-5088.6172414660541
 20
403610.28213216859
 30
0.0
 11
-5094.5094830455064
 21
403622.91808501299
 31
0.0
  0
ARC
  5
6471C
  8
S-OBRYS
  6
CONTINUOUS
 10
-5076.1578476282084
 20
403580.32981456968
 30
0.0
 40
7.728910881886959
 50
333.29407464352568
 51
76.705925358430292
  0
LINE
  5
6471D
  8
S-OBRYS
  6
CONTINUOUS
 10
-5075.4343416292322
 20
403616.42941931909
 30
0.0
 11
-5070.0207325567608
 21
403604.81989719818
 31
0.0
  0
LINE
  5
6471E
  8
S-OBRYS
  6
CONTINUOUS
 10
-5045.7166991596087
 20
403553.50593105139
 30
0.0
 11
-5026.2678379078379
 21
403562.57508399559
 31
0.0
  0
POLYLINE
  5
6471F
  8
S-OBRYS
  6
CONTINUOUS
 66
     1
 10
0.0
 20
0.0
 30
0.0
  0
VERTEX
  5
65AA3
  8
S-OBRYS
  6
CONTINUOUS
 10
-5024.1323364500822
 20
403585.11972187489
 30
0.0
  0
VERTEX
  5
65AA4
  8
S-OBRYS
  6
CONTINUOUS
 10
-5029.0261878046294
 20
403595.61461997271
 30
0.0
  0
SEQEND
  5
65AA5
  8
S-OBRYS
  6
CONTINUOUS
  0
ARC
  5
64720
  8
S-OBRYS
  6
CONTINUOUS
 10
-5027.2489317596737
 20
403603.1364165913
 30
0.0
 40
7.728910881886959
 50
153.29407464352559
 51
256.70592535843031
  0
POLYLINE
  5
64721
  8
S-OBRYS
  6
CONTINUOUS
 66
     1
 10
0.0
 20
0.0
 30
0.0
  0
VERTEX
  5
65AA6
  8
S-OBRYS
  6
CONTINUOUS
 10
-5048.4066879040902
 20
403572.48027023929
 30
0.0
  0
VERTEX
  5
65AA7
  8
S-OBRYS
  6
CONTINUOUS
 10
-4993.3648306013501
 20
403572.48027023929
 30
0.0
  0
SEQEND
  5
65AA8
  8
S-OBRYS
  6
CONTINUOUS
  0
POLYLINE
  5
64722
  8
S-OBRYS
  6
CONTINUOUS
 66
     1
 10
0.0
 20
0.0
 30
0.0
  0
VERTEX
  5
65AA9
  8
S-OBRYS
  6
CONTINUOUS
 10
-4993.2108250311721
 20
403585.11972187489
 30
0.0
  0
VERTEX
  5
65AAA
  8
S-OBRYS
  6
CONTINUOUS
 10
-5048.5606934742682
 20
403585.11972187489
 30
0.0
  0
SEQEND
  5
65AAB
  8
S-OBRYS
  6
CONTINUOUS
  0
ARC
  5
64723
  8
S-OBRYS
  6
CONTINUOUS
 10
-5011.5378105994569
 20
403569.44380853418
 30
0.0
 40
7.728910881886959
 50
156.866766361039
 51
256.70592535843031
  0
LINE
  5
64724
  8
S-OBRYS
  6
CONTINUOUS
 10
-4934.1234703026057
 20
404178.6243079257
 30
0.0
 11
-4976.9952071634107
 21
404270.563044318
 31
0.0
  0
LINE
  5
64725
  8
S-OBRYS
  6
CONTINUOUS
 10
-5088.2403456613247
 20
404173.30454806529
 30
0.0
 11
-5088.2403456613247
 21
404149.94594329252
 31
0.0
  0
LINE
  5
64726
  8
S-OBRYS
  6
CONTINUOUS
 10
-4564.3498931916538
 20
404351.05255871592
 30
0.0
 11
-4607.221630052456
 21
404442.99129510822
 31
0.0
  0
CIRCLE
  5
64727
  8
S-OBRYS
  6
CONTINUOUS
 10
-3228.184504705885
 20
400917.92202522722
 30
0.0
 40
10.0
  0
CIRCLE
  5
64728
  8
S-OBRYS
  6
CONTINUOUS
 10
-3228.184504705885
 20
400547.92202522722
 30
0.0
 40
10.0
  0
LINE
  5
64729
  8
S-OBRYS
  6
CONTINUOUS
 10
-3228.184504705885
 20
400952.92202522722
 30
0.0
 11
-3228.184504705885
 21
400512.92202522722
 31
0.0
  0
LINE
  5
6472A
  8
S-OBRYS
  6
CONTINUOUS
 10
-2688.184504705885
 20
400952.92202522722
 30
0.0
 11
-2688.1845047058819
 21
400512.92202522722
 31
0.0
  0
LINE
  5
6472B
  8
S-OBRYS
  6
CONTINUOUS
 10
-2796.3648850484351
 20
404680.58554139128
 30
0.0
 11
-2635.5527971953452
 21
404755.57344948099
 31
0.0
  0
POLYLINE
  5
6472C
  8
S-OBRYS
  6
CONTINUOUS
 66
     1
 10
0.0
 20
0.0
 30
0.0
 70
     1
  0
VERTEX
  5
65AAC
  8
S-OBRYS
  6
CONTINUOUS
 10
-3595.1933446299658
 20
404819.737925603
 30
0.0
  0
VERTEX
  5
65AAD
  8
S-OBRYS
  6
CONTINUOUS
 10
-3572.3315104112189
 20
404830.39857397851
 30
0.0
  0
VERTEX
  5
65AAE
  8
S-OBRYS
  6
CONTINUOUS
 10
-3529.588508460271
 20
404738.73591049149
 30
0.0
  0
VERTEX
  5
65AAF
  8
S-OBRYS
  6
CONTINUOUS
 10
-3552.450342679022
 20
404728.0752621158
 30
0.0
  0
SEQEND
  5
65AB0
  8
S-OBRYS
  6
CONTINUOUS
  0
LINE
  5
6472D
  8
S-OBRYS
  6
CONTINUOUS
 10
-3190.1529082123052
 20
405525.06668227992
 30
0.0
 11
-2796.364885048431
 21
404680.58554139128
 31
0.0
  0
LINE
  5
6472E
  8
S-OBRYS
  6
CONTINUOUS
 10
-2828.225398881827
 20
404624.53481306531
 30
0.0
 11
-3050.0999862956892
 21
405100.34640125942
 31
0.0
  0
LINE
  5
6472F
  8
S-OBRYS
  6
CONTINUOUS
 10
-3292.3953852401391
 20
404453.75583188701
 30
0.0
 11
-3174.0853060825139
 21
404453.75583188701
 31
0.0
  0
LINE
  5
64730
  8
S-OBRYS
  6
CONTINUOUS
 10
-3174.0853060825102
 20
404480.84460407333
 30
0.0
 11
-3292.395385240136
 21
404480.84460407333
 31
0.0
  0
LINE
  5
64731
  8
S-OBRYS
  6
CONTINUOUS
 10
-3310.1540294890219
 20
404518.92813956388
 30
0.0
 11
-3181.9957828281808
 21
404578.6893114376
 31
0.0
  0
LINE
  5
64732
  8
S-OBRYS
  6
CONTINUOUS
 10
-3283.2403456613251
 20
403453.30454806518
 30
0.0
 11
-3183.2403456613251
 21
403453.30454806518
 31
0.0
  0
LINE
  5
64733
  8
S-OBRYS
  6
CONTINUOUS
 10
-3283.2403456613251
 20
403477.86247903988
 30
0.0
 11
-3183.2403456613251
 21
403477.86247903988
 31
0.0
  0
LINE
  5
64734
  8
S-OBRYS
  6
CONTINUOUS
 10
-3136.3700464742869
 20
404480.84460407333
 30
0.0
 11
-3250.476977144277
 21
404725.54770657333
 31
0.0
  0
LINE
  5
64735
  8
S-OBRYS
  6
CONTINUOUS
 10
-3253.2403456613251
 20
404453.75583188701
 30
0.0
 11
-3253.2403456613279
 21
403477.86247903988
 31
0.0
  0
INSERT
  5
64736
  8
S-OBRYS
  6
CONTINUOUS
  2
_CLOSEDBLANK
 10
-2983.9784711739999
 20
402863.65372337261
 30
0.0
 41
100.0
 42
100.0
 43
100.0
  0
LINE
  5
64737
  8
S-OBRYS
  6
CONTINUOUS
 10
-3283.2403456613251
 20
403453.30454806518
 30
0.0
 11
-3283.2403456613251
 21
403477.86247903988
 31
0.0
  0
POLYLINE
  5
64738
  8
S-OBRYS
  6
CONTINUOUS
 66
     1
 10
0.0
 20
0.0
 30
0.0
 70
     1
  0
VERTEX
  5
65AB1
  8
S-OBRYS
  6
CONTINUOUS
 10
-4138.9780168519565
 20
404566.16696855851
 30
0.0
  0
VERTEX
  5
65AB2
  8
S-OBRYS
  6
CONTINUOUS
 10
-4116.1161826332091
 20
404576.8276169342
 30
0.0
  0
VERTEX
  5
65AB3
  8
S-OBRYS
  6
CONTINUOUS
 10
-4073.373180682262
 20
404485.16495344712
 30
0.0
  0
VERTEX
  5
65AB4
  8
S-OBRYS
  6
CONTINUOUS
 10
-4096.2350149010117
 20
404474.50430507131
 30
0.0
  0
SEQEND
  5
65AB5
  8
S-OBRYS
  6
CONTINUOUS
  0
LINE
  5
64739
  8
S-OBRYS
  6
CONTINUOUS
 10
-3292.3953852401391
 20
404480.84460407333
 30
0.0
 11
-3292.3953852401391
 21
404453.75583188701
 31
0.0
  0
LINE
  5
6473A
  8
S-OBRYS
  6
CONTINUOUS
 10
-3292.3953852401391
 20
404480.84460407333
 30
0.0
 11
-3310.1540294890219
 21
404518.92813956388
 31
0.0
  0
LINE
  5
6473B
  8
S-OBRYS
  6
CONTINUOUS
 10
-3221.18534104728
 20
403477.86247903988
 30
0.0
 11
-3221.18534104728
 21
404453.75583188701
 31
0.0
  0
LINE
  5
6473C
  8
S-OBRYS
  6
CONTINUOUS
 10
-3213.2403456613251
 20
404453.75583188701
 30
0.0
 11
-3213.2403456613251
 21
403477.86247903988
 31
0.0
  0
LINE
  5
6473D
  8
S-OBRYS
  6
CONTINUOUS
 10
-3183.2403456613251
 20
403453.30454806518
 30
0.0
 11
-3183.2403456613251
 21
403477.86247903988
 31
0.0
  0
LINE
  5
6473E
  8
S-OBRYS
  6
CONTINUOUS
 10
-2941.1513386656261
 20
404464.45100330061
 30
0.0
 11
-3011.5777424758739
 21
404615.48091365828
 31
0.0
  0
LINE
  5
6473F
  8
S-OBRYS
  6
CONTINUOUS
 10
-3168.0908190205701
 20
404466.05296491238
 30
0.0
 11
-2796.5046263355439
 21
404639.3264522262
 31
0.0
  0
LINE
  5
64740
  8
S-OBRYS
  6
CONTINUOUS
 10
-3174.0853060825102
 20
404480.84460407333
 30
0.0
 11
-3174.0853060825139
 21
404453.75583188701
 31
0.0
  0
LINE
  5
64741
  8
S-OBRYS
  6
CONTINUOUS
 10
-3174.0853060825102
 20
404480.84460407333
 30
0.0
 11
-3143.1062254922622
 21
404495.29038659518
 31
0.0
  0
LINE
  5
64742
  8
S-OBRYS
  6
CONTINUOUS
 10
-3143.1062254922622
 20
404495.29038659518
 30
0.0
 11
-3181.9957828281808
 21
404578.6893114376
 31
0.0
  0
LINE
  5
64743
  8
S-OBRYS
  6
CONTINUOUS
 10
-3273.3353731083298
 20
405488.16100028128
 30
0.0
 11
-3240.4815794132919
 21
405503.4809758807
 31
0.0
  0
LINE
  5
64744
  8
S-OBRYS
  6
CONTINUOUS
 10
-3247.0730947346669
 20
405112.82152343949
 30
0.0
 11
-3199.6711418249429
 21
405134.92541709292
 31
0.0
  0
LINE
  5
64745
  8
S-OBRYS
  6
CONTINUOUS
 10
-3213.8084228983389
 20
405128.33309466281
 30
0.0
 11
-3361.1771179016218
 21
405444.36628096388
 31
0.0
  0
LINE
  5
64746
  8
S-OBRYS
  6
CONTINUOUS
 10
-3188.4862167674478
 20
405182.44368759502
 30
0.0
 11
-3325.599103181009
 21
405476.48322140001
 31
0.0
  0
LINE
  5
64747
  8
S-OBRYS
  6
CONTINUOUS
 10
-3301.8981267261479
 20
405487.53516822658
 30
0.0
 11
-3140.7264534024798
 21
405141.90139939392
 31
0.0
  0
LINE
  5
64748
  8
S-OBRYS
  6
CONTINUOUS
 10
-3164.3162638373069
 20
405469.65981961507
 30
0.0
 11
-3630.4259419089758
 21
405252.30930719012
 31
0.0
  0
LINE
  5
64749
  8
S-OBRYS
  6
CONTINUOUS
 10
-3138.791932629541
 20
405414.92271469859
 30
0.0
 11
-3310.1802059393781
 21
405335.00305033621
 31
0.0
  0
LINE
  5
6474A
  8
S-OBRYS
  6
CONTINUOUS
 10
-3278.1971502712881
 20
405498.58711505332
 30
0.0
 11
-3124.881407232966
 21
405169.8004430845
 31
0.0
  0
LINE
  5
6474B
  8
S-OBRYS
  6
CONTINUOUS
 10
-3258.1779371928428
 20
405087.1328730408
 30
0.0
 11
-3067.516779697311
 21
405176.03963089368
 31
0.0
  0
LINE
  5
6474C
  8
S-OBRYS
  6
CONTINUOUS
 10
-3246.9288603930509
 20
405063.00914999418
 30
0.0
 11
-3056.2677028975199
 21
405151.91590784717
 31
0.0
  0
LINE
  5
6474D
  8
S-OBRYS
  6
CONTINUOUS
 10
-3536.4767826696839
 20
405397.64968786848
 30
0.0
 11
-3509.954249497518
 21
405340.77193193138
 31
0.0
  0
POLYLINE
  5
6474E
  8
S-OBRYS
  6
CONTINUOUS
 66
     1
 10
0.0
 20
0.0
 30
0.0
 70
     1
  0
VERTEX
  5
65AB6
  8
S-OBRYS
  6
CONTINUOUS
 10
-3326.5958653269149
 20
405304.49650836148
 30
0.0
  0
VERTEX
  5
65AB7
  8
S-OBRYS
  6
CONTINUOUS
 10
-3314.507480670251
 20
405310.13341470168
 30
0.0
  0
VERTEX
  5
65AB8
  8
S-OBRYS
  6
CONTINUOUS
 10
-3383.061633115874
 20
405457.14826905087
 30
0.0
  0
VERTEX
  5
65AB9
  8
S-OBRYS
  6
CONTINUOUS
 10
-3395.1500177725388
 20
405451.51136271079
 30
0.0
  0
SEQEND
  5
65ABA
  8
S-OBRYS
  6
CONTINUOUS
  0
LINE
  5
6474F
  8
S-OBRYS
  6
CONTINUOUS
 10
-3409.2109208211232
 20
405430.11276447732
 30
0.0
 11
-3352.0263168549031
 21
405307.47998552507
 31
0.0
  0
LINE
  5
64750
  8
S-OBRYS
  6
CONTINUOUS
 10
-3456.5973677176662
 20
405434.89807078958
 30
0.0
 11
-3430.074834545504
 21
405378.02031485242
 31
0.0
  0
LINE
  5
64751
  8
S-OBRYS
  6
CONTINUOUS
 10
-3509.954249497518
 20
405340.77193193138
 30
0.0
 11
-3488.0088999953841
 21
405327.78899521322
 31
0.0
  0
LINE
  5
64752
  8
S-OBRYS
  6
CONTINUOUS
 10
-3509.954249497518
 20
405340.77193193138
 30
0.0
 11
-3430.074834545504
 21
405378.02031485242
 31
0.0
  0
LINE
  5
64753
  8
S-OBRYS
  6
CONTINUOUS
 10
-3352.0263168549031
 20
405307.47998552507
 30
0.0
 11
-3547.272027570868
 21
405216.43541539653
 31
0.0
  0
LINE
  5
64754
  8
S-OBRYS
  6
CONTINUOUS
 10
-3616.531544374895
 20
405307.5517756741
 30
0.0
 11
-3579.1766093236288
 21
405227.44385894138
 31
0.0
  0
LINE
  5
64755
  8
S-OBRYS
  6
CONTINUOUS
 10
-3504.9690239949341
 20
405236.1616299267
 30
0.0
 11
-3562.1536279611501
 21
405358.79440887889
 31
0.0
  0
LINE
  5
64756
  8
S-OBRYS
  6
CONTINUOUS
 10
-3547.272027570868
 20
405216.43541539653
 30
0.0
 11
-3579.1766093236288
 21
405227.44385894138
 31
0.0
  0
LINE
  5
64757
  8
S-OBRYS
  6
CONTINUOUS
 10
-3526.180391032919
 20
405375.5690047472
 30
0.0
 11
-3604.456631537083
 21
405339.06819434848
 31
0.0
  0
LINE
  5
64758
  8
S-OBRYS
  6
CONTINUOUS
 10
-3604.456631537083
 20
405339.06819434848
 30
0.0
 11
-3616.531544374895
 21
405307.5517756741
 31
0.0
  0
LINE
  5
64759
  8
S-OBRYS
  6
CONTINUOUS
 10
-3488.0088999953841
 20
405327.78899521322
 30
0.0
 11
-3434.2355267673961
 21
405352.86393095431
 31
0.0
  0
LINE
  5
6475A
  8
S-OBRYS
  6
CONTINUOUS
 10
-3430.074834545504
 20
405378.02031485242
 30
0.0
 11
-3434.2355267673961
 21
405352.86393095431
 31
0.0
  0
LINE
  5
6475B
  8
S-OBRYS
  6
CONTINUOUS
 10
-3239.217164449321
 20
405095.97442657559
 30
0.0
 11
-3247.0730947346669
 21
405112.82152343949
 31
0.0
  0
LINE
  5
6475C
  8
S-OBRYS
  6
CONTINUOUS
 10
-3258.1779371928428
 20
405087.1328730408
 30
0.0
 11
-3246.9288603930509
 21
405063.00914999418
 31
0.0
  0
LINE
  5
6475D
  8
S-OBRYS
  6
CONTINUOUS
 10
-3333.094471945551
 20
405349.99334612302
 30
0.0
 11
-3320.014452199634
 21
405356.09265949932
 31
0.0
  0
LINE
  5
6475E
  8
S-OBRYS
  6
CONTINUOUS
 10
-3364.9285338905001
 20
405335.14887924778
 30
0.0
 11
-3345.1828566022159
 21
405344.35643978289
 31
0.0
  0
LINE
  5
6475F
  8
S-OBRYS
  6
CONTINUOUS
 10
-3536.4767826696839
 20
405397.64968786848
 30
0.0
 11
-3456.5973677176662
 21
405434.89807078958
 31
0.0
  0
LINE
  5
64760
  8
S-OBRYS
  6
CONTINUOUS
 10
-3396.308703785523
 20
405402.44387075451
 30
0.0
 11
-3376.5630264972351
 21
405411.6514312895
 31
0.0
  0
LINE
  5
64761
  8
S-OBRYS
  6
CONTINUOUS
 10
-3409.2109208211232
 20
405430.11276447732
 30
0.0
 11
-3446.3009760809041
 21
405412.8173876683
 31
0.0
  0
LINE
  5
64762
  8
S-OBRYS
  6
CONTINUOUS
 10
-3361.1771179016218
 20
405444.36628096388
 30
0.0
 11
-3319.652055145973
 21
405463.72973573231
 31
0.0
  0
LINE
  5
64763
  8
S-OBRYS
  6
CONTINUOUS
 10
-3364.4746418405739
 20
405417.28833762958
 30
0.0
 11
-3351.3946220946568
 21
405423.38765100599
 31
0.0
  0
LINE
  5
64764
  8
S-OBRYS
  6
CONTINUOUS
 10
-3325.599103181009
 20
405476.48322140001
 30
0.0
 11
-3278.197150271284
 21
405498.58711505332
 31
0.0
  0
LINE
  5
64765
  8
S-OBRYS
  6
CONTINUOUS
 10
-2838.6927960119651
 20
404771.35803938319
 30
0.0
 11
-2677.8807081588789
 21
404846.34594747308
 31
0.0
  0
LINE
  5
64766
  8
S-OBRYS
  6
CONTINUOUS
 10
-2635.5527971953452
 20
404755.57344948099
 30
0.0
 11
-3029.3408203592162
 21
405600.05459036981
 31
0.0
  0
LINE
  5
64767
  8
S-OBRYS
  6
CONTINUOUS
 10
-3160.1023269632642
 20
405371.37061068369
 30
0.0
 11
-3125.9166774454102
 21
405387.31164085289
 31
0.0
  0
LINE
  5
64768
  8
S-OBRYS
  6
CONTINUOUS
 10
-3092.0276135379249
 20
405185.12041868392
 30
0.0
 11
-3240.4815794132919
 21
405503.4809758807
 31
0.0
  0
LINE
  5
64769
  8
S-OBRYS
  6
CONTINUOUS
 10
-3146.4256729182962
 20
405342.04093143478
 30
0.0
 11
-3199.5294913764919
 21
405455.92243762402
 31
0.0
  0
LINE
  5
6476A
  8
S-OBRYS
  6
CONTINUOUS
 10
-3161.8474873498672
 20
405334.84962126281
 30
0.0
 11
-3146.4256729182962
 21
405342.04093143478
 31
0.0
  0
LINE
  5
6476B
  8
S-OBRYS
  6
CONTINUOUS
 10
-3124.881407232966
 20
405169.8004430845
 30
0.0
 11
-3093.2801158186121
 21
405184.5363672786
 31
0.0
  0
LINE
  5
6476C
  8
S-OBRYS
  6
CONTINUOUS
 10
-3199.6711418249429
 20
405134.92541709292
 30
0.0
 11
-3188.4862167674478
 21
405182.44368759502
 31
0.0
  0
LINE
  5
6476D
  8
S-OBRYS
  6
CONTINUOUS
 10
-3186.7662105335912
 20
405036.61789428612
 30
0.0
 11
-3207.6200699066071
 21
405081.33914003102
 31
0.0
  0
LINE
  5
6476E
  8
S-OBRYS
  6
CONTINUOUS
 10
-3203.24324856373
 20
405028.93452526903
 30
0.0
 11
-3224.097107936745
 21
405073.6557710137
 31
0.0
  0
LINE
  5
6476F
  8
S-OBRYS
  6
CONTINUOUS
 10
-3056.2677028975199
 20
405151.91590784717
 30
0.0
 11
-3067.516779697311
 21
405176.03963089368
 31
0.0
  0
LINE
  5
64770
  8
S-OBRYS
  6
CONTINUOUS
 10
-3058.254268959201
 20
405096.54399680672
 30
0.0
 11
-3079.1081283322169
 21
405141.2652425514
 31
0.0
  0
LINE
  5
64771
  8
S-OBRYS
  6
CONTINUOUS
 10
-3074.731306989343
 20
405088.86062778952
 30
0.0
 11
-3095.585166362358
 21
405133.58187353419
 31
0.0
  0
LINE
  5
64772
  8
S-OBRYS
  6
CONTINUOUS
 10
-3030.4167449300439
 20
405109.5248474456
 30
0.0
 11
-3020.2945139329531
 21
405087.81765302131
 31
0.0
  0
LINE
  5
64773
  8
S-OBRYS
  6
CONTINUOUS
 10
-3093.2801158186121
 20
405184.5363672786
 30
0.0
 11
-3092.0276135379249
 21
405185.12041868392
 31
0.0
  0
LINE
  5
64774
  8
S-OBRYS
  6
CONTINUOUS
 10
-3093.2801158186121
 20
405184.5363672786
 30
0.0
 11
-3085.4241855332621
 21
405167.68927041459
 31
0.0
  0
ARC
  5
64775
  8
S-OBRYS
  6
CONTINUOUS
 10
-2856.9918275863529
 20
404801.81356467953
 30
0.0
 40
40.930215194313092
 50
109.7945424390107
 51
143.14825172397039
  0
LINE
  5
64776
  8
S-OBRYS
  6
CONTINUOUS
 10
-2954.7695342768238
 20
404965.8095061924
 30
0.0
 11
-2876.3486802849802
 21
404797.63544209459
 31
0.0
  0
LINE
  5
64777
  8
S-OBRYS
  6
CONTINUOUS
 10
-2898.8957199384859
 20
404776.08780564577
 30
0.0
 11
-2881.1855755379402
 21
404784.34618160682
 31
0.0
  0
ARC
  5
64778
  8
S-OBRYS
  6
CONTINUOUS
 10
-2885.4117581553478
 20
404793.40925947722
 30
0.0
 40
10.0
 50
294.99999999908221
 51
24.999999998250981
  0
ARC
  5
64779
  8
S-OBRYS
  6
CONTINUOUS
 10
-2939.1265616107489
 20
404977.95207020908
 30
0.0
 40
40.930215194313092
 50
266.85174827458292
 51
300.20545756222202
  0
ARC
  5
6477A
  8
S-OBRYS
  6
CONTINUOUS
 10
-2963.832612147191
 20
404961.58332357497
 30
0.0
 40
10.0
 50
24.999999998250981
 51
114.99999999908221
  0
LINE
  5
6477B
  8
S-OBRYS
  6
CONTINUOUS
 10
-2985.7689391651438
 20
404962.38802548428
 30
0.0
 11
-2968.0587947645981
 21
404970.64640144532
 31
0.0
  0
LINE
  5
6477C
  8
S-OBRYS
  6
CONTINUOUS
 10
-3146.925726809684
 20
405432.36569260783
 30
0.0
 11
-2986.113638956595
 21
405507.35360069771
 31
0.0
  0
LINE
  5
6477D
  8
S-OBRYS
  6
CONTINUOUS
 10
-3029.3408203592162
 20
405600.05459036981
 30
0.0
 11
-3190.1529082123052
 21
405525.06668227992
 31
0.0
  0
LINE
  5
6477E
  8
S-OBRYS
  6
CONTINUOUS
 10
-3172.6894796339948
 20
405358.10034874821
 30
0.0
 11
-3157.2676652024238
 21
405365.29165892029
 31
0.0
  0
LINE
  5
6477F
  8
S-OBRYS
  6
CONTINUOUS
 10
-3185.8528373315239
 20
405426.59275837522
 30
0.0
 11
-3151.6671878136699
 21
405442.5337885443
 31
0.0
  0
LINE
  5
64780
  8
S-OBRYS
  6
CONTINUOUS
 10
-3536.4767826696839
 20
405397.64968786848
 30
0.0
 11
-3456.5973677176662
 21
405434.89807078958
 31
0.0
  0
DIMENSION
  5
64781
  8
S-OBRYS
  6
CONTINUOUS
  2
*D71
 10
-4731.7963614388464
 20
403453.30454806518
 30
0.0
 11
-4621.7710046222919
 21
403754.1531241617
 31
0.0
 70
     2
 13
-5448.2403456613292
 23
403700.71381702129
 33
0.0
 14
-2894.6936263864732
 24
404891.45220767561
 34
0.0
 15
-5028.2273006425639
 25
403453.30454806518
 35
0.0
 16
-4677.7068508518269
 26
403643.88827752852
 36
0.0
1001
ACAD
1000
DSTYLE
1002
{
1070
   271
1070
     0
1002
}
  0
DIMENSION
  5
64782
  8
S-OBRYS
  6
CONTINUOUS
  2
*D72
 10
-2320.7604874602989
 20
404861.16958750598
 30
0.0
 11
-2464.0965343030111
 21
405346.01985065488
 31
0.0
 70
     1
  1
900
 13
-3496.5370751936748
 23
405416.27387932909
 33
0.0
 14
-3073.9188134529272
 24
404509.96609229239
 34
0.0
  0
LINE
  5
64783
  8
S-OBRYS
  6
CONTINUOUS
 10
-3248.184504705886
 20
400547.92202522722
 30
0.0
 11
-3208.184504705885
 21
400547.92202522722
 31
0.0
  0
LINE
  5
64784
  8
S-OBRYS
  6
CONTINUOUS
 10
-3228.184504705885
 20
400527.92202522722
 30
0.0
 11
-3228.184504705885
 21
400567.92202522722
 31
0.0
  0
LINE
  5
64785
  8
S-OBRYS
  6
CONTINUOUS
 10
-3248.184504705886
 20
400917.92202522722
 30
0.0
 11
-3208.184504705885
 21
400917.92202522722
 31
0.0
  0
LINE
  5
64786
  8
S-OBRYS
  6
CONTINUOUS
 10
-3228.184504705885
 20
400897.92202522722
 30
0.0
 11
-3228.184504705885
 21
400937.92202522722
 31
0.0
  0
DIMENSION
  5
64787
  8
S-OBRYS
  6
CONTINUOUS
  2
*D73
 10
-3234.8089057145412
 20
400910.43087636522
 30
0.0
 11
-3069.3905360549402
 21
401210.71064943908
 31
0.0
 70
     3
  1
%%c21
 15
-3221.5601036971489
 25
400925.41317408939
 35
0.0
 40
0.0
1001
ACAD
1000
DSTYLE
1002
{
1070
   288
1070
     1
1002
}
  0
LINE
  5
64788
  8
S-OBRYS
  6
CONTINUOUS
 10
-5163.184504705885
 20
400917.92202522722
 30
0.0
 11
-5123.184504705886
 21
400917.92202522722
 31
0.0
  0
LINE
  5
64789
  8
S-OBRYS
  6
CONTINUOUS
 10
-5143.184504705885
 20
400897.92202522722
 30
0.0
 11
-5143.184504705885
 21
400937.92202522722
 31
0.0
  0
LINE
  5
6478A
  8
S-OBRYS
  6
CONTINUOUS
 10
-5163.184504705885
 20
400547.92202522722
 30
0.0
 11
-5123.184504705886
 21
400547.92202522722
 31
0.0
  0
LINE
  5
6478B
  8
S-OBRYS
  6
CONTINUOUS
 10
-5143.184504705885
 20
400527.92202522722
 30
0.0
 11
-5143.184504705885
 21
400567.92202522722
 31
0.0
  0
CIRCLE
  5
6478C
  8
S-OBRYS
  6
CONTINUOUS
 10
-5143.184504705885
 20
400672.92202522722
 30
0.0
 40
60.0
  0
CIRCLE
  5
6478D
  8
S-OBRYS
  6
CONTINUOUS
 10
-4925.184504705885
 20
400672.92202522722
 30
0.0
 40
10.0
  0
LINE
  5
6478E
  8
S-OBRYS
  6
CONTINUOUS
 10
-4945.184504705885
 20
400672.92202522722
 30
0.0
 11
-4905.184504705886
 21
400672.92202522722
 31
0.0
  0
LINE
  5
6478F
  8
S-OBRYS
  6
CONTINUOUS
 10
-4925.184504705885
 20
400652.92202522722
 30
0.0
 11
-4925.184504705885
 21
400692.92202522722
 31
0.0
  0
LINE
  5
64790
  8
S-OBRYS
  6
CONTINUOUS
 10
-5218.184504705885
 20
400672.92202522722
 30
0.0
 11
-5068.184504705885
 21
400672.92202522722
 31
0.0
  0
LINE
  5
64791
  8
S-OBRYS
  6
CONTINUOUS
 10
-5143.184504705885
 20
400597.92202522722
 30
0.0
 11
-5143.184504705885
 21
400747.92202522722
 31
0.0
  0
DIMENSION
  5
64792
  8
S-OBRYS
  6
CONTINUOUS
  2
*D74
 10
-4925.184504705885
 20
400253.15181331971
 30
0.0
 11
-5034.184504705885
 21
400253.15181331971
 31
0.0
 70
   128
 13
-5143.184504705885
 23
400612.92202522722
 33
0.0
 14
-4925.184504705885
 24
400652.92202522722
 34
0.0
  0
CIRCLE
  5
64793
  8
S-OBRYS
  6
CONTINUOUS
 10
-4517.184504705885
 20
400672.92202522722
 30
0.0
 40
10.0
  0
LINE
  5
64794
  8
S-OBRYS
  6
CONTINUOUS
 10
-4537.1845047058841
 20
400672.92202522722
 30
0.0
 11
-4497.1845047058841
 21
400672.92202522722
 31
0.0
  0
LINE
  5
64795
  8
S-OBRYS
  6
CONTINUOUS
 10
-4517.184504705885
 20
400652.92202522722
 30
0.0
 11
-4517.184504705885
 21
400692.92202522722
 31
0.0
  0
DIMENSION
  5
64796
  8
S-OBRYS
  6
CONTINUOUS
  2
*D75
 10
-4517.184504705885
 20
400253.15181331971
 30
0.0
 11
-4721.184504705885
 21
400328.15181331971
 31
0.0
 70
     0
 13
-4925.184504705885
 23
400649.7720252272
 33
0.0
 14
-4517.184504705885
 24
400649.7720252272
 34
0.0
  0
LINE
  5
64797
  8
S-OBRYS
  6
CONTINUOUS
 10
-2982.2977226780672
 20
404552.6897085692
 30
0.0
 11
-2982.2977226780672
 21
402863.72482407017
 31
0.0
  0
LINE
  5
65003
  8
S-OBRYS
  6
CONTINUOUS
 10
-5607.5479728192986
 20
396316.43734712078
 30
0.0
 11
-5607.5479728192986
 21
397380.0281563343
 31
0.0
  0
LINE
  5
65004
  8
S-OBRYS
  6
CONTINUOUS
 10
-5607.5479728192986
 20
397380.0281563343
 30
0.0
 11
-5733.0571390796358
 21
397292.31758697971
 31
0.0
  0
LINE
  5
65005
  8
S-OBRYS
  6
CONTINUOUS
 10
-5607.5479728192986
 20
397315.96727788699
 30
0.0
 11
-5733.0571390796358
 21
397228.25670853228
 31
0.0
  0
LINE
  5
65006
  8
S-OBRYS
  6
CONTINUOUS
 10
-5607.5479728192986
 20
397244.98090594349
 30
0.0
 11
-5733.0571390796358
 21
397157.27033658879
 31
0.0
  0
LINE
  5
65007
  8
S-OBRYS
  6
CONTINUOUS
 10
-5607.5479728192986
 20
397172.2631987902
 30
0.0
 11
-5733.0571390796358
 21
397084.55262943538
 31
0.0
  0
LINE
  5
65008
  8
S-OBRYS
  6
CONTINUOUS
 10
-5607.5479728192986
 20
397101.27682684659
 30
0.0
 11
-5733.0571390796358
 21
397013.56625749188
 31
0.0
  0
DIMENSION
  5
65009
  8
S-OBRYS
  6
CONTINUOUS
  2
*D88
 10
-5607.5479728192986
 20
397425.47194004891
 30
0.0
 11
-6055.4051156764417
 21
397500.47194004891
 31
0.0
 70
     0
  1
MIN.200
 13
-5407.5479728192977
 23
396793.76736613392
 33
0.0
 14
-5607.5479728192986
 24
396793.76736613392
 34
0.0
  0
LINE
  5
6500A
  8
S-OBRYS
  6
CONTINUOUS
 10
-5607.5479728192986
 20
397380.0281563343
 30
0.0
 11
-5733.0571390796358
 21
397292.31758697971
 31
0.0
  0
LINE
  5
6500B
  8
S-OBRYS
  6
CONTINUOUS
 10
-5607.5479728192986
 20
397315.96727788699
 30
0.0
 11
-5733.0571390796358
 21
397228.25670853228
 31
0.0
  0
LINE
  5
6500C
  8
S-OBRYS
  6
CONTINUOUS
 10
-5607.5479728192986
 20
397244.98090594349
 30
0.0
 11
-5733.0571390796358
 21
397157.27033658879
 31
0.0
  0
LINE
  5
6500D
  8
S-OBRYS
  6
CONTINUOUS
 10
-5607.5479728192986
 20
397172.2631987902
 30
0.0
 11
-5733.0571390796358
 21
397084.55262943538
 31
0.0
  0
LINE
  5
6500E
  8
S-OBRYS
  6
CONTINUOUS
 10
-5607.5479728192986
 20
397101.27682684659
 30
0.0
 11
-5733.0571390796358
 21
397013.56625749188
 31
0.0
  0
LINE
  5
6500F
  8
S-OBRYS
  6
CONTINUOUS
 10
-5607.5479728192986
 20
397014.7080818151
 30
0.0
 11
-5733.0571390796358
 21
396926.9975124604
 31
0.0
  0
LINE
  5
65010
  8
S-OBRYS
  6
CONTINUOUS
 10
-5607.5479728192986
 20
396929.87067199341
 30
0.0
 11
-5733.0571390796358
 21
396842.16010263871
 31
0.0
  0
LINE
  5
65011
  8
S-OBRYS
  6
CONTINUOUS
 10
-5607.5479728192986
 20
396843.30192696193
 30
0.0
 11
-5733.0571390796358
 21
396755.59135760722
 31
0.0
  0
LINE
  5
65012
  8
S-OBRYS
  6
CONTINUOUS
 10
-5607.5479728192986
 20
396756.73318193038
 30
0.0
 11
-5733.0571390796358
 21
396669.02261257567
 31
0.0
  0
LINE
  5
65013
  8
S-OBRYS
  6
CONTINUOUS
 10
-5607.5479728192986
 20
396673.62720908987
 30
0.0
 11
-5733.0571390796358
 21
396585.91663973522
 31
0.0
  0
LINE
  5
65014
  8
S-OBRYS
  6
CONTINUOUS
 10
-5607.5479728192986
 20
396588.78985015379
 30
0.0
 11
-5733.0571390796358
 21
396501.0792807992
 31
0.0
  0
LINE
  5
65015
  8
S-OBRYS
  6
CONTINUOUS
 10
-5607.5479728192986
 20
396510.87798471423
 30
0.0
 11
-5733.0571390796358
 21
396423.16741535952
 31
0.0
  0
LINE
  5
65016
  8
S-OBRYS
  6
CONTINUOUS
 10
-5607.5479728192986
 20
396438.1602266751
 30
0.0
 11
-5733.0571390796358
 21
396350.44965732039
 31
0.0
  0
LINE
  5
65017
  8
S-OBRYS
  6
CONTINUOUS
 10
-5607.5479728192986
 20
396348.12870945258
 30
0.0
 11
-5733.0571390796358
 21
396260.41814009793
 31
0.0
  0
LINE
  5
65018
  8
S-OBRYS
  6
CONTINUOUS
 10
-5607.5479728192986
 20
397380.0281563343
 30
0.0
 11
-5733.0571390796358
 21
397292.31758697971
 31
0.0
  0
LINE
  5
65019
  8
S-OBRYS
  6
CONTINUOUS
 10
-5607.5479728192986
 20
397315.96727788699
 30
0.0
 11
-5733.0571390796358
 21
397228.25670853228
 31
0.0
  0
LINE
  5
6501A
  8
S-OBRYS
  6
CONTINUOUS
 10
-5607.5479728192986
 20
397244.98090594349
 30
0.0
 11
-5733.0571390796358
 21
397157.27033658879
 31
0.0
  0
LINE
  5
6501B
  8
S-OBRYS
  6
CONTINUOUS
 10
-5607.5479728192986
 20
397172.2631987902
 30
0.0
 11
-5733.0571390796358
 21
397084.55262943538
 31
0.0
  0
LINE
  5
6501C
  8
S-OBRYS
  6
CONTINUOUS
 10
-5607.5479728192986
 20
397101.27682684659
 30
0.0
 11
-5733.0571390796358
 21
397013.56625749188
 31
0.0
  0
LINE
  5
6501D
  8
S-OBRYS
  6
CONTINUOUS
 10
-5607.5479728192986
 20
397014.7080818151
 30
0.0
 11
-5733.0571390796358
 21
396926.9975124604
 31
0.0
  0
LINE
  5
6501E
  8
S-OBRYS
  6
CONTINUOUS
 10
-5607.5479728192986
 20
396929.87067199341
 30
0.0
 11
-5733.0571390796358
 21
396842.16010263871
 31
0.0
  0
LINE
  5
6501F
  8
S-OBRYS
  6
CONTINUOUS
 10
-5607.5479728192986
 20
396843.30192696193
 30
0.0
 11
-5733.0571390796358
 21
396755.59135760722
 31
0.0
  0
LINE
  5
65020
  8
S-OBRYS
  6
CONTINUOUS
 10
-5607.5479728192986
 20
396756.73318193038
 30
0.0
 11
-5733.0571390796358
 21
396669.02261257567
 31
0.0
  0
LINE
  5
65021
  8
S-OBRYS
  6
CONTINUOUS
 10
-5607.5479728192986
 20
396673.62720908987
 30
0.0
 11
-5733.0571390796358
 21
396585.91663973522
 31
0.0
  0
LINE
  5
65022
  8
S-OBRYS
  6
CONTINUOUS
 10
-5607.5479728192986
 20
396588.78985015379
 30
0.0
 11
-5733.0571390796358
 21
396501.0792807992
 31
0.0
  0
LINE
  5
65023
  8
S-OBRYS
  6
CONTINUOUS
 10
-5607.5479728192986
 20
396510.87798471423
 30
0.0
 11
-5733.0571390796358
 21
396423.16741535952
 31
0.0
  0
LINE
  5
65024
  8
S-OBRYS
  6
CONTINUOUS
 10
-5607.5479728192986
 20
396438.1602266751
 30
0.0
 11
-5733.0571390796358
 21
396350.44965732039
 31
0.0
  0
LINE
  5
65025
  8
S-OBRYS
  6
CONTINUOUS
 10
-5607.5479728192986
 20
396348.12870945258
 30
0.0
 11
-5733.0571390796358
 21
396260.41814009793
 31
0.0
  0
LINE
  5
65026
  8
S-OBRYS
  6
CONTINUOUS
 10
-2178.8557566519198
 20
397073.20610722882
 30
0.0
 11
-2178.8557566519198
 21
398136.79691644222
 31
0.0
  0
LINE
  5
65027
  8
S-OBRYS
  6
CONTINUOUS
 10
-2178.8557566519198
 20
398136.79691644222
 30
0.0
 11
-2053.3465903915821
 21
398049.08634708752
 31
0.0
  0
LINE
  5
65028
  8
S-OBRYS
  6
CONTINUOUS
 10
-2178.8557566519198
 20
398072.73603799491
 30
0.0
 11
-2053.3465903915821
 21
397985.0254686402
 31
0.0
  0
LINE
  5
65029
  8
S-OBRYS
  6
CONTINUOUS
 10
-2178.8557566519198
 20
398001.74966605142
 30
0.0
 11
-2053.3465903915821
 21
397914.03909669671
 31
0.0
  0
LINE
  5
6502A
  8
S-OBRYS
  6
CONTINUOUS
 10
-2178.8557566519198
 20
397929.03195889801
 30
0.0
 11
-2053.3465903915821
 21
397841.32138954342
 31
0.0
  0
LINE
  5
6502B
  8
S-OBRYS
  6
CONTINUOUS
 10
-2178.8557566519198
 20
397858.04558695451
 30
0.0
 11
-2053.3465903915821
 21
397770.33501759981
 31
0.0
  0
LINE
  5
6502C
  8
S-OBRYS
  6
CONTINUOUS
 10
-2178.8557566519198
 20
397771.47684192302
 30
0.0
 11
-2053.3465903915821
 21
397683.76627256832
 31
0.0
  0
LINE
  5
6502D
  8
S-OBRYS
  6
CONTINUOUS
 10
-2178.8557566519198
 20
397686.63943210128
 30
0.0
 11
-2053.3465903915821
 21
397598.92886274657
 31
0.0
  0
LINE
  5
6502E
  8
S-OBRYS
  6
CONTINUOUS
 10
-2178.8557566519198
 20
397600.07068706979
 30
0.0
 11
-2053.3465903915821
 21
397512.36011771508
 31
0.0
  0
LINE
  5
6502F
  8
S-OBRYS
  6
CONTINUOUS
 10
-2178.8557566519198
 20
397513.5019420383
 30
0.0
 11
-2053.3465903915821
 21
397425.7913726836
 31
0.0
  0
LINE
  5
65030
  8
S-OBRYS
  6
CONTINUOUS
 10
-2178.8557566519198
 20
397430.39596919779
 30
0.0
 11
-2053.3465903915821
 21
397342.68539984309
 31
0.0
  0
LINE
  5
65031
  8
S-OBRYS
  6
CONTINUOUS
 10
-2178.8557566519198
 20
397345.55861026183
 30
0.0
 11
-2053.3465903915821
 21
397257.848040907
 31
0.0
  0
LINE
  5
65032
  8
S-OBRYS
  6
CONTINUOUS
 10
-2178.8557566519198
 20
397267.64674482198
 30
0.0
 11
-2053.3465903915821
 21
397179.93617546727
 31
0.0
  0
LINE
  5
65033
  8
S-OBRYS
  6
CONTINUOUS
 10
-2178.8557566519198
 20
397194.92898678291
 30
0.0
 11
-2053.3465903915821
 21
397107.2184174282
 31
0.0
  0
LINE
  5
65034
  8
S-OBRYS
  6
CONTINUOUS
 10
-2178.8557566519198
 20
397104.89746956038
 30
0.0
 11
-2053.3465903915821
 21
397017.18690020579
 31
0.0
  0
DIMENSION
  5
65035
  8
S-OBRYS
  6
CONTINUOUS
  2
*D89
 10
-2178.8557566519198
 20
398187.7773192345
 30
0.0
 11
-1775.2843280804909
 21
398187.7773192345
 31
0.0
 70
   128
  1
MIN.400
 13
-2578.8557566519198
 23
397795.8041268714
 33
0.0
 14
-2178.8557566519198
 24
397795.8041268714
 34
0.0
  0
LINE
  5
65036
  8
S-OBRYS
  6
CONTINUOUS
 10
-5091.5433051178979
 20
395907.2826498049
 30
0.0
 11
-3027.2814306305741
 21
395907.03440076299
 31
0.0
  0
INSERT
  5
65037
  8
S-OBRYS
  6
CONTINUOUS
  2
_OPEN
 10
-2927.2814306305741
 20
395907.03440076299
 30
0.0
 41
100.0
 42
100.0
 43
100.0
  0
INSERT
  5
65038
  8
HLADINA1
  6
CONTINUOUS
  2
*U139
 10
0.0
 20
0.0
 30
0.0
  0
DIMENSION
  5
65039
  8
S-OBRYS
  6
CONTINUOUS
  2
*D83
 10
-2361.3735030657558
 20
397332.56192893122
 30
0.0
 11
-3752.531553270092
 21
396766.60762038903
 31
0.0
 70
     0
 13
-5352.3341191835389
 23
396648.09291974647
 33
0.0
 14
-2578.8557566519198
 24
397798.95412687148
 34
0.0
 50
24.999999998274468
  0
LINE
  5
6503A
  8
S-OBRYS
  6
CONTINUOUS
 10
-5249.050182346803
 20
397065.47422987391
 30
0.0
 11
-2963.5974733895282
 21
398131.19833041169
 31
0.0
  0
LINE
  5
6503B
  8
S-OBRYS
  6
CONTINUOUS
 10
-5276.7701121246573
 20
397078.97548259067
 30
0.0
 11
-2973.7197043866181
 21
398152.90552483598
 31
0.0
  0
LINE
  5
6503C
  8
S-OBRYS
  6
CONTINUOUS
 10
-5391.5433051179016
 20
396744.09449441172
 30
0.0
 11
-2837.9965858430478
 21
397934.83288506611
 31
0.0
  0
LINE
  5
6503D
  8
S-OBRYS
  6
CONTINUOUS
 10
-5058.4287390170648
 20
396656.68522545567
 30
0.0
 11
-3235.6983446967138
 21
397506.6383670792
 31
0.0
  0
DIMENSION
  5
6503E
  8
S-OBRYS
  6
CONTINUOUS
  2
*D84
 10
-5151.5433051178989
 20
397390.58574562351
 30
0.0
 11
-5091.5433051178979
 21
397390.58574562351
 31
0.0
 70
   128
  1
%%c<>
 13
-5031.5433051178989
 23
397216.68522545567
 33
0.0
 14
-5151.5433051178989
 24
397216.68522545567
 34
0.0
  0
LINE
  5
6503F
  8
S-OBRYS
  6
CONTINUOUS
 10
-5159.0433051178989
 20
397216.68522545567
 30
0.0
 11
-5024.0433051178989
 21
397216.68522545567
 31
0.0
  0
LINE
  5
65040
  8
S-OBRYS
  6
CONTINUOUS
 10
-5134.0991460733421
 20
396496.68522545567
 30
0.0
 11
-5048.9874641624592
 21
396496.68522545567
 31
0.0
  0
INSERT
  5
65041
  8
S-OBRYS
  6
CONTINUOUS
  2
_CLOSEDBLANK
 10
-5091.5433051178979
 20
395907.2826498049
 30
0.0
 41
100.0
 42
100.0
 43
100.0
 50
180.0
  0
LINE
  5
65042
  8
S-OBRYS
  6
CONTINUOUS
 10
-5259.1724133438947
 20
397087.18142429809
 30
0.0
 11
-5048.9874641624592
 21
396636.4383461916
 31
0.0
  0
LINE
  5
65043
  8
S-OBRYS
  6
CONTINUOUS
 10
-5134.0991460733421
 20
396496.68522545567
 30
0.0
 11
-5231.0697756991567
 21
396704.63941177441
 31
0.0
  0
LINE
  5
65044
  8
S-OBRYS
  6
CONTINUOUS
 10
-5352.3341191835389
 20
396648.09291974647
 30
0.0
 11
-5107.6310166836447
 21
396762.19985041651
 31
0.0
  0
LINE
  5
65045
  8
S-OBRYS
  6
CONTINUOUS
 10
-5353.9412768276161
 20
396651.53948043648
 30
0.0
 11
-5109.2381743277219
 21
396765.64641110657
 31
0.0
  0
LINE
  5
65046
  8
S-OBRYS
  6
CONTINUOUS
 10
-5357.8310571998627
 20
396676.8216880337
 30
0.0
 11
-5366.0805864438771
 21
396694.51286058838
 31
0.0
  0
LINE
  5
65047
  8
S-OBRYS
  6
CONTINUOUS
 10
-5364.319663019669
 20
396673.79600144923
 30
0.0
 11
-5264.3777565069213
 21
396720.39967782662
 31
0.0
  0
LINE
  5
65048
  8
S-OBRYS
  6
CONTINUOUS
 10
-5373.1531255092532
 20
396692.73942289018
 30
0.0
 11
-5352.3341191835389
 21
396648.09291974647
 31
0.0
  0
DIMENSION
  5
65049
  8
S-OBRYS
  6
CONTINUOUS
  2
*D85
 10
-5444.3485780704596
 20
397216.68522545567
 30
0.0
 11
-5444.3485780705232
 21
396856.68522545567
 31
0.0
 70
   128
 13
-5123.9874641624601
 23
396496.68522545567
 33
0.0
 14
-5159.0433051178989
 24
397216.68522545567
 34
0.0
 50
90.0
  0
LINE
  5
6504A
  8
S-OBRYS
  6
CONTINUOUS
 10
-5091.5433051178979
 20
396030.51814578392
 30
0.0
 11
-5091.5433051178979
 21
395857.2826498049
 31
0.0
  0
LINE
  5
6504B
  8
S-OBRYS
  6
CONTINUOUS
 10
-5353.9412768276161
 20
396651.53948043648
 30
0.0
 11
-5364.319663019669
 21
396673.79600144923
 31
0.0
  0
LINE
  5
6504C
  8
S-OBRYS
  6
CONTINUOUS
 10
-5091.5433051178979
 20
397182.4768599433
 30
0.0
 11
-5091.5433051178979
 21
397296.47247545572
 31
0.0
  0
LINE
  5
6504D
  8
S-OBRYS
  6
CONTINUOUS
 10
-5258.6666763999347
 20
396842.16581160307
 30
0.0
 11
-5301.1036094560768
 21
396822.37714473042
 31
0.0
  0
LINE
  5
6504E
  8
S-OBRYS
  6
CONTINUOUS
 10
-5366.0805864438771
 20
396694.51286058838
 30
0.0
 11
-5283.4563054455639
 21
396733.04119556752
 31
0.0
  0
LINE
  5
6504F
  8
S-OBRYS
  6
CONTINUOUS
 10
-5363.1350959707124
 20
396699.36456671311
 30
0.0
 11
-5271.2680370533089
 21
396742.20287981839
 31
0.0
  0
LINE
  5
65050
  8
S-OBRYS
  6
CONTINUOUS
 10
-5282.3862690632523
 20
396766.04600530758
 30
0.0
 11
-5315.6809139018951
 21
396837.44660158001
 31
0.0
  0
LINE
  5
65051
  8
S-OBRYS
  6
CONTINUOUS
 10
-5276.90155041666
 20
396770.47566162981
 30
0.0
 11
-5287.272704754705
 21
396792.7166738814
 31
0.0
  0
LINE
  5
65052
  8
S-OBRYS
  6
CONTINUOUS
 10
-5156.7427277167117
 20
396867.52025460498
 30
0.0
 11
-5373.1531255092532
 21
396692.73942289018
 31
0.0
  0
LINE
  5
65053
  8
S-OBRYS
  6
CONTINUOUS
 10
-5315.6809139018951
 20
396837.44660158001
 30
0.0
 11
-5407.5479728192977
 21
396794.60828847461
 31
0.0
  0
LINE
  5
65054
  8
S-OBRYS
  6
CONTINUOUS
 10
-5407.5479728192977
 20
396794.60828847461
 30
0.0
 11
-5363.1350959707124
 21
396699.36456671311
 31
0.0
  0
LINE
  5
65055
  8
S-OBRYS
  6
CONTINUOUS
 10
-5305.9307235189772
 20
396832.72892424441
 30
0.0
 11
-5287.272704754705
 21
396792.7166738814
 31
0.0
  0
LINE
  5
65056
  8
S-OBRYS
  6
CONTINUOUS
 10
-5356.3727641306832
 20
396771.54825371411
 30
0.0
 11
-5330.9106924836742
 21
396783.42141271569
 31
0.0
  0
LINE
  5
65057
  8
S-OBRYS
  6
CONTINUOUS
 10
-5334.2680056630343
 20
396724.14444620413
 30
0.0
 11
-5356.3727641306832
 21
396771.54825371411
 31
0.0
  0
LINE
  5
65058
  8
S-OBRYS
  6
CONTINUOUS
 10
-5330.9106924836742
 20
396783.42141271569
 30
0.0
 11
-5345.7388872697993
 21
396801.48185942811
 31
0.0
  0
LINE
  5
65059
  8
S-OBRYS
  6
CONTINUOUS
 10
-5361.6144433605987
 20
396816.02744502731
 30
0.0
 11
-5311.0193543512178
 21
396707.52592650289
 31
0.0
  0
LINE
  5
6505A
  8
S-OBRYS
  6
CONTINUOUS
 10
-5349.8813080503423
 20
396799.55021689489
 30
0.0
 11
-5351.151021970938
 21
396802.27312718472
 31
0.0
  0
LINE
  5
6505B
  8
S-OBRYS
  6
CONTINUOUS
 10
-5356.5340683119721
 20
396796.44798383699
 30
0.0
 11
-5357.8037822325641
 21
396799.17089412682
 31
0.0
  0
LINE
  5
6505C
  8
S-OBRYS
  6
CONTINUOUS
 10
-5357.8037822325641
 20
396799.17089412682
 30
0.0
 11
-5351.151021970938
 21
396802.27312718472
 31
0.0
  0
LINE
  5
6505D
  8
S-OBRYS
  6
CONTINUOUS
 10
-5360.6764890925151
 20
396794.51634130382
 30
0.0
 11
-5345.7388872697993
 21
396801.48185942811
 31
0.0
  0
LINE
  5
6505E
  8
S-OBRYS
  6
CONTINUOUS
 10
-5373.2113347922859
 20
396720.97313059872
 30
0.0
 11
-5379.4131055151811
 21
396718.08119741641
 31
0.0
  0
LINE
  5
6505F
  8
S-OBRYS
  6
CONTINUOUS
 10
-5403.6735047206239
 20
396770.1077914068
 30
0.0
 11
-5379.4131055151811
 21
396718.08119741641
 31
0.0
  0
LINE
  5
65060
  8
S-OBRYS
  6
CONTINUOUS
 10
-5397.4717339977287
 20
396772.99972458911
 30
0.0
 11
-5403.6735047206239
 21
396770.1077914068
 31
0.0
  0
LINE
  5
65061
  8
S-OBRYS
  6
CONTINUOUS
 10
-5356.3727641306832
 20
396771.54825371411
 30
0.0
 11
-5360.6764890925151
 21
396794.51634130382
 31
0.0
  0
LINE
  5
65062
  8
S-OBRYS
  6
CONTINUOUS
 10
-5311.7498724744546
 20
396742.33090160321
 30
0.0
 11
-5303.1383022765731
 21
396723.86332971742
 31
0.0
  0
LINE
  5
65063
  8
S-OBRYS
  6
CONTINUOUS
 10
-5334.2680056630343
 20
396724.14444620413
 30
0.0
 11
-5328.6003739235821
 21
396711.9901707159
 31
0.0
  0
LINE
  5
65064
  8
S-OBRYS
  6
CONTINUOUS
 10
-5311.7498724744546
 20
396742.33090160321
 30
0.0
 11
-5330.9106924836742
 21
396783.42141271569
 31
0.0
  0
LINE
  5
65065
  8
S-OBRYS
  6
CONTINUOUS
 10
-5312.1324942418723
 20
396829.83699106221
 30
0.0
 11
-5305.9307235189772
 21
396832.72892424441
 31
0.0
  0
LINE
  5
65066
  8
S-OBRYS
  6
CONTINUOUS
 10
-5091.5433051178979
 20
397185.43522545561
 30
0.0
 11
-5091.5433051178979
 21
396811.00960858708
 31
0.0
  0
POLYLINE
  5
65067
  8
S-OBRYS
  6
CONTINUOUS
 66
     1
 10
0.0
 20
0.0
 30
0.0
  0
VERTEX
  5
65B2D
  8
S-OBRYS
  6
CONTINUOUS
 10
-5200.2098578886098
 20
396832.41463472159
 30
0.0
  0
VERTEX
  5
65B2E
  8
S-OBRYS
  6
CONTINUOUS
 10
-5175.700034696195
 20
396779.85314926511
 30
0.0
  0
VERTEX
  5
65B2F
  8
S-OBRYS
  6
CONTINUOUS
 10
-5162.4307670564767
 20
396786.04071038362
 30
0.0
  0
SEQEND
  5
65B30
  8
S-OBRYS
  6
CONTINUOUS
  0
LINE
  5
65068
  8
S-OBRYS
  6
CONTINUOUS
 10
-5188.4747901310293
 20
396841.89229810488
 30
0.0
 11
-5162.4307670564767
 21
396786.04071038362
 31
0.0
  0
POLYLINE
  5
65069
  8
S-OBRYS
  6
CONTINUOUS
 66
     1
 10
0.0
 20
0.0
 30
0.0
  0
VERTEX
  5
65B31
  8
S-OBRYS
  6
CONTINUOUS
 10
-5227.6361306939734
 20
396810.26418899151
 30
0.0
  0
VERTEX
  5
65B32
  8
S-OBRYS
  6
CONTINUOUS
 10
-5256.4210899171148
 20
396871.99373325211
 30
0.0
  0
VERTEX
  5
65B33
  8
S-OBRYS
  6
CONTINUOUS
 10
-5269.6903575568322
 20
396865.8061721336
 30
0.0
  0
VERTEX
  5
65B34
  8
S-OBRYS
  6
CONTINUOUS
 10
-5239.3711984515539
 20
396800.78652560822
 30
0.0
  0
SEQEND
  5
65B35
  8
S-OBRYS
  6
CONTINUOUS
  0
POLYLINE
  5
6506A
  8
S-OBRYS
  6
CONTINUOUS
 66
     1
 10
0.0
 20
0.0
 30
0.0
  0
VERTEX
  5
65B36
  8
S-OBRYS
  6
CONTINUOUS
 10
-5239.3711984515539
 20
396800.78652560822
 30
0.0
  0
VERTEX
  5
65B37
  8
S-OBRYS
  6
CONTINUOUS
 10
-5219.9811858403009
 20
396759.20450937463
 30
0.0
  0
VERTEX
  5
65B38
  8
S-OBRYS
  6
CONTINUOUS
 10
-5206.7119182005854
 20
396765.3920704932
 30
0.0
  0
VERTEX
  5
65B39
  8
S-OBRYS
  6
CONTINUOUS
 10
-5227.6361306939734
 20
396810.26418899151
 30
0.0
  0
SEQEND
  5
65B3A
  8
S-OBRYS
  6
CONTINUOUS
  0
LINE
  5
6506B
  8
S-OBRYS
  6
CONTINUOUS
 10
-5274.8164567133308
 20
396749.81249033619
 30
0.0
 11
-5268.6146859904366
 21
396752.70442351839
 31
0.0
  0
LINE
  5
6506C
  8
S-OBRYS
  6
CONTINUOUS
 10
-5283.4563054455639
 20
396733.04119556752
 30
0.0
 11
-5275.2067762015504
 21
396715.35002301278
 31
0.0
  0
LINE
  5
6506D
  8
S-OBRYS
  6
CONTINUOUS
 10
-5271.2680370533089
 20
396742.20287981839
 30
0.0
 11
-5282.3862690632523
 21
396766.04600530758
 31
0.0
  0
LINE
  5
6506E
  8
S-OBRYS
  6
CONTINUOUS
 10
-5264.3777565069213
 20
396720.39967782662
 30
0.0
 11
-5253.9993703148684
 21
396698.14315681421
 31
0.0
  0
LINE
  5
6506F
  8
S-OBRYS
  6
CONTINUOUS
 10
-5268.6146859904366
 20
396752.70442351839
 30
0.0
 11
-5276.90155041666
 21
396770.47566162981
 31
0.0
  0
LINE
  5
65070
  8
S-OBRYS
  6
CONTINUOUS
 10
-5231.0048669971948
 20
396782.84486990521
 30
0.0
 11
-5273.4418000533369
 21
396763.05620303238
 31
0.0
  0
LINE
  5
65071
  8
S-OBRYS
  6
CONTINUOUS
 10
-5182.6189897440236
 20
396794.6908962478
 30
0.0
 11
-5213.630873248414
 21
396780.22981747589
 31
0.0
  0
LINE
  5
65072
  8
S-OBRYS
  6
CONTINUOUS
 10
-5218.4902513648958
 20
396871.61706504121
 30
0.0
 11
-5249.5021348692862
 21
396857.15598626941
 31
0.0
  0
LINE
  5
65073
  8
S-OBRYS
  6
CONTINUOUS
 10
-5212.1399387730098
 20
396892.64237314247
 30
0.0
 11
-5188.4747901310293
 21
396841.89229810488
 31
0.0
  0
POLYLINE
  5
65074
  8
S-OBRYS
  6
CONTINUOUS
 66
     1
 10
0.0
 20
0.0
 30
0.0
  0
VERTEX
  5
65B3B
  8
S-OBRYS
  6
CONTINUOUS
 10
-5212.1399387730098
 20
396892.64237314247
 30
0.0
  0
VERTEX
  5
65B3C
  8
S-OBRYS
  6
CONTINUOUS
 10
-5225.4092064127253
 20
396886.45481202402
 30
0.0
  0
VERTEX
  5
65B3D
  8
S-OBRYS
  6
CONTINUOUS
 10
-5200.2098578886098
 20
396832.41463472159
 30
0.0
  0
SEQEND
  5
65B3E
  8
S-OBRYS
  6
CONTINUOUS
  0
LINE
  5
65075
  8
S-OBRYS
  6
CONTINUOUS
 10
-5174.1648191665117
 20
396904.88205028878
 30
0.0
 11
-5210.045415481236
 21
396888.15065344807
 31
0.0
  0
LINE
  5
65076
  8
S-OBRYS
  6
CONTINUOUS
 10
-5128.6446940335218
 20
396807.26382691867
 30
0.0
 11
-5164.5252903482506
 21
396790.53243007802
 31
0.0
  0
LINE
  5
65077
  8
S-OBRYS
  6
CONTINUOUS
 10
-5151.5433051178989
 20
397216.68522545567
 30
0.0
 11
-5151.5433051178989
 21
397137.3697017043
 31
0.0
  0
LINE
  5
65078
  8
S-OBRYS
  6
CONTINUOUS
 10
-5091.5433051178979
 20
397216.68522545567
 30
0.0
 11
-5091.5433051178979
 21
397150.79551429598
 31
0.0
  0
LINE
  5
65079
  8
S-OBRYS
  6
CONTINUOUS
 10
-4985.4879536881999
 20
396675.31452202972
 30
0.0
 11
-4991.3801952676549
 21
396687.95047487417
 31
0.0
  0
LINE
  5
6507A
  8
S-OBRYS
  6
CONTINUOUS
 10
-4971.5302600991381
 20
396496.68522545567
 30
0.0
 11
-4675.0993208954196
 21
396496.68522545567
 31
0.0
  0
ARC
  5
6507B
  8
S-OBRYS
  6
CONTINUOUS
 10
-4936.119135535766
 20
396622.17492660059
 30
0.0
 40
6.3377718662374596
 50
265.03374588909259
 51
93.570080793390304
  0
LINE
  5
6507C
  8
S-OBRYS
  6
CONTINUOUS
 10
-5048.9874641624592
 20
396636.4383461916
 30
0.0
 11
-5048.9874641624592
 21
396496.68522545567
 31
0.0
  0
LINE
  5
6507D
  8
S-OBRYS
  6
CONTINUOUS
 10
-5004.7307797764006
 20
396630.57921649888
 30
0.0
 11
-4985.2819185246299
 21
396639.64836944302
 31
0.0
  0
ARC
  5
6507E
  8
S-OBRYS
  6
CONTINUOUS
 10
-4992.2583018828227
 20
396622.17492660059
 30
0.0
 40
6.3377718662374596
 50
86.429919206609682
 51
274.96625411090741
  0
POLYLINE
  5
6507F
  8
S-OBRYS
  6
CONTINUOUS
 66
     1
 10
0.0
 20
0.0
 30
0.0
  0
VERTEX
  5
65B3F
  8
S-OBRYS
  6
CONTINUOUS
 10
-4996.8452572577189
 20
396586.5444233513
 30
0.0
  0
VERTEX
  5
65B40
  8
S-OBRYS
  6
CONTINUOUS
 10
-4991.1247244862388
 20
396574.27670123387
 30
0.0
  0
VERTEX
  5
65B41
  8
S-OBRYS
  6
CONTINUOUS
 10
-4950.8974933295021
 20
396593.03496718861
 30
0.0
  0
VERTEX
  5
65B42
  8
S-OBRYS
  6
CONTINUOUS
 10
-4956.6180261009858
 20
396605.30268930621
 30
0.0
  0
SEQEND
  5
65B43
  8
S-OBRYS
  6
CONTINUOUS
  0
LINE
  5
65080
  8
S-OBRYS
  6
CONTINUOUS
 10
-4964.6326111879316
 20
396569.97710170841
 30
0.0
 11
-5014.5963188848691
 21
396677.12461863877
 31
0.0
  0
POLYLINE
  5
65081
  8
S-OBRYS
  6
CONTINUOUS
 66
     1
 10
0.0
 20
0.0
 30
0.0
  0
VERTEX
  5
65B44
  8
S-OBRYS
  6
CONTINUOUS
 10
-4977.4563198830947
 20
396649.99055453349
 30
0.0
  0
VERTEX
  5
65B45
  8
S-OBRYS
  6
CONTINUOUS
 10
-4983.1768526545793
 20
396662.25827665091
 30
0.0
  0
VERTEX
  5
65B46
  8
S-OBRYS
  6
CONTINUOUS
 10
-5023.4040838113096
 20
396643.50001069618
 30
0.0
  0
VERTEX
  5
65B47
  8
S-OBRYS
  6
CONTINUOUS
 10
-5017.6835510398296
 20
396631.23228857858
 30
0.0
  0
SEQEND
  5
65B48
  8
S-OBRYS
  6
CONTINUOUS
  0
LINE
  5
65082
  8
S-OBRYS
  6
CONTINUOUS
 10
-5031.9202009226283
 20
396653.66280955903
 30
0.0
 11
-4985.4879536881999
 21
396675.31452202972
 31
0.0
  0
LINE
  5
65083
  8
S-OBRYS
  6
CONTINUOUS
 10
-4998.6708535250264
 20
396669.16723487922
 30
0.0
 11
-4993.257244452554
 21
396657.55771275831
 31
0.0
  0
ARC
  5
65084
  8
S-OBRYS
  6
CONTINUOUS
 10
-5003.7496859245657
 20
396590.01788390311
 30
0.0
 40
7.728910881886959
 50
333.29407464352568
 51
76.705925358430292
  0
POLYLINE
  5
65085
  8
S-OBRYS
  6
CONTINUOUS
 66
     1
 10
0.0
 20
0.0
 30
0.0
  0
VERTEX
  5
65B49
  8
S-OBRYS
  6
CONTINUOUS
 10
-5012.5563784179358
 20
396620.23703140841
 30
0.0
  0
VERTEX
  5
65B4A
  8
S-OBRYS
  6
CONTINUOUS
 10
-5001.9724298796127
 20
396597.53968052159
 30
0.0
  0
SEQEND
  5
65B4B
  8
S-OBRYS
  6
CONTINUOUS
  0
LINE
  5
65086
  8
S-OBRYS
  6
CONTINUOUS
 10
-5031.9202009226283
 20
396653.66280955903
 30
0.0
 11
-5037.8124425020796
 21
396666.29876240331
 31
0.0
  0
ARC
  5
65087
  8
S-OBRYS
  6
CONTINUOUS
 10
-5019.4608070847826
 20
396623.71049196011
 30
0.0
 40
7.728910881886959
 50
333.29407464352568
 51
76.705925358430292
  0
LINE
  5
65088
  8
S-OBRYS
  6
CONTINUOUS
 10
-5018.7373010858064
 20
396659.81009670958
 30
0.0
 11
-5013.3236920133349
 21
396648.20057458873
 31
0.0
  0
LINE
  5
65089
  8
S-OBRYS
  6
CONTINUOUS
 10
-4989.0196586161828
 20
396596.88660844183
 30
0.0
 11
-4969.570797364413
 21
396605.95576138591
 31
0.0
  0
POLYLINE
  5
6508A
  8
S-OBRYS
  6
CONTINUOUS
 66
     1
 10
0.0
 20
0.0
 30
0.0
  0
VERTEX
  5
65B4C
  8
S-OBRYS
  6
CONTINUOUS
 10
-4967.4352959066573
 20
396628.50039926532
 30
0.0
  0
VERTEX
  5
65B4D
  8
S-OBRYS
  6
CONTINUOUS
 10
-4972.3291472612036
 20
396638.99529736309
 30
0.0
  0
SEQEND
  5
65B4E
  8
S-OBRYS
  6
CONTINUOUS
  0
ARC
  5
6508B
  8
S-OBRYS
  6
CONTINUOUS
 10
-4970.5518912162479
 20
396646.51709398167
 30
0.0
 40
7.728910881886959
 50
153.29407464352559
 51
256.70592535843031
  0
POLYLINE
  5
6508C
  8
S-OBRYS
  6
CONTINUOUS
 66
     1
 10
0.0
 20
0.0
 30
0.0
  0
VERTEX
  5
65B4F
  8
S-OBRYS
  6
CONTINUOUS
 10
-4991.7096473606653
 20
396615.86094762973
 30
0.0
  0
VERTEX
  5
65B50
  8
S-OBRYS
  6
CONTINUOUS
 10
-4936.6677900579234
 20
396615.86094762973
 30
0.0
  0
SEQEND
  5
65B51
  8
S-OBRYS
  6
CONTINUOUS
  0
POLYLINE
  5
6508D
  8
S-OBRYS
  6
CONTINUOUS
 66
     1
 10
0.0
 20
0.0
 30
0.0
  0
VERTEX
  5
65B52
  8
S-OBRYS
  6
CONTINUOUS
 10
-4936.5137844877472
 20
396628.50039926532
 30
0.0
  0
VERTEX
  5
65B53
  8
S-OBRYS
  6
CONTINUOUS
 10
-4991.8636529308424
 20
396628.50039926532
 30
0.0
  0
SEQEND
  5
65B54
  8
S-OBRYS
  6
CONTINUOUS
  0
ARC
  5
6508E
  8
S-OBRYS
  6
CONTINUOUS
 10
-4954.840770056031
 20
396612.82448592468
 30
0.0
 40
7.728910881886959
 50
156.866766361039
 51
256.70592535843031
  0
LINE
  5
6508F
  8
S-OBRYS
  6
CONTINUOUS
 10
-4877.4264297591799
 20
397222.00498531619
 30
0.0
 11
-4920.2981666199848
 21
397313.94372170838
 31
0.0
  0
LINE
  5
65090
  8
S-OBRYS
  6
CONTINUOUS
 10
-5031.5433051178989
 20
397216.68522545567
 30
0.0
 11
-5031.5433051178989
 21
397193.32662068278
 31
0.0
  0
LINE
  5
65091
  8
S-OBRYS
  6
CONTINUOUS
 10
-4507.6528526482289
 20
397394.43323610642
 30
0.0
 11
-4550.5245895090302
 21
397486.3719724986
 31
0.0
  0
LINE
  5
65092
  8
S-OBRYS
  6
CONTINUOUS
 10
-2739.6678445050088
 20
397723.9662187816
 30
0.0
 11
-2578.8557566519198
 21
397798.95412687148
 31
0.0
  0
POLYLINE
  5
65093
  8
S-OBRYS
  6
CONTINUOUS
 66
     1
 10
0.0
 20
0.0
 30
0.0
 70
     1
  0
VERTEX
  5
65B55
  8
S-OBRYS
  6
CONTINUOUS
 10
-3538.4963040865409
 20
397863.11860299337
 30
0.0
  0
VERTEX
  5
65B56
  8
S-OBRYS
  6
CONTINUOUS
 10
-3515.6344698677931
 20
397873.77925136889
 30
0.0
  0
VERTEX
  5
65B57
  8
S-OBRYS
  6
CONTINUOUS
 10
-3472.8914679168452
 20
397782.11658788181
 30
0.0
  0
VERTEX
  5
65B58
  8
S-OBRYS
  6
CONTINUOUS
 10
-3495.7533021355962
 20
397771.45593950618
 30
0.0
  0
SEQEND
  5
65B59
  8
S-OBRYS
  6
CONTINUOUS
  0
LINE
  5
65094
  8
S-OBRYS
  6
CONTINUOUS
 10
-3133.4558676688789
 20
398568.4473596703
 30
0.0
 11
-2739.6678445050061
 21
397723.9662187816
 31
0.0
  0
LINE
  5
65095
  8
S-OBRYS
  6
CONTINUOUS
 10
-2771.5283583384012
 20
397667.91549045558
 30
0.0
 11
-2993.4029457522629
 21
398143.72707864991
 31
0.0
  0
LINE
  5
65096
  8
S-OBRYS
  6
CONTINUOUS
 10
-3235.6983446967138
 20
397497.13650927739
 30
0.0
 11
-3117.388265539088
 21
397497.13650927739
 31
0.0
  0
LINE
  5
65097
  8
S-OBRYS
  6
CONTINUOUS
 10
-3117.3882655390839
 20
397524.22528146382
 30
0.0
 11
-3235.6983446967101
 21
397524.22528146382
 31
0.0
  0
LINE
  5
65098
  8
S-OBRYS
  6
CONTINUOUS
 10
-3253.4569889455961
 20
397562.30881695438
 30
0.0
 11
-3125.298742284755
 21
397622.06998882798
 31
0.0
  0
LINE
  5
65099
  8
S-OBRYS
  6
CONTINUOUS
 10
-3226.5433051178989
 20
396496.68522545567
 30
0.0
 11
-3126.5433051178989
 21
396496.68522545567
 31
0.0
  0
LINE
  5
6509A
  8
S-OBRYS
  6
CONTINUOUS
 10
-3226.5433051178989
 20
396521.24315643031
 30
0.0
 11
-3126.5433051178989
 21
396521.24315643031
 31
0.0
  0
LINE
  5
6509B
  8
S-OBRYS
  6
CONTINUOUS
 10
-3079.6730059308611
 20
397524.22528146382
 30
0.0
 11
-3193.7799366008512
 21
397768.92838396359
 31
0.0
  0
LINE
  5
6509C
  8
S-OBRYS
  6
CONTINUOUS
 10
-3196.5433051178989
 20
397497.13650927739
 30
0.0
 11
-3196.5433051179029
 21
396521.24315643031
 31
0.0
  0
INSERT
  5
6509D
  8
S-OBRYS
  6
CONTINUOUS
  2
_CLOSEDBLANK
 10
-2927.2814306305741
 20
395907.03440076299
 30
0.0
 41
100.0
 42
100.0
 43
100.0
  0
LINE
  5
6509E
  8
S-OBRYS
  6
CONTINUOUS
 10
-3226.5433051178989
 20
396496.68522545567
 30
0.0
 11
-3226.5433051178989
 21
396521.24315643031
 31
0.0
  0
POLYLINE
  5
6509F
  8
S-OBRYS
  6
CONTINUOUS
 66
     1
 10
0.0
 20
0.0
 30
0.0
 70
     1
  0
VERTEX
  5
65B5A
  8
S-OBRYS
  6
CONTINUOUS
 10
-4082.2809763085311
 20
397609.54764594889
 30
0.0
  0
VERTEX
  5
65B5B
  8
S-OBRYS
  6
CONTINUOUS
 10
-4059.4191420897841
 20
397620.20829432458
 30
0.0
  0
VERTEX
  5
65B5C
  8
S-OBRYS
  6
CONTINUOUS
 10
-4016.6761401388362
 20
397528.54563083738
 30
0.0
  0
VERTEX
  5
65B5D
  8
S-OBRYS
  6
CONTINUOUS
 10
-4039.5379743575859
 20
397517.88498246181
 30
0.0
  0
SEQEND
  5
65B5E
  8
S-OBRYS
  6
CONTINUOUS
  0
LINE
  5
650A0
  8
S-OBRYS
  6
CONTINUOUS
 10
-3235.6983446967138
 20
397524.22528146382
 30
0.0
 11
-3235.6983446967138
 21
397497.13650927739
 31
0.0
  0
LINE
  5
650A1
  8
S-OBRYS
  6
CONTINUOUS
 10
-3235.6983446967138
 20
397524.22528146382
 30
0.0
 11
-3253.4569889455961
 21
397562.30881695438
 31
0.0
  0
LINE
  5
650A2
  8
S-OBRYS
  6
CONTINUOUS
 10
-3164.4883005038541
 20
396521.24315643031
 30
0.0
 11
-3164.4883005038541
 21
397497.13650927739
 31
0.0
  0
LINE
  5
650A3
  8
S-OBRYS
  6
CONTINUOUS
 10
-3156.5433051178989
 20
397497.13650927739
 30
0.0
 11
-3156.5433051178989
 21
396521.24315643031
 31
0.0
  0
LINE
  5
650A4
  8
S-OBRYS
  6
CONTINUOUS
 10
-3126.5433051178989
 20
396496.68522545567
 30
0.0
 11
-3126.5433051178989
 21
396521.24315643031
 31
0.0
  0
LINE
  5
650A5
  8
S-OBRYS
  6
CONTINUOUS
 10
-2884.4542981221998
 20
397507.8316806911
 30
0.0
 11
-2954.880701932449
 21
397658.86159104877
 31
0.0
  0
LINE
  5
650A6
  8
S-OBRYS
  6
CONTINUOUS
 10
-3111.3937784771451
 20
397509.43364230281
 30
0.0
 11
-2739.8075857921181
 21
397682.70712961652
 31
0.0
  0
LINE
  5
650A7
  8
S-OBRYS
  6
CONTINUOUS
 10
-3117.3882655390839
 20
397524.22528146382
 30
0.0
 11
-3117.388265539088
 21
397497.13650927739
 31
0.0
  0
LINE
  5
650A8
  8
S-OBRYS
  6
CONTINUOUS
 10
-3117.3882655390839
 20
397524.22528146382
 30
0.0
 11
-3086.4091849488359
 21
397538.67106398562
 31
0.0
  0
LINE
  5
650A9
  8
S-OBRYS
  6
CONTINUOUS
 10
-3086.4091849488359
 20
397538.67106398562
 30
0.0
 11
-3125.298742284755
 21
397622.06998882798
 31
0.0
  0
LINE
  5
650AA
  8
S-OBRYS
  6
CONTINUOUS
 10
-3216.6383325649049
 20
398531.54167767172
 30
0.0
 11
-3183.7845388698661
 21
398546.86165327119
 31
0.0
  0
LINE
  5
650AB
  8
S-OBRYS
  6
CONTINUOUS
 10
-3190.376054191242
 20
398156.20220082998
 30
0.0
 11
-3142.9741012815171
 21
398178.3060944833
 31
0.0
  0
LINE
  5
650AC
  8
S-OBRYS
  6
CONTINUOUS
 10
-3157.1113823549131
 20
398171.71377205331
 30
0.0
 11
-3304.480077358196
 21
398487.74695835431
 31
0.0
  0
LINE
  5
650AD
  8
S-OBRYS
  6
CONTINUOUS
 10
-3131.789176224021
 20
398225.8243649854
 30
0.0
 11
-3268.9020626375818
 21
398519.86389879038
 31
0.0
  0
LINE
  5
650AE
  8
S-OBRYS
  6
CONTINUOUS
 10
-3245.2010861827221
 20
398530.91584561701
 30
0.0
 11
-3084.029412859054
 21
398185.28207678429
 31
0.0
  0
LINE
  5
650AF
  8
S-OBRYS
  6
CONTINUOUS
 10
-3107.6192232938811
 20
398513.04049700539
 30
0.0
 11
-3573.72890136555
 21
398295.6899845805
 31
0.0
  0
LINE
  5
650B0
  8
S-OBRYS
  6
CONTINUOUS
 10
-3082.094892086116
 20
398458.30339208897
 30
0.0
 11
-3253.4831653959518
 21
398378.3837277267
 31
0.0
  0
LINE
  5
650B1
  8
S-OBRYS
  6
CONTINUOUS
 10
-3221.5001097278619
 20
398541.9677924437
 30
0.0
 11
-3068.1843666895402
 21
398213.18112047488
 31
0.0
  0
LINE
  5
650B2
  8
S-OBRYS
  6
CONTINUOUS
 10
-3201.480896649417
 20
398130.51355043118
 30
0.0
 11
-3010.8197391538852
 21
398219.42030828411
 31
0.0
  0
LINE
  5
650B3
  8
S-OBRYS
  6
CONTINUOUS
 10
-3190.231819849625
 20
398106.38982738467
 30
0.0
 11
-2999.5706623540932
 21
398195.29658523749
 31
0.0
  0
LINE
  5
650B4
  8
S-OBRYS
  6
CONTINUOUS
 10
-3479.779742126259
 20
398441.03036525898
 30
0.0
 11
-3453.2572089540922
 21
398384.15260932181
 31
0.0
  0
POLYLINE
  5
650B5
  8
S-OBRYS
  6
CONTINUOUS
 66
     1
 10
0.0
 20
0.0
 30
0.0
 70
     1
  0
VERTEX
  5
65B5F
  8
S-OBRYS
  6
CONTINUOUS
 10
-3269.89882478349
 20
398347.87718575192
 30
0.0
  0
VERTEX
  5
65B60
  8
S-OBRYS
  6
CONTINUOUS
 10
-3257.8104401268251
 20
398353.51409209211
 30
0.0
  0
VERTEX
  5
65B61
  8
S-OBRYS
  6
CONTINUOUS
 10
-3326.3645925724491
 20
398500.52894644142
 30
0.0
  0
VERTEX
  5
65B62
  8
S-OBRYS
  6
CONTINUOUS
 10
-3338.4529772291139
 20
398494.89204010129
 30
0.0
  0
SEQEND
  5
65B63
  8
S-OBRYS
  6
CONTINUOUS
  0
LINE
  5
650B6
  8
S-OBRYS
  6
CONTINUOUS
 10
-3352.5138802776969
 20
398473.4934418677
 30
0.0
 11
-3295.3292763114769
 21
398350.86066291551
 31
0.0
  0
LINE
  5
650B7
  8
S-OBRYS
  6
CONTINUOUS
 10
-3399.9003271742399
 20
398478.27874818002
 30
0.0
 11
-3373.3777940020768
 21
398421.40099224279
 31
0.0
  0
LINE
  5
650B8
  8
S-OBRYS
  6
CONTINUOUS
 10
-3453.2572089540922
 20
398384.15260932181
 30
0.0
 11
-3431.3118594519592
 21
398371.1696726036
 31
0.0
  0
LINE
  5
650B9
  8
S-OBRYS
  6
CONTINUOUS
 10
-3453.2572089540922
 20
398384.15260932181
 30
0.0
 11
-3373.3777940020768
 21
398421.40099224279
 31
0.0
  0
LINE
  5
650BA
  8
S-OBRYS
  6
CONTINUOUS
 10
-3295.3292763114769
 20
398350.86066291551
 30
0.0
 11
-3490.5749870274421
 21
398259.81609278679
 31
0.0
  0
LINE
  5
650BB
  8
S-OBRYS
  6
CONTINUOUS
 10
-3559.8345038314692
 20
398350.9324530646
 30
0.0
 11
-3522.4795687802039
 21
398270.82453633181
 31
0.0
  0
LINE
  5
650BC
  8
S-OBRYS
  6
CONTINUOUS
 10
-3448.2719834515078
 20
398279.5423073172
 30
0.0
 11
-3505.4565874177242
 21
398402.17508626939
 31
0.0
  0
LINE
  5
650BD
  8
S-OBRYS
  6
CONTINUOUS
 10
-3490.5749870274421
 20
398259.81609278679
 30
0.0
 11
-3522.4795687802039
 21
398270.82453633181
 31
0.0
  0
LINE
  5
650BE
  8
S-OBRYS
  6
CONTINUOUS
 10
-3469.4833504894918
 20
398418.94968213758
 30
0.0
 11
-3547.7595909936581
 21
398382.44887173898
 31
0.0
  0
LINE
  5
650BF
  8
S-OBRYS
  6
CONTINUOUS
 10
-3547.7595909936581
 20
398382.44887173898
 30
0.0
 11
-3559.8345038314692
 21
398350.9324530646
 31
0.0
  0
LINE
  5
650C0
  8
S-OBRYS
  6
CONTINUOUS
 10
-3431.3118594519592
 20
398371.1696726036
 30
0.0
 11
-3377.5384862239698
 21
398396.24460834468
 31
0.0
  0
LINE
  5
650C1
  8
S-OBRYS
  6
CONTINUOUS
 10
-3373.3777940020768
 20
398421.40099224279
 30
0.0
 11
-3377.5384862239698
 21
398396.24460834468
 31
0.0
  0
LINE
  5
650C2
  8
S-OBRYS
  6
CONTINUOUS
 10
-3182.5201239058961
 20
398139.35510396608
 30
0.0
 11
-3190.376054191242
 21
398156.20220082998
 31
0.0
  0
LINE
  5
650C3
  8
S-OBRYS
  6
CONTINUOUS
 10
-3201.480896649417
 20
398130.51355043118
 30
0.0
 11
-3190.231819849625
 21
398106.38982738467
 31
0.0
  0
LINE
  5
650C4
  8
S-OBRYS
  6
CONTINUOUS
 10
-3276.3974314021261
 20
398393.3740235134
 30
0.0
 11
-3263.3174116562082
 21
398399.47333688982
 31
0.0
  0
LINE
  5
650C5
  8
S-OBRYS
  6
CONTINUOUS
 10
-3308.2314933470739
 20
398378.52955663833
 30
0.0
 11
-3288.4858160587901
 21
398387.73711717332
 31
0.0
  0
LINE
  5
650C6
  8
S-OBRYS
  6
CONTINUOUS
 10
-3479.779742126259
 20
398441.03036525898
 30
0.0
 11
-3399.9003271742399
 21
398478.27874818002
 31
0.0
  0
LINE
  5
650C7
  8
S-OBRYS
  6
CONTINUOUS
 10
-3339.6116632420958
 20
398445.82454814488
 30
0.0
 11
-3319.8659859538102
 21
398455.03210868
 31
0.0
  0
LINE
  5
650C8
  8
S-OBRYS
  6
CONTINUOUS
 10
-3352.5138802776969
 20
398473.4934418677
 30
0.0
 11
-3389.6039355374778
 21
398456.19806505868
 31
0.0
  0
LINE
  5
650C9
  8
S-OBRYS
  6
CONTINUOUS
 10
-3304.480077358196
 20
398487.74695835431
 30
0.0
 11
-3262.9550146025458
 21
398507.11041312269
 31
0.0
  0
LINE
  5
650CA
  8
S-OBRYS
  6
CONTINUOUS
 10
-3307.777601297149
 20
398460.66901502007
 30
0.0
 11
-3294.6975815512301
 21
398466.76832839643
 31
0.0
  0
LINE
  5
650CB
  8
S-OBRYS
  6
CONTINUOUS
 10
-3268.9020626375818
 20
398519.86389879038
 30
0.0
 11
-3221.5001097278582
 21
398541.9677924437
 31
0.0
  0
LINE
  5
650CC
  8
S-OBRYS
  6
CONTINUOUS
 10
-2781.9957554685388
 20
397814.73871677357
 30
0.0
 11
-2621.183667615453
 21
397889.72662486351
 31
0.0
  0
LINE
  5
650CD
  8
S-OBRYS
  6
CONTINUOUS
 10
-2578.8557566519198
 20
397798.95412687148
 30
0.0
 11
-2972.6437798157899
 21
398643.43526776013
 31
0.0
  0
LINE
  5
650CE
  8
S-OBRYS
  6
CONTINUOUS
 10
-3103.4052864198379
 20
398414.75128807413
 30
0.0
 11
-3069.2196369019839
 21
398430.69231824332
 31
0.0
  0
LINE
  5
650CF
  8
S-OBRYS
  6
CONTINUOUS
 10
-3035.3305729944991
 20
398228.50109607441
 30
0.0
 11
-3183.7845388698661
 21
398546.86165327119
 31
0.0
  0
LINE
  5
650D0
  8
S-OBRYS
  6
CONTINUOUS
 10
-3089.7286323748708
 20
398385.42160882527
 30
0.0
 11
-3142.8324508330661
 21
398499.30311501439
 31
0.0
  0
LINE
  5
650D1
  8
S-OBRYS
  6
CONTINUOUS
 10
-3105.1504468064418
 20
398378.23029865313
 30
0.0
 11
-3089.7286323748708
 21
398385.42160882527
 31
0.0
  0
LINE
  5
650D2
  8
S-OBRYS
  6
CONTINUOUS
 10
-3068.1843666895402
 20
398213.18112047488
 30
0.0
 11
-3036.5830752751858
 21
398227.91704466898
 31
0.0
  0
LINE
  5
650D3
  8
S-OBRYS
  6
CONTINUOUS
 10
-3142.9741012815171
 20
398178.3060944833
 30
0.0
 11
-3131.789176224021
 21
398225.8243649854
 31
0.0
  0
LINE
  5
650D4
  8
S-OBRYS
  6
CONTINUOUS
 10
-3130.0691699901658
 20
398079.99857167661
 30
0.0
 11
-3150.9230293631808
 21
398124.7198174214
 31
0.0
  0
LINE
  5
650D5
  8
S-OBRYS
  6
CONTINUOUS
 10
-3146.5462080203029
 20
398072.31520265952
 30
0.0
 11
-3167.4000673933192
 21
398117.03644840419
 31
0.0
  0
LINE
  5
650D6
  8
S-OBRYS
  6
CONTINUOUS
 10
-2999.5706623540932
 20
398195.29658523749
 30
0.0
 11
-3010.8197391538852
 21
398219.42030828411
 31
0.0
  0
LINE
  5
650D7
  8
S-OBRYS
  6
CONTINUOUS
 10
-3001.5572284157752
 20
398139.9246741971
 30
0.0
 11
-3022.4110877887911
 21
398184.64591994189
 31
0.0
  0
LINE
  5
650D8
  8
S-OBRYS
  6
CONTINUOUS
 10
-3018.0342664459172
 20
398132.24130517989
 30
0.0
 11
-3038.8881258189322
 21
398176.96255092463
 31
0.0
  0
LINE
  5
650D9
  8
S-OBRYS
  6
CONTINUOUS
 10
-2973.7197043866181
 20
398152.90552483598
 30
0.0
 11
-2963.5974733895282
 21
398131.19833041169
 31
0.0
  0
LINE
  5
650DA
  8
S-OBRYS
  6
CONTINUOUS
 10
-3036.5830752751858
 20
398227.91704466898
 30
0.0
 11
-3035.3305729944991
 21
398228.50109607441
 31
0.0
  0
LINE
  5
650DB
  8
S-OBRYS
  6
CONTINUOUS
 10
-3036.5830752751858
 20
398227.91704466898
 30
0.0
 11
-3028.7271449898358
 21
398211.06994780508
 31
0.0
  0
ARC
  5
650DC
  8
S-OBRYS
  6
CONTINUOUS
 10
-2800.2947870429271
 20
397845.19424207002
 30
0.0
 40
40.930215194313092
 50
109.7945424390107
 51
143.14825172397039
  0
LINE
  5
650DD
  8
S-OBRYS
  6
CONTINUOUS
 10
-2898.072493733398
 20
398009.19018358277
 30
0.0
 11
-2819.6516397415539
 21
397841.01611948502
 31
0.0
  0
LINE
  5
650DE
  8
S-OBRYS
  6
CONTINUOUS
 10
-2842.19867939506
 20
397819.46848303633
 30
0.0
 11
-2824.4885349945148
 21
397827.72685899719
 31
0.0
  0
ARC
  5
650DF
  8
S-OBRYS
  6
CONTINUOUS
 10
-2828.7147176119211
 20
397836.7899368676
 30
0.0
 40
10.0
 50
294.99999999908221
 51
24.999999998250981
  0
ARC
  5
650E0
  8
S-OBRYS
  6
CONTINUOUS
 10
-2882.4295210673231
 20
398021.33274759952
 30
0.0
 40
40.930215194313092
 50
266.85174827458292
 51
300.20545756222202
  0
ARC
  5
650E1
  8
S-OBRYS
  6
CONTINUOUS
 10
-2907.1355716037651
 20
398004.96400096529
 30
0.0
 40
10.0
 50
24.999999998250981
 51
114.99999999908221
  0
LINE
  5
650E2
  8
S-OBRYS
  6
CONTINUOUS
 10
-2929.071898621718
 20
398005.76870287472
 30
0.0
 11
-2911.3617542211719
 21
398014.0270788357
 31
0.0
  0
LINE
  5
650E3
  8
S-OBRYS
  6
CONTINUOUS
 10
-3090.228686266259
 20
398475.74636999832
 30
0.0
 11
-2929.4165984131691
 21
398550.73427808809
 31
0.0
  0
LINE
  5
650E4
  8
S-OBRYS
  6
CONTINUOUS
 10
-2972.6437798157899
 20
398643.43526776013
 30
0.0
 11
-3133.4558676688789
 21
398568.4473596703
 31
0.0
  0
LINE
  5
650E5
  8
S-OBRYS
  6
CONTINUOUS
 10
-3115.992439090569
 20
398401.48102613859
 30
0.0
 11
-3100.570624658998
 21
398408.67233631067
 31
0.0
  0
LINE
  5
650E6
  8
S-OBRYS
  6
CONTINUOUS
 10
-3129.1557967880981
 20
398469.97343576548
 30
0.0
 11
-3094.9701472702441
 21
398485.91446593468
 31
0.0
  0
LINE
  5
650E7
  8
S-OBRYS
  6
CONTINUOUS
 10
-3479.779742126259
 20
398441.03036525898
 30
0.0
 11
-3399.9003271742399
 21
398478.27874818002
 31
0.0
  0
DIMENSION
  5
650E8
  8
S-OBRYS
  6
CONTINUOUS
  2
*D86
 10
-4675.0993208954196
 20
396496.68522545567
 30
0.0
 11
-4565.0739640788524
 21
396797.5338015522
 31
0.0
 70
     2
 13
-5391.5433051179016
 23
396744.09449441172
 33
0.0
 14
-2837.9965858430478
 24
397934.83288506611
 34
0.0
 15
-4971.5302600991381
 25
396496.68522545567
 35
0.0
 16
-4621.0098103084019
 26
396687.26895491901
 36
0.0
1001
ACAD
1000
DSTYLE
1002
{
1070
   271
1070
     0
1002
}
  0
DIMENSION
  5
650E9
  8
S-OBRYS
  6
CONTINUOUS
  2
*D87
 10
-2264.0634469169022
 20
397904.5502648963
 30
0.0
 11
-2407.3994937595271
 21
398389.40052804531
 31
0.0
 70
     1
  1
900
 13
-3439.8400346502499
 23
398459.65455671953
 33
0.0
 14
-3017.2217729094991
 24
397553.34676968277
 34
0.0
  0
LINE
  5
650EA
  8
S-OBRYS
  6
CONTINUOUS
 10
-2925.6006821346418
 20
397596.0703859597
 30
0.0
 11
-2925.6006821346418
 21
395907.10550146061
 31
0.0
  0
VIEWPORT
  5
1FAB5
 67
     1
  8
0
  6
ČERCHOVANÁ
 10
12.669026204836801
 20
9.4585013259736659
 30
0.0
 40
41.707206501782828
 41
24.2248555085413
 68
     1
 69
     1
1001
ACAD
1000
MVIEW
1002
{
1070
    16
1010
0.0
1020
0.0
1030
0.0
1010
0.0
1020
0.0
1030
1.0
1040
0.0
1040
24.2248555085413
1040
12.669026204836801
1040
9.4585013259736659
1040
50.0
1040
0.0
1040
0.0
1070
     0
1070
   100
1070
     1
1070
     1
1070
     0
1070
     0
1070
     0
1070
     0
1040
0.0
1040
0.0
1040
0.0
1040
10.0
1040
10.0
1040
10.0
1040
10.0
1070
     0
1002
{
1002
}
1002
}
  0
VIEWPORT
  5
1FAB7
 67
     1
  8
2-VZT
  6
ČERCHOVANÁ
 10
5.24999976158142
 20
3.99999976158142
 30
0.0
 40
8.3999996185302717
 41
6.3999996185302717
 68
     2
 69
     2
1001
ACAD
1000
MVIEW
1002
{
1070
    16
1010
0.0
1020
0.0
1030
0.0
1010
0.0
1020
0.0
1030
1.0
1040
0.0
1040
517776.44812413253
1040
-335493.7046016907
1040
-205251.99203018961
1040
50.0
1040
0.0
1040
0.0
1070
     0
1070
   100
1070
     1
1070
     0
1070
     0
1070
     0
1070
     0
1070
     0
1040
0.0
1040
0.0
1040
0.0
1040
1.0
1040
1.0
1040
1.0
1040
1.0
1070
     0
1002
{
1002
}
1002
}
  0
ENDSEC
  0
EOF
