  0
SECTION
  2
HEADER
  9
$ACADVER
  1
AC1009
  9
$INSBASE
 10
0.0
 20
0.0
 30
0.0
  9
$EXTMIN
 10
-10078.225836461061
 20
395718.6566191832
 30
-0.0015258207003583
  9
$EXTMAX
 10
14168.95696905261
 20
410589.05766121071
 30
0.0000000349246037
  9
$LIMMIN
 10
-127022.6804658414
 20
-67144.462473645661
  9
$LIMMAX
 10
-873.19720690528334
 20
6755.1563308572058
  9
$ORTHOMODE
 70
     1
  9
$REGENMODE
 70
     1
  9
$FILLMODE
 70
     1
  9
$QTEXTMODE
 70
     0
  9
$MIRRTEXT
 70
     0
  9
$DRAGMODE
 70
     2
  9
$LTSCALE
 40
50.0
  9
$OSMODE
 70
   679
  9
$ATTMODE
 70
     1
  9
$TEXTSIZE
 40
200.0
  9
$TRACEWID
 40
10.0
  9
$TEXTSTYLE
  7
R
  9
$CLAYER
  8
S-OBRYS
  9
$CELTYPE
  6
CONTINUOUS
  9
$CECOLOR
 62
   256
  9
$DIMSCALE
 40
50.0
  9
$DIMASZ
 40
2.0
  9
$DIMEXO
 40
0.063
  9
$DIMDLI
 40
5.0
  9
$DIMRND
 40
0.0
  9
$DIMDLE
 40
0.0
  9
$DIMEXE
 40
0.2
  9
$DIMTP
 40
0.0
  9
$DIMTM
 40
0.0
  9
$DIMTXT
 40
2.0
  9
$DIMCEN
 40
2.0
  9
$DIMTSZ
 40
0.0
  9
$DIMTOL
 70
     0
  9
$DIMLIM
 70
     0
  9
$DIMTIH
 70
     0
  9
$DIMTOH
 70
     0
  9
$DIMSE1
 70
     0
  9
$DIMSE2
 70
     0
  9
$DIMTAD
 70
     1
  9
$DIMZIN
 70
    12
  9
$DIMBLK
  1

  9
$DIMASO
 70
     1
  9
$DIMSHO
 70
     0
  9
$DIMPOST
  1

  9
$DIMAPOST
  1

  9
$DIMALT
 70
     0
  9
$DIMALTD
 70
     2
  9
$DIMALTF
 40
25.399999999999999
  9
$DIMLFAC
 40
1.0
  9
$DIMTOFL
 70
     1
  9
$DIMTVP
 40
0.0
  9
$DIMTIX
 70
     0
  9
$DIMSOXD
 70
     0
  9
$DIMSAH
 70
     1
  9
$DIMBLK1
  1
OPEN
  9
$DIMBLK2
  1
OPEN
  9
$DIMSTYLE
  2
EMBABA
  9
$DIMCLRD
 70
     0
  9
$DIMCLRE
 70
     0
  9
$DIMCLRT
 70
     7
  9
$DIMTFAC
 40
1.0
  9
$DIMGAP
 40
0.5
  9
$LUNITS
 70
     2
  9
$LUPREC
 70
     0
  9
$SKETCHINC
 40
10.0
  9
$FILLETRAD
 40
400.0
  9
$AUNITS
 70
     0
  9
$AUPREC
 70
     4
  9
$MENU
  1
ACAD
  9
$ELEVATION
 40
0.0
  9
$PELEVATION
 40
0.0
  9
$THICKNESS
 40
0.0
  9
$LIMCHECK
 70
     0
  9
$BLIPMODE
 70
     0
  9
$CHAMFERA
 40
0.0
  9
$CHAMFERB
 40
0.0
  9
$SKPOLY
 70
     0
  9
$TDCREATE
 40
2450205.720229167
  9
$TDUPDATE
 40
2453524.5389802088
  9
$TDINDWG
 40
42.356376319399999
  9
$TDUSRTIMER
 40
42.356376319399999
  9
$USRTIMER
 70
     1
  9
$ANGBASE
 50
0.0
  9
$ANGDIR
 70
     0
  9
$PDMODE
 70
     2
  9
$PDSIZE
 40
-5.0
  9
$PLINEWID
 40
0.0
  9
$COORDS
 70
     0
  9
$SPLFRAME
 70
     0
  9
$SPLINETYPE
 70
     6
  9
$SPLINESEGS
 70
     8
  9
$ATTDIA
 70
     0
  9
$ATTREQ
 70
     1
  9
$HANDLING
 70
     1
  9
$HANDSEED
  5
64FAD
  9
$SURFTAB1
 70
    18
  9
$SURFTAB2
 70
    18
  9
$SURFTYPE
 70
     6
  9
$SURFU
 70
    18
  9
$SURFV
 70
    18
  9
$UCSNAME
  2

  9
$UCSORG
 10
0.0
 20
0.0
 30
0.0
  9
$UCSXDIR
 10
1.0
 20
0.0
 30
0.0
  9
$UCSYDIR
 10
0.0
 20
1.0
 30
0.0
  9
$PUCSNAME
  2

  9
$PUCSORG
 10
0.0
 20
0.0
 30
0.0
  9
$PUCSXDIR
 10
1.0
 20
0.0
 30
0.0
  9
$PUCSYDIR
 10
0.0
 20
1.0
 30
0.0
  9
$USERI1
 70
     0
  9
$USERI2
 70
     0
  9
$USERI3
 70
     0
  9
$USERI4
 70
     0
  9
$USERI5
 70
     0
  9
$USERR1
 40
0.0
  9
$USERR2
 40
50.0
  9
$USERR3
 40
0.0
  9
$USERR4
 40
0.0
  9
$USERR5
 40
0.0
  9
$WORLDVIEW
 70
     1
  9
$SHADEDGE
 70
     3
  9
$SHADEDIF
 70
    70
  9
$TILEMODE
 70
     1
  9
$MAXACTVP
 70
    16
  9
$PLIMCHECK
 70
     0
  9
$PEXTMIN
 10
1.049999952316284
 20
0.7999999523162842
 30
0.0
  9
$PEXTMAX
 10
9.4499995708465558
 20
7.1999995708465558
 30
0.0
  9
$PLIMMIN
 10
-0.2500002402958907
 20
-0.2499999962453767
  9
$PLIMMAX
 10
10.74999951940821
 20
8.2499997634587316
  9
$UNITMODE
 70
     0
  9
$VISRETAIN
 70
     0
  9
$PLINEGEN
 70
     0
  9
$PSLTSCALE
 70
     1
  0
ENDSEC
  0
SECTION
  2
TABLES
  0
TABLE
  2
VPORT
 70
     4
  0
VPORT
  2
*ACTIVE
 70
     0
 10
0.0
 20
0.0
 11
1.0
 21
1.0
 12
4692.3092546579637
 22
400573.85201838001
 13
0.0
 23
0.0
 14
1.0
 24
1.0
 15
1.0
 25
1.0
 16
0.0
 26
0.0
 36
1.0
 17
0.0
 27
0.0
 37
0.0
 40
26966.922857267589
 41
1.6116303219106951
 42
50.0
 43
0.0
 44
0.0
 50
0.0
 51
0.0
 71
     0
 72
   100
 73
     1
 74
     0
 75
     0
 76
     1
 77
     0
 78
     0
  0
ENDTAB
  0
TABLE
  2
LTYPE
 70
     3
  0
LTYPE
  2
CONTINUOUS
 70
     0
  3
Solid line
 72
    65
 73
     0
 40
0.0
  0
LTYPE
  2
ČERCHOVANÁ
 70
     0
  3
Čerchovaná __ . __ . __ . __ . __ . __ . __ . _
 72
    65
 73
     4
 40
1.0
 49
0.5
 49
-0.25
 49
0.0
 49
-0.25
  0
ENDTAB
  0
TABLE
  2
LAYER
 70
    18
  0
LAYER
  2
0
 70
     0
 62
     7
  6
CONTINUOUS
  0
LAYER
  2
RAZ
 70
     0
 62
     7
  6
CONTINUOUS
  0
LAYER
  2
KOTY
 70
     0
 62
     2
  6
CONTINUOUS
  0
LAYER
  2
DEFPOINTS
 70
     0
 62
     7
  6
CONTINUOUS
  0
LAYER
  2
2-VZT
 70
     0
 62
     4
  6
CONTINUOUS
  0
LAYER
  2
OBRYS
 70
     0
 62
     7
  6
CONTINUOUS
  0
LAYER
  2
S-OBRYS
 70
     0
 62
     7
  6
CONTINUOUS
  0
ENDTAB
  0
TABLE
  2
STYLE
 70
     8
  0
STYLE
  2
STANDARD
 70
     0
 40
0.0
 41
0.8
 50
0.0
 71
     0
 42
200.0
  3
ROMANS.SHX
  4

  0
STYLE
  2
R
 70
     0
 40
0.0
 41
1.0
 50
0.0
 71
     0
 42
200.0
  3
romans.shx
  4

  0
STYLE
  2
ROMANS
 70
     0
 40
0.0
 41
0.8
 50
0.0
 71
     0
 42
300.0
  3
ROMANS.shx
  4

  0
STYLE
  2
R08
 70
     0
 40
0.0
 41
0.8
 50
0.0
 71
     0
 42
800.0
  3
ROMANS.shx
  4

  0
STYLE
  2
ROMANT
 70
     0
 40
0.0
 41
0.7
 50
0.0
 71
     0
 42
3.0
  3
romant
  4

  0
STYLE
  2
CYRILLIC
 70
     0
 40
2.2999999999999989
 41
0.7
 50
0.0
 71
     0
 42
2.2999999999999989
  3
cyrillic
  4

  0
STYLE
  2
PROKOP
 70
     0
 40
100.0
 41
0.7
 50
0.0
 71
     0
 42
100.0
  3
romanc.shx
  4

  0
ENDTAB
  0
TABLE
  2
VIEW
 70
     0
  0
ENDTAB
  0
TABLE
  2
UCS
 70
     0
  0
ENDTAB
  0
TABLE
  2
APPID
 70
     6
  0
APPID
  2
ACAD
 70
     0
  0
APPID
  2
PHOENIX7010
 70
     0
  0
APPID
  2
CONTENTBLOCKICON
 70
     0
  0
APPID
  2
CONTENTLONGBLOCKNAME
 70
     0
  0
APPID
  2
ACAD_DSTYLE_DIMTEXT_FILL
 70
     0
  0
APPID
  2
DCO15
 70
     0
  0
ENDTAB
  0
TABLE
  2
DIMSTYLE
 70
     5
  0
DIMSTYLE
  2
STANDARD
 70
     0
  3

  4

  5

  6
OPEN
  7
OPEN
 40
1.0
 41
80.0
 42
1.0
 43
0.0
 44
1.0
 45
0.0
 46
0.8
 47
0.0
 48
0.0
140
70.0
141
-3.0
142
0.0
143
0.0394
144
1.0
145
1.0
146
0.5
147
1.0
 71
     0
 72
     0
 73
     0
 74
     0
 75
     0
 76
     0
 77
     0
 78
     8
170
     0
171
     2
172
     1
173
     1
174
     0
175
     0
176
     7
177
     7
178
     2
  0
DIMSTYLE
  2
EMBABA
 70
     0
  3

  4

  5

  6
OPEN
  7
OPEN
 40
50.0
 41
2.0
 42
0.063
 43
5.0
 44
0.2
 45
0.0
 46
0.0
 47
0.0
 48
0.0
140
2.0
141
2.0
142
0.0
143
25.399999999999999
144
1.0
145
0.0
146
1.0
147
0.5
 71
     0
 72
     0
 73
     0
 74
     0
 75
     0
 76
     0
 77
     1
 78
    12
170
     0
171
     2
172
     1
173
     1
174
     0
175
     0
176
     0
177
     0
178
     7
  0
ENDTAB
  0
ENDSEC
  0
SECTION
  2
BLOCKS
  0
BLOCK
  8
0
  2
$MODEL_SPACE
 70
     0
 10
0.0
 20
0.0
 30
0.0
  3
$MODEL_SPACE
  1

  0
ENDBLK
  5
9
  8
0
  0
BLOCK
 67
     1
  8
0
  2
$PAPER_SPACE
 70
     0
 10
0.0
 20
0.0
 30
0.0
  3
$PAPER_SPACE
  1

  0
ENDBLK
  5
E
 67
     1
  8
0
  0
BLOCK
  8
0
  2
_OPEN
 70
     0
 10
0.0
 20
0.0
 30
0.0
  3
_OPEN
  1

  0
LINE
  5
28
  8
0
  6
BYBLOCK
 62
     0
 10
-1.0
 20
0.1666666666666666
 30
0.0
 11
0.0
 21
0.0
 31
0.0
  0
LINE
  5
29
  8
0
  6
BYBLOCK
 62
     0
 10
0.0
 20
0.0
 30
0.0
 11
-1.0
 21
-0.1666666666666666
 31
0.0
  0
LINE
  5
2A
  8
0
  6
BYBLOCK
 62
     0
 10
0.0
 20
0.0
 30
0.0
 11
-1.0
 21
0.0
 31
0.0
  0
ENDBLK
  5
2C
  8
0
  0
BLOCK
  8
0
  2
*D17
 70
     1
 10
0.0
 20
0.0
 30
0.0
  3
*D17
  1

  0
LINE
  5
64D59
  8
S-OBRYS
  6
CONTINUOUS
 62
     0
 10
-1729.213574658839
 20
401993.48139082879
 30
0.0
 11
-1729.213574658839
 21
402015.89097691549
 31
0.0
  0
LINE
  5
64D5A
  8
S-OBRYS
  6
CONTINUOUS
 62
     0
 10
-1029.041978188035
 20
401992.785003489
 30
0.0
 11
-1029.041978188035
 21
402015.89097691549
 31
0.0
  0
LINE
  5
64D5B
  8
S-OBRYS
  6
CONTINUOUS
 62
     0
 10
-1629.213574658839
 20
402005.89097691549
 30
0.0
 11
-1129.041978188035
 21
402005.89097691549
 31
0.0
  0
INSERT
  5
64D5C
  8
S-OBRYS
  6
CONTINUOUS
 62
     0
  2
_OPEN
 10
-1729.213574658839
 20
402005.89097691549
 30
0.0
 41
100.0
 42
100.0
 43
100.0
 50
180.0
  0
INSERT
  5
64D5D
  8
S-OBRYS
  6
CONTINUOUS
 62
     0
  2
_OPEN
 10
-1029.041978188035
 20
402005.89097691549
 30
0.0
 41
100.0
 42
100.0
 43
100.0
  0
INSERT
  5
64D5E
  8
S-OBRYS
  6
CONTINUOUS
  2
*U54
 10
0.0
 20
0.0
 30
0.0
  0
POINT
  5
64D5F
  8
DEFPOINTS
  6
CONTINUOUS
 62
     0
 10
-1729.213574658839
 20
401990.33139082883
 30
0.0
  0
POINT
  5
64D60
  8
DEFPOINTS
  6
CONTINUOUS
 62
     0
 10
-1029.041978188035
 20
401989.63500348898
 30
0.0
  0
POINT
  5
64D61
  8
DEFPOINTS
  6
CONTINUOUS
 62
     0
 10
-1029.041978188035
 20
402005.89097691549
 30
0.0
  0
ENDBLK
  5
64C9A
  8
0
  0
BLOCK
  8
0
  2
*D18
 70
     1
 10
0.0
 20
0.0
 30
0.0
  3
*D18
  1

  0
LINE
  5
64D62
  8
S-OBRYS
  6
CONTINUOUS
 62
     0
 10
-4026.213574658841
 20
401976.61879189342
 30
0.0
 11
-4026.213574658841
 21
402284.80299217481
 31
0.0
  0
LINE
  5
64D63
  8
S-OBRYS
  6
CONTINUOUS
 62
     0
 10
-4926.2135746588392
 20
401976.61879189342
 30
0.0
 11
-4926.2135746588392
 21
402284.80299217481
 31
0.0
  0
LINE
  5
64D64
  8
S-OBRYS
  6
CONTINUOUS
 62
     0
 10
-4126.213574658841
 20
402274.80299217469
 30
0.0
 11
-4826.2135746588392
 21
402274.80299217469
 31
0.0
  0
INSERT
  5
64D65
  8
S-OBRYS
  6
CONTINUOUS
 62
     0
  2
_OPEN
 10
-4026.213574658841
 20
402274.80299217469
 30
0.0
 41
100.0
 42
100.0
 43
100.0
  0
INSERT
  5
64D66
  8
S-OBRYS
  6
CONTINUOUS
 62
     0
  2
_OPEN
 10
-4926.2135746588392
 20
402274.80299217469
 30
0.0
 41
100.0
 42
100.0
 43
100.0
 50
180.0
  0
INSERT
  5
64D67
  8
S-OBRYS
  6
CONTINUOUS
  2
*U55
 10
0.0
 20
0.0
 30
0.0
  0
POINT
  5
64D68
  8
DEFPOINTS
  6
CONTINUOUS
 62
     0
 10
-4026.213574658841
 20
401973.46879189328
 30
0.0
  0
POINT
  5
64D69
  8
DEFPOINTS
  6
CONTINUOUS
 62
     0
 10
-4926.2135746588392
 20
401973.46879189328
 30
0.0
  0
POINT
  5
64D6A
  8
DEFPOINTS
  6
CONTINUOUS
 62
     0
 10
-4926.2135746588392
 20
402274.80299217469
 30
0.0
  0
ENDBLK
  5
64CA6
  8
0
  0
BLOCK
  8
0
  2
*D19
 70
     1
 10
0.0
 20
0.0
 30
0.0
  3
*D19
  1

  0
LINE
  5
64D6B
  8
S-OBRYS
  6
CONTINUOUS
 62
     0
 10
-7494.7718583270453
 20
406613.48672860692
 30
0.0
 11
-7494.7718583270453
 21
406696.57014003111
 31
0.0
  0
LINE
  5
64D6C
  8
S-OBRYS
  6
CONTINUOUS
 62
     0
 10
-7394.7718583270462
 20
406613.48672860692
 30
0.0
 11
-7394.7718583270462
 21
406696.57014003111
 31
0.0
  0
LINE
  5
64D6D
  8
S-OBRYS
  6
CONTINUOUS
 62
     0
 10
-7594.7718583270462
 20
406686.57014003111
 30
0.0
 11
-7694.7718583270462
 21
406686.57014003111
 31
0.0
  0
LINE
  5
64D6E
  8
S-OBRYS
  6
CONTINUOUS
 62
     0
 10
-7294.7718583270453
 20
406686.57014003111
 30
0.0
 11
-7194.7718583270462
 21
406686.57014003111
 31
0.0
  0
LINE
  5
64D6F
  8
S-OBRYS
  6
CONTINUOUS
 62
     0
 10
-7494.7718583270453
 20
406686.57014003111
 30
0.0
 11
-7394.7718583270462
 21
406686.57014003111
 31
0.0
  0
INSERT
  5
64D70
  8
S-OBRYS
  6
CONTINUOUS
 62
     0
  2
_OPEN
 10
-7494.7718583270453
 20
406686.57014003111
 30
0.0
 41
100.0
 42
100.0
 43
100.0
  0
INSERT
  5
64D71
  8
S-OBRYS
  6
CONTINUOUS
 62
     0
  2
_OPEN
 10
-7394.7718583270462
 20
406686.57014003111
 30
0.0
 41
100.0
 42
100.0
 43
100.0
 50
180.0
  0
INSERT
  5
64D72
  8
S-OBRYS
  6
CONTINUOUS
  2
*U56
 10
0.0
 20
0.0
 30
0.0
  0
POINT
  5
64D73
  8
DEFPOINTS
  6
CONTINUOUS
 62
     0
 10
-7494.7718583270453
 20
406610.33672860678
 30
0.0
  0
POINT
  5
64D74
  8
DEFPOINTS
  6
CONTINUOUS
 62
     0
 10
-7394.7718583270462
 20
406610.33672860678
 30
0.0
  0
POINT
  5
64D75
  8
DEFPOINTS
  6
CONTINUOUS
 62
     0
 10
-7394.7718583270462
 20
406686.57014003111
 30
0.0
  0
ENDBLK
  5
64CB4
  8
0
  0
BLOCK
  8
0
  2
*D20
 70
     1
 10
0.0
 20
0.0
 30
0.0
  3
*D20
  1

  0
LINE
  5
64D76
  8
S-OBRYS
  6
CONTINUOUS
 62
     0
 10
-7444.7718583270462
 20
406235.87937288493
 30
0.0
 11
-7444.7718583270462
 21
406579.59802292672
 31
0.0
  0
LINE
  5
64D77
  8
S-OBRYS
  6
CONTINUOUS
 62
     0
 10
-7736.7718583270453
 20
406098.96878804849
 30
0.0
 11
-7736.7718583270453
 21
406579.59802292672
 31
0.0
  0
LINE
  5
64D78
  8
S-OBRYS
  6
CONTINUOUS
 62
     0
 10
-7544.7718583270453
 20
406569.59802292672
 30
0.0
 11
-7636.7718583270462
 21
406569.59802292672
 31
0.0
  0
LINE
  5
64D79
  8
S-OBRYS
  6
CONTINUOUS
 62
     0
 10
-7736.7718583270453
 20
406569.59802292672
 30
0.0
 11
-8092.4861440413297
 21
406569.59802292672
 31
0.0
  0
INSERT
  5
64D7A
  8
S-OBRYS
  6
CONTINUOUS
 62
     0
  2
_OPEN
 10
-7444.7718583270462
 20
406569.59802292672
 30
0.0
 41
100.0
 42
100.0
 43
100.0
  0
INSERT
  5
64D7B
  8
S-OBRYS
  6
CONTINUOUS
 62
     0
  2
_OPEN
 10
-7736.7718583270453
 20
406569.59802292672
 30
0.0
 41
100.0
 42
100.0
 43
100.0
 50
180.0
  0
INSERT
  5
64D7C
  8
S-OBRYS
  6
CONTINUOUS
  2
*U57
 10
0.0
 20
0.0
 30
0.0
  0
POINT
  5
64D7D
  8
DEFPOINTS
  6
CONTINUOUS
 62
     0
 10
-7444.7718583270462
 20
406232.72937288479
 30
0.0
  0
POINT
  5
64D7E
  8
DEFPOINTS
  6
CONTINUOUS
 62
     0
 10
-7736.7718583270453
 20
406095.81878804829
 30
0.0
  0
POINT
  5
64D7F
  8
DEFPOINTS
  6
CONTINUOUS
 62
     0
 10
-7736.7718583270453
 20
406569.59802292672
 30
0.0
  0
ENDBLK
  5
64CC1
  8
0
  0
BLOCK
  8
0
  2
*D21
 70
     1
 10
0.0
 20
0.0
 30
0.0
  3
*D21
  1

  0
LINE
  5
64D80
  8
S-OBRYS
  6
CONTINUOUS
 62
     0
 10
-7736.7718583270453
 20
406531.6044958898
 30
0.0
 11
-7736.7718583270453
 21
406852.43595794972
 31
0.0
  0
LINE
  5
64D81
  8
S-OBRYS
  6
CONTINUOUS
 62
     0
 10
-5439.7718583270453
 20
406098.96878804849
 30
0.0
 11
-5439.7718583270453
 21
406852.43595794972
 31
0.0
  0
LINE
  5
64D82
  8
S-OBRYS
  6
CONTINUOUS
 62
     0
 10
-7636.7718583270462
 20
406842.43595794972
 30
0.0
 11
-5539.7718583270453
 21
406842.43595794972
 31
0.0
  0
INSERT
  5
64D83
  8
S-OBRYS
  6
CONTINUOUS
 62
     0
  2
_OPEN
 10
-7736.7718583270453
 20
406842.43595794972
 30
0.0
 41
100.0
 42
100.0
 43
100.0
 50
180.0
  0
INSERT
  5
64D84
  8
S-OBRYS
  6
CONTINUOUS
 62
     0
  2
_OPEN
 10
-5439.7718583270453
 20
406842.43595794972
 30
0.0
 41
100.0
 42
100.0
 43
100.0
  0
INSERT
  5
64D85
  8
S-OBRYS
  6
CONTINUOUS
  2
*U58
 10
0.0
 20
0.0
 30
0.0
  0
POINT
  5
64D86
  8
DEFPOINTS
  6
CONTINUOUS
 62
     0
 10
-7736.7718583270453
 20
406528.45449588977
 30
0.0
  0
POINT
  5
64D87
  8
DEFPOINTS
  6
CONTINUOUS
 62
     0
 10
-5439.7718583270453
 20
406095.81878804829
 30
0.0
  0
POINT
  5
64D88
  8
DEFPOINTS
  6
CONTINUOUS
 62
     0
 10
-5439.7718583270453
 20
406842.43595794972
 30
0.0
  0
ENDBLK
  5
64CCD
  8
0
  0
BLOCK
  8
0
  2
*D22
 70
     1
 10
0.0
 20
0.0
 30
0.0
  3
*D22
  1

  0
LINE
  5
64D89
  8
S-OBRYS
  6
CONTINUOUS
 62
     0
 10
-7497.9218583270449
 20
406485.81889054843
 30
0.0
 11
-7922.3040436280708
 21
406485.81889054843
 31
0.0
  0
LINE
  5
64D8A
  8
S-OBRYS
  6
CONTINUOUS
 62
     0
 10
-7614.9219178270459
 20
405030.81889054843
 30
0.0
 11
-7922.3040436280708
 21
405030.81889054843
 31
0.0
  0
LINE
  5
64D8B
  8
S-OBRYS
  6
CONTINUOUS
 62
     0
 10
-7912.3040436280717
 20
406385.81889054831
 30
0.0
 11
-7912.3040436280717
 21
405130.81889054831
 31
0.0
  0
INSERT
  5
64D8C
  8
S-OBRYS
  6
CONTINUOUS
 62
     0
  2
_OPEN
 10
-7912.3040436280717
 20
406485.81889054843
 30
0.0
 41
100.0
 42
100.0
 43
100.0
 50
90.0
  0
INSERT
  5
64D8D
  8
S-OBRYS
  6
CONTINUOUS
 62
     0
  2
_OPEN
 10
-7912.3040436280717
 20
405030.81889054843
 30
0.0
 41
100.0
 42
100.0
 43
100.0
 50
270.0
  0
INSERT
  5
64D8E
  8
S-OBRYS
  6
CONTINUOUS
  2
*U59
 10
0.0
 20
0.0
 30
0.0
  0
POINT
  5
64D8F
  8
DEFPOINTS
  6
CONTINUOUS
 62
     0
 10
-7494.7718583270453
 20
406485.81889054843
 30
0.0
  0
POINT
  5
64D90
  8
DEFPOINTS
  6
CONTINUOUS
 62
     0
 10
-7611.7719178270463
 20
405030.81889054843
 30
0.0
  0
POINT
  5
64D91
  8
DEFPOINTS
  6
CONTINUOUS
 62
     0
 10
-7912.3040436280717
 20
405030.81889054843
 30
0.0
  0
ENDBLK
  5
64CD9
  8
0
  0
BLOCK
  8
0
  2
*D23
 70
     1
 10
0.0
 20
0.0
 30
0.0
  3
*D23
  1

  0
LINE
  5
64D92
  8
S-OBRYS
  6
CONTINUOUS
 62
     0
 10
-5699.126812642894
 20
405040.81889054843
 30
0.0
 11
-6053.6733281089473
 21
405040.81889054843
 31
0.0
  0
LINE
  5
64D93
  8
S-OBRYS
  6
CONTINUOUS
 62
     0
 10
-5893.1268245428964
 20
405640.81889054843
 30
0.0
 11
-6053.6733281089473
 21
405640.81889054843
 31
0.0
  0
LINE
  5
64D94
  8
S-OBRYS
  6
CONTINUOUS
 62
     0
 10
-6043.6733281089482
 20
405140.81889054831
 30
0.0
 11
-6043.6733281089482
 21
405540.81889054843
 31
0.0
  0
INSERT
  5
64D95
  8
S-OBRYS
  6
CONTINUOUS
 62
     0
  2
_OPEN
 10
-6043.6733281089482
 20
405040.81889054843
 30
0.0
 41
100.0
 42
100.0
 43
100.0
 50
270.0
  0
INSERT
  5
64D96
  8
S-OBRYS
  6
CONTINUOUS
 62
     0
  2
_OPEN
 10
-6043.6733281089482
 20
405640.81889054843
 30
0.0
 41
100.0
 42
100.0
 43
100.0
 50
90.0
  0
INSERT
  5
64D97
  8
S-OBRYS
  6
CONTINUOUS
  2
*U60
 10
0.0
 20
0.0
 30
0.0
  0
POINT
  5
64D98
  8
DEFPOINTS
  6
CONTINUOUS
 62
     0
 10
-5695.9768126428962
 20
405040.81889054843
 30
0.0
  0
POINT
  5
64D99
  8
DEFPOINTS
  6
CONTINUOUS
 62
     0
 10
-5889.9768245428959
 20
405640.81889054843
 30
0.0
  0
POINT
  5
64D9A
  8
DEFPOINTS
  6
CONTINUOUS
 62
     0
 10
-6043.6733281089482
 20
405640.81889054843
 30
0.0
  0
ENDBLK
  5
64CE5
  8
0
  0
BLOCK
  8
0
  2
*D24
 70
     1
 10
0.0
 20
0.0
 30
0.0
  3
*D24
  1

  0
LINE
  5
64D9B
  8
S-OBRYS
  6
CONTINUOUS
 62
     0
 10
-5762.2718583270462
 20
405662.66857384838
 30
0.0
 11
-5762.2718583270462
 21
405499.32216486981
 31
0.0
  0
LINE
  5
64D9C
  8
S-OBRYS
  6
CONTINUOUS
 62
     0
 10
-5543.2718583270453
 20
405662.66857384838
 30
0.0
 11
-5543.2718583270453
 21
405499.32216486981
 31
0.0
  0
LINE
  5
64D9D
  8
S-OBRYS
  6
CONTINUOUS
 62
     0
 10
-5862.2718583270453
 20
405509.32216486969
 30
0.0
 11
-5962.2718583270462
 21
405509.32216486969
 31
0.0
  0
LINE
  5
64D9E
  8
S-OBRYS
  6
CONTINUOUS
 62
     0
 10
-5443.2718583270462
 20
405509.32216486969
 30
0.0
 11
-4798.0337630889499
 21
405509.32216486969
 31
0.0
  0
LINE
  5
64D9F
  8
S-OBRYS
  6
CONTINUOUS
 62
     0
 10
-5762.2718583270462
 20
405509.32216486969
 30
0.0
 11
-5543.2718583270453
 21
405509.32216486969
 31
0.0
  0
INSERT
  5
64DA0
  8
S-OBRYS
  6
CONTINUOUS
 62
     0
  2
_OPEN
 10
-5762.2718583270462
 20
405509.32216486969
 30
0.0
 41
100.0
 42
100.0
 43
100.0
  0
INSERT
  5
64DA1
  8
S-OBRYS
  6
CONTINUOUS
 62
     0
  2
_OPEN
 10
-5543.2718583270453
 20
405509.32216486969
 30
0.0
 41
100.0
 42
100.0
 43
100.0
 50
180.0
  0
INSERT
  5
64DA2
  8
S-OBRYS
  6
CONTINUOUS
  2
*U61
 10
0.0
 20
0.0
 30
0.0
  0
POINT
  5
64DA3
  8
DEFPOINTS
  6
CONTINUOUS
 62
     0
 10
-5762.2718583270462
 20
405665.81857384829
 30
0.0
  0
POINT
  5
64DA4
  8
DEFPOINTS
  6
CONTINUOUS
 62
     0
 10
-5543.2718583270453
 20
405665.81857384829
 30
0.0
  0
POINT
  5
64DA5
  8
DEFPOINTS
  6
CONTINUOUS
 62
     0
 10
-5543.2718583270453
 20
405509.32216486969
 30
0.0
  0
ENDBLK
  5
64CF3
  8
0
  0
BLOCK
  8
0
  2
*D25
 70
     1
 10
0.0
 20
0.0
 30
0.0
  3
*D25
  1

  0
LINE
  5
64DA6
  8
S-OBRYS
  6
CONTINUOUS
 62
     0
 10
-2775.4856140767602
 20
406336.10926330159
 30
0.0
 11
-2390.144254799638
 21
406336.10926330159
 31
0.0
  0
LINE
  5
64DA7
  8
S-OBRYS
  6
CONTINUOUS
 62
     0
 10
-2725.4856378767622
 20
405271.10887330148
 30
0.0
 11
-2390.144254799638
 21
405271.10887330148
 31
0.0
  0
LINE
  5
64DA8
  8
S-OBRYS
  6
CONTINUOUS
 62
     0
 10
-2400.144254799638
 20
406236.10926330159
 30
0.0
 11
-2400.144254799638
 21
405371.10887330159
 31
0.0
  0
INSERT
  5
64DA9
  8
S-OBRYS
  6
CONTINUOUS
 62
     0
  2
_OPEN
 10
-2400.144254799638
 20
406336.10926330159
 30
0.0
 41
100.0
 42
100.0
 43
100.0
 50
90.0
  0
INSERT
  5
64DAA
  8
S-OBRYS
  6
CONTINUOUS
 62
     0
  2
_OPEN
 10
-2400.144254799638
 20
405271.10887330148
 30
0.0
 41
100.0
 42
100.0
 43
100.0
 50
270.0
  0
INSERT
  5
64DAB
  8
S-OBRYS
  6
CONTINUOUS
  2
*U62
 10
0.0
 20
0.0
 30
0.0
  0
POINT
  5
64DAC
  8
DEFPOINTS
  6
CONTINUOUS
 62
     0
 10
-2778.6356140767598
 20
406336.10926330159
 30
0.0
  0
POINT
  5
64DAD
  8
DEFPOINTS
  6
CONTINUOUS
 62
     0
 10
-2728.6356378767618
 20
405271.10887330148
 30
0.0
  0
POINT
  5
64DAE
  8
DEFPOINTS
  6
CONTINUOUS
 62
     0
 10
-2400.144254799638
 20
405271.10887330148
 30
0.0
  0
ENDBLK
  5
64CFF
  8
0
  0
BLOCK
  8
0
  2
*D26
 70
     1
 10
0.0
 20
0.0
 30
0.0
  3
*D26
  1

  0
LINE
  5
64DAF
  8
S-OBRYS
  6
CONTINUOUS
 62
     0
 10
-3238.6356378767618
 20
405267.95887330163
 30
0.0
 11
-3238.6356378767618
 21
405063.59680368542
 31
0.0
  0
LINE
  5
64DB0
  8
S-OBRYS
  6
CONTINUOUS
 62
     0
 10
-2728.63563787676
 20
405267.95887330163
 30
0.0
 11
-2728.63563787676
 21
405063.59680368542
 31
0.0
  0
LINE
  5
64DB1
  8
S-OBRYS
  6
CONTINUOUS
 62
     0
 10
-3138.6356378767618
 20
405073.59680368548
 30
0.0
 11
-2828.63563787676
 21
405073.59680368548
 31
0.0
  0
INSERT
  5
64DB2
  8
S-OBRYS
  6
CONTINUOUS
 62
     0
  2
_OPEN
 10
-3238.6356378767618
 20
405073.59680368548
 30
0.0
 41
100.0
 42
100.0
 43
100.0
 50
180.0
  0
INSERT
  5
64DB3
  8
S-OBRYS
  6
CONTINUOUS
 62
     0
  2
_OPEN
 10
-2728.63563787676
 20
405073.59680368548
 30
0.0
 41
100.0
 42
100.0
 43
100.0
  0
INSERT
  5
64DB4
  8
S-OBRYS
  6
CONTINUOUS
  2
*U63
 10
0.0
 20
0.0
 30
0.0
  0
POINT
  5
64DB5
  8
DEFPOINTS
  6
CONTINUOUS
 62
     0
 10
-3238.6356378767618
 20
405271.10887330148
 30
0.0
  0
POINT
  5
64DB6
  8
DEFPOINTS
  6
CONTINUOUS
 62
     0
 10
-2728.63563787676
 20
405271.10887330148
 30
0.0
  0
POINT
  5
64DB7
  8
DEFPOINTS
  6
CONTINUOUS
 62
     0
 10
-2728.63563787676
 20
405073.59680368548
 30
0.0
  0
ENDBLK
  5
64D0B
  8
0
  0
BLOCK
  8
0
  2
*D27
 70
     1
 10
0.0
 20
0.0
 30
0.0
  3
*D27
  1

  0
LINE
  5
64DB8
  8
S-OBRYS
  6
CONTINUOUS
 62
     0
 10
-3918.9281910077739
 20
402042.1060558068
 30
0.0
 11
-4221.7457389355086
 21
402042.1060558068
 31
0.0
  0
LINE
  5
64DB9
  8
S-OBRYS
  6
CONTINUOUS
 62
     0
 10
-3918.9281910077739
 20
401592.10605580691
 30
0.0
 11
-4221.7457389355086
 21
401592.10605580691
 31
0.0
  0
LINE
  5
64DBA
  8
S-OBRYS
  6
CONTINUOUS
 62
     0
 10
-4211.7457389355086
 20
401942.10605580691
 30
0.0
 11
-4211.7457389355086
 21
401692.1060558068
 31
0.0
  0
INSERT
  5
64DBB
  8
S-OBRYS
  6
CONTINUOUS
 62
     0
  2
_OPEN
 10
-4211.7457389355086
 20
402042.1060558068
 30
0.0
 41
100.0
 42
100.0
 43
100.0
 50
90.0
  0
INSERT
  5
64DBC
  8
S-OBRYS
  6
CONTINUOUS
 62
     0
  2
_OPEN
 10
-4211.7457389355086
 20
401592.10605580691
 30
0.0
 41
100.0
 42
100.0
 43
100.0
 50
270.0
  0
INSERT
  5
64DBD
  8
S-OBRYS
  6
CONTINUOUS
  2
*U64
 10
0.0
 20
0.0
 30
0.0
  0
POINT
  5
64DBE
  8
DEFPOINTS
  6
CONTINUOUS
 62
     0
 10
-3915.7781910077738
 20
402042.1060558068
 30
0.0
  0
POINT
  5
64DBF
  8
DEFPOINTS
  6
CONTINUOUS
 62
     0
 10
-3915.7781910077738
 20
401592.10605580691
 30
0.0
  0
POINT
  5
64DC0
  8
DEFPOINTS
  6
CONTINUOUS
 62
     0
 10
-4211.7457389355086
 20
401592.10605580691
 30
0.0
  0
ENDBLK
  5
64D17
  8
0
  0
BLOCK
  8
0
  2
*D28
 70
     1
 10
0.0
 20
0.0
 30
0.0
  3
*D28
  1

  0
LINE
  5
64DC1
  8
S-OBRYS
  6
CONTINUOUS
 62
     0
 10
-1854.213574658839
 20
401637.75111648737
 30
0.0
 11
-1854.213574658839
 21
401395.28763487138
 31
0.0
  0
LINE
  5
64DC2
  8
S-OBRYS
  6
CONTINUOUS
 62
     0
 10
-1942.213574658839
 20
401723.95605580678
 30
0.0
 11
-1942.213574658839
 21
401395.28763487138
 31
0.0
  0
LINE
  5
64DC3
  8
S-OBRYS
  6
CONTINUOUS
 62
     0
 10
-1754.213574658839
 20
401405.28763487132
 30
0.0
 11
-1654.213574658839
 21
401405.28763487132
 31
0.0
  0
LINE
  5
64DC4
  8
S-OBRYS
  6
CONTINUOUS
 62
     0
 10
-2042.213574658839
 20
401405.28763487132
 30
0.0
 11
-2321.7373841826488
 21
401405.28763487132
 31
0.0
  0
LINE
  5
64DC5
  8
S-OBRYS
  6
CONTINUOUS
 62
     0
 10
-1854.213574658839
 20
401405.28763487132
 30
0.0
 11
-1942.213574658839
 21
401405.28763487132
 31
0.0
  0
INSERT
  5
64DC6
  8
S-OBRYS
  6
CONTINUOUS
 62
     0
  2
_OPEN
 10
-1854.213574658839
 20
401405.28763487132
 30
0.0
 41
100.0
 42
100.0
 43
100.0
 50
180.0
  0
INSERT
  5
64DC7
  8
S-OBRYS
  6
CONTINUOUS
 62
     0
  2
_OPEN
 10
-1942.213574658839
 20
401405.28763487132
 30
0.0
 41
100.0
 42
100.0
 43
100.0
  0
INSERT
  5
64DC8
  8
S-OBRYS
  6
CONTINUOUS
  2
*U65
 10
0.0
 20
0.0
 30
0.0
  0
POINT
  5
64DC9
  8
DEFPOINTS
  6
CONTINUOUS
 62
     0
 10
-1854.213574658839
 20
401640.90111648728
 30
0.0
  0
POINT
  5
64DCA
  8
DEFPOINTS
  6
CONTINUOUS
 62
     0
 10
-1942.213574658839
 20
401727.1060558068
 30
0.0
  0
POINT
  5
64DCB
  8
DEFPOINTS
  6
CONTINUOUS
 62
     0
 10
-1942.213574658839
 20
401405.28763487132
 30
0.0
  0
ENDBLK
  5
64D25
  8
0
  0
BLOCK
  8
0
  2
*D29
 70
     1
 10
0.0
 20
0.0
 30
0.0
  3
*D29
  1

  0
LINE
  5
64DCC
  8
S-OBRYS
  6
CONTINUOUS
 62
     0
 10
-2085.3635746588388
 20
402007.10605580691
 30
0.0
 11
-2215.333381687888
 21
402007.10605580691
 31
0.0
  0
LINE
  5
64DCD
  8
S-OBRYS
  6
CONTINUOUS
 62
     0
 10
-2085.3635746588388
 20
401727.1060558068
 30
0.0
 11
-2215.333381687888
 21
401727.1060558068
 31
0.0
  0
LINE
  5
64DCE
  8
S-OBRYS
  6
CONTINUOUS
 62
     0
 10
-2205.3333816878871
 20
401907.10605580691
 30
0.0
 11
-2205.3333816878871
 21
401827.10605580691
 31
0.0
  0
INSERT
  5
64DCF
  8
S-OBRYS
  6
CONTINUOUS
 62
     0
  2
_OPEN
 10
-2205.3333816878871
 20
402007.10605580691
 30
0.0
 41
100.0
 42
100.0
 43
100.0
 50
90.0
  0
INSERT
  5
64DD0
  8
S-OBRYS
  6
CONTINUOUS
 62
     0
  2
_OPEN
 10
-2205.3333816878871
 20
401727.1060558068
 30
0.0
 41
100.0
 42
100.0
 43
100.0
 50
270.0
  0
INSERT
  5
64DD1
  8
S-OBRYS
  6
CONTINUOUS
  2
*U66
 10
0.0
 20
0.0
 30
0.0
  0
POINT
  5
64DD2
  8
DEFPOINTS
  6
CONTINUOUS
 62
     0
 10
-2082.2135746588392
 20
402007.10605580691
 30
0.0
  0
POINT
  5
64DD3
  8
DEFPOINTS
  6
CONTINUOUS
 62
     0
 10
-2082.2135746588392
 20
401727.1060558068
 30
0.0
  0
POINT
  5
64DD4
  8
DEFPOINTS
  6
CONTINUOUS
 62
     0
 10
-2205.3333816878871
 20
401727.1060558068
 30
0.0
  0
ENDBLK
  5
64D31
  8
0
  0
BLOCK
  8
0
  2
*D30
 70
     1
 10
0.0
 20
0.0
 30
0.0
  3
*D30
  1

  0
LINE
  5
64DD5
  8
S-OBRYS
  6
CONTINUOUS
 62
     0
 10
-2082.2135746588392
 20
401730.25605580688
 30
0.0
 11
-2082.2135746588392
 21
401780.79443489568
 31
0.0
  0
LINE
  5
64DD6
  8
S-OBRYS
  6
CONTINUOUS
 62
     0
 10
-1802.213574658839
 20
401730.25605580688
 30
0.0
 11
-1802.213574658839
 21
401780.79443489568
 31
0.0
  0
LINE
  5
64DD7
  8
S-OBRYS
  6
CONTINUOUS
 62
     0
 10
-1982.213574658839
 20
401770.79443489562
 30
0.0
 11
-1902.213574658839
 21
401770.79443489562
 31
0.0
  0
LINE
  5
64DD8
  8
S-OBRYS
  6
CONTINUOUS
 62
     0
 10
-1802.213574658839
 20
401770.79443489562
 30
0.0
 11
-1355.6890733211501
 21
401770.79443489562
 31
0.0
  0
INSERT
  5
64DD9
  8
S-OBRYS
  6
CONTINUOUS
 62
     0
  2
_OPEN
 10
-2082.2135746588392
 20
401770.79443489562
 30
0.0
 41
100.0
 42
100.0
 43
100.0
 50
180.0
  0
INSERT
  5
64DDA
  8
S-OBRYS
  6
CONTINUOUS
 62
     0
  2
_OPEN
 10
-1802.213574658839
 20
401770.79443489562
 30
0.0
 41
100.0
 42
100.0
 43
100.0
  0
INSERT
  5
64DDB
  8
S-OBRYS
  6
CONTINUOUS
  2
*U67
 10
0.0
 20
0.0
 30
0.0
  0
POINT
  5
64DDC
  8
DEFPOINTS
  6
CONTINUOUS
 62
     0
 10
-2082.2135746588392
 20
401727.1060558068
 30
0.0
  0
POINT
  5
64DDD
  8
DEFPOINTS
  6
CONTINUOUS
 62
     0
 10
-1802.213574658839
 20
401727.1060558068
 30
0.0
  0
POINT
  5
64DDE
  8
DEFPOINTS
  6
CONTINUOUS
 62
     0
 10
-1802.213574658839
 20
401770.79443489562
 30
0.0
  0
ENDBLK
  5
64D3E
  8
0
  0
BLOCK
  8
0
  2
*D31
 70
     1
 10
0.0
 20
0.0
 30
0.0
  3
*D31
  1

  0
LINE
  5
64DDF
  8
S-OBRYS
  6
CONTINUOUS
 62
     0
 10
-4026.213574658841
 20
402212.53486959293
 30
0.0
 11
-4026.213574658841
 21
402284.80299217481
 31
0.0
  0
LINE
  5
64DE0
  8
S-OBRYS
  6
CONTINUOUS
 62
     0
 10
-3812.2135746588392
 20
402100.80188997061
 30
0.0
 11
-3812.2135746588392
 21
402284.80299217481
 31
0.0
  0
LINE
  5
64DE1
  8
S-OBRYS
  6
CONTINUOUS
 62
     0
 10
-4126.213574658841
 20
402274.80299217469
 30
0.0
 11
-4226.213574658841
 21
402274.80299217469
 31
0.0
  0
LINE
  5
64DE2
  8
S-OBRYS
  6
CONTINUOUS
 62
     0
 10
-3712.2135746588392
 20
402274.80299217469
 30
0.0
 11
-3352.68976513503
 21
402274.80299217469
 31
0.0
  0
LINE
  5
64DE3
  8
S-OBRYS
  6
CONTINUOUS
 62
     0
 10
-4026.213574658841
 20
402274.80299217469
 30
0.0
 11
-3812.2135746588392
 21
402274.80299217469
 31
0.0
  0
INSERT
  5
64DE4
  8
S-OBRYS
  6
CONTINUOUS
 62
     0
  2
_OPEN
 10
-4026.213574658841
 20
402274.80299217469
 30
0.0
 41
100.0
 42
100.0
 43
100.0
  0
INSERT
  5
64DE5
  8
S-OBRYS
  6
CONTINUOUS
 62
     0
  2
_OPEN
 10
-3812.2135746588392
 20
402274.80299217469
 30
0.0
 41
100.0
 42
100.0
 43
100.0
 50
180.0
  0
INSERT
  5
64DE6
  8
S-OBRYS
  6
CONTINUOUS
  2
*U68
 10
0.0
 20
0.0
 30
0.0
  0
POINT
  5
64DE7
  8
DEFPOINTS
  6
CONTINUOUS
 62
     0
 10
-4026.213574658841
 20
402209.38486959302
 30
0.0
  0
POINT
  5
64DE8
  8
DEFPOINTS
  6
CONTINUOUS
 62
     0
 10
-3812.2135746588392
 20
402097.6518899707
 30
0.0
  0
POINT
  5
64DE9
  8
DEFPOINTS
  6
CONTINUOUS
 62
     0
 10
-3812.2135746588392
 20
402274.80299217469
 30
0.0
  0
ENDBLK
  5
64D4C
  8
0
  0
BLOCK
  8
0
  2
*D32
 70
     1
 10
0.0
 20
0.0
 30
0.0
  3
*D32
  1

  0
LINE
  5
64DEA
  8
S-OBRYS
  6
CONTINUOUS
 62
     0
 10
-3812.2135746588392
 20
402100.80188997061
 30
0.0
 11
-3812.2135746588392
 21
402205.55896367162
 31
0.0
  0
LINE
  5
64DEB
  8
S-OBRYS
  6
CONTINUOUS
 62
     0
 10
-1854.213574658839
 20
402093.84583480388
 30
0.0
 11
-1854.213574658839
 21
402205.55896367162
 31
0.0
  0
LINE
  5
64DEC
  8
S-OBRYS
  6
CONTINUOUS
 62
     0
 10
-3712.2135746588392
 20
402195.5589636715
 30
0.0
 11
-1954.213574658839
 21
402195.5589636715
 31
0.0
  0
INSERT
  5
64DED
  8
S-OBRYS
  6
CONTINUOUS
 62
     0
  2
_OPEN
 10
-3812.2135746588392
 20
402195.5589636715
 30
0.0
 41
100.0
 42
100.0
 43
100.0
 50
180.0
  0
INSERT
  5
64DEE
  8
S-OBRYS
  6
CONTINUOUS
 62
     0
  2
_OPEN
 10
-1854.213574658839
 20
402195.5589636715
 30
0.0
 41
100.0
 42
100.0
 43
100.0
  0
INSERT
  5
64DEF
  8
S-OBRYS
  6
CONTINUOUS
  2
*U69
 10
0.0
 20
0.0
 30
0.0
  0
POINT
  5
64DF0
  8
DEFPOINTS
  6
CONTINUOUS
 62
     0
 10
-3812.2135746588392
 20
402097.6518899707
 30
0.0
  0
POINT
  5
64DF1
  8
DEFPOINTS
  6
CONTINUOUS
 62
     0
 10
-1854.213574658839
 20
402090.6958348038
 30
0.0
  0
POINT
  5
64DF2
  8
DEFPOINTS
  6
CONTINUOUS
 62
     0
 10
-1854.213574658839
 20
402195.5589636715
 30
0.0
  0
ENDBLK
  5
64D58
  8
0
  0
BLOCK
  8
0
  2
*U34
 70
     1
 10
0.0
 20
0.0
 30
0.0
  3
*U34
  1

  0
TEXT
  5
64F06
  8
S-OBRYS
  6
CONTINUOUS
 62
     7
 10
11566.273425305269
 20
401752.82034152112
 30
0.0
 40
100.0
  1
280
 50
90.0
 41
0.8
  0
ENDBLK
  5
64F08
  8
0
  0
BLOCK
  8
0
  2
*U35
 70
     1
 10
0.0
 20
0.0
 30
0.0
  3
*U35
  1

  0
TEXT
  5
64F0A
  8
S-OBRYS
  6
CONTINUOUS
 62
     7
 10
11488.440851382
 20
401430.28763487138
 30
0.0
 40
100.0
  1
88
 41
0.8
  0
ENDBLK
  5
64F0C
  8
0
  0
BLOCK
  8
0
  2
*U36
 70
     1
 10
0.0
 20
0.0
 30
0.0
  3
*U36
  1

  0
TEXT
  5
64F0E
  8
S-OBRYS
  6
CONTINUOUS
 62
     7
 10
9559.8610680576494
 20
401702.82034152112
 30
0.0
 40
100.0
  1
450
 50
90.0
 41
0.8
  0
ENDBLK
  5
64F10
  8
0
  0
BLOCK
  8
0
  2
*U37
 70
     1
 10
0.0
 20
0.0
 30
0.0
  3
*U37
  1

  0
TEXT
  5
64F12
  8
S-OBRYS
  6
CONTINUOUS
 62
     7
 10
6231.8349486661773
 20
406711.57014003111
 30
0.0
 40
100.0
  1
100
 41
0.8
  0
ENDBLK
  5
64F14
  8
0
  0
BLOCK
  8
0
  2
*U38
 70
     1
 10
0.0
 20
0.0
 30
0.0
  3
*U38
  1

  0
TEXT
  5
64F16
  8
S-OBRYS
  6
CONTINUOUS
 62
     7
 10
7055.953996285225
 20
406867.43595794972
 30
0.0
 40
100.0
  1
2297
 41
0.8
  0
ENDBLK
  5
64F18
  8
0
  0
BLOCK
  8
0
  2
*U39
 70
     1
 10
0.0
 20
0.0
 30
0.0
  3
*U39
  1

  0
TEXT
  5
64F1A
  8
S-OBRYS
  6
CONTINUOUS
 62
     7
 10
5859.3027633650863
 20
405600.22365245299
 30
0.0
 40
100.0
  1
1455
 50
90.0
 41
0.8
  0
ENDBLK
  5
64F1C
  8
0
  0
BLOCK
  8
0
  2
*U40
 70
     1
 10
0.0
 20
0.0
 30
0.0
  3
*U40
  1

  0
TEXT
  5
64F1E
  8
S-OBRYS
  6
CONTINUOUS
 62
     7
 10
7727.9334788842089
 20
405224.6284143579
 30
0.0
 40
100.0
  1
600
 50
90.0
 41
0.8
  0
ENDBLK
  5
64F20
  8
0
  0
BLOCK
  8
0
  2
*U41
 70
     1
 10
0.0
 20
0.0
 30
0.0
  3
*U41
  1

  0
TEXT
  5
64F22
  8
S-OBRYS
  6
CONTINUOUS
 62
     7
 10
8466.9063772376066
 20
405534.32216486969
 30
0.0
 40
100.0
  1
219x219
 41
0.8
  0
ENDBLK
  5
64F24
  8
0
  0
BLOCK
  8
0
  2
*U42
 70
     1
 10
0.0
 20
0.0
 30
0.0
  3
*U42
  1

  0
TEXT
  5
64F26
  8
S-OBRYS
  6
CONTINUOUS
 62
     7
 10
11371.46255219352
 20
405645.5138302063
 30
0.0
 40
100.0
  1
1065
 50
90.0
 41
0.8
  0
ENDBLK
  5
64F28
  8
0
  0
BLOCK
  8
0
  2
*U43
 70
     1
 10
0.0
 20
0.0
 30
0.0
  3
*U43
  1

  0
TEXT
  5
64F2A
  8
S-OBRYS
  6
CONTINUOUS
 62
     7
 10
10698.685454830749
 20
405098.59680368542
 30
0.0
 40
100.0
  1
510
 41
0.8
  0
ENDBLK
  5
64F2C
  8
0
  0
BLOCK
  8
0
  2
*U44
 70
     1
 10
0.0
 20
0.0
 30
0.0
  3
*U44
  1

  0
TEXT
  5
64F2E
  8
S-OBRYS
  6
CONTINUOUS
 62
     7
 10
12198.774876529211
 20
401795.79443489568
 30
0.0
 40
100.0
  1
280
 41
0.8
  0
ENDBLK
  5
64F30
  8
0
  0
BLOCK
  8
0
  2
*U45
 70
     1
 10
0.0
 20
0.0
 30
0.0
  3
*U45
  1

  0
TEXT
  5
64F32
  8
S-OBRYS
  6
CONTINUOUS
 62
     7
 10
5717.6920915233204
 20
406594.59802292672
 30
0.0
 40
100.0
  1
292
 41
0.8
  0
ENDBLK
  5
64F34
  8
0
  0
BLOCK
  8
0
  2
*U46
 70
     1
 10
0.0
 20
0.0
 30
0.0
  3
*U46
  1

  0
TEXT
  5
64F36
  8
OBRYS
  6
CONTINUOUS
 10
-8360.2977287321282
 20
409008.60501506092
 30
0.0
 40
400.0
  1
Intenzivní nakrápěč IN 20-7
  7
R
  0
ENDBLK
  5
64F38
  8
0
  0
BLOCK
  8
0
  2
*U47
 70
     1
 10
0.0
 20
0.0
 30
0.0
  3
*U47
  1

  0
TEXT
  5
64F3A
  8
S-OBRYS
  6
CONTINUOUS
 62
     7
 10
12303.193316284071
 20
402030.89097691549
 30
0.0
 40
100.0
  1
700
 41
0.8
  0
ENDBLK
  5
64F3C
  8
0
  0
BLOCK
  8
0
  2
*U48
 70
     1
 10
0.0
 20
0.0
 30
0.0
  3
*U48
  1

  0
TEXT
  5
64F3E
  8
S-OBRYS
  6
CONTINUOUS
 62
     7
 10
9206.1075180486696
 20
402299.80299217481
 30
0.0
 40
100.0
  1
900
 41
0.8
  0
ENDBLK
  5
64F40
  8
0
  0
BLOCK
  8
0
  2
*U49
 70
     1
 10
0.0
 20
0.0
 30
0.0
  3
*U49
  1

  0
TEXT
  5
64F42
  8
S-OBRYS
  6
CONTINUOUS
 62
     7
 10
10197.964660905811
 20
402299.80299217481
 30
0.0
 40
100.0
  1
214
 41
0.8
  0
ENDBLK
  5
64F44
  8
0
  0
BLOCK
  8
0
  2
*U50
 70
     1
 10
0.0
 20
0.0
 30
0.0
  3
*U50
  1

  0
TEXT
  5
64F46
  8
S-OBRYS
  6
CONTINUOUS
 62
     7
 10
10805.297994239139
 20
402220.5589636715
 30
0.0
 40
100.0
  1
1958
 41
0.8
  0
ENDBLK
  5
64F48
  8
0
  0
BLOCK
  8
0
  2
*X51
 70
     1
 10
0.0
 20
0.0
 30
0.0
  3
*X51
  1

  0
LINE
  5
64F4A
  8
0
  6
CONTINUOUS
 62
     0
 10
-3796.0617299014662
 20
401562.10605580691
 30
0.0
 11
-3792.2135746588401
 21
401565.95421104948
 31
0.0
  0
LINE
  5
64F4B
  8
0
  6
CONTINUOUS
 62
     0
 10
-3833.4136508094462
 20
401592.10605580697
 30
0.0
 11
-3812.213574658866
 21
401613.30613195739
 31
0.0
  0
LINE
  5
64F4C
  8
0
  6
CONTINUOUS
 62
     0
 10
-3812.213574658866
 20
401613.30613195739
 30
0.0
 11
-3803.4136508094662
 21
401622.10605580691
 31
0.0
  0
LINE
  5
64F4D
  8
0
  6
CONTINUOUS
 62
     0
 10
-3863.4136508094662
 20
401562.10605580691
 30
0.0
 11
-3833.4136508094462
 21
401592.10605580697
 31
0.0
  0
LINE
  5
64F4E
  8
0
  6
CONTINUOUS
 62
     0
 10
-3900.7655717174648
 20
401592.10605580691
 30
0.0
 11
-3870.7655717174748
 21
401622.10605580691
 31
0.0
  0
LINE
  5
64F4F
  8
0
  6
CONTINUOUS
 62
     0
 10
-3902.2135746588619
 20
401590.65805286547
 30
0.0
 11
-3900.7655717174648
 21
401592.10605580691
 31
0.0
  0
LINE
  5
64F50
  8
0
  6
CONTINUOUS
 62
     0
 10
-3812.2135746588729
 20
402017.4176574056
 30
0.0
 11
-3792.2135746588442
 21
402037.4176574056
 31
0.0
  0
LINE
  5
64F51
  8
0
  6
CONTINUOUS
 62
     0
 10
-3817.5251762575522
 20
402012.10605580691
 30
0.0
 11
-3812.2135746588729
 21
402017.4176574056
 31
0.0
  0
LINE
  5
64F52
  8
0
  6
CONTINUOUS
 62
     0
 10
-3854.8770971655799
 20
402042.10605580691
 30
0.0
 11
-3824.8770971655908
 21
402072.1060558068
 31
0.0
  0
LINE
  5
64F53
  8
0
  6
CONTINUOUS
 62
     0
 10
-3884.8770971655708
 20
402012.10605580691
 30
0.0
 11
-3854.8770971655799
 21
402042.10605580691
 31
0.0
  0
LINE
  5
64F54
  8
0
  6
CONTINUOUS
 62
     0
 10
-3902.213574658866
 20
402062.12149922171
 30
0.0
 11
-3892.22901807361
 21
402072.10605580691
 31
0.0
  0
ENDBLK
  5
64F56
  8
0
  0
BLOCK
  8
0
  2
*X52
 70
     1
 10
0.0
 20
0.0
 30
0.0
  3
*X52
  1

  0
LINE
  5
64F58
  8
0
  6
CONTINUOUS
 62
     0
 10
-1775.5041026609119
 20
401562.1060558068
 30
0.0
 11
-1764.2135746588319
 21
401573.39658380888
 31
0.0
  0
LINE
  5
64F59
  8
0
  6
CONTINUOUS
 62
     0
 10
-1812.856023568911
 20
401592.10605580691
 30
0.0
 11
-1782.856023568921
 21
401622.10605580691
 31
0.0
  0
LINE
  5
64F5A
  8
0
  6
CONTINUOUS
 62
     0
 10
-1842.856023568932
 20
401562.10605580691
 30
0.0
 11
-1812.8560235689699
 21
401592.1060558068
 31
0.0
  0
LINE
  5
64F5B
  8
0
  6
CONTINUOUS
 62
     0
 10
-1854.213574658854
 20
401618.10042562493
 30
0.0
 11
-1850.2079444769411
 21
401622.10605580691
 31
0.0
  0
LINE
  5
64F5C
  8
0
  6
CONTINUOUS
 62
     0
 10
-1874.213574658884
 20
401598.10042562493
 30
0.0
 11
-1854.213574658854
 21
401618.10042562493
 31
0.0
  0
LINE
  5
64F5D
  8
0
  6
CONTINUOUS
 62
     0
 10
-1766.967549017028
 20
402042.10605580691
 30
0.0
 11
-1764.213574658836
 21
402044.86003016512
 31
0.0
  0
LINE
  5
64F5E
  8
0
  6
CONTINUOUS
 62
     0
 10
-1796.967549016977
 20
402012.10605580697
 30
0.0
 11
-1766.967549017086
 21
402042.1060558068
 31
0.0
  0
LINE
  5
64F5F
  8
0
  6
CONTINUOUS
 62
     0
 10
-1854.2135746588619
 20
402022.21195107303
 30
0.0
 11
-1834.3194699250989
 21
402042.1060558068
 31
0.0
  0
LINE
  5
64F60
  8
0
  6
CONTINUOUS
 62
     0
 10
-1834.319469925053
 20
402042.1060558068
 30
0.0
 11
-1804.3194699250571
 21
402072.1060558068
 31
0.0
  0
LINE
  5
64F61
  8
0
  6
CONTINUOUS
 62
     0
 10
-1864.3194699250689
 20
402012.10605580691
 30
0.0
 11
-1854.2135746588619
 21
402022.21195107303
 31
0.0
  0
LINE
  5
64F62
  8
0
  6
CONTINUOUS
 62
     0
 10
-1874.2135746588569
 20
402069.56387198099
 30
0.0
 11
-1871.671390832995
 21
402072.10605580691
 31
0.0
  0
ENDBLK
  5
64F64
  8
0
  0
BLOCK
  8
0
  2
*U53
 70
     1
 10
0.0
 20
0.0
 30
0.0
  3
*U53
  1

  0
INSERT
  5
64F66
  8
S-OBRYS
  6
CONTINUOUS
  2
_OPEN
 10
-3812.2135746588392
 20
401592.10605580691
 30
0.0
 41
100.0
 42
100.0
 43
100.0
 50
117.8048367520158
  0
POLYLINE
  5
64F67
  8
S-OBRYS
  6
CONTINUOUS
 66
     1
 10
0.0
 20
0.0
 30
0.0
  0
VERTEX
  5
64F68
  8
S-OBRYS
  6
CONTINUOUS
 10
-3765.5674434019029
 20
401503.65189570817
 30
0.0
  0
VERTEX
  5
64F69
  8
S-OBRYS
  6
CONTINUOUS
 10
-3555.1363608809738
 20
401104.61548772582
 30
0.0
  0
SEQEND
  5
64F6A
  8
S-OBRYS
  6
CONTINUOUS
  0
ENDBLK
  5
64F6C
  8
0
  0
BLOCK
  8
0
  2
*U54
 70
     1
 10
0.0
 20
0.0
 30
0.0
  3
*U54
  1

  0
TEXT
  5
64F6E
  8
S-OBRYS
  6
CONTINUOUS
 62
     7
 10
-1493.413490709152
 20
402030.89097691549
 30
0.0
 40
100.0
  1
700
 41
0.8
  0
ENDBLK
  5
64F70
  8
0
  0
BLOCK
  8
0
  2
*U55
 70
     1
 10
0.0
 20
0.0
 30
0.0
  3
*U55
  1

  0
TEXT
  5
64F72
  8
S-OBRYS
  6
CONTINUOUS
 62
     7
 10
-4590.4992889445548
 20
402299.80299217481
 30
0.0
 40
100.0
  1
900
 41
0.8
  0
ENDBLK
  5
64F74
  8
0
  0
BLOCK
  8
0
  2
*U56
 70
     1
 10
0.0
 20
0.0
 30
0.0
  3
*U56
  1

  0
TEXT
  5
64F76
  8
S-OBRYS
  6
CONTINUOUS
 62
     7
 10
-7564.7718583270462
 20
406711.57014003111
 30
0.0
 40
100.0
  1
100
 41
0.8
  0
ENDBLK
  5
64F78
  8
0
  0
BLOCK
  8
0
  2
*U57
 70
     1
 10
0.0
 20
0.0
 30
0.0
  3
*U57
  1

  0
TEXT
  5
64F7A
  8
S-OBRYS
  6
CONTINUOUS
 62
     7
 10
-8078.914715469904
 20
406594.59802292672
 30
0.0
 40
100.0
  1
292
 41
0.8
  0
ENDBLK
  5
64F7C
  8
0
  0
BLOCK
  8
0
  2
*U58
 70
     1
 10
0.0
 20
0.0
 30
0.0
  3
*U58
  1

  0
TEXT
  5
64F7E
  8
S-OBRYS
  6
CONTINUOUS
 62
     7
 10
-6740.6528107079976
 20
406867.43595794972
 30
0.0
 40
100.0
  1
2297
 41
0.8
  0
ENDBLK
  5
64F80
  8
0
  0
BLOCK
  8
0
  2
*U59
 70
     1
 10
0.0
 20
0.0
 30
0.0
  3
*U59
  1

  0
TEXT
  5
64F82
  8
S-OBRYS
  6
CONTINUOUS
 62
     7
 10
-7937.3040436281372
 20
405600.22365245299
 30
0.0
 40
100.0
  1
1455
 50
90.0
 41
0.8
  0
ENDBLK
  5
64F84
  8
0
  0
BLOCK
  8
0
  2
*U60
 70
     1
 10
0.0
 20
0.0
 30
0.0
  3
*U60
  1

  0
TEXT
  5
64F86
  8
S-OBRYS
  6
CONTINUOUS
 62
     7
 10
-6068.6733281090128
 20
405224.6284143579
 30
0.0
 40
100.0
  1
600
 50
90.0
 41
0.8
  0
ENDBLK
  5
64F88
  8
0
  0
BLOCK
  8
0
  2
*U61
 70
     1
 10
0.0
 20
0.0
 30
0.0
  3
*U61
  1

  0
TEXT
  5
64F8A
  8
S-OBRYS
  6
CONTINUOUS
 62
     7
 10
-5329.7004297556168
 20
405534.32216486969
 30
0.0
 40
100.0
  1
219x219
 41
0.8
  0
ENDBLK
  5
64F8C
  8
0
  0
BLOCK
  8
0
  2
*U62
 70
     1
 10
0.0
 20
0.0
 30
0.0
  3
*U62
  1

  0
TEXT
  5
64F8E
  8
S-OBRYS
  6
CONTINUOUS
 62
     7
 10
-2425.144254799703
 20
405645.5138302063
 30
0.0
 40
100.0
  1
1065
 50
90.0
 41
0.8
  0
ENDBLK
  5
64F90
  8
0
  0
BLOCK
  8
0
  2
*U63
 70
     1
 10
0.0
 20
0.0
 30
0.0
  3
*U63
  1

  0
TEXT
  5
64F92
  8
S-OBRYS
  6
CONTINUOUS
 62
     7
 10
-3097.9213521624752
 20
405098.59680368542
 30
0.0
 40
100.0
  1
510
 41
0.8
  0
ENDBLK
  5
64F94
  8
0
  0
BLOCK
  8
0
  2
*U64
 70
     1
 10
0.0
 20
0.0
 30
0.0
  3
*U64
  1

  0
TEXT
  5
64F96
  8
S-OBRYS
  6
CONTINUOUS
 62
     7
 10
-4236.7457389355741
 20
401702.82034152112
 30
0.0
 40
100.0
  1
450
 50
90.0
 41
0.8
  0
ENDBLK
  5
64F98
  8
0
  0
BLOCK
  8
0
  2
*U65
 70
     1
 10
0.0
 20
0.0
 30
0.0
  3
*U65
  1

  0
TEXT
  5
64F9A
  8
S-OBRYS
  6
CONTINUOUS
 62
     7
 10
-2308.1659556112199
 20
401430.28763487138
 30
0.0
 40
100.0
  1
88
 41
0.8
  0
ENDBLK
  5
64F9C
  8
0
  0
BLOCK
  8
0
  2
*U66
 70
     1
 10
0.0
 20
0.0
 30
0.0
  3
*U66
  1

  0
TEXT
  5
64F9E
  8
S-OBRYS
  6
CONTINUOUS
 62
     7
 10
-2230.3333816879522
 20
401752.82034152112
 30
0.0
 40
100.0
  1
280
 50
90.0
 41
0.8
  0
ENDBLK
  5
64FA0
  8
0
  0
BLOCK
  8
0
  2
*U67
 70
     1
 10
0.0
 20
0.0
 30
0.0
  3
*U67
  1

  0
TEXT
  5
64FA2
  8
S-OBRYS
  6
CONTINUOUS
 62
     7
 10
-1597.831930464007
 20
401795.79443489568
 30
0.0
 40
100.0
  1
280
 41
0.8
  0
ENDBLK
  5
64FA4
  8
0
  0
BLOCK
  8
0
  2
*U68
 70
     1
 10
0.0
 20
0.0
 30
0.0
  3
*U68
  1

  0
TEXT
  5
64FA6
  8
S-OBRYS
  6
CONTINUOUS
 62
     7
 10
-3598.6421460874099
 20
402299.80299217481
 30
0.0
 40
100.0
  1
214
 41
0.8
  0
ENDBLK
  5
64FA8
  8
0
  0
BLOCK
  8
0
  2
*U69
 70
     1
 10
0.0
 20
0.0
 30
0.0
  3
*U69
  1

  0
TEXT
  5
64FAA
  8
S-OBRYS
  6
CONTINUOUS
 62
     7
 10
-2991.3088127540768
 20
402220.5589636715
 30
0.0
 40
100.0
  1
1958
 41
0.8
  0
ENDBLK
  5
64FAC
  8
0
  0
ENDSEC
  0
SECTION
  2
ENTITIES
  0
TEXT
  5
2F7A5
  8
KOTY
 10
-393803.77638965531
 20
-299016.15321175661
 30
0.0
 40
150.0
  1

 41
0.7
  7
ROMANT
  0
TEXT
  5
3AD8B
  8
KOTY
 10
-14797.18019204357
 20
454294.55370899959
 30
0.0
 40
150.0
  1

 41
0.7
  7
ROMANT
  0
TEXT
  5
404AD
  8
KOTY
 10
44010.2314385153
 20
465617.23741859582
 30
0.0
 40
92.0
  1

 41
0.7
  7
CYRILLIC
  0
TEXT
  5
404B4
  8
KOTY
 10
39575.071591094718
 20
465613.29777162091
 30
0.0
 40
92.0
  1

 41
0.7
  7
CYRILLIC
  0
TEXT
  5
40B14
  8
KOTY
 10
5856.0590664841584
 20
486921.1132385282
 30
0.0
 40
150.0
  1

 41
0.7
  7
ROMANT
  0
TEXT
  5
40BFC
  8
KOTY
 10
8767.7265956277752
 20
466337.2608060218
 30
0.0
 40
150.0
  1

 41
0.7
  7
ROMANS
  0
TEXT
  5
51A7C
  8
KOTY
 10
-47677.341387967608
 20
395133.71812193602
 30
0.0
 40
150.0
  1

 41
0.7
  7
ROMANS
  0
TEXT
  5
51A94
  8
KOTY
 10
-45176.819295693742
 20
395133.7181219359
 30
0.0
 40
150.0
  1

 41
0.7
  7
ROMANS
  0
TEXT
  5
51A9B
  8
KOTY
 10
-48084.423320344351
 20
397411.27855615731
 30
0.0
 40
150.0
  1

 41
0.7
  7
ROMANT
  0
TEXT
  5
51B05
  8
RAZ
 62
     6
 10
-47365.887544580757
 20
392999.37567832542
 30
0.0
 40
193.54103193599991
  1

 41
0.8
  7
R08
  0
TEXT
  5
51B06
  8
RAZ
 62
     1
 10
-47245.037660778231
 20
393401.77274166199
 30
0.0
 40
125.41458869452801
  1

  7
ROMANS
  0
TEXT
  5
58307
  8
KOTY
 10
22966.528519463162
 20
383405.87475258159
 30
0.0
 40
150.0
  1

 41
0.7
  7
ROMANS
  0
TEXT
  5
58308
  8
KOTY
 10
22966.528519463169
 20
383855.87475258159
 30
0.0
 40
150.0
  1

 41
0.7
  7
ROMANS
  0
TEXT
  5
58315
  8
KOTY
 10
25467.050611737021
 20
383855.87475258141
 30
0.0
 40
150.0
  1

 41
0.7
  7
ROMANS
  0
TEXT
  5
58316
  8
KOTY
 10
25467.050611737021
 20
383405.87475258141
 30
0.0
 40
150.0
  1

 41
0.7
  7
ROMANS
  0
TEXT
  5
5833F
  8
KOTY
 10
22966.528519463162
 20
385205.87475258153
 30
0.0
 40
150.0
  1

 41
0.7
  7
ROMANS
  0
TEXT
  5
58340
  8
KOTY
 10
22966.528519463169
 20
385655.87475258159
 30
0.0
 40
150.0
  1

 41
0.7
  7
ROMANS
  0
TEXT
  5
58354
  8
KOTY
 10
25467.050611737021
 20
385655.87475258141
 30
0.0
 40
150.0
  1

 41
0.7
  7
ROMANS
  0
TEXT
  5
58355
  8
KOTY
 10
25467.050611737021
 20
385205.87475258141
 30
0.0
 40
150.0
  1

 41
0.7
  7
ROMANS
  0
TEXT
  5
58397
  8
KOTY
 10
25467.050611737039
 20
390605.87475258129
 30
0.0
 40
150.0
  1

 41
0.7
  7
ROMANS
  0
TEXT
  5
58398
  8
KOTY
 10
25467.050611737039
 20
391055.87475258141
 30
0.0
 40
150.0
  1

 41
0.7
  7
ROMANS
  0
TEXT
  5
583C1
  8
KOTY
 10
25467.050611737031
 20
389255.87475258141
 30
0.0
 40
150.0
  1

 41
0.7
  7
ROMANS
  0
TEXT
  5
58C84
  8
KOTY
 10
22966.52851946322
 20
387905.87475258153
 30
0.0
 40
150.0
  1

 41
0.7
  7
ROMANS
  0
LINE
  5
646ED
  8
S-OBRYS
  6
CONTINUOUS
 10
-10069.163241140021
 20
395724.47772383859
 30
0.0
 11
430.83675885998667
 21
395724.47772383859
 31
0.0
  0
LINE
  5
646EE
  8
S-OBRYS
  6
CONTINUOUS
 10
430.83675885998667
 20
395724.47772383859
 30
0.0
 11
430.83675885998667
 21
410574.47772383859
 31
0.0
  0
LINE
  5
646EF
  8
S-OBRYS
  6
CONTINUOUS
 10
430.83675885998667
 20
410574.47772383859
 30
0.0
 11
-10069.16324114001
 21
410574.47772383859
 31
0.0
  0
LINE
  5
646F0
  8
S-OBRYS
  6
CONTINUOUS
 10
-10069.16324114001
 20
410574.47772383859
 30
0.0
 11
-10069.163241140021
 21
395724.47772383859
 31
0.0
  0
INSERT
  5
6498E
  8
S-OBRYS
  6
CONTINUOUS
  2
*U46
 10
0.0
 20
0.0
 30
0.0
  0
LINE
  5
64B80
  8
S-OBRYS
  6
CONTINUOUS
 10
-7736.7718583270453
 20
406095.81878804829
 30
0.0
 11
-5439.7718583270453
 21
406095.81878804829
 31
0.0
  0
LINE
  5
64B81
  8
S-OBRYS
  6
CONTINUOUS
 10
-5439.7718583270453
 20
405795.81893084839
 30
0.0
 11
-7586.771929727046
 21
405795.81893084839
 31
0.0
  0
LINE
  5
64B82
  8
S-OBRYS
  6
CONTINUOUS
 10
-5543.2718583270453
 20
405695.81897844828
 30
0.0
 11
-7511.7719654270459
 21
405695.81897844828
 31
0.0
  0
LINE
  5
64B83
  8
S-OBRYS
  6
CONTINUOUS
 10
-8413.3105282049073
 20
401562.10605580691
 30
0.0
 11
-6291.3107497049086
 21
401562.10605580691
 31
0.0
  0
LINE
  5
64B84
  8
S-OBRYS
  6
CONTINUOUS
 10
-6291.3107497049086
 20
402072.1060558068
 30
0.0
 11
-8413.3105282049073
 21
402072.1060558068
 31
0.0
  0
LINE
  5
64B85
  8
S-OBRYS
  6
CONTINUOUS
 10
-8541.8913230634189
 20
402022.1060796068
 30
0.0
 11
-6244.8913230634189
 21
402022.1060796068
 31
0.0
  0
LINE
  5
64B86
  8
S-OBRYS
  6
CONTINUOUS
 10
-6244.8913230634189
 20
401612.10603200679
 30
0.0
 11
-8541.8913230634189
 21
401612.10603200679
 31
0.0
  0
LINE
  5
64B87
  8
S-OBRYS
  6
CONTINUOUS
 10
-1874.213574658839
 20
401562.10605580691
 30
0.0
 11
-3792.2135746588401
 21
401562.10605580691
 31
0.0
  0
LINE
  5
64B88
  8
S-OBRYS
  6
CONTINUOUS
 10
-3792.2135746588401
 20
402072.1060558068
 30
0.0
 11
-1874.213574658839
 21
402072.1060558068
 31
0.0
  0
LINE
  5
64B89
  8
S-OBRYS
  6
CONTINUOUS
 10
-4026.2135746588392
 20
401817.10605580691
 30
0.0
 11
-1729.213574658839
 21
401817.10605580691
 31
0.0
  0
LINE
  5
64B8A
  8
S-OBRYS
  6
CONTINUOUS
 10
-7928.2376544408553
 20
401763.60607960692
 30
0.0
 11
-7928.2376544408553
 21
401813.6060558068
 31
0.0
  0
LINE
  5
64B8B
  8
S-OBRYS
  6
CONTINUOUS
 10
-8150.3107021049082
 20
401763.60607960692
 30
0.0
 11
-8150.3107021049082
 21
401813.6060558068
 31
0.0
  0
LINE
  5
64B8C
  8
S-OBRYS
  6
CONTINUOUS
 10
-8300.3106307049093
 20
401813.6060558068
 30
0.0
 11
-8300.3106307049093
 21
401763.60607960692
 31
0.0
  0
LINE
  5
64B8D
  8
S-OBRYS
  6
CONTINUOUS
 10
-8541.8913230634189
 20
401612.10603200679
 30
0.0
 11
-8541.8913230634189
 21
402022.1060796068
 31
0.0
  0
LINE
  5
64B8E
  8
S-OBRYS
  6
CONTINUOUS
 10
-4026.2135746588392
 20
402017.10596060677
 30
0.0
 11
-4026.2135746588392
 21
401617.10615100682
 31
0.0
  0
INSERT
  5
64B8F
  8
S-OBRYS
  6
CONTINUOUS
  2
*X51
 10
0.0
 20
0.0
 30
0.0
1001
ACAD
1000
HATCH
1002
{
1070
    19
1000
ANSI31
1040
15.0
1040
0.0
1000
R14_HATCH_DATA
1000
64B8F
1011
1.0
1021
0.0
1031
0.0
1021
0.0
1031
0.0
1011
0.0
1021
0.0
1031
0.0
1021
1.0
1031
0.0
1011
0.0
1021
0.0
1031
0.0
1021
0.0
1031
1.0
1040
0.0
1010
0.0
1020
0.0
1030
1.0
1000
ANSI31
1070
     0
1070
     0
1071
        8
1071
        7
1070
     0
1070
     1
1071
        4
1040
-3812.2135746588392
1040
402042.1060558068
1040
-3812.2135746588392
1040
402072.1060558068
1040
-3902.2135746588392
1040
402072.1060558068
1040
-3902.2135746588392
1040
402042.1060558068
1071
        0
1071
        7
1070
     0
1070
     1
1071
        4
1040
-3792.2135746588401
1040
402072.1060558068
1040
-3812.2135746588392
1040
402072.1060558068
1040
-3812.2135746588392
1040
402042.1060558068
1040
-3792.2135746588401
1040
402042.1060558068
1071
        0
1071
        7
1070
     0
1070
     1
1071
        4
1040
-3792.2135746588401
1040
402042.1060558068
1040
-3812.2135746588392
1040
402042.1060558068
1040
-3812.2135746588392
1040
402012.10605580691
1040
-3792.2135746588401
1040
402012.10605580691
1071
        0
1071
        7
1070
     0
1070
     1
1071
        4
1040
-3812.2135746588392
1040
402012.10605580691
1040
-3812.2135746588392
1040
402042.1060558068
1040
-3902.2135746588392
1040
402042.1060558068
1040
-3902.2135746588392
1040
402012.10605580691
1071
        0
1071
        7
1070
     0
1070
     1
1071
        4
1040
-3812.2135746588392
1040
401592.10605580691
1040
-3812.2135746588392
1040
401622.10605580691
1040
-3902.2135746588392
1040
401622.10605580691
1040
-3902.2135746588392
1040
401592.10605580691
1071
        0
1071
        7
1070
     0
1070
     1
1071
        4
1040
-3792.2135746588401
1040
401622.10605580691
1040
-3812.2135746588392
1040
401622.10605580691
1040
-3812.2135746588392
1040
401592.10605580691
1040
-3792.2135746588401
1040
401592.10605580691
1071
        0
1071
        7
1070
     0
1070
     1
1071
        4
1040
-3792.2135746588401
1040
401592.10605580691
1040
-3812.2135746588392
1040
401592.10605580691
1040
-3812.2135746588392
1040
401562.10605580691
1040
-3792.2135746588401
1040
401562.10605580691
1071
        0
1071
        7
1070
     0
1070
     1
1071
        4
1040
-3812.2135746588392
1040
401562.10605580691
1040
-3812.2135746588392
1040
401592.10605580691
1040
-3902.2135746588392
1040
401592.10605580691
1040
-3902.2135746588392
1040
401562.10605580691
1071
        0
1070
     0
1070
     1
1040
0.0
1040
15.0
1070
     0
1070
     1
1040
0.7853981633974483
1040
-3045.7338122294041
1040
402379.78589438688
1040
-33.675960454009321
1040
33.675960454009328
1070
     0
1040
2.2634797423853268
1071
        8
1040
-3827.0972397667811
1040
402052.46511111781
1040
0.0
1040
-3802.1704109616448
1040
402052.46511111781
1040
0.0
1040
-3802.1704109616448
1040
402025.30335498659
1040
0.0
1040
-3829.3633141309929
1040
402023.03987020731
1040
0.0
1040
-3836.16154802243
1040
401606.55959524377
1040
0.0
1040
-3802.1704109616448
1040
401604.29611658648
1040
0.0
1040
-3802.1704109616448
1040
401577.13436045533
1040
0.0
1040
-3833.8954736582182
1040
401570.34391836153
1040
0.0
1002
}
  0
LINE
  5
64B90
  8
S-OBRYS
  6
CONTINUOUS
 10
-4026.2135746588392
 20
401617.10615100682
 30
0.0
 11
-3902.2135746588392
 21
401617.10615100682
 31
0.0
  0
LINE
  5
64B91
  8
S-OBRYS
  6
CONTINUOUS
 10
-8200.3106783049097
 20
401763.60607960692
 30
0.0
 11
-8150.3107021049082
 21
401763.60607960692
 31
0.0
  0
LINE
  5
64B92
  8
S-OBRYS
  6
CONTINUOUS
 10
-3915.7781910077738
 20
401592.10605580691
 30
0.0
 11
-3762.5693400548721
 21
401592.10605580691
 31
0.0
  0
LINE
  5
64B93
  8
S-OBRYS
  6
CONTINUOUS
 10
-8413.3105282049073
 20
401612.10603200679
 30
0.0
 11
-8413.3105282049073
 21
401562.10605580691
 31
0.0
  0
LINE
  5
64B94
  8
S-OBRYS
  6
CONTINUOUS
 10
-3902.2135746588392
 20
401622.10605580691
 30
0.0
 11
-3902.2135746588392
 21
401562.10605580691
 31
0.0
  0
LINE
  5
64B95
  8
S-OBRYS
  6
CONTINUOUS
 10
-3792.2135746588401
 20
401622.10605580691
 30
0.0
 11
-3792.2135746588401
 21
401562.10605580691
 31
0.0
  0
LINE
  5
64B96
  8
S-OBRYS
  6
CONTINUOUS
 10
-3902.2135746588392
 20
401562.10605580691
 30
0.0
 11
-3792.2135746588401
 21
401562.10605580691
 31
0.0
  0
LINE
  5
64B97
  8
S-OBRYS
  6
CONTINUOUS
 10
-3902.2135746588392
 20
401622.10605580691
 30
0.0
 11
-3792.2135746588401
 21
401622.10605580691
 31
0.0
  0
LINE
  5
64B98
  8
S-OBRYS
  6
CONTINUOUS
 10
-8300.3106307049093
 20
401763.60607960692
 30
0.0
 11
-8200.3106783049097
 21
401763.60607960692
 31
0.0
  0
LINE
  5
64B99
  8
S-OBRYS
  6
CONTINUOUS
 10
-8200.3106783049097
 20
401763.60607960692
 30
0.0
 11
-8200.3106783049097
 21
401763.60607960692
 31
0.0
  0
LINE
  5
64B9A
  8
S-OBRYS
  6
CONTINUOUS
 10
-8093.0019890305311
 20
401763.60607960692
 30
0.0
 11
-7928.2376544408553
 21
401763.60607960692
 31
0.0
  0
LINE
  5
64B9B
  8
S-OBRYS
  6
CONTINUOUS
 10
-8150.3107021049082
 20
401763.60607960692
 30
0.0
 11
-8100.3107259049093
 21
401763.60607960692
 31
0.0
  0
LINE
  5
64B9C
  8
S-OBRYS
  6
CONTINUOUS
 10
-8150.3107021049082
 20
401763.60607960692
 30
0.0
 11
-8150.3107021049082
 21
401763.60607960692
 31
0.0
  0
LINE
  5
64B9D
  8
S-OBRYS
  6
CONTINUOUS
 10
-8093.0019890305311
 20
401763.60607960692
 30
0.0
 11
-8093.0019890305311
 21
401763.60607960692
 31
0.0
  0
LINE
  5
64B9E
  8
S-OBRYS
  6
CONTINUOUS
 10
-8100.3107259049093
 20
401763.60607960692
 30
0.0
 11
-8100.3107259049093
 21
401763.60607960692
 31
0.0
  0
LINE
  5
64B9F
  8
S-OBRYS
  6
CONTINUOUS
 10
-8100.3107259049093
 20
401763.60607960692
 30
0.0
 11
-8093.0019890305311
 21
401763.60607960692
 31
0.0
  0
LINE
  5
64BA0
  8
S-OBRYS
  6
CONTINUOUS
 10
-4026.2135746588392
 20
402017.10596060677
 30
0.0
 11
-3902.2135746588392
 21
402017.10596060677
 31
0.0
  0
LINE
  5
64BA1
  8
S-OBRYS
  6
CONTINUOUS
 10
-8328.2377688408542
 20
401988.6060558068
 30
0.0
 11
-8093.0019890305311
 21
401988.6060558068
 31
0.0
  0
LINE
  5
64BA2
  8
S-OBRYS
  6
CONTINUOUS
 10
-8093.0019890305311
 20
401813.6060558068
 30
0.0
 11
-8328.2377688408542
 21
401813.6060558068
 31
0.0
  0
LINE
  5
64BA3
  8
S-OBRYS
  6
CONTINUOUS
 10
-8328.2377688408542
 20
401813.6060558068
 30
0.0
 11
-8328.2377688408542
 21
401988.6060558068
 31
0.0
  0
CIRCLE
  5
64BA4
  8
S-OBRYS
  6
CONTINUOUS
 10
-8249.8913230634189
 20
401901.1060558068
 30
0.0
 40
49.999999821999992
  0
LINE
  5
64BA5
  8
S-OBRYS
  6
CONTINUOUS
 10
-3915.7781910077738
 20
402042.1060558068
 30
0.0
 11
-3762.5693400548721
 21
402042.1060558068
 31
0.0
  0
LINE
  5
64BA6
  8
S-OBRYS
  6
CONTINUOUS
 10
-3812.2135746588392
 20
401993.31099512632
 30
0.0
 11
-3812.2135746588392
 21
402097.6518899707
 31
0.0
  0
LINE
  5
64BA7
  8
S-OBRYS
  6
CONTINUOUS
 10
-3902.2135746588392
 20
402072.1060558068
 30
0.0
 11
-3792.2135746588401
 21
402072.1060558068
 31
0.0
  0
LINE
  5
64BA8
  8
S-OBRYS
  6
CONTINUOUS
 10
-3902.2135746588392
 20
402012.10605580691
 30
0.0
 11
-3792.2135746588401
 21
402012.10605580691
 31
0.0
  0
LINE
  5
64BA9
  8
S-OBRYS
  6
CONTINUOUS
 10
-8413.3105282049073
 20
402072.1060558068
 30
0.0
 11
-8413.3105282049073
 21
402022.1060796068
 31
0.0
  0
LINE
  5
64BAA
  8
S-OBRYS
  6
CONTINUOUS
 10
-3902.2135746588392
 20
402012.10605580691
 30
0.0
 11
-3902.2135746588392
 21
402072.1060558068
 31
0.0
  0
LINE
  5
64BAB
  8
S-OBRYS
  6
CONTINUOUS
 10
-3792.2135746588401
 20
402012.10605580691
 30
0.0
 11
-3792.2135746588401
 21
402072.1060558068
 31
0.0
  0
LINE
  5
64BAC
  8
S-OBRYS
  6
CONTINUOUS
 10
-8093.0019890305311
 20
401988.6060558068
 30
0.0
 11
-8093.0019890305311
 21
401813.6060558068
 31
0.0
  0
LINE
  5
64BAD
  8
S-OBRYS
  6
CONTINUOUS
 10
-8150.3107021049082
 20
401788.6057629069
 30
0.0
 11
-7928.2376544408553
 21
401788.6057629069
 31
0.0
  0
LINE
  5
64BAE
  8
S-OBRYS
  6
CONTINUOUS
 10
-7928.2376544408553
 20
401813.6060558068
 30
0.0
 11
-8093.0019890305311
 21
401813.6060558068
 31
0.0
  0
LINE
  5
64BAF
  8
S-OBRYS
  6
CONTINUOUS
 10
-7067.946026516096
 20
405330.81874774839
 30
0.0
 11
-7529.7363007231652
 21
405330.81874774839
 31
0.0
  0
LINE
  5
64BB0
  8
S-OBRYS
  6
CONTINUOUS
 10
-7086.7718629270448
 20
405180.81881914841
 30
0.0
 11
-7486.7719773270446
 21
405180.81881914841
 31
0.0
  0
LINE
  5
64BB1
  8
S-OBRYS
  6
CONTINUOUS
 10
-7486.7719773270446
 20
405480.81867634843
 30
0.0
 11
-7086.7718629270448
 21
405480.81867634843
 31
0.0
  0
LINE
  5
64BB2
  8
S-OBRYS
  6
CONTINUOUS
 10
-7736.7718583270453
 20
405105.8185500484
 30
0.0
 11
-7736.7718583270453
 21
406095.81878804829
 31
0.0
  0
LINE
  5
64BB3
  8
S-OBRYS
  6
CONTINUOUS
 10
-7586.771929727046
 20
405105.8185500484
 30
0.0
 11
-7736.7718583270453
 21
405105.8185500484
 31
0.0
  0
LINE
  5
64BB4
  8
S-OBRYS
  6
CONTINUOUS
 10
-7186.7721201270469
 20
405180.81881914841
 30
0.0
 11
-7186.7721201270469
 21
405480.81867634843
 31
0.0
  0
LINE
  5
64BB5
  8
S-OBRYS
  6
CONTINUOUS
 10
-7486.7719773270446
 20
405530.81924944842
 30
0.0
 11
-7486.7719773270446
 21
405130.81884294841
 31
0.0
  0
LINE
  5
64BB6
  8
S-OBRYS
  6
CONTINUOUS
 10
-7511.7719654270459
 20
405695.81897844828
 30
0.0
 11
-7511.7719654270459
 21
405065.8185738484
 31
0.0
  0
LINE
  5
64BB7
  8
S-OBRYS
  6
CONTINUOUS
 10
-7586.771929727046
 20
405795.81893084839
 30
0.0
 11
-7586.771929727046
 21
405040.81889054843
 31
0.0
  0
LINE
  5
64BB8
  8
S-OBRYS
  6
CONTINUOUS
 10
-7486.7719773270446
 20
405305.81845484843
 30
0.0
 11
-7186.7721201270469
 21
405305.81845484843
 31
0.0
  0
LINE
  5
64BB9
  8
S-OBRYS
  6
CONTINUOUS
 10
-7186.7721201270469
 20
405255.81908824848
 30
0.0
 11
-7486.7719773270446
 21
405255.81908824848
 31
0.0
  0
LINE
  5
64BBA
  8
S-OBRYS
  6
CONTINUOUS
 10
-7486.7719773270446
 20
405205.81850244838
 30
0.0
 11
-7186.7721201270469
 21
405205.81850244838
 31
0.0
  0
LINE
  5
64BBB
  8
S-OBRYS
  6
CONTINUOUS
 10
-7186.7721201270469
 20
405455.81899304839
 30
0.0
 11
-7486.7719773270446
 21
405455.81899304839
 31
0.0
  0
LINE
  5
64BBC
  8
S-OBRYS
  6
CONTINUOUS
 10
-7486.7719773270446
 20
405405.8184072483
 30
0.0
 11
-7186.7721201270469
 21
405405.8184072483
 31
0.0
  0
LINE
  5
64BBD
  8
S-OBRYS
  6
CONTINUOUS
 10
-7186.7721201270469
 20
405355.81904064841
 30
0.0
 11
-7486.7719773270446
 21
405355.81904064841
 31
0.0
  0
LINE
  5
64BBE
  8
S-OBRYS
  6
CONTINUOUS
 10
-7486.7719773270446
 20
405130.81884294841
 30
0.0
 11
-7511.7719654270459
 21
405130.81884294841
 31
0.0
  0
LINE
  5
64BBF
  8
S-OBRYS
  6
CONTINUOUS
 10
-7586.771929727046
 20
405040.81889054843
 30
0.0
 11
-7436.7720011270458
 21
405040.81889054843
 31
0.0
  0
LINE
  5
64BC0
  8
S-OBRYS
  6
CONTINUOUS
 10
-7436.7720011270458
 20
405065.8185738484
 30
0.0
 11
-7586.771929727046
 21
405065.8185738484
 31
0.0
  0
LINE
  5
64BC1
  8
S-OBRYS
  6
CONTINUOUS
 10
-7436.7720011270458
 20
405040.81889054843
 30
0.0
 11
-7436.7720011270458
 21
405065.8185738484
 31
0.0
  0
LINE
  5
64BC2
  8
S-OBRYS
  6
CONTINUOUS
 10
-7511.7719654270459
 20
405530.81924944842
 30
0.0
 11
-7486.7719773270446
 21
405530.81924944842
 31
0.0
  0
LINE
  5
64BC3
  8
S-OBRYS
  6
CONTINUOUS
 10
-7371.1183041044806
 20
406145.81816734839
 30
0.0
 11
-7290.6480843367863
 21
406389.92974027927
 31
0.0
  0
LINE
  5
64BC4
  8
S-OBRYS
  6
CONTINUOUS
 10
-7523.1183041044796
 20
406435.8187880484
 30
0.0
 11
-7523.1183041044796
 21
406095.81878804829
 31
0.0
  0
LINE
  5
64BC5
  8
S-OBRYS
  6
CONTINUOUS
 10
-7464.3314419481821
 20
406386.15896717919
 30
0.0
 11
-7414.3314657481806
 21
406386.15896717919
 31
0.0
  0
LINE
  5
64BC6
  8
S-OBRYS
  6
CONTINUOUS
 10
-7414.3314657481806
 20
406423.3189400484
 30
0.0
 11
-7306.4397096891053
 21
406423.3189400484
 31
0.0
  0
LINE
  5
64BC7
  8
S-OBRYS
  6
CONTINUOUS
 10
-7123.1181897044808
 20
406435.8187880484
 30
0.0
 11
-7287.8825242941584
 21
406435.8187880484
 31
0.0
  0
LINE
  5
64BC8
  8
S-OBRYS
  6
CONTINUOUS
 10
-7414.3314657481806
 20
406410.81909204839
 30
0.0
 11
-7414.3314657481806
 21
406435.8187880484
 31
0.0
  0
LINE
  5
64BC9
  8
S-OBRYS
  6
CONTINUOUS
 10
-7123.1181897044808
 20
406423.3189400484
 30
0.0
 11
-7123.1181897044808
 21
406435.8187880484
 31
0.0
  0
LINE
  5
64BCA
  8
S-OBRYS
  6
CONTINUOUS
 10
-7086.7718629270448
 20
405480.81867634843
 30
0.0
 11
-7086.7718629270448
 21
405180.81881914841
 31
0.0
  0
LINE
  5
64BCB
  8
S-OBRYS
  6
CONTINUOUS
 10
-6244.8913230634189
 20
402022.1060796068
 30
0.0
 11
-6244.8913230634189
 21
401612.10603200679
 31
0.0
  0
LINE
  5
64BCC
  8
S-OBRYS
  6
CONTINUOUS
 10
-1729.213574658839
 20
402017.10596060677
 30
0.0
 11
-1729.213574658839
 21
401617.10615100682
 31
0.0
  0
INSERT
  5
64BCD
  8
S-OBRYS
  6
CONTINUOUS
  2
*X52
 10
0.0
 20
0.0
 30
0.0
1001
ACAD
1000
HATCH
1002
{
1070
    19
1000
ANSI31
1040
15.0
1040
0.0
1000
ASC_BOUNDS
1070
     8
1070
     1
1070
     4
1005
64BD4
1005
64BCF
1005
64BD2
1005
64BD0
1070
     1
1070
     4
1005
64BD4
1005
64BD0
1005
64BD2
1005
64BCE
1070
     1
1070
     4
1005
64BD2
1005
64BCF
1005
64BD1
1005
64BD0
1070
     1
1070
     4
1005
64BD2
1005
64BD0
1005
64BD1
1005
64BCE
1070
     1
1070
     4
1005
64BDD
1005
64BD8
1005
64BDA
1005
64BD6
1070
     1
1070
     4
1005
64BDD
1005
64BD6
1005
64BDA
1005
64BD7
1070
     1
1070
     4
1005
64BDA
1005
64BD8
1005
64BDB
1005
64BD6
1070
     1
1070
     4
1005
64BDA
1005
64BD6
1005
64BDB
1005
64BD7
1000
ASC_SEEDPOINT
1011
-1863.404180081201
1021
0.0
1031
0.0
1021
402058.09620660241
1031
0.0
1000
R14_HATCH_DATA
1000
64BCD
1011
1.0
1021
0.0
1031
0.0
1021
0.0
1031
0.0
1011
0.0
1021
0.0
1031
0.0
1021
1.0
1031
0.0
1011
0.0
1021
0.0
1031
0.0
1021
0.0
1031
1.0
1040
0.0
1010
0.0
1020
0.0
1030
1.0
1000
ANSI31
1070
     0
1070
     1
1071
        8
1071
        7
1070
     0
1070
     1
1071
        4
1040
-1854.213574658841
1040
402072.1060558068
1040
-1874.2135746588369
1040
402072.10605580691
1040
-1874.2135746588369
1040
402042.1060558068
1040
-1854.213574658839
1040
402042.1060558068
1071
        4
1005
64BD7
1005
64BDB
1005
64BD6
1005
64BDA
1071
        7
1070
     0
1070
     1
1071
        4
1040
-1854.213574658839
1040
402042.1060558068
1040
-1874.213574658839
1040
402042.10605580691
1040
-1874.213574658839
1040
402012.1060558068
1040
-1854.213574658841
1040
402012.1060558068
1071
        4
1005
64BD6
1005
64BDB
1005
64BD8
1005
64BDA
1071
        7
1070
     0
1070
     1
1071
        4
1040
-1764.213574658839
1040
402042.1060558068
1040
-1764.213574658839
1040
402072.1060558068
1040
-1854.213574658841
1040
402072.1060558068
1040
-1854.213574658839
1040
402042.1060558068
1071
        4
1005
64BD7
1005
64BDA
1005
64BD6
1005
64BDD
1071
        7
1070
     0
1070
     1
1071
        4
1040
-1854.213574658839
1040
402042.1060558068
1040
-1854.213574658841
1040
402012.10605580691
1040
-1764.213574658839
1040
402012.10605580691
1040
-1764.213574658839
1040
402042.1060558068
1071
        4
1005
64BD6
1005
64BDA
1005
64BD8
1005
64BDD
1071
        7
1070
     0
1070
     1
1071
        4
1040
-1854.213574658839
1040
401622.10605580691
1040
-1874.213574658839
1040
401622.10605580691
1040
-1874.213574658839
1040
401592.10605580691
1040
-1854.213574658839
1040
401592.10605580691
1071
        4
1005
64BCE
1005
64BD1
1005
64BD0
1005
64BD2
1071
        7
1070
     0
1070
     1
1071
        4
1040
-1854.2135746588369
1040
401592.10605580697
1040
-1874.2135746588369
1040
401592.10605580691
1040
-1874.213574658839
1040
401562.10605580691
1040
-1854.213574658839
1040
401562.1060558068
1071
        4
1005
64BD0
1005
64BD1
1005
64BCF
1005
64BD2
1071
        7
1070
     0
1070
     1
1071
        4
1040
-1854.2135746588369
1040
401592.1060558068
1040
-1764.213574658839
1040
401592.1060558068
1040
-1764.213574658839
1040
401622.10605580691
1040
-1854.213574658839
1040
401622.10605580691
1071
        4
1005
64BCE
1005
64BD2
1005
64BD0
1005
64BD4
1071
        7
1070
     0
1070
     1
1071
        4
1040
-1764.2135746588369
1040
401562.10605580691
1040
-1764.2135746588369
1040
401592.10605580691
1040
-1854.213574658839
1040
401592.10605580691
1040
-1854.213574658839
1040
401562.10605580691
1071
        4
1005
64BD0
1005
64BD2
1005
64BCF
1005
64BD4
1070
     0
1070
     1
1040
0.0
1040
15.0
1070
     0
1070
     1
1040
0.7853981633974483
1040
-3045.7338122294041
1040
402379.78589438688
1040
-33.675960454009321
1040
33.675960454009328
1070
     0
1040
2.0426524484701938
1071
        8
1040
-1863.404180081201
1040
402058.09620660241
1040
0.0
1040
-1859.314188253549
1040
402027.45641676581
1040
0.0
1040
-1836.819238600865
1040
402049.92559638747
1040
0.0
1040
-1834.7742480864399
1040
402033.58437595761
1040
0.0
1040
-1861.359189566776
1040
401606.6700121219
1040
0.0
1040
-1861.359189566776
1040
401584.20083250018
1040
0.0
1040
-1844.999222256168
1040
401602.5847039533
1040
0.0
1040
-1828.639265744361
1040
401573.98757126188
1040
0.0
1002
}
  0
LINE
  5
64BCE
  8
S-OBRYS
  6
CONTINUOUS
 10
-1764.213574658839
 20
401622.10605580691
 30
0.0
 11
-1874.213574658839
 21
401622.10605580691
 31
0.0
1001
ACAD
1000
ASC_BOUNDS
1002
{
1070
    19
1005
64BCD
1005
64BCD
1002
}
  0
LINE
  5
64BCF
  8
S-OBRYS
  6
CONTINUOUS
 10
-1764.213574658839
 20
401562.10605580691
 30
0.0
 11
-1874.213574658839
 21
401562.10605580691
 31
0.0
1001
ACAD
1000
ASC_BOUNDS
1002
{
1070
    19
1005
64BCD
1005
64BCD
1002
}
  0
LINE
  5
64BD0
  8
S-OBRYS
  6
CONTINUOUS
 10
-1896.207017096536
 20
401592.10605580691
 30
0.0
 11
-1729.213574658839
 21
401592.10605580691
 31
0.0
1001
ACAD
1000
ASC_BOUNDS
1002
{
1070
    19
1005
64BCD
1005
64BCD
1005
64BCD
1005
64BCD
1002
}
  0
LINE
  5
64BD1
  8
S-OBRYS
  6
CONTINUOUS
 10
-1874.213574658839
 20
401622.10605580691
 30
0.0
 11
-1874.213574658839
 21
401562.10605580691
 31
0.0
1001
ACAD
1000
ASC_BOUNDS
1002
{
1070
    19
1005
64BCD
1005
64BCD
1002
}
  0
LINE
  5
64BD2
  8
S-OBRYS
  6
CONTINUOUS
 10
-1854.213574658839
 20
401543.51627680979
 30
0.0
 11
-1854.213574658839
 21
401640.90111648728
 31
0.0
1001
ACAD
1000
ASC_BOUNDS
1002
{
1070
    19
1005
64BCD
1005
64BCD
1005
64BCD
1005
64BCD
1002
}
  0
LINE
  5
64BD3
  8
S-OBRYS
  6
CONTINUOUS
 10
-6291.3107497049086
 20
401562.10605580691
 30
0.0
 11
-6291.3107497049086
 21
401612.10603200679
 31
0.0
  0
LINE
  5
64BD4
  8
S-OBRYS
  6
CONTINUOUS
 10
-1764.213574658839
 20
401622.10605580691
 30
0.0
 11
-1764.213574658839
 21
401562.10605580691
 31
0.0
1001
ACAD
1000
ASC_BOUNDS
1002
{
1070
    19
1005
64BCD
1005
64BCD
1002
}
  0
LINE
  5
64BD5
  8
S-OBRYS
  6
CONTINUOUS
 10
-1729.213574658839
 20
401617.10615100682
 30
0.0
 11
-1764.213574658839
 21
401617.10615100682
 31
0.0
  0
LINE
  5
64BD6
  8
S-OBRYS
  6
CONTINUOUS
 10
-1896.207017096536
 20
402042.1060558068
 30
0.0
 11
-1729.213574658839
 21
402042.1060558068
 31
0.0
1001
ACAD
1000
ASC_BOUNDS
1002
{
1070
    19
1005
64BCD
1005
64BCD
1005
64BCD
1005
64BCD
1002
}
  0
LINE
  5
64BD7
  8
S-OBRYS
  6
CONTINUOUS
 10
-1764.213574658839
 20
402072.1060558068
 30
0.0
 11
-1874.213574658839
 21
402072.1060558068
 31
0.0
1001
ACAD
1000
ASC_BOUNDS
1002
{
1070
    19
1005
64BCD
1005
64BCD
1002
}
  0
LINE
  5
64BD8
  8
S-OBRYS
  6
CONTINUOUS
 10
-1764.213574658839
 20
402012.10605580691
 30
0.0
 11
-1874.213574658839
 21
402012.10605580691
 31
0.0
1001
ACAD
1000
ASC_BOUNDS
1002
{
1070
    19
1005
64BCD
1005
64BCD
1002
}
  0
LINE
  5
64BD9
  8
S-OBRYS
  6
CONTINUOUS
 10
-2082.2135746588392
 20
401867.10605580691
 30
0.0
 11
-1802.213574658839
 21
401867.10605580691
 31
0.0
  0
LINE
  5
64BDA
  8
S-OBRYS
  6
CONTINUOUS
 10
-1854.213574658839
 20
402090.6958348038
 30
0.0
 11
-1854.213574658839
 21
401993.31099512632
 31
0.0
1001
ACAD
1000
ASC_BOUNDS
1002
{
1070
    19
1005
64BCD
1005
64BCD
1005
64BCD
1005
64BCD
1002
}
  0
LINE
  5
64BDB
  8
S-OBRYS
  6
CONTINUOUS
 10
-1874.213574658839
 20
402012.10605580691
 30
0.0
 11
-1874.213574658839
 21
402072.1060558068
 31
0.0
1001
ACAD
1000
ASC_BOUNDS
1002
{
1070
    19
1005
64BCD
1005
64BCD
1002
}
  0
LINE
  5
64BDC
  8
S-OBRYS
  6
CONTINUOUS
 10
-6291.3107497049086
 20
402022.1060796068
 30
0.0
 11
-6291.3107497049086
 21
402072.1060558068
 31
0.0
  0
LINE
  5
64BDD
  8
S-OBRYS
  6
CONTINUOUS
 10
-1764.213574658839
 20
402012.10605580691
 30
0.0
 11
-1764.213574658839
 21
402072.1060558068
 31
0.0
1001
ACAD
1000
ASC_BOUNDS
1002
{
1070
    19
1005
64BCD
1005
64BCD
1002
}
  0
LINE
  5
64BDE
  8
S-OBRYS
  6
CONTINUOUS
 10
-1729.213574658839
 20
402017.10596060677
 30
0.0
 11
-1764.213574658839
 21
402017.10596060677
 31
0.0
  0
LINE
  5
64BDF
  8
S-OBRYS
  6
CONTINUOUS
 10
-5439.7718583270453
 20
406095.81878804829
 30
0.0
 11
-5439.7718583270453
 21
405795.81893084839
 31
0.0
  0
LINE
  5
64BE0
  8
S-OBRYS
  6
CONTINUOUS
 10
-5468.2718940270461
 20
405795.81893084839
 30
0.0
 11
-5468.2718940270461
 21
405064.65251437319
 31
0.0
  0
LINE
  5
64BE1
  8
S-OBRYS
  6
CONTINUOUS
 10
-5543.2718583270453
 20
405065.8185738484
 30
0.0
 11
-5543.2718583270453
 21
405695.81897844828
 31
0.0
  0
LINE
  5
64BE2
  8
S-OBRYS
  6
CONTINUOUS
 10
-5593.2718345270441
 20
405040.81889054843
 30
0.0
 11
-5593.2718345270441
 21
405065.8185738484
 31
0.0
  0
LINE
  5
64BE3
  8
S-OBRYS
  6
CONTINUOUS
 10
-5518.2718702270431
 20
405640.81889054843
 30
0.0
 11
-5787.2718464270456
 21
405640.81889054843
 31
0.0
  0
LINE
  5
64BE4
  8
S-OBRYS
  6
CONTINUOUS
 10
-5787.2718464270456
 20
405665.81857384829
 30
0.0
 11
-5518.2718702270431
 21
405665.81857384829
 31
0.0
  0
LINE
  5
64BE5
  8
S-OBRYS
  6
CONTINUOUS
 10
-5762.2718583270462
 20
405695.81897844828
 30
0.0
 11
-5762.2718583270462
 21
405665.81857384829
 31
0.0
  0
LINE
  5
64BE6
  8
S-OBRYS
  6
CONTINUOUS
 10
-5787.2718464270456
 20
405640.81889054843
 30
0.0
 11
-5787.2718464270456
 21
405665.81857384829
 31
0.0
  0
LINE
  5
64BE7
  8
S-OBRYS
  6
CONTINUOUS
 10
-5543.2718583270453
 20
405695.81897844828
 30
0.0
 11
-5543.2718583270453
 21
405665.81857384829
 31
0.0
  0
LINE
  5
64BE8
  8
S-OBRYS
  6
CONTINUOUS
 10
-5652.7718583270462
 20
405723.64321748167
 30
0.0
 11
-5652.7718583270462
 21
405614.14498707227
 31
0.0
  0
LINE
  5
64BE9
  8
S-OBRYS
  6
CONTINUOUS
 10
-5589.7720917270453
 20
405695.81897844828
 30
0.0
 11
-5564.7721036270459
 21
405695.81897844828
 31
0.0
  0
LINE
  5
64BEA
  8
S-OBRYS
  6
CONTINUOUS
 10
-2778.6356140767598
 20
406336.10926330159
 30
0.0
 11
-2778.6356140767598
 21
405361.10882570158
 31
0.0
  0
LINE
  5
64BEB
  8
S-OBRYS
  6
CONTINUOUS
 10
-3188.6356616767612
 20
405361.10882570158
 30
0.0
 11
-3188.6356616767612
 21
406336.10926330159
 31
0.0
  0
LINE
  5
64BEC
  8
S-OBRYS
  6
CONTINUOUS
 10
-2728.6356378767618
 20
405361.10882570158
 30
0.0
 11
-3238.6356378767618
 21
405361.10882570158
 31
0.0
  0
LINE
  5
64BED
  8
S-OBRYS
  6
CONTINUOUS
 10
-3238.6356378767618
 20
406061.10908940161
 30
0.0
 11
-3238.6356378767618
 21
405296.10855660168
 31
0.0
  0
LINE
  5
64BEE
  8
S-OBRYS
  6
CONTINUOUS
 10
-3138.63568547676
 20
405296.10855660168
 30
0.0
 11
-3238.6356378767618
 21
405296.10855660168
 31
0.0
  0
LINE
  5
64BEF
  8
S-OBRYS
  6
CONTINUOUS
 10
-3238.6356378767618
 20
405271.10887330148
 30
0.0
 11
-3138.63568547676
 21
405271.10887330148
 31
0.0
  0
LINE
  5
64BF0
  8
S-OBRYS
  6
CONTINUOUS
 10
-3238.6356378767618
 20
405296.10855660168
 30
0.0
 11
-3238.6356378767618
 21
405271.10887330148
 31
0.0
  0
LINE
  5
64BF1
  8
S-OBRYS
  6
CONTINUOUS
 10
-3163.6353814767608
 20
405296.10855660168
 30
0.0
 11
-3163.6353814767608
 21
405361.10882570158
 31
0.0
  0
LINE
  5
64BF2
  8
S-OBRYS
  6
CONTINUOUS
 10
-3138.63568547676
 20
405271.10887330148
 30
0.0
 11
-3138.63568547676
 21
405296.10855660168
 31
0.0
  0
LINE
  5
64BF3
  8
S-OBRYS
  6
CONTINUOUS
 10
-3188.6356616767612
 20
406061.10908940161
 30
0.0
 11
-3238.6356378767618
 21
406061.10908940161
 31
0.0
  0
LINE
  5
64BF4
  8
S-OBRYS
  6
CONTINUOUS
 10
-2728.6356378767618
 20
406061.10908940161
 30
0.0
 11
-2728.6356378767618
 21
405271.10887330148
 31
0.0
  0
LINE
  5
64BF5
  8
S-OBRYS
  6
CONTINUOUS
 10
-2803.6359069767609
 20
405361.10882570158
 30
0.0
 11
-2803.6359069767609
 21
405336.10853280162
 31
0.0
  0
LINE
  5
64BF6
  8
S-OBRYS
  6
CONTINUOUS
 10
-2828.6355902767609
 20
405296.10855660168
 30
0.0
 11
-2728.6356378767618
 21
405296.10855660168
 31
0.0
  0
LINE
  5
64BF7
  8
S-OBRYS
  6
CONTINUOUS
 10
-2728.6356378767618
 20
405271.10887330148
 30
0.0
 11
-2828.6355902767609
 21
405271.10887330148
 31
0.0
  0
LINE
  5
64BF8
  8
S-OBRYS
  6
CONTINUOUS
 10
-2828.6355902767609
 20
405271.10887330148
 30
0.0
 11
-2828.6355902767609
 21
405296.10855660168
 31
0.0
  0
LINE
  5
64BF9
  8
S-OBRYS
  6
CONTINUOUS
 10
-2803.6359069767609
 20
405336.10853280162
 30
0.0
 11
-2803.6359069767609
 21
405296.10855660168
 31
0.0
  0
LINE
  5
64BFA
  8
S-OBRYS
  6
CONTINUOUS
 10
-2728.6356378767618
 20
406061.10908940161
 30
0.0
 11
-2778.6356140767598
 21
406061.10908940161
 31
0.0
  0
LINE
  5
64BFB
  8
S-OBRYS
  6
CONTINUOUS
 10
-3188.6356616767612
 20
406336.10926330159
 30
0.0
 11
-2778.6356140767598
 21
406336.10926330159
 31
0.0
  0
LINE
  5
64BFC
  8
S-OBRYS
  6
CONTINUOUS
 10
-3155.1357422767619
 20
406641.10788100149
 30
0.0
 11
-3155.1357422767619
 21
406336.10926330159
 31
0.0
  0
LINE
  5
64BFD
  8
S-OBRYS
  6
CONTINUOUS
 10
-2980.1355334767618
 20
406336.10926330159
 30
0.0
 11
-2980.1355334767618
 21
406641.10788100149
 31
0.0
  0
LINE
  5
64BFE
  8
S-OBRYS
  6
CONTINUOUS
 10
-2955.1358374767619
 20
406541.10792860162
 30
0.0
 11
-2955.1358374767619
 21
406666.10877080163
 31
0.0
  0
LINE
  5
64BFF
  8
S-OBRYS
  6
CONTINUOUS
 10
-3155.1357422767619
 20
406386.10864260152
 30
0.0
 11
-2980.1355334767618
 21
406386.10864260152
 31
0.0
  0
LINE
  5
64C00
  8
S-OBRYS
  6
CONTINUOUS
 10
-3030.1355096767602
 20
406491.10854930163
 30
0.0
 11
-3030.1355096767602
 21
406591.10850170162
 31
0.0
  0
LINE
  5
64C01
  8
S-OBRYS
  6
CONTINUOUS
 10
-3105.1357660767608
 20
406591.10850170162
 30
0.0
 11
-3105.1357660767608
 21
406491.10854930163
 31
0.0
  0
LINE
  5
64C02
  8
S-OBRYS
  6
CONTINUOUS
 10
-3105.1357660767608
 20
406491.10854930163
 30
0.0
 11
-3030.1355096767602
 21
406491.10854930163
 31
0.0
  0
LINE
  5
64C03
  8
S-OBRYS
  6
CONTINUOUS
 10
-3030.1355096767602
 20
406591.10850170162
 30
0.0
 11
-3105.1357660767608
 21
406591.10850170162
 31
0.0
  0
LINE
  5
64C04
  8
S-OBRYS
  6
CONTINUOUS
 10
-2980.1355334767618
 20
406541.10792860162
 30
0.0
 11
-2955.1358374767619
 21
406541.10792860162
 31
0.0
  0
LINE
  5
64C05
  8
S-OBRYS
  6
CONTINUOUS
 10
-3017.6356378767609
 20
406716.10877080163
 30
0.0
 11
-3117.6356378767618
 21
406716.10877080163
 31
0.0
  0
LINE
  5
64C06
  8
S-OBRYS
  6
CONTINUOUS
 10
-2980.1355334767618
 20
406641.10788100149
 30
0.0
 11
-3155.1357422767619
 21
406641.10788100149
 31
0.0
  0
LINE
  5
64C07
  8
S-OBRYS
  6
CONTINUOUS
 10
-2955.1358374767619
 20
406666.10877080163
 30
0.0
 11
-3205.135718476763
 21
406666.10877080163
 31
0.0
  0
LINE
  5
64C08
  8
S-OBRYS
  6
CONTINUOUS
 10
-3205.135718476763
 20
406641.10788100149
 30
0.0
 11
-3155.1357422767619
 21
406641.10788100149
 31
0.0
  0
LINE
  5
64C09
  8
S-OBRYS
  6
CONTINUOUS
 10
-3205.135718476763
 20
406666.10877080163
 30
0.0
 11
-3205.135718476763
 21
406641.10788100149
 31
0.0
  0
LINE
  5
64C0A
  8
S-OBRYS
  6
CONTINUOUS
 10
-3117.6356378767618
 20
406716.10877080163
 30
0.0
 11
-3117.6356378767618
 21
406666.10877080163
 31
0.0
  0
LINE
  5
64C0B
  8
S-OBRYS
  6
CONTINUOUS
 10
-3017.6356378767609
 20
406666.10877080163
 30
0.0
 11
-3017.6356378767609
 21
406716.10877080163
 31
0.0
  0
LINE
  5
64C0C
  8
S-OBRYS
  6
CONTINUOUS
 10
-7444.7718583270462
 20
406095.81878804829
 30
0.0
 11
-7444.7718583270462
 21
406505.40938657068
 31
0.0
  0
LINE
  5
64C0D
  8
S-OBRYS
  6
CONTINUOUS
 10
-7494.7718583270453
 20
406485.81889054843
 30
0.0
 11
-7394.7718583270462
 21
406485.81889054843
 31
0.0
  0
LINE
  5
64C0E
  8
S-OBRYS
  6
CONTINUOUS
 10
-7394.7718583270462
 20
406485.81889054843
 30
0.0
 11
-7394.7718583270462
 21
406435.8187880484
 31
0.0
  0
LINE
  5
64C0F
  8
S-OBRYS
  6
CONTINUOUS
 10
-7494.7718583270453
 20
406485.81889054843
 30
0.0
 11
-7494.7718583270453
 21
406435.8187880484
 31
0.0
  0
LINE
  5
64C10
  8
S-OBRYS
  6
CONTINUOUS
 10
-7464.3314419481821
 20
406386.15896717919
 30
0.0
 11
-7464.3314419481821
 21
406435.8187880484
 31
0.0
  0
LINE
  5
64C11
  8
S-OBRYS
  6
CONTINUOUS
 10
-7414.3314657481806
 20
406410.81909204839
 30
0.0
 11
-7414.3314657481806
 21
406336.49914630997
 31
0.0
  0
LINE
  5
64C12
  8
S-OBRYS
  6
CONTINUOUS
 10
-7248.1181302044797
 20
406410.81909204839
 30
0.0
 11
-7123.1181897044808
 21
406410.81909204839
 31
0.0
  0
LINE
  5
64C13
  8
S-OBRYS
  6
CONTINUOUS
 10
-7414.3314657481806
 20
406398.31924404838
 30
0.0
 11
-7306.4397096891053
 21
406398.31924404838
 31
0.0
  0
LINE
  5
64C14
  8
S-OBRYS
  6
CONTINUOUS
 10
-7123.1181897044808
 20
406410.81909204839
 30
0.0
 11
-7287.8825242941584
 21
406410.81909204839
 31
0.0
  0
LINE
  5
64C15
  8
S-OBRYS
  6
CONTINUOUS
 10
-7123.1181897044808
 20
406398.31924404838
 30
0.0
 11
-7123.1181897044808
 21
406410.81909204839
 31
0.0
  0
LINE
  5
64C16
  8
S-OBRYS
  6
CONTINUOUS
 10
-7444.9956036201984
 20
406336.49914630997
 30
0.0
 11
-7414.3314657481806
 21
406336.49914630997
 31
0.0
  0
LINE
  5
64C17
  8
S-OBRYS
  6
CONTINUOUS
 10
-7444.9956036201984
 20
406386.15896717919
 30
0.0
 11
-7444.9956036201984
 21
406336.49914630997
 31
0.0
  0
LINE
  5
64C18
  8
S-OBRYS
  6
CONTINUOUS
 10
-7371.1183041044806
 20
406145.81816734839
 30
0.0
 11
-7523.1183041044796
 21
406145.81816734839
 31
0.0
  0
LINE
  5
64C19
  8
S-OBRYS
  6
CONTINUOUS
 10
-7523.1183041044796
 20
406145.81816734839
 30
0.0
 11
-7548.1183041044796
 21
406145.81816734839
 31
0.0
  0
LINE
  5
64C1A
  8
S-OBRYS
  6
CONTINUOUS
 10
-7371.1183041044806
 20
406145.81816734839
 30
0.0
 11
-7346.1183041044796
 21
406145.81816734839
 31
0.0
  0
LINE
  5
64C1B
  8
S-OBRYS
  6
CONTINUOUS
 10
-7371.1183041044806
 20
406135.81816734839
 30
0.0
 11
-7523.1183041044796
 21
406135.81816734839
 31
0.0
  0
LINE
  5
64C1C
  8
S-OBRYS
  6
CONTINUOUS
 10
-7523.1183041044796
 20
406135.81816734839
 30
0.0
 11
-7548.1183041044796
 21
406135.81816734839
 31
0.0
  0
LINE
  5
64C1D
  8
S-OBRYS
  6
CONTINUOUS
 10
-7371.1183041044806
 20
406135.81816734839
 30
0.0
 11
-7346.1183041044796
 21
406135.81816734839
 31
0.0
  0
LINE
  5
64C1E
  8
S-OBRYS
  6
CONTINUOUS
 10
-7548.1183041044796
 20
406145.81816734839
 30
0.0
 11
-7548.1183041044796
 21
406135.81816734839
 31
0.0
  0
LINE
  5
64C1F
  8
S-OBRYS
  6
CONTINUOUS
 10
-7346.1183041044796
 20
406145.81816734839
 30
0.0
 11
-7346.1183041044796
 21
406135.81816734839
 31
0.0
  0
LINE
  5
64C20
  8
S-OBRYS
  6
CONTINUOUS
 10
-7371.1183041044806
 20
406145.81816734839
 30
0.0
 11
-7371.1183041044806
 21
406095.81878804829
 31
0.0
  0
LINE
  5
64C21
  8
S-OBRYS
  6
CONTINUOUS
 10
-7287.8825242941584
 20
406389.92974027927
 30
0.0
 11
-7287.8825242941584
 21
406441.68227067753
 31
0.0
  0
LINE
  5
64C22
  8
S-OBRYS
  6
CONTINUOUS
 10
-7287.8825242941584
 20
406441.68227067753
 30
0.0
 11
-7306.4397096891053
 21
406441.68227067753
 31
0.0
  0
LINE
  5
64C23
  8
S-OBRYS
  6
CONTINUOUS
 10
-7306.4397096891053
 20
406441.68227067753
 30
0.0
 11
-7306.4397096891053
 21
406389.92974027927
 31
0.0
  0
LINE
  5
64C24
  8
S-OBRYS
  6
CONTINUOUS
 10
-7306.4397096891053
 20
406389.92974027927
 30
0.0
 11
-7287.8825242941584
 21
406389.92974027927
 31
0.0
  0
LINE
  5
64C25
  8
S-OBRYS
  6
CONTINUOUS
 10
-7287.8825242941584
 20
406398.31924404838
 30
0.0
 11
-7123.1181897044808
 21
406398.31924404838
 31
0.0
  0
LINE
  5
64C26
  8
S-OBRYS
  6
CONTINUOUS
 10
-7306.4397096891053
 20
406410.81909204839
 30
0.0
 11
-7414.3314657481806
 21
406410.81909204839
 31
0.0
  0
LINE
  5
64C27
  8
S-OBRYS
  6
CONTINUOUS
 10
-7287.8825242941584
 20
406423.3189400484
 30
0.0
 11
-7123.1181897044808
 21
406423.3189400484
 31
0.0
  0
LINE
  5
64C28
  8
S-OBRYS
  6
CONTINUOUS
 10
-7306.4397096891053
 20
406435.8187880484
 30
0.0
 11
-7523.1183041044796
 21
406435.8187880484
 31
0.0
  0
DIMENSION
  5
64C29
  8
S-OBRYS
  6
CONTINUOUS
  2
*D19
 10
-7394.7718583270462
 20
406686.57014003111
 30
0.0
 11
-7444.7718583270462
 21
406686.57014003111
 31
0.0
 70
   128
 13
-7494.7718583270453
 23
406610.33672860678
 33
0.0
 14
-7394.7718583270462
 24
406610.33672860678
 34
0.0
  0
LINE
  5
64C2A
  8
S-OBRYS
  6
CONTINUOUS
 10
-7736.7718583270453
 20
406095.81878804829
 30
0.0
 11
-7736.7718583270453
 21
405795.81893084839
 31
0.0
  0
DIMENSION
  5
64C2B
  8
S-OBRYS
  6
CONTINUOUS
  2
*D20
 10
-7736.7718583270453
 20
406569.59802292672
 30
0.0
 11
-7964.6290011841893
 21
406569.59802292672
 31
0.0
 70
   128
 13
-7444.7718583270462
 23
406232.72937288479
 33
0.0
 14
-7736.7718583270453
 24
406095.81878804829
 34
0.0
  0
DIMENSION
  5
64C2C
  8
S-OBRYS
  6
CONTINUOUS
  2
*D21
 10
-5439.7718583270453
 20
406842.43595794972
 30
0.0
 11
-6588.2718583270462
 21
406917.43595794978
 31
0.0
 70
     0
 13
-7736.7718583270453
 23
406528.45449588977
 33
0.0
 14
-5439.7718583270453
 24
406095.81878804829
 34
0.0
  0
DIMENSION
  5
64C2D
  8
S-OBRYS
  6
CONTINUOUS
  2
*D22
 10
-7912.3040436280717
 20
405030.81889054843
 30
0.0
 11
-7987.3040436281372
 21
405758.31889054843
 31
0.0
 70
     0
 13
-7494.7718583270453
 23
406485.81889054843
 33
0.0
 14
-7611.7719178270463
 24
405030.81889054843
 34
0.0
 50
90.0
  0
DIMENSION
  5
64C2E
  8
S-OBRYS
  6
CONTINUOUS
  2
*D23
 10
-6043.6733281089482
 20
405640.81889054843
 30
0.0
 11
-6118.6733281090128
 21
405340.81889054843
 31
0.0
 70
     0
 13
-5695.9768126428962
 23
405040.81889054843
 33
0.0
 14
-5889.9768245428959
 24
405640.81889054843
 34
0.0
 50
90.0
  0
LINE
  5
64C2F
  8
S-OBRYS
  6
CONTINUOUS
 10
-5518.2718702270431
 20
405665.81857384829
 30
0.0
 11
-5518.2718702270431
 21
405640.81889054843
 31
0.0
  0
LINE
  5
64C30
  8
S-OBRYS
  6
CONTINUOUS
 10
-5593.2718345270441
 20
405065.8185738484
 30
0.0
 11
-5468.2718940270461
 21
405065.8185738484
 31
0.0
  0
LINE
  5
64C31
  8
S-OBRYS
  6
CONTINUOUS
 10
-5593.2718345270441
 20
405040.81889054843
 30
0.0
 11
-5468.2718940270461
 21
405040.81889054843
 31
0.0
  0
LINE
  5
64C32
  8
S-OBRYS
  6
CONTINUOUS
 10
-7444.7718583270462
 20
406095.81878804829
 30
0.0
 11
-7444.7718583270462
 21
405795.81893084839
 31
0.0
  0
LINE
  5
64C33
  8
S-OBRYS
  6
CONTINUOUS
 10
-5468.2718940270461
 20
405064.65251437319
 30
0.0
 11
-5468.2718940270461
 21
405040.81889054843
 31
0.0
  0
LINE
  5
64C34
  8
S-OBRYS
  6
CONTINUOUS
 10
-3067.6356378767618
 20
406716.10877080163
 30
0.0
 11
-3067.63563787676
 21
405858.30359861662
 31
0.0
  0
LINE
  5
64C35
  8
S-OBRYS
  6
CONTINUOUS
 10
-2983.6356378767618
 20
406336.10926330159
 30
0.0
 11
-2983.6356378767618
 21
405361.10882570158
 31
0.0
  0
LINE
  5
64C36
  8
S-OBRYS
  6
CONTINUOUS
 10
-2993.9820836541971
 20
406386.10864260152
 30
0.0
 11
-3145.9820836541971
 21
406386.10864260152
 31
0.0
  0
LINE
  5
64C37
  8
S-OBRYS
  6
CONTINUOUS
 10
-2993.9820836541971
 20
406376.10864260158
 30
0.0
 11
-3145.9820836541971
 21
406376.10864260158
 31
0.0
  0
LINE
  5
64C38
  8
S-OBRYS
  6
CONTINUOUS
 10
-2993.9820836541971
 20
406386.10864260152
 30
0.0
 11
-2968.9820836541971
 21
406386.10864260152
 31
0.0
  0
LINE
  5
64C39
  8
S-OBRYS
  6
CONTINUOUS
 10
-2993.9820836541971
 20
406376.10864260158
 30
0.0
 11
-2968.9820836541971
 21
406376.10864260158
 31
0.0
  0
LINE
  5
64C3A
  8
S-OBRYS
  6
CONTINUOUS
 10
-2968.9820836541971
 20
406386.10864260152
 30
0.0
 11
-2968.9820836541971
 21
406376.10864260158
 31
0.0
  0
LINE
  5
64C3B
  8
S-OBRYS
  6
CONTINUOUS
 10
-3170.9820836541971
 20
406386.10864260152
 30
0.0
 11
-3170.9820836541971
 21
406376.10864260158
 31
0.0
  0
LINE
  5
64C3C
  8
S-OBRYS
  6
CONTINUOUS
 10
-3145.9820836541971
 20
406376.10864260158
 30
0.0
 11
-3170.9820836541971
 21
406376.10864260158
 31
0.0
  0
LINE
  5
64C3D
  8
S-OBRYS
  6
CONTINUOUS
 10
-3145.9820836541971
 20
406386.10864260152
 30
0.0
 11
-3170.9820836541971
 21
406386.10864260152
 31
0.0
  0
LINE
  5
64C3E
  8
S-OBRYS
  6
CONTINUOUS
 10
-3202.8806177578481
 20
405883.30328191648
 30
0.0
 11
-2933.8806415578479
 21
405883.30328191648
 31
0.0
  0
LINE
  5
64C3F
  8
S-OBRYS
  6
CONTINUOUS
 10
-2933.8806415578479
 20
405858.30359861662
 30
0.0
 11
-3202.8806177578481
 21
405858.30359861662
 31
0.0
  0
LINE
  5
64C40
  8
S-OBRYS
  6
CONTINUOUS
 10
-3202.8806177578481
 20
405858.30359861662
 30
0.0
 11
-3202.8806177578481
 21
405883.30328191648
 31
0.0
  0
LINE
  5
64C41
  8
S-OBRYS
  6
CONTINUOUS
 10
-2958.8806296578482
 20
405923.30368651648
 30
0.0
 11
-2958.8806296578482
 21
405883.30328191648
 31
0.0
  0
LINE
  5
64C42
  8
S-OBRYS
  6
CONTINUOUS
 10
-2933.8806415578479
 20
405883.30328191648
 30
0.0
 11
-2933.8806415578479
 21
405858.30359861662
 31
0.0
  0
CIRCLE
  5
64C43
  8
S-OBRYS
  6
CONTINUOUS
 10
-2983.6356378767618
 20
406098.96878804849
 30
0.0
 40
171.73422572548949
  0
LINE
  5
64C44
  8
S-OBRYS
  6
CONTINUOUS
 10
-3177.8806296578482
 20
405883.30328191648
 30
0.0
 11
-3155.3698636022509
 21
406098.96878804849
 31
0.0
  0
LINE
  5
64C45
  8
S-OBRYS
  6
CONTINUOUS
 10
-3155.1357422767619
 20
406336.10926330159
 30
0.0
 11
-3155.3698636022509
 21
406098.96878804849
 31
0.0
  0
LINE
  5
64C46
  8
S-OBRYS
  6
CONTINUOUS
 10
-3155.3698636022509
 20
406098.96878804843
 30
0.0
 11
-2811.9014121512719
 21
406098.96878804849
 31
0.0
  0
DIMENSION
  5
64C47
  8
S-OBRYS
  6
CONTINUOUS
  2
*D24
 10
-5543.2718583270453
 20
405509.32216486969
 30
0.0
 11
-5070.6528107079967
 21
405584.32216486969
 31
0.0
 70
     0
  1
219x219
 13
-5762.2718583270462
 23
405665.81857384829
 33
0.0
 14
-5543.2718583270453
 24
405665.81857384829
 34
0.0
  0
LINE
  5
64C48
  8
S-OBRYS
  6
CONTINUOUS
 10
-2828.6355902767609
 20
405296.10855660168
 30
0.0
 11
-2728.6356378767618
 21
405296.10855660168
 31
0.0
  0
LINE
  5
64C49
  8
S-OBRYS
  6
CONTINUOUS
 10
-5787.2718464270456
 20
405665.81857384829
 30
0.0
 11
-5518.2718702270431
 21
405665.81857384829
 31
0.0
  0
DIMENSION
  5
64C4A
  8
S-OBRYS
  6
CONTINUOUS
  2
*D25
 10
-2400.144254799638
 20
405271.10887330148
 30
0.0
 11
-2475.144254799703
 21
405803.60906830168
 31
0.0
 70
     0
 13
-2778.6356140767598
 23
406336.10926330159
 33
0.0
 14
-2728.6356378767618
 24
405271.10887330148
 34
0.0
 50
90.0
  0
DIMENSION
  5
64C4B
  8
S-OBRYS
  6
CONTINUOUS
  2
*D26
 10
-2728.63563787676
 20
405073.59680368548
 30
0.0
 11
-2983.6356378767609
 21
405148.59680368548
 31
0.0
 70
     0
 13
-3238.6356378767618
 23
405271.10887330148
 33
0.0
 14
-2728.63563787676
 24
405271.10887330148
 34
0.0
  0
LINE
  5
64C4C
  8
S-OBRYS
  6
CONTINUOUS
 10
-8413.3105282049073
 20
402072.1060558068
 30
0.0
 11
-6291.3107497049086
 21
402072.1060558068
 31
0.0
  0
LINE
  5
64C4D
  8
S-OBRYS
  6
CONTINUOUS
 10
-8541.8913230634189
 20
401817.10605580691
 30
0.0
 11
-6244.8913230634189
 21
401817.10605580691
 31
0.0
  0
LINE
  5
64C4E
  8
S-OBRYS
  6
CONTINUOUS
 10
-8328.2377688408542
 20
401901.1060558068
 30
0.0
 11
-8093.0019890305311
 21
401901.1060558068
 31
0.0
  0
LINE
  5
64C4F
  8
S-OBRYS
  6
CONTINUOUS
 10
-6567.391323063418
 20
401901.1060558068
 30
0.0
 11
-6348.3913230634189
 21
401901.1060558068
 31
0.0
  0
LINE
  5
64C50
  8
S-OBRYS
  6
CONTINUOUS
 10
-6567.391323063418
 20
402010.6060558068
 30
0.0
 11
-6567.391323063418
 21
401791.60605580691
 31
0.0
  0
LINE
  5
64C51
  8
S-OBRYS
  6
CONTINUOUS
 10
-6457.891323063418
 20
402010.6060558068
 30
0.0
 11
-6457.891323063418
 21
401791.60605580691
 31
0.0
  0
LINE
  5
64C52
  8
S-OBRYS
  6
CONTINUOUS
 10
-6567.391323063418
 20
401791.60605580691
 30
0.0
 11
-6348.3913230634189
 21
401791.60605580691
 31
0.0
  0
LINE
  5
64C53
  8
S-OBRYS
  6
CONTINUOUS
 10
-6567.391323063418
 20
402010.6060558068
 30
0.0
 11
-6348.3913230634189
 21
402010.6060558068
 31
0.0
  0
LINE
  5
64C54
  8
S-OBRYS
  6
CONTINUOUS
 10
-6348.3913230634189
 20
401791.60605580691
 30
0.0
 11
-6348.3913230634189
 21
402010.6060558068
 31
0.0
  0
LINE
  5
64C55
  8
S-OBRYS
  6
CONTINUOUS
 10
-8249.8913230634189
 20
401961.98045225127
 30
0.0
 11
-8249.8913230634189
 21
401843.01284713252
 31
0.0
  0
LINE
  5
64C56
  8
S-OBRYS
  6
CONTINUOUS
 10
-1942.213574658839
 20
402007.10605580691
 30
0.0
 11
-1942.213574658839
 21
401727.1060558068
 31
0.0
  0
LINE
  5
64C57
  8
S-OBRYS
  6
CONTINUOUS
 10
-2082.2135746588392
 20
402007.10605580691
 30
0.0
 11
-2082.2135746588392
 21
401727.1060558068
 31
0.0
  0
LINE
  5
64C58
  8
S-OBRYS
  6
CONTINUOUS
 10
-2082.2135746588392
 20
402007.10605580691
 30
0.0
 11
-1802.213574658839
 21
402007.10605580691
 31
0.0
  0
LINE
  5
64C59
  8
S-OBRYS
  6
CONTINUOUS
 10
-1802.213574658839
 20
401727.1060558068
 30
0.0
 11
-1802.213574658839
 21
402007.10605580691
 31
0.0
  0
LINE
  5
64C5A
  8
S-OBRYS
  6
CONTINUOUS
 10
-2082.2135746588392
 20
401727.1060558068
 30
0.0
 11
-1802.213574658839
 21
401727.1060558068
 31
0.0
  0
DIMENSION
  5
64C5B
  8
S-OBRYS
  6
CONTINUOUS
  2
*D27
 10
-4211.7457389355086
 20
401592.10605580691
 30
0.0
 11
-4286.7457389355741
 21
401817.10605580691
 31
0.0
 70
     0
 13
-3915.7781910077738
 23
402042.1060558068
 33
0.0
 14
-3915.7781910077738
 24
401592.10605580691
 34
0.0
 50
90.0
  0
DIMENSION
  5
64C5C
  8
S-OBRYS
  6
CONTINUOUS
  2
*D28
 10
-1942.213574658839
 20
401405.28763487132
 30
0.0
 11
-2231.9754794207438
 21
401480.28763487138
 31
0.0
 70
     0
 13
-1854.213574658839
 23
401640.90111648728
 33
0.0
 14
-1942.213574658839
 24
401727.1060558068
 34
0.0
  0
DIMENSION
  5
64C5D
  8
S-OBRYS
  6
CONTINUOUS
  2
*D29
 10
-2205.3333816878871
 20
401727.1060558068
 30
0.0
 11
-2280.3333816879522
 21
401867.10605580691
 31
0.0
 70
     0
 13
-2082.2135746588392
 23
402007.10605580691
 33
0.0
 14
-2082.2135746588392
 24
401727.1060558068
 34
0.0
 50
90.0
  0
DIMENSION
  5
64C5E
  8
S-OBRYS
  6
CONTINUOUS
  2
*D30
 10
-1802.213574658839
 20
401770.79443489562
 30
0.0
 11
-1483.5462161782921
 21
401770.79443489562
 31
0.0
 70
   128
 13
-2082.2135746588392
 23
401727.1060558068
 33
0.0
 14
-1802.213574658839
 24
401727.1060558068
 34
0.0
  0
LINE
  5
64C5F
  8
S-OBRYS
  6
CONTINUOUS
 10
-3555.1363608809738
 20
400952.5713603145
 30
0.0
 11
-1664.2370295526409
 21
400952.5713603145
 31
0.0
  0
LINE
  5
64C60
  8
S-OBRYS
  6
CONTINUOUS
 10
-3555.1363608809738
 20
401104.61548772582
 30
0.0
 11
-1664.2370295526409
 21
401104.61548772582
 31
0.0
  0
TEXT
  5
64C61
  8
S-OBRYS
  6
CONTINUOUS
 10
-3527.5154696232089
 20
401154.71062508802
 30
0.0
 40
100.0
  1
ZATÍŽENÍ NA 4ks PATEK-500kg
 41
0.7
  7
PROKOP
  0
TEXT
  5
64C62
  8
S-OBRYS
  6
CONTINUOUS
 10
-2480.7534410146259
 20
400979.7397448885
 30
0.0
 40
100.0
  1
14mm
 41
0.7
  7
PROKOP
  0
TEXT
  5
64C63
  8
S-OBRYS
  6
CONTINUOUS
 10
-3527.5154696232089
 20
400979.7397448885
 30
0.0
 40
100.0
  1
KOTEVNÍ 
 41
0.7
  7
PROKOP
  0
LINE
  5
64C64
  8
S-OBRYS
  6
CONTINUOUS
 10
-3555.1363608809738
 20
401104.61548772582
 30
0.0
 11
-3555.1363608809738
 21
400952.5713603145
 31
0.0
  0
TEXT
  5
64C65
  8
S-OBRYS
  6
CONTINUOUS
 10
-2997.5154696232089
 20
400979.7397448885
 30
0.0
 40
100.0
  1
ŠROUB 
 41
0.7
  7
PROKOP
  0
TEXT
  5
64C66
  8
S-OBRYS
  6
CONTINUOUS
 10
-2563.4972641615718
 20
400979.7397448885
 30
0.0
 40
100.0
  1
\U+2205
 41
0.7
  7
PROKOP
  0
CIRCLE
  5
64C67
  8
S-OBRYS
  6
CONTINUOUS
 10
-3812.2135746588392
 20
402042.1060558068
 30
0.0
 40
7.0
  0
CIRCLE
  5
64C68
  8
S-OBRYS
  6
CONTINUOUS
 10
-1854.213574658839
 20
402042.1060558068
 30
0.0
 40
7.0
  0
CIRCLE
  5
64C69
  8
S-OBRYS
  6
CONTINUOUS
 10
-1854.213574658839
 20
401592.20869664859
 30
0.0
 40
7.0
  0
CIRCLE
  5
64C6A
  8
S-OBRYS
  6
CONTINUOUS
 10
-3812.2135746588392
 20
401592.10605580691
 30
0.0
 40
7.0
  0
LINE
  5
64C6B
  8
S-OBRYS
  6
CONTINUOUS
 10
-3812.2135746588392
 20
401543.31099512632
 30
0.0
 11
-3812.2135746588392
 21
401647.6518899707
 31
0.0
  0
INSERT
  5
64C6C
  8
S-OBRYS
  6
CONTINUOUS
  2
*U53
 10
0.0
 20
0.0
 30
0.0
  0
LINE
  5
64C6D
  8
S-OBRYS
  6
CONTINUOUS
 10
-4926.2135746588392
 20
402328.8880199042
 30
0.0
 11
-4926.2135746588392
 21
401441.08166097419
 31
0.0
  0
LINE
  5
64C6E
  8
S-OBRYS
  6
CONTINUOUS
 10
-4926.2135746588392
 20
402328.8880199042
 30
0.0
 11
-5040.2768558191901
 21
402258.95215369278
 31
0.0
  0
LINE
  5
64C6F
  8
S-OBRYS
  6
CONTINUOUS
 10
-4926.2135746588392
 20
402262.71816348413
 30
0.0
 11
-5040.2768558191901
 21
402192.78229727258
 31
0.0
  0
LINE
  5
64C70
  8
S-OBRYS
  6
CONTINUOUS
 10
-4926.2135746588392
 20
402190.34493596148
 30
0.0
 11
-5040.2768558191901
 21
402120.40906974999
 31
0.0
  0
LINE
  5
64C71
  8
S-OBRYS
  6
CONTINUOUS
 10
-4926.2135746588392
 20
402113.83601477172
 30
0.0
 11
-5040.2768558191901
 21
402043.90014856018
 31
0.0
  0
LINE
  5
64C72
  8
S-OBRYS
  6
CONTINUOUS
 10
-4926.2135746588392
 20
402041.46278724918
 30
0.0
 11
-5040.2768558191901
 21
401971.5269210377
 31
0.0
  0
LINE
  5
64C73
  8
S-OBRYS
  6
CONTINUOUS
 10
-4926.2135746588392
 20
401960.81828532449
 30
0.0
 11
-5040.2768558191901
 21
401890.88241911301
 31
0.0
  0
LINE
  5
64C74
  8
S-OBRYS
  6
CONTINUOUS
 10
-4926.2135746588392
 20
401876.03814619873
 30
0.0
 11
-5040.2768558191901
 21
401806.10227998719
 31
0.0
  0
LINE
  5
64C75
  8
S-OBRYS
  6
CONTINUOUS
 10
-4926.2135746588392
 20
401789.19021670549
 30
0.0
 11
-5040.2768558191901
 21
401719.25435049401
 31
0.0
  0
LINE
  5
64C76
  8
S-OBRYS
  6
CONTINUOUS
 10
-4926.2135746588392
 20
401708.5457147808
 30
0.0
 11
-5040.2768558191901
 21
401638.60984856932
 31
0.0
  0
LINE
  5
64C77
  8
S-OBRYS
  6
CONTINUOUS
 10
-4926.2135746588392
 20
401629.96900322358
 30
0.0
 11
-5040.2768558191901
 21
401560.0331370121
 31
0.0
  0
LINE
  5
64C78
  8
S-OBRYS
  6
CONTINUOUS
 10
-4926.2135746588392
 20
401541.05328336288
 30
0.0
 11
-5040.2768558191901
 21
401471.1174171514
 31
0.0
  0
LINE
  5
64C79
  8
S-OBRYS
  6
CONTINUOUS
 10
-4926.2135746588392
 20
401448.00192630122
 30
0.0
 11
-5040.2768558191901
 21
401378.06606008968
 31
0.0
  0
LINE
  5
64C7A
  8
S-OBRYS
  6
CONTINUOUS
 10
-1028.763172551013
 20
402269.95570552861
 30
0.0
 11
-914.76950565301922
 21
402199.90642716718
 31
0.0
  0
LINE
  5
64C7B
  8
S-OBRYS
  6
CONTINUOUS
 10
-1028.8289847429389
 20
402203.78588183672
 30
0.0
 11
-914.83531784488696
 21
402133.73660347518
 31
0.0
  0
LINE
  5
64C7C
  8
S-OBRYS
  6
CONTINUOUS
 10
-1028.9009667752091
 20
402131.4126901105
 30
0.0
 11
-914.90729987715702
 21
402061.36341174919
 31
0.0
  0
LINE
  5
64C7D
  8
S-OBRYS
  6
CONTINUOUS
 10
-1028.977062146716
 20
402054.90380676283
 30
0.0
 11
-914.98339524872245
 21
401984.8545284014
 31
0.0
  0
LINE
  5
64C7E
  8
S-OBRYS
  6
CONTINUOUS
 10
-1029.0490441790439
 20
401982.53061503678
 30
0.0
 11
-915.05537728099262
 21
401912.48133667541
 31
0.0
  0
LINE
  5
64C7F
  8
S-OBRYS
  6
CONTINUOUS
 10
-1029.129252777389
 20
401901.88615299959
 30
0.0
 11
-915.13558587933755
 21
401831.83687463828
 31
0.0
  0
LINE
  5
64C80
  8
S-OBRYS
  6
CONTINUOUS
 10
-1029.213574658859
 20
401817.10605580691
 30
0.0
 11
-915.21990776086557
 21
401747.0567774456
 31
0.0
  0
LINE
  5
64C81
  8
S-OBRYS
  6
CONTINUOUS
 10
-1029.2999531537189
 20
401730.25816926948
 30
0.0
 11
-915.30628625572535
 21
401660.20889090811
 31
0.0
  0
LINE
  5
64C82
  8
S-OBRYS
  6
CONTINUOUS
 10
-1029.3801617521799
 20
401649.61370723241
 30
0.0
 11
-915.38649485407041
 21
401579.56442887109
 31
0.0
  0
LINE
  5
64C83
  8
S-OBRYS
  6
CONTINUOUS
 10
-1029.4583137370771
 20
401571.03703453991
 30
0.0
 11
-915.46464683902548
 21
401500.9877561786
 31
0.0
  0
LINE
  5
64C84
  8
S-OBRYS
  6
CONTINUOUS
 10
-1029.5467488453851
 20
401482.12135865778
 30
0.0
 11
-915.55308194739155
 21
401412.07208029652
 31
0.0
  0
LINE
  5
64C85
  8
S-OBRYS
  6
CONTINUOUS
 10
-1029.6392972368169
 20
401389.0700476201
 30
0.0
 11
-915.64563033876584
 21
401319.02076925879
 31
0.0
  0
DIMENSION
  5
64C86
  8
S-OBRYS
  6
CONTINUOUS
  2
*D17
 10
-1029.041978188035
 20
402005.89097691549
 30
0.0
 11
-1379.1277764234369
 21
402080.89097691549
 31
0.0
 70
     0
  1
700
 13
-1729.213574658839
 23
401990.33139082883
 33
0.0
 14
-1029.041978188035
 24
401989.63500348898
 34
0.0
  0
LINE
  5
64C87
  8
S-OBRYS
  6
CONTINUOUS
 10
-1029.041978188035
 20
402015.89097691549
 30
0.0
 11
-1029.041978188035
 21
402287.162867476
 31
0.0
  0
LINE
  5
64C88
  8
S-OBRYS
  6
CONTINUOUS
 10
-1029.041978188035
 20
401992.785003489
 30
0.0
 11
-1029.041978188035
 21
401368.6625264727
 31
0.0
  0
DIMENSION
  5
64C89
  8
S-OBRYS
  6
CONTINUOUS
  2
*D18
 10
-4926.2135746588392
 20
402274.80299217469
 30
0.0
 11
-4476.2135746588401
 21
402349.80299217469
 31
0.0
 70
     0
 13
-4026.213574658841
 23
401973.46879189328
 33
0.0
 14
-4926.2135746588392
 24
401973.46879189328
 34
0.0
  0
LINE
  5
64C8A
  8
S-OBRYS
  6
CONTINUOUS
 10
-4026.213574658841
 20
402171.18228081428
 30
0.0
 11
-4026.213574658841
 21
402284.80299217481
 31
0.0
  0
LINE
  5
64C8B
  8
S-OBRYS
  6
CONTINUOUS
 10
-4126.213574658841
 20
402274.80299217469
 30
0.0
 11
-4226.213574658841
 21
402274.80299217469
 31
0.0
  0
INSERT
  5
64C8C
  8
S-OBRYS
  6
CONTINUOUS
  2
_OPEN
 10
-4026.213574658841
 20
402274.80299217469
 30
0.0
 41
100.0
 42
100.0
 43
100.0
  0
DIMENSION
  5
64C8D
  8
S-OBRYS
  6
CONTINUOUS
  2
*D31
 10
-3812.2135746588392
 20
402274.80299217469
 30
0.0
 11
-3482.4516698969351
 21
402349.80299217469
 31
0.0
 70
     0
 13
-4026.213574658841
 23
402209.38486959302
 33
0.0
 14
-3812.2135746588392
 24
402097.6518899707
 34
0.0
  0
DIMENSION
  5
64C8E
  8
S-OBRYS
  6
CONTINUOUS
  2
*D32
 10
-1854.213574658839
 20
402195.5589636715
 30
0.0
 11
-2833.2135746588392
 21
402270.5589636715
 31
0.0
 70
     0
 13
-3812.2135746588392
 23
402097.6518899707
 33
0.0
 14
-1854.213574658839
 24
402090.6958348038
 34
0.0
  0
VIEWPORT
  5
1FAB5
 67
     1
  8
0
  6
ČERCHOVANÁ
 10
12.669026204836801
 20
9.4585013259736659
 30
0.0
 40
41.707206501782828
 41
24.2248555085413
 68
     1
 69
     1
1001
ACAD
1000
MVIEW
1002
{
1070
    16
1010
0.0
1020
0.0
1030
0.0
1010
0.0
1020
0.0
1030
1.0
1040
0.0
1040
24.2248555085413
1040
12.669026204836801
1040
9.4585013259736659
1040
50.0
1040
0.0
1040
0.0
1070
     0
1070
   100
1070
     1
1070
     1
1070
     0
1070
     0
1070
     0
1070
     0
1040
0.0
1040
0.0
1040
0.0
1040
10.0
1040
10.0
1040
10.0
1040
10.0
1070
     0
1002
{
1002
}
1002
}
  0
VIEWPORT
  5
1FAB7
 67
     1
  8
2-VZT
  6
ČERCHOVANÁ
 10
5.24999976158142
 20
3.99999976158142
 30
0.0
 40
8.3999996185302717
 41
6.3999996185302717
 68
     2
 69
     2
1001
ACAD
1000
MVIEW
1002
{
1070
    16
1010
0.0
1020
0.0
1030
0.0
1010
0.0
1020
0.0
1030
1.0
1040
0.0
1040
517776.44812413253
1040
-335493.7046016907
1040
-205251.99203018961
1040
50.0
1040
0.0
1040
0.0
1070
     0
1070
   100
1070
     1
1070
     0
1070
     0
1070
     0
1070
     0
1070
     0
1040
0.0
1040
0.0
1040
0.0
1040
1.0
1040
1.0
1040
1.0
1040
1.0
1070
     0
1002
{
1002
}
1002
}
  0
ENDSEC
  0
EOF
