  0
SECTION
  2
HEADER
  9
$ACADVER
  1
AC1009
  9
$INSBASE
 10
0.0
 20
0.0
 30
0.0
  9
$EXTMIN
 10
-9999.3045388990322
 20
395380.74503627518
 30
0.0
  9
$EXTMAX
 10
13937.521183771691
 20
410230.74503627518
 30
0.0
  9
$LIMMIN
 10
-127022.6804658414
 20
-67144.462473645661
  9
$LIMMAX
 10
-873.19720690528334
 20
6755.1563308572058
  9
$ORTHOMODE
 70
     1
  9
$REGENMODE
 70
     1
  9
$FILLMODE
 70
     1
  9
$QTEXTMODE
 70
     0
  9
$MIRRTEXT
 70
     0
  9
$DRAGMODE
 70
     2
  9
$LTSCALE
 40
50.0
  9
$OSMODE
 70
   679
  9
$ATTMODE
 70
     1
  9
$TEXTSIZE
 40
200.0
  9
$TRACEWID
 40
10.0
  9
$TEXTSTYLE
  7
R
  9
$CLAYER
  8
S-OBRYS
  9
$CELTYPE
  6
CONTINUOUS
  9
$CECOLOR
 62
   256
  9
$DIMSCALE
 40
50.0
  9
$DIMASZ
 40
2.0
  9
$DIMEXO
 40
0.063
  9
$DIMDLI
 40
5.0
  9
$DIMRND
 40
0.0
  9
$DIMDLE
 40
0.0
  9
$DIMEXE
 40
0.2
  9
$DIMTP
 40
0.0
  9
$DIMTM
 40
0.0
  9
$DIMTXT
 40
2.0
  9
$DIMCEN
 40
2.0
  9
$DIMTSZ
 40
0.0
  9
$DIMTOL
 70
     0
  9
$DIMLIM
 70
     0
  9
$DIMTIH
 70
     0
  9
$DIMTOH
 70
     0
  9
$DIMSE1
 70
     0
  9
$DIMSE2
 70
     0
  9
$DIMTAD
 70
     1
  9
$DIMZIN
 70
    12
  9
$DIMBLK
  1

  9
$DIMASO
 70
     1
  9
$DIMSHO
 70
     0
  9
$DIMPOST
  1

  9
$DIMAPOST
  1

  9
$DIMALT
 70
     0
  9
$DIMALTD
 70
     2
  9
$DIMALTF
 40
25.399999999999999
  9
$DIMLFAC
 40
1.0
  9
$DIMTOFL
 70
     1
  9
$DIMTVP
 40
0.0
  9
$DIMTIX
 70
     0
  9
$DIMSOXD
 70
     0
  9
$DIMSAH
 70
     1
  9
$DIMBLK1
  1
OPEN
  9
$DIMBLK2
  1
OPEN
  9
$DIMSTYLE
  2
EMBABA
  9
$DIMCLRD
 70
     0
  9
$DIMCLRE
 70
     0
  9
$DIMCLRT
 70
     7
  9
$DIMTFAC
 40
1.0
  9
$DIMGAP
 40
0.5
  9
$LUNITS
 70
     2
  9
$LUPREC
 70
     0
  9
$SKETCHINC
 40
10.0
  9
$FILLETRAD
 40
400.0
  9
$AUNITS
 70
     0
  9
$AUPREC
 70
     4
  9
$MENU
  1
ACAD
  9
$ELEVATION
 40
0.0
  9
$PELEVATION
 40
0.0
  9
$THICKNESS
 40
0.0
  9
$LIMCHECK
 70
     0
  9
$BLIPMODE
 70
     0
  9
$CHAMFERA
 40
0.0
  9
$CHAMFERB
 40
0.0
  9
$SKPOLY
 70
     0
  9
$TDCREATE
 40
2450205.720229167
  9
$TDUPDATE
 40
2453524.5427428698
  9
$TDINDWG
 40
42.348159988399999
  9
$TDUSRTIMER
 40
42.348159988399999
  9
$USRTIMER
 70
     1
  9
$ANGBASE
 50
0.0
  9
$ANGDIR
 70
     0
  9
$PDMODE
 70
     2
  9
$PDSIZE
 40
-5.0
  9
$PLINEWID
 40
0.0
  9
$COORDS
 70
     0
  9
$SPLFRAME
 70
     0
  9
$SPLINETYPE
 70
     6
  9
$SPLINESEGS
 70
     8
  9
$ATTDIA
 70
     0
  9
$ATTREQ
 70
     1
  9
$HANDLING
 70
     1
  9
$HANDSEED
  5
64E06
  9
$SURFTAB1
 70
    18
  9
$SURFTAB2
 70
    18
  9
$SURFTYPE
 70
     6
  9
$SURFU
 70
    18
  9
$SURFV
 70
    18
  9
$UCSNAME
  2

  9
$UCSORG
 10
0.0
 20
0.0
 30
0.0
  9
$UCSXDIR
 10
1.0
 20
0.0
 30
0.0
  9
$UCSYDIR
 10
0.0
 20
1.0
 30
0.0
  9
$PUCSNAME
  2

  9
$PUCSORG
 10
0.0
 20
0.0
 30
0.0
  9
$PUCSXDIR
 10
1.0
 20
0.0
 30
0.0
  9
$PUCSYDIR
 10
0.0
 20
1.0
 30
0.0
  9
$USERI1
 70
     0
  9
$USERI2
 70
     0
  9
$USERI3
 70
     0
  9
$USERI4
 70
     0
  9
$USERI5
 70
     0
  9
$USERR1
 40
0.0
  9
$USERR2
 40
50.0
  9
$USERR3
 40
0.0
  9
$USERR4
 40
0.0
  9
$USERR5
 40
0.0
  9
$WORLDVIEW
 70
     1
  9
$SHADEDGE
 70
     3
  9
$SHADEDIF
 70
    70
  9
$TILEMODE
 70
     1
  9
$MAXACTVP
 70
    16
  9
$PLIMCHECK
 70
     0
  9
$PEXTMIN
 10
1.049999952316284
 20
0.7999999523162842
 30
0.0
  9
$PEXTMAX
 10
9.4499995708465558
 20
7.1999995708465558
 30
0.0
  9
$PLIMMIN
 10
-0.2500002402958907
 20
-0.2499999962453767
  9
$PLIMMAX
 10
10.74999951940821
 20
8.2499997634587316
  9
$UNITMODE
 70
     0
  9
$VISRETAIN
 70
     0
  9
$PLINEGEN
 70
     0
  9
$PSLTSCALE
 70
     1
  0
ENDSEC
  0
SECTION
  2
TABLES
  0
TABLE
  2
VPORT
 70
     4
  0
VPORT
  2
*ACTIVE
 70
     0
 10
0.0
 20
0.0
 11
1.0
 21
1.0
 12
3789.23282657456
 22
402286.73099812079
 13
0.0
 23
0.0
 14
1.0
 24
1.0
 15
1.0
 25
1.0
 16
0.0
 26
0.0
 36
1.0
 17
0.0
 27
0.0
 37
0.0
 40
22948.011677919942
 41
1.6116303219106951
 42
50.0
 43
0.0
 44
0.0
 50
0.0
 51
0.0
 71
     0
 72
   100
 73
     1
 74
     0
 75
     0
 76
     1
 77
     0
 78
     0
  0
ENDTAB
  0
TABLE
  2
LTYPE
 70
     3
  0
LTYPE
  2
CONTINUOUS
 70
     0
  3
Solid line
 72
    65
 73
     0
 40
0.0
  0
LTYPE
  2
ČERCHOVANÁ
 70
     0
  3
Čerchovaná __ . __ . __ . __ . __ . __ . __ . _
 72
    65
 73
     4
 40
1.0
 49
0.5
 49
-0.25
 49
0.0
 49
-0.25
  0
ENDTAB
  0
TABLE
  2
LAYER
 70
    18
  0
LAYER
  2
0
 70
     0
 62
     7
  6
CONTINUOUS
  0
LAYER
  2
RAZ
 70
     0
 62
     7
  6
CONTINUOUS
  0
LAYER
  2
KOTY
 70
     0
 62
     2
  6
CONTINUOUS
  0
LAYER
  2
DEFPOINTS
 70
     0
 62
     7
  6
CONTINUOUS
  0
LAYER
  2
2-VZT
 70
     0
 62
     4
  6
CONTINUOUS
  0
LAYER
  2
OBRYS
 70
     0
 62
     7
  6
CONTINUOUS
  0
LAYER
  2
S-OBRYS
 70
     0
 62
     7
  6
CONTINUOUS
  0
ENDTAB
  0
TABLE
  2
STYLE
 70
     7
  0
STYLE
  2
STANDARD
 70
     0
 40
0.0
 41
0.8
 50
0.0
 71
     0
 42
200.0
  3
ROMANS.SHX
  4

  0
STYLE
  2
R
 70
     0
 40
0.0
 41
1.0
 50
0.0
 71
     0
 42
200.0
  3
romans.shx
  4

  0
STYLE
  2
ROMANS
 70
     0
 40
0.0
 41
0.8
 50
0.0
 71
     0
 42
300.0
  3
ROMANS.shx
  4

  0
STYLE
  2
R08
 70
     0
 40
0.0
 41
0.8
 50
0.0
 71
     0
 42
800.0
  3
ROMANS.shx
  4

  0
STYLE
  2
ROMANT
 70
     0
 40
0.0
 41
0.7
 50
0.0
 71
     0
 42
3.0
  3
romant
  4

  0
STYLE
  2
CYRILLIC
 70
     0
 40
2.2999999999999989
 41
0.7
 50
0.0
 71
     0
 42
2.2999999999999989
  3
cyrillic
  4

  0
STYLE
  2
PROKOP
 70
     0
 40
100.0
 41
0.7
 50
0.0
 71
     0
 42
100.0
  3
romanc.shx
  4

  0
ENDTAB
  0
TABLE
  2
VIEW
 70
     0
  0
ENDTAB
  0
TABLE
  2
UCS
 70
     0
  0
ENDTAB
  0
TABLE
  2
APPID
 70
     6
  0
APPID
  2
ACAD
 70
     0
  0
APPID
  2
PHOENIX7010
 70
     0
  0
APPID
  2
CONTENTBLOCKICON
 70
     0
  0
APPID
  2
CONTENTLONGBLOCKNAME
 70
     0
  0
APPID
  2
ACAD_DSTYLE_DIMTEXT_FILL
 70
     0
  0
APPID
  2
DCO15
 70
     0
  0
ENDTAB
  0
TABLE
  2
DIMSTYLE
 70
     3
  0
DIMSTYLE
  2
STANDARD
 70
     0
  3

  4

  5

  6
OPEN
  7
OPEN
 40
1.0
 41
80.0
 42
1.0
 43
0.0
 44
1.0
 45
0.0
 46
0.8
 47
0.0
 48
0.0
140
70.0
141
-3.0
142
0.0
143
0.0394
144
1.0
145
1.0
146
0.5
147
1.0
 71
     0
 72
     0
 73
     0
 74
     0
 75
     0
 76
     0
 77
     0
 78
     8
170
     0
171
     2
172
     1
173
     1
174
     0
175
     0
176
     7
177
     7
178
     2
  0
DIMSTYLE
  2
EMBABA
 70
     0
  3

  4

  5

  6
OPEN
  7
OPEN
 40
50.0
 41
2.0
 42
0.063
 43
5.0
 44
0.2
 45
0.0
 46
0.0
 47
0.0
 48
0.0
140
2.0
141
2.0
142
0.0
143
25.399999999999999
144
1.0
145
0.0
146
1.0
147
0.5
 71
     0
 72
     0
 73
     0
 74
     0
 75
     0
 76
     0
 77
     1
 78
    12
170
     0
171
     2
172
     1
173
     1
174
     0
175
     0
176
     0
177
     0
178
     7
  0
ENDTAB
  0
ENDSEC
  0
SECTION
  2
BLOCKS
  0
BLOCK
  8
0
  2
$MODEL_SPACE
 70
     0
 10
0.0
 20
0.0
 30
0.0
  3
$MODEL_SPACE
  1

  0
ENDBLK
  5
9
  8
0
  0
BLOCK
 67
     1
  8
0
  2
$PAPER_SPACE
 70
     0
 10
0.0
 20
0.0
 30
0.0
  3
$PAPER_SPACE
  1

  0
ENDBLK
  5
E
 67
     1
  8
0
  0
BLOCK
  8
0
  2
_OPEN
 70
     0
 10
0.0
 20
0.0
 30
0.0
  3
_OPEN
  1

  0
LINE
  5
28
  8
0
  6
BYBLOCK
 62
     0
 10
-1.0
 20
0.1666666666666666
 30
0.0
 11
0.0
 21
0.0
 31
0.0
  0
LINE
  5
29
  8
0
  6
BYBLOCK
 62
     0
 10
0.0
 20
0.0
 30
0.0
 11
-1.0
 21
-0.1666666666666666
 31
0.0
  0
LINE
  5
2A
  8
0
  6
BYBLOCK
 62
     0
 10
0.0
 20
0.0
 30
0.0
 11
-1.0
 21
0.0
 31
0.0
  0
ENDBLK
  5
2C
  8
0
  0
BLOCK
  8
0
  2
*D16
 70
     1
 10
0.0
 20
0.0
 30
0.0
  3
*D16
  1

  0
LINE
  5
64BD3
  8
S-OBRYS
  6
CONTINUOUS
 62
     0
 10
-2196.2702180837659
 20
401886.13035022438
 30
0.0
 11
-2196.2702180837659
 21
401908.53993631108
 31
0.0
  0
LINE
  5
64BD4
  8
S-OBRYS
  6
CONTINUOUS
 62
     0
 10
-1496.098621612962
 20
401885.43396288459
 30
0.0
 11
-1496.098621612962
 21
401908.53993631108
 31
0.0
  0
LINE
  5
64BD5
  8
S-OBRYS
  6
CONTINUOUS
 62
     0
 10
-2096.2702180837659
 20
401898.53993631119
 30
0.0
 11
-1596.098621612962
 21
401898.53993631119
 31
0.0
  0
INSERT
  5
64BD6
  8
S-OBRYS
  6
CONTINUOUS
 62
     0
  2
_OPEN
 10
-2196.2702180837659
 20
401898.53993631119
 30
0.0
 41
100.0
 42
100.0
 43
100.0
 50
180.0
  0
INSERT
  5
64BD7
  8
S-OBRYS
  6
CONTINUOUS
 62
     0
  2
_OPEN
 10
-1496.098621612962
 20
401898.53993631119
 30
0.0
 41
100.0
 42
100.0
 43
100.0
  0
INSERT
  5
64BD8
  8
S-OBRYS
  6
CONTINUOUS
  2
*U50
 10
0.0
 20
0.0
 30
0.0
  0
POINT
  5
64BD9
  8
DEFPOINTS
  6
CONTINUOUS
 62
     0
 10
-2196.2702180837659
 20
401882.9803502243
 30
0.0
  0
POINT
  5
64BDA
  8
DEFPOINTS
  6
CONTINUOUS
 62
     0
 10
-1496.098621612962
 20
401882.28396288451
 30
0.0
  0
POINT
  5
64BDB
  8
DEFPOINTS
  6
CONTINUOUS
 62
     0
 10
-1496.098621612962
 20
401898.53993631119
 30
0.0
  0
ENDBLK
  5
64B23
  8
0
  0
BLOCK
  8
0
  2
*D17
 70
     1
 10
0.0
 20
0.0
 30
0.0
  3
*D17
  1

  0
LINE
  5
64BDC
  8
S-OBRYS
  6
CONTINUOUS
 62
     0
 10
-4043.270218083765
 20
401891.02026358002
 30
0.0
 11
-4043.270218083765
 21
402199.20446386142
 31
0.0
  0
LINE
  5
64BDD
  8
S-OBRYS
  6
CONTINUOUS
 62
     0
 10
-4943.2702180837641
 20
401891.02026358002
 30
0.0
 11
-4943.2702180837641
 21
402199.20446386142
 31
0.0
  0
LINE
  5
64BDE
  8
S-OBRYS
  6
CONTINUOUS
 62
     0
 10
-4143.2702180837659
 20
402189.2044638613
 30
0.0
 11
-4843.2702180837641
 21
402189.2044638613
 31
0.0
  0
INSERT
  5
64BDF
  8
S-OBRYS
  6
CONTINUOUS
 62
     0
  2
_OPEN
 10
-4043.270218083765
 20
402189.2044638613
 30
0.0
 41
100.0
 42
100.0
 43
100.0
  0
INSERT
  5
64BE0
  8
S-OBRYS
  6
CONTINUOUS
 62
     0
  2
_OPEN
 10
-4943.2702180837641
 20
402189.2044638613
 30
0.0
 41
100.0
 42
100.0
 43
100.0
 50
180.0
  0
INSERT
  5
64BE1
  8
S-OBRYS
  6
CONTINUOUS
  2
*U51
 10
0.0
 20
0.0
 30
0.0
  0
POINT
  5
64BE2
  8
DEFPOINTS
  6
CONTINUOUS
 62
     0
 10
-4043.270218083765
 20
401887.87026358
 30
0.0
  0
POINT
  5
64BE3
  8
DEFPOINTS
  6
CONTINUOUS
 62
     0
 10
-4943.2702180837641
 20
401887.87026358
 30
0.0
  0
POINT
  5
64BE4
  8
DEFPOINTS
  6
CONTINUOUS
 62
     0
 10
-4943.2702180837641
 20
402189.2044638613
 30
0.0
  0
ENDBLK
  5
64B2F
  8
0
  0
BLOCK
  8
0
  2
*D18
 70
     1
 10
0.0
 20
0.0
 30
0.0
  3
*D18
  1

  0
LINE
  5
64BE5
  8
S-OBRYS
  6
CONTINUOUS
 62
     0
 10
-6070.399071177394
 20
404894.54861017771
 30
0.0
 11
-5961.2455866434457
 21
404894.54861017771
 31
0.0
  0
LINE
  5
64BE6
  8
S-OBRYS
  6
CONTINUOUS
 62
     0
 10
-5820.6990830773957
 20
405494.54861017759
 30
0.0
 11
-5981.2455866434457
 21
405494.54861017759
 31
0.0
  0
LINE
  5
64BE7
  8
S-OBRYS
  6
CONTINUOUS
 62
     0
 10
-5971.2455866434457
 20
404994.54861017759
 30
0.0
 11
-5971.2455866434457
 21
405394.54861017771
 31
0.0
  0
INSERT
  5
64BE8
  8
S-OBRYS
  6
CONTINUOUS
 62
     0
  2
_OPEN
 10
-5971.2455866434457
 20
404894.54861017771
 30
0.0
 41
100.0
 42
100.0
 43
100.0
 50
270.0
  0
INSERT
  5
64BE9
  8
S-OBRYS
  6
CONTINUOUS
 62
     0
  2
_OPEN
 10
-5971.2455866434457
 20
405494.54861017759
 30
0.0
 41
100.0
 42
100.0
 43
100.0
 50
90.0
  0
INSERT
  5
64BEA
  8
S-OBRYS
  6
CONTINUOUS
  2
*U52
 10
0.0
 20
0.0
 30
0.0
  0
POINT
  5
64BEB
  8
DEFPOINTS
  6
CONTINUOUS
 62
     0
 10
-6073.5490711773946
 20
404894.54861017771
 30
0.0
  0
POINT
  5
64BEC
  8
DEFPOINTS
  6
CONTINUOUS
 62
     0
 10
-5817.5490830773961
 20
405494.54861017759
 30
0.0
  0
POINT
  5
64BED
  8
DEFPOINTS
  6
CONTINUOUS
 62
     0
 10
-5971.2455866434457
 20
405494.54861017759
 30
0.0
  0
ENDBLK
  5
64B3B
  8
0
  0
BLOCK
  8
0
  2
*D19
 70
     1
 10
0.0
 20
0.0
 30
0.0
  3
*D19
  1

  0
LINE
  5
64BEE
  8
S-OBRYS
  6
CONTINUOUS
 62
     0
 10
-7664.3441168615436
 20
406385.33421551908
 30
0.0
 11
-7664.3441168615436
 21
406706.165677579
 31
0.0
  0
LINE
  5
64BEF
  8
S-OBRYS
  6
CONTINUOUS
 62
     0
 10
-5817.3441168615418
 20
405952.69850767771
 30
0.0
 11
-5817.3441168615418
 21
406706.165677579
 31
0.0
  0
LINE
  5
64BF0
  8
S-OBRYS
  6
CONTINUOUS
 62
     0
 10
-7564.3441168615436
 20
406696.165677579
 30
0.0
 11
-5917.3441168615418
 21
406696.165677579
 31
0.0
  0
INSERT
  5
64BF1
  8
S-OBRYS
  6
CONTINUOUS
 62
     0
  2
_OPEN
 10
-7664.3441168615436
 20
406696.165677579
 30
0.0
 41
100.0
 42
100.0
 43
100.0
 50
180.0
  0
INSERT
  5
64BF2
  8
S-OBRYS
  6
CONTINUOUS
 62
     0
  2
_OPEN
 10
-5817.3441168615418
 20
406696.165677579
 30
0.0
 41
100.0
 42
100.0
 43
100.0
  0
INSERT
  5
64BF3
  8
S-OBRYS
  6
CONTINUOUS
  2
*U53
 10
0.0
 20
0.0
 30
0.0
  0
POINT
  5
64BF4
  8
DEFPOINTS
  6
CONTINUOUS
 62
     0
 10
-7664.3441168615436
 20
406382.184215519
 30
0.0
  0
POINT
  5
64BF5
  8
DEFPOINTS
  6
CONTINUOUS
 62
     0
 10
-5817.3441168615418
 20
405949.54850767768
 30
0.0
  0
POINT
  5
64BF6
  8
DEFPOINTS
  6
CONTINUOUS
 62
     0
 10
-5817.3441168615418
 20
406696.165677579
 30
0.0
  0
ENDBLK
  5
64B47
  8
0
  0
BLOCK
  8
0
  2
*D20
 70
     1
 10
0.0
 20
0.0
 30
0.0
  3
*D20
  1

  0
LINE
  5
64BF7
  8
S-OBRYS
  6
CONTINUOUS
 62
     0
 10
-7425.4941168615433
 20
406339.54861017771
 30
0.0
 11
-7849.87630216257
 21
406339.54861017771
 31
0.0
  0
LINE
  5
64BF8
  8
S-OBRYS
  6
CONTINUOUS
 62
     0
 10
-7542.4941763615452
 20
404884.54861017759
 30
0.0
 11
-7849.87630216257
 21
404884.54861017759
 31
0.0
  0
LINE
  5
64BF9
  8
S-OBRYS
  6
CONTINUOUS
 62
     0
 10
-7839.8763021625709
 20
406239.54861017771
 30
0.0
 11
-7839.8763021625709
 21
404984.54861017759
 31
0.0
  0
INSERT
  5
64BFA
  8
S-OBRYS
  6
CONTINUOUS
 62
     0
  2
_OPEN
 10
-7839.8763021625709
 20
406339.54861017771
 30
0.0
 41
100.0
 42
100.0
 43
100.0
 50
90.0
  0
INSERT
  5
64BFB
  8
S-OBRYS
  6
CONTINUOUS
 62
     0
  2
_OPEN
 10
-7839.8763021625709
 20
404884.54861017759
 30
0.0
 41
100.0
 42
100.0
 43
100.0
 50
270.0
  0
INSERT
  5
64BFC
  8
S-OBRYS
  6
CONTINUOUS
  2
*U54
 10
0.0
 20
0.0
 30
0.0
  0
POINT
  5
64BFD
  8
DEFPOINTS
  6
CONTINUOUS
 62
     0
 10
-7422.3441168615436
 20
406339.54861017771
 30
0.0
  0
POINT
  5
64BFE
  8
DEFPOINTS
  6
CONTINUOUS
 62
     0
 10
-7539.3441763615438
 20
404884.54861017759
 30
0.0
  0
POINT
  5
64BFF
  8
DEFPOINTS
  6
CONTINUOUS
 62
     0
 10
-7839.8763021625709
 20
404884.54861017759
 30
0.0
  0
ENDBLK
  5
64B53
  8
0
  0
BLOCK
  8
0
  2
*D21
 70
     1
 10
0.0
 20
0.0
 30
0.0
  3
*D21
  1

  0
LINE
  5
64C00
  8
S-OBRYS
  6
CONTINUOUS
 62
     0
 10
-7422.3441168615436
 20
406467.21644823608
 30
0.0
 11
-7422.3441168615436
 21
406550.29985966033
 31
0.0
  0
LINE
  5
64C01
  8
S-OBRYS
  6
CONTINUOUS
 62
     0
 10
-7322.3441168615427
 20
406467.21644823608
 30
0.0
 11
-7322.3441168615427
 21
406550.29985966033
 31
0.0
  0
LINE
  5
64C02
  8
S-OBRYS
  6
CONTINUOUS
 62
     0
 10
-7522.3441168615427
 20
406540.29985966033
 30
0.0
 11
-7622.3441168615436
 21
406540.29985966033
 31
0.0
  0
LINE
  5
64C03
  8
S-OBRYS
  6
CONTINUOUS
 62
     0
 10
-7222.3441168615436
 20
406540.29985966033
 30
0.0
 11
-7122.3441168615436
 21
406540.29985966033
 31
0.0
  0
LINE
  5
64C04
  8
S-OBRYS
  6
CONTINUOUS
 62
     0
 10
-7422.3441168615436
 20
406540.29985966033
 30
0.0
 11
-7322.3441168615427
 21
406540.29985966033
 31
0.0
  0
INSERT
  5
64C05
  8
S-OBRYS
  6
CONTINUOUS
 62
     0
  2
_OPEN
 10
-7422.3441168615436
 20
406540.29985966033
 30
0.0
 41
100.0
 42
100.0
 43
100.0
  0
INSERT
  5
64C06
  8
S-OBRYS
  6
CONTINUOUS
 62
     0
  2
_OPEN
 10
-7322.3441168615427
 20
406540.29985966033
 30
0.0
 41
100.0
 42
100.0
 43
100.0
 50
180.0
  0
INSERT
  5
64C07
  8
S-OBRYS
  6
CONTINUOUS
  2
*U55
 10
0.0
 20
0.0
 30
0.0
  0
POINT
  5
64C08
  8
DEFPOINTS
  6
CONTINUOUS
 62
     0
 10
-7422.3441168615436
 20
406464.06644823612
 30
0.0
  0
POINT
  5
64C09
  8
DEFPOINTS
  6
CONTINUOUS
 62
     0
 10
-7322.3441168615427
 20
406464.06644823612
 30
0.0
  0
POINT
  5
64C0A
  8
DEFPOINTS
  6
CONTINUOUS
 62
     0
 10
-7322.3441168615427
 20
406540.29985966033
 30
0.0
  0
ENDBLK
  5
64B61
  8
0
  0
BLOCK
  8
0
  2
*D22
 70
     1
 10
0.0
 20
0.0
 30
0.0
  3
*D22
  1

  0
LINE
  5
64C0B
  8
S-OBRYS
  6
CONTINUOUS
 62
     0
 10
-7372.3441168615436
 20
406089.60909251409
 30
0.0
 11
-7372.3441168615436
 21
406379.684215519
 31
0.0
  0
LINE
  5
64C0C
  8
S-OBRYS
  6
CONTINUOUS
 62
     0
 10
-7664.3441168615436
 20
405952.69850767771
 30
0.0
 11
-7664.3441168615436
 21
406379.684215519
 31
0.0
  0
LINE
  5
64C0D
  8
S-OBRYS
  6
CONTINUOUS
 62
     0
 10
-7472.3441168615436
 20
406369.68421551911
 30
0.0
 11
-7564.3441168615436
 21
406369.68421551911
 31
0.0
  0
INSERT
  5
64C0E
  8
S-OBRYS
  6
CONTINUOUS
 62
     0
  2
_OPEN
 10
-7372.3441168615436
 20
406369.68421551911
 30
0.0
 41
100.0
 42
100.0
 43
100.0
  0
INSERT
  5
64C0F
  8
S-OBRYS
  6
CONTINUOUS
 62
     0
  2
_OPEN
 10
-7664.3441168615436
 20
406369.68421551911
 30
0.0
 41
100.0
 42
100.0
 43
100.0
 50
180.0
  0
INSERT
  5
64C10
  8
S-OBRYS
  6
CONTINUOUS
  2
*U56
 10
0.0
 20
0.0
 30
0.0
  0
POINT
  5
64C11
  8
DEFPOINTS
  6
CONTINUOUS
 62
     0
 10
-7372.3441168615436
 20
406086.45909251412
 30
0.0
  0
POINT
  5
64C12
  8
DEFPOINTS
  6
CONTINUOUS
 62
     0
 10
-7664.3441168615436
 20
405949.54850767768
 30
0.0
  0
POINT
  5
64C13
  8
DEFPOINTS
  6
CONTINUOUS
 62
     0
 10
-7664.3441168615436
 20
406369.68421551911
 30
0.0
  0
ENDBLK
  5
64B6D
  8
0
  0
BLOCK
  8
0
  2
*D23
 70
     1
 10
0.0
 20
0.0
 30
0.0
  3
*D23
  1

  0
LINE
  5
64C14
  8
S-OBRYS
  6
CONTINUOUS
 62
     0
 10
-3105.1252649655962
 20
406186.68898293091
 30
0.0
 11
-2719.7839056884732
 21
406186.68898293091
 31
0.0
  0
LINE
  5
64C15
  8
S-OBRYS
  6
CONTINUOUS
 62
     0
 10
-3055.1252887655951
 20
405121.68859293079
 30
0.0
 11
-2719.7839056884732
 21
405121.68859293079
 31
0.0
  0
LINE
  5
64C16
  8
S-OBRYS
  6
CONTINUOUS
 62
     0
 10
-2729.7839056884732
 20
406086.68898293079
 30
0.0
 11
-2729.7839056884732
 21
405221.68859293091
 31
0.0
  0
INSERT
  5
64C17
  8
S-OBRYS
  6
CONTINUOUS
 62
     0
  2
_OPEN
 10
-2729.7839056884732
 20
406186.68898293091
 30
0.0
 41
100.0
 42
100.0
 43
100.0
 50
90.0
  0
INSERT
  5
64C18
  8
S-OBRYS
  6
CONTINUOUS
 62
     0
  2
_OPEN
 10
-2729.7839056884732
 20
405121.68859293079
 30
0.0
 41
100.0
 42
100.0
 43
100.0
 50
270.0
  0
INSERT
  5
64C19
  8
S-OBRYS
  6
CONTINUOUS
  2
*U57
 10
0.0
 20
0.0
 30
0.0
  0
POINT
  5
64C1A
  8
DEFPOINTS
  6
CONTINUOUS
 62
     0
 10
-3108.2752649655959
 20
406186.68898293091
 30
0.0
  0
POINT
  5
64C1B
  8
DEFPOINTS
  6
CONTINUOUS
 62
     0
 10
-3058.2752887655952
 20
405121.68859293079
 30
0.0
  0
POINT
  5
64C1C
  8
DEFPOINTS
  6
CONTINUOUS
 62
     0
 10
-2729.7839056884732
 20
405121.68859293079
 30
0.0
  0
ENDBLK
  5
64B79
  8
0
  0
BLOCK
  8
0
  2
*D24
 70
     1
 10
0.0
 20
0.0
 30
0.0
  3
*D24
  1

  0
LINE
  5
64C1D
  8
S-OBRYS
  6
CONTINUOUS
 62
     0
 10
-3829.2702180837659
 20
402029.57981245627
 30
0.0
 11
-3829.2702180837659
 21
402211.95698858378
 31
0.0
  0
LINE
  5
64C1E
  8
S-OBRYS
  6
CONTINUOUS
 62
     0
 10
-2321.2702180837659
 20
402022.62375728961
 30
0.0
 11
-2321.2702180837659
 21
402211.95698858378
 31
0.0
  0
LINE
  5
64C1F
  8
S-OBRYS
  6
CONTINUOUS
 62
     0
 10
-3729.2702180837659
 20
402201.95698858378
 30
0.0
 11
-2421.2702180837659
 21
402201.95698858378
 31
0.0
  0
INSERT
  5
64C20
  8
S-OBRYS
  6
CONTINUOUS
 62
     0
  2
_OPEN
 10
-3829.2702180837659
 20
402201.95698858378
 30
0.0
 41
100.0
 42
100.0
 43
100.0
 50
180.0
  0
INSERT
  5
64C21
  8
S-OBRYS
  6
CONTINUOUS
 62
     0
  2
_OPEN
 10
-2321.2702180837659
 20
402201.95698858378
 30
0.0
 41
100.0
 42
100.0
 43
100.0
  0
INSERT
  5
64C22
  8
S-OBRYS
  6
CONTINUOUS
  2
*U58
 10
0.0
 20
0.0
 30
0.0
  0
POINT
  5
64C23
  8
DEFPOINTS
  6
CONTINUOUS
 62
     0
 10
-3829.2702180837659
 20
402026.42981245642
 30
0.0
  0
POINT
  5
64C24
  8
DEFPOINTS
  6
CONTINUOUS
 62
     0
 10
-2321.2702180837659
 20
402019.47375728958
 30
0.0
  0
POINT
  5
64C25
  8
DEFPOINTS
  6
CONTINUOUS
 62
     0
 10
-2321.2702180837659
 20
402201.95698858378
 30
0.0
  0
ENDBLK
  5
64B85
  8
0
  0
BLOCK
  8
0
  2
*D25
 70
     1
 10
0.0
 20
0.0
 30
0.0
  3
*D25
  1

  0
LINE
  5
64C26
  8
S-OBRYS
  6
CONTINUOUS
 62
     0
 10
-3935.9848344327011
 20
401970.88397829258
 30
0.0
 11
-4238.8023823604362
 21
401970.88397829258
 31
0.0
  0
LINE
  5
64C27
  8
S-OBRYS
  6
CONTINUOUS
 62
     0
 10
-3935.9848344327011
 20
401520.88397829258
 30
0.0
 11
-4238.8023823604362
 21
401520.88397829258
 31
0.0
  0
LINE
  5
64C28
  8
S-OBRYS
  6
CONTINUOUS
 62
     0
 10
-4228.8023823604362
 20
401870.88397829258
 30
0.0
 11
-4228.8023823604362
 21
401620.88397829252
 31
0.0
  0
INSERT
  5
64C29
  8
S-OBRYS
  6
CONTINUOUS
 62
     0
  2
_OPEN
 10
-4228.8023823604362
 20
401970.88397829258
 30
0.0
 41
100.0
 42
100.0
 43
100.0
 50
90.0
  0
INSERT
  5
64C2A
  8
S-OBRYS
  6
CONTINUOUS
 62
     0
  2
_OPEN
 10
-4228.8023823604362
 20
401520.88397829258
 30
0.0
 41
100.0
 42
100.0
 43
100.0
 50
270.0
  0
INSERT
  5
64C2B
  8
S-OBRYS
  6
CONTINUOUS
  2
*U59
 10
0.0
 20
0.0
 30
0.0
  0
POINT
  5
64C2C
  8
DEFPOINTS
  6
CONTINUOUS
 62
     0
 10
-3932.8348344327001
 20
401970.88397829258
 30
0.0
  0
POINT
  5
64C2D
  8
DEFPOINTS
  6
CONTINUOUS
 62
     0
 10
-3932.8348344327001
 20
401520.88397829258
 30
0.0
  0
POINT
  5
64C2E
  8
DEFPOINTS
  6
CONTINUOUS
 62
     0
 10
-4228.8023823604362
 20
401520.88397829258
 30
0.0
  0
ENDBLK
  5
64B91
  8
0
  0
BLOCK
  8
0
  2
*D26
 70
     1
 10
0.0
 20
0.0
 30
0.0
  3
*D26
  1

  0
LINE
  5
64C2F
  8
S-OBRYS
  6
CONTINUOUS
 62
     0
 10
-3568.2752887655952
 20
405118.53859293082
 30
0.0
 11
-3568.2752887655952
 21
404914.17652331467
 31
0.0
  0
LINE
  5
64C30
  8
S-OBRYS
  6
CONTINUOUS
 62
     0
 10
-3058.2752887655952
 20
405118.53859293082
 30
0.0
 11
-3058.2752887655952
 21
404914.17652331467
 31
0.0
  0
LINE
  5
64C31
  8
S-OBRYS
  6
CONTINUOUS
 62
     0
 10
-3468.2752887655952
 20
404924.17652331467
 30
0.0
 11
-3158.2752887655961
 21
404924.17652331467
 31
0.0
  0
INSERT
  5
64C32
  8
S-OBRYS
  6
CONTINUOUS
 62
     0
  2
_OPEN
 10
-3568.2752887655952
 20
404924.17652331467
 30
0.0
 41
100.0
 42
100.0
 43
100.0
 50
180.0
  0
INSERT
  5
64C33
  8
S-OBRYS
  6
CONTINUOUS
 62
     0
  2
_OPEN
 10
-3058.2752887655952
 20
404924.17652331467
 30
0.0
 41
100.0
 42
100.0
 43
100.0
  0
INSERT
  5
64C34
  8
S-OBRYS
  6
CONTINUOUS
  2
*U60
 10
0.0
 20
0.0
 30
0.0
  0
POINT
  5
64C35
  8
DEFPOINTS
  6
CONTINUOUS
 62
     0
 10
-3568.2752887655952
 20
405121.68859293079
 30
0.0
  0
POINT
  5
64C36
  8
DEFPOINTS
  6
CONTINUOUS
 62
     0
 10
-3058.2752887655952
 20
405121.68859293079
 30
0.0
  0
POINT
  5
64C37
  8
DEFPOINTS
  6
CONTINUOUS
 62
     0
 10
-3058.2752887655952
 20
404924.17652331467
 30
0.0
  0
ENDBLK
  5
64B9D
  8
0
  0
BLOCK
  8
0
  2
*D27
 70
     1
 10
0.0
 20
0.0
 30
0.0
  3
*D27
  1

  0
LINE
  5
64C38
  8
S-OBRYS
  6
CONTINUOUS
 62
     0
 10
-2552.420218083766
 20
401935.88397829258
 30
0.0
 11
-2682.3900251128148
 21
401935.88397829258
 31
0.0
  0
LINE
  5
64C39
  8
S-OBRYS
  6
CONTINUOUS
 62
     0
 10
-2552.420218083766
 20
401655.88397829258
 30
0.0
 11
-2682.3900251128148
 21
401655.88397829258
 31
0.0
  0
LINE
  5
64C3A
  8
S-OBRYS
  6
CONTINUOUS
 62
     0
 10
-2672.3900251128139
 20
401835.88397829252
 30
0.0
 11
-2672.3900251128139
 21
401755.88397829258
 31
0.0
  0
INSERT
  5
64C3B
  8
S-OBRYS
  6
CONTINUOUS
 62
     0
  2
_OPEN
 10
-2672.3900251128139
 20
401935.88397829258
 30
0.0
 41
100.0
 42
100.0
 43
100.0
 50
90.0
  0
INSERT
  5
64C3C
  8
S-OBRYS
  6
CONTINUOUS
 62
     0
  2
_OPEN
 10
-2672.3900251128139
 20
401655.88397829258
 30
0.0
 41
100.0
 42
100.0
 43
100.0
 50
270.0
  0
INSERT
  5
64C3D
  8
S-OBRYS
  6
CONTINUOUS
  2
*U61
 10
0.0
 20
0.0
 30
0.0
  0
POINT
  5
64C3E
  8
DEFPOINTS
  6
CONTINUOUS
 62
     0
 10
-2549.2702180837659
 20
401935.88397829258
 30
0.0
  0
POINT
  5
64C3F
  8
DEFPOINTS
  6
CONTINUOUS
 62
     0
 10
-2549.2702180837659
 20
401655.88397829258
 30
0.0
  0
POINT
  5
64C40
  8
DEFPOINTS
  6
CONTINUOUS
 62
     0
 10
-2672.3900251128139
 20
401655.88397829258
 30
0.0
  0
ENDBLK
  5
64BA9
  8
0
  0
BLOCK
  8
0
  2
*D28
 70
     1
 10
0.0
 20
0.0
 30
0.0
  3
*D28
  1

  0
LINE
  5
64C41
  8
S-OBRYS
  6
CONTINUOUS
 62
     0
 10
-2321.2702180837659
 20
401566.52903897309
 30
0.0
 11
-2321.2702180837659
 21
401324.0655573571
 31
0.0
  0
LINE
  5
64C42
  8
S-OBRYS
  6
CONTINUOUS
 62
     0
 10
-2409.2702180837659
 20
401652.73397829261
 30
0.0
 11
-2409.2702180837659
 21
401324.0655573571
 31
0.0
  0
LINE
  5
64C43
  8
S-OBRYS
  6
CONTINUOUS
 62
     0
 10
-2221.2702180837659
 20
401334.06555735698
 30
0.0
 11
-2121.2702180837659
 21
401334.06555735698
 31
0.0
  0
LINE
  5
64C44
  8
S-OBRYS
  6
CONTINUOUS
 62
     0
 10
-2509.2702180837659
 20
401334.06555735698
 30
0.0
 11
-2788.794027607576
 21
401334.06555735698
 31
0.0
  0
LINE
  5
64C45
  8
S-OBRYS
  6
CONTINUOUS
 62
     0
 10
-2321.2702180837659
 20
401334.06555735698
 30
0.0
 11
-2409.2702180837659
 21
401334.06555735698
 31
0.0
  0
INSERT
  5
64C46
  8
S-OBRYS
  6
CONTINUOUS
 62
     0
  2
_OPEN
 10
-2321.2702180837659
 20
401334.06555735698
 30
0.0
 41
100.0
 42
100.0
 43
100.0
 50
180.0
  0
INSERT
  5
64C47
  8
S-OBRYS
  6
CONTINUOUS
 62
     0
  2
_OPEN
 10
-2409.2702180837659
 20
401334.06555735698
 30
0.0
 41
100.0
 42
100.0
 43
100.0
  0
INSERT
  5
64C48
  8
S-OBRYS
  6
CONTINUOUS
  2
*U62
 10
0.0
 20
0.0
 30
0.0
  0
POINT
  5
64C49
  8
DEFPOINTS
  6
CONTINUOUS
 62
     0
 10
-2321.2702180837659
 20
401569.67903897312
 30
0.0
  0
POINT
  5
64C4A
  8
DEFPOINTS
  6
CONTINUOUS
 62
     0
 10
-2409.2702180837659
 20
401655.88397829258
 30
0.0
  0
POINT
  5
64C4B
  8
DEFPOINTS
  6
CONTINUOUS
 62
     0
 10
-2409.2702180837659
 20
401334.06555735698
 30
0.0
  0
ENDBLK
  5
64BB7
  8
0
  0
BLOCK
  8
0
  2
*D29
 70
     1
 10
0.0
 20
0.0
 30
0.0
  3
*D29
  1

  0
LINE
  5
64C4C
  8
S-OBRYS
  6
CONTINUOUS
 62
     0
 10
-2549.2702180837659
 20
401659.0339782926
 30
0.0
 11
-2549.2702180837659
 21
401711.9950394929
 31
0.0
  0
LINE
  5
64C4D
  8
S-OBRYS
  6
CONTINUOUS
 62
     0
 10
-2269.2702180837659
 20
401659.0339782926
 30
0.0
 11
-2269.2702180837659
 21
401711.9950394929
 31
0.0
  0
LINE
  5
64C4E
  8
S-OBRYS
  6
CONTINUOUS
 62
     0
 10
-2449.2702180837659
 20
401701.99503949302
 30
0.0
 11
-2369.2702180837659
 21
401701.99503949302
 31
0.0
  0
LINE
  5
64C4F
  8
S-OBRYS
  6
CONTINUOUS
 62
     0
 10
-2269.2702180837659
 20
401701.99503949302
 30
0.0
 11
-1913.555932369479
 21
401701.99503949302
 31
0.0
  0
INSERT
  5
64C50
  8
S-OBRYS
  6
CONTINUOUS
 62
     0
  2
_OPEN
 10
-2549.2702180837659
 20
401701.99503949302
 30
0.0
 41
100.0
 42
100.0
 43
100.0
 50
180.0
  0
INSERT
  5
64C51
  8
S-OBRYS
  6
CONTINUOUS
 62
     0
  2
_OPEN
 10
-2269.2702180837659
 20
401701.99503949302
 30
0.0
 41
100.0
 42
100.0
 43
100.0
  0
INSERT
  5
64C52
  8
S-OBRYS
  6
CONTINUOUS
  2
*U63
 10
0.0
 20
0.0
 30
0.0
  0
POINT
  5
64C53
  8
DEFPOINTS
  6
CONTINUOUS
 62
     0
 10
-2549.2702180837659
 20
401655.88397829258
 30
0.0
  0
POINT
  5
64C54
  8
DEFPOINTS
  6
CONTINUOUS
 62
     0
 10
-2269.2702180837659
 20
401655.88397829258
 30
0.0
  0
POINT
  5
64C55
  8
DEFPOINTS
  6
CONTINUOUS
 62
     0
 10
-2269.2702180837659
 20
401701.99503949302
 30
0.0
  0
ENDBLK
  5
64BC4
  8
0
  0
BLOCK
  8
0
  2
*D30
 70
     1
 10
0.0
 20
0.0
 30
0.0
  3
*D30
  1

  0
LINE
  5
64C56
  8
S-OBRYS
  6
CONTINUOUS
 62
     0
 10
-6139.8441168615454
 20
405516.3982934776
 30
0.0
 11
-6139.8441168615454
 21
405353.05188449891
 31
0.0
  0
LINE
  5
64C57
  8
S-OBRYS
  6
CONTINUOUS
 62
     0
 10
-5920.8441168615454
 20
405516.3982934776
 30
0.0
 11
-5920.8441168615454
 21
405353.05188449891
 31
0.0
  0
LINE
  5
64C58
  8
S-OBRYS
  6
CONTINUOUS
 62
     0
 10
-6239.8441168615454
 20
405363.05188449897
 30
0.0
 11
-6339.8441168615454
 21
405363.05188449897
 31
0.0
  0
LINE
  5
64C59
  8
S-OBRYS
  6
CONTINUOUS
 62
     0
 10
-5820.8441168615436
 20
405363.05188449897
 30
0.0
 11
-5175.6060216234491
 21
405363.05188449897
 31
0.0
  0
LINE
  5
64C5A
  8
S-OBRYS
  6
CONTINUOUS
 62
     0
 10
-6139.8441168615454
 20
405363.05188449897
 30
0.0
 11
-5920.8441168615454
 21
405363.05188449897
 31
0.0
  0
INSERT
  5
64C5B
  8
S-OBRYS
  6
CONTINUOUS
 62
     0
  2
_OPEN
 10
-6139.8441168615454
 20
405363.05188449897
 30
0.0
 41
100.0
 42
100.0
 43
100.0
  0
INSERT
  5
64C5C
  8
S-OBRYS
  6
CONTINUOUS
 62
     0
  2
_OPEN
 10
-5920.8441168615454
 20
405363.05188449897
 30
0.0
 41
100.0
 42
100.0
 43
100.0
 50
180.0
  0
INSERT
  5
64C5D
  8
S-OBRYS
  6
CONTINUOUS
  2
*U64
 10
0.0
 20
0.0
 30
0.0
  0
POINT
  5
64C5E
  8
DEFPOINTS
  6
CONTINUOUS
 62
     0
 10
-6139.8441168615454
 20
405519.54829347762
 30
0.0
  0
POINT
  5
64C5F
  8
DEFPOINTS
  6
CONTINUOUS
 62
     0
 10
-5920.8441168615454
 20
405519.54829347762
 30
0.0
  0
POINT
  5
64C60
  8
DEFPOINTS
  6
CONTINUOUS
 62
     0
 10
-5920.8441168615454
 20
405363.05188449897
 30
0.0
  0
ENDBLK
  5
64BD2
  8
0
  0
BLOCK
  8
0
  2
*U31
 70
     1
 10
0.0
 20
0.0
 30
0.0
  3
*U31
  1

  0
TEXT
  5
64D67
  8
S-OBRYS
  6
CONTINUOUS
 62
     7
 10
7760.3343016875233
 20
405078.35813398717
 30
0.0
 40
100.0
  1
600
 50
90.0
 41
0.8
  0
ENDBLK
  5
64D69
  8
0
  0
BLOCK
  8
0
  2
*U32
 70
     1
 10
0.0
 20
0.0
 30
0.0
  3
*U32
  1

  0
TEXT
  5
64D6B
  8
S-OBRYS
  6
CONTINUOUS
 62
     7
 10
6857.6405333742532
 20
406721.165677579
 30
0.0
 40
100.0
  1
1847
 41
0.8
  0
ENDBLK
  5
64D6D
  8
0
  0
BLOCK
  8
0
  2
*U33
 70
     1
 10
0.0
 20
0.0
 30
0.0
  3
*U33
  1

  0
TEXT
  5
64D6F
  8
S-OBRYS
  6
CONTINUOUS
 62
     7
 10
5891.703586168398
 20
405453.95337208238
 30
0.0
 40
100.0
  1
1455
 50
90.0
 41
0.8
  0
ENDBLK
  5
64D71
  8
0
  0
BLOCK
  8
0
  2
*U34
 70
     1
 10
0.0
 20
0.0
 30
0.0
  3
*U34
  1

  0
TEXT
  5
64D73
  8
S-OBRYS
  6
CONTINUOUS
 62
     7
 10
6264.2357714694908
 20
406565.29985966033
 30
0.0
 40
100.0
  1
100
 41
0.8
  0
ENDBLK
  5
64D75
  8
0
  0
BLOCK
  8
0
  2
*U35
 70
     1
 10
0.0
 20
0.0
 30
0.0
  3
*U35
  1

  0
TEXT
  5
64D77
  8
S-OBRYS
  6
CONTINUOUS
 62
     7
 10
6123.9500571837762
 20
406394.68421551911
 30
0.0
 40
100.0
  1
292
 41
0.8
  0
ENDBLK
  5
64D79
  8
0
  0
BLOCK
  8
0
  2
*U36
 70
     1
 10
0.0
 20
0.0
 30
0.0
  3
*U36
  1

  0
TEXT
  5
64D7B
  8
S-OBRYS
  6
CONTINUOUS
 62
     7
 10
8049.3072000409193
 20
405388.05188449897
 30
0.0
 40
100.0
  1
219x219
 41
0.8
  0
ENDBLK
  5
64D7D
  8
0
  0
BLOCK
  8
0
  2
*U37
 70
     1
 10
0.0
 20
0.0
 30
0.0
  3
*U37
  1

  0
TEXT
  5
64D7F
  8
S-OBRYS
  6
CONTINUOUS
 62
     7
 10
11001.79598264249
 20
405496.09354983561
 30
0.0
 40
100.0
  1
1065
 50
90.0
 41
0.8
  0
ENDBLK
  5
64D81
  8
0
  0
BLOCK
  8
0
  2
*U38
 70
     1
 10
0.0
 20
0.0
 30
0.0
  3
*U38
  1

  0
TEXT
  5
64D83
  8
S-OBRYS
  6
CONTINUOUS
 62
     7
 10
10329.01888527972
 20
404949.17652331467
 30
0.0
 40
100.0
  1
510
 41
0.8
  0
ENDBLK
  5
64D85
  8
0
  0
BLOCK
  8
0
  2
*U39
 70
     1
 10
0.0
 20
0.0
 30
0.0
  3
*U39
  1

  0
TEXT
  5
64D87
  8
OBRYS
  6
CONTINUOUS
 10
-9031.0172178408266
 20
408616.45291050483
 30
0.0
 40
400.0
  1
Intenzivní nakrápěč IN 15-4,15-7
  7
R
  0
ENDBLK
  5
64D89
  8
0
  0
BLOCK
  8
0
  2
*U40
 70
     1
 10
0.0
 20
0.0
 30
0.0
  3
*U40
  1

  0
TEXT
  5
64D8B
  8
S-OBRYS
  6
CONTINUOUS
 62
     7
 10
10523.21443215203
 20
402226.95698858378
 30
0.0
 40
100.0
  1
1508
 41
0.8
  0
ENDBLK
  5
64D8D
  8
0
  0
BLOCK
  8
0
  2
*U41
 70
     1
 10
0.0
 20
0.0
 30
0.0
  3
*U41
  1

  0
TEXT
  5
64D8F
  8
S-OBRYS
  6
CONTINUOUS
 62
     7
 10
9502.7775059705345
 20
401631.59826400678
 30
0.0
 40
100.0
  1
450
 50
90.0
 41
0.8
  0
ENDBLK
  5
64D91
  8
0
  0
BLOCK
  8
0
  2
*U42
 70
     1
 10
0.0
 20
0.0
 30
0.0
  3
*U42
  1

  0
TEXT
  5
64D93
  8
S-OBRYS
  6
CONTINUOUS
 62
     7
 10
11059.189863218149
 20
401681.5982640069
 30
0.0
 40
100.0
  1
280
 50
90.0
 41
0.8
  0
ENDBLK
  5
64D95
  8
0
  0
BLOCK
  8
0
  2
*U43
 70
     1
 10
0.0
 20
0.0
 30
0.0
  3
*U43
  1

  0
TEXT
  5
64D97
  8
S-OBRYS
  6
CONTINUOUS
 62
     7
 10
10981.357289294891
 20
401359.0655573571
 30
0.0
 40
100.0
  1
88
 41
0.8
  0
ENDBLK
  5
64D99
  8
0
  0
BLOCK
  8
0
  2
*U44
 70
     1
 10
0.0
 20
0.0
 30
0.0
  3
*U44
  1

  0
TEXT
  5
64D9B
  8
S-OBRYS
  6
CONTINUOUS
 62
     7
 10
11600.8810988187
 20
401726.9950394929
 30
0.0
 40
100.0
  1
280
 41
0.8
  0
ENDBLK
  5
64D9D
  8
0
  0
BLOCK
  8
0
  2
*U45
 70
     1
 10
0.0
 20
0.0
 30
0.0
  3
*U45
  1

  0
TEXT
  5
64D9F
  8
S-OBRYS
  6
CONTINUOUS
 62
     7
 10
11796.10975419695
 20
401923.53993631108
 30
0.0
 40
100.0
  1
700
 41
0.8
  0
ENDBLK
  5
64DA1
  8
0
  0
BLOCK
  8
0
  2
*U46
 70
     1
 10
0.0
 20
0.0
 30
0.0
  3
*U46
  1

  0
TEXT
  5
64DA3
  8
S-OBRYS
  6
CONTINUOUS
 62
     7
 10
9149.0239559615547
 20
402214.20446386142
 30
0.0
 40
100.0
  1
900
 41
0.8
  0
ENDBLK
  5
64DA5
  8
0
  0
BLOCK
  8
0
  2
*X47
 70
     1
 10
0.0
 20
0.0
 30
0.0
  3
*X47
  1

  0
LINE
  5
64DA7
  8
0
  6
CONTINUOUS
 62
     0
 10
-3813.1183733263392
 20
401490.88397829258
 30
0.0
 11
-3809.2702180837668
 21
401494.73213353509
 31
0.0
  0
LINE
  5
64DA8
  8
0
  6
CONTINUOUS
 62
     0
 10
-3850.4702942343738
 20
401520.88397829258
 30
0.0
 11
-3829.270218083735
 21
401542.08405444323
 31
0.0
  0
LINE
  5
64DA9
  8
0
  6
CONTINUOUS
 62
     0
 10
-3829.270218083735
 20
401542.08405444323
 30
0.0
 11
-3820.470294234382
 21
401550.88397829258
 31
0.0
  0
LINE
  5
64DAA
  8
0
  6
CONTINUOUS
 62
     0
 10
-3880.4702942343638
 20
401490.88397829258
 30
0.0
 11
-3850.4702942343738
 21
401520.88397829258
 31
0.0
  0
LINE
  5
64DAB
  8
0
  6
CONTINUOUS
 62
     0
 10
-3917.8222151423929
 20
401520.88397829252
 30
0.0
 11
-3887.8222151424029
 21
401550.88397829252
 31
0.0
  0
LINE
  5
64DAC
  8
0
  6
CONTINUOUS
 62
     0
 10
-3919.2702180837309
 20
401519.4359753512
 30
0.0
 11
-3917.8222151423929
 21
401520.88397829252
 31
0.0
  0
LINE
  5
64DAD
  8
0
  6
CONTINUOUS
 62
     0
 10
-3829.2702180837418
 20
401946.19557989133
 30
0.0
 11
-3809.2702180837409
 21
401966.19557989133
 31
0.0
  0
LINE
  5
64DAE
  8
0
  6
CONTINUOUS
 62
     0
 10
-3834.5818196824798
 20
401940.88397829258
 30
0.0
 11
-3829.2702180837418
 21
401946.19557989133
 31
0.0
  0
LINE
  5
64DAF
  8
0
  6
CONTINUOUS
 62
     0
 10
-3871.9337405905089
 20
401970.88397829252
 30
0.0
 11
-3841.9337405904889
 21
402000.88397829258
 31
0.0
  0
LINE
  5
64DB0
  8
0
  6
CONTINUOUS
 62
     0
 10
-3901.9337405904989
 20
401940.88397829258
 30
0.0
 11
-3871.9337405905089
 21
401970.88397829252
 31
0.0
  0
LINE
  5
64DB1
  8
0
  6
CONTINUOUS
 62
     0
 10
-3919.2702180837632
 20
401990.89942170732
 30
0.0
 11
-3909.285661498508
 21
402000.88397829252
 31
0.0
  0
ENDBLK
  5
64DB3
  8
0
  0
BLOCK
  8
0
  2
*U48
 70
     1
 10
0.0
 20
0.0
 30
0.0
  3
*U48
  1

  0
INSERT
  5
64DB5
  8
S-OBRYS
  6
CONTINUOUS
  2
_OPEN
 10
-3829.2702180837659
 20
401520.88397829258
 30
0.0
 41
100.0
 42
100.0
 43
100.0
 50
117.804836752013
  0
POLYLINE
  5
64DB6
  8
S-OBRYS
  6
CONTINUOUS
 66
     1
 10
0.0
 20
0.0
 30
0.0
  0
VERTEX
  5
64DB7
  8
S-OBRYS
  6
CONTINUOUS
 10
-3782.6240868268342
 20
401432.42981819378
 30
0.0
  0
VERTEX
  5
64DB8
  8
S-OBRYS
  6
CONTINUOUS
 10
-3572.1930043059001
 20
401033.39341021143
 30
0.0
  0
SEQEND
  5
64DB9
  8
S-OBRYS
  6
CONTINUOUS
  0
ENDBLK
  5
64DBB
  8
0
  0
BLOCK
  8
0
  2
*X49
 70
     1
 10
0.0
 20
0.0
 30
0.0
  3
*X49
  1

  0
LINE
  5
64DBD
  8
0
  6
CONTINUOUS
 62
     0
 10
-2242.56074608578
 20
401490.88397829252
 30
0.0
 11
-2231.27021808376
 21
401502.17450629448
 31
0.0
  0
LINE
  5
64DBE
  8
0
  6
CONTINUOUS
 62
     0
 10
-2279.9126669938091
 20
401520.88397829258
 30
0.0
 11
-2249.9126669938191
 21
401550.88397829258
 31
0.0
  0
LINE
  5
64DBF
  8
0
  6
CONTINUOUS
 62
     0
 10
-2309.9126669937991
 20
401490.88397829258
 30
0.0
 11
-2279.9126669938091
 21
401520.88397829258
 31
0.0
  0
LINE
  5
64DC0
  8
0
  6
CONTINUOUS
 62
     0
 10
-2321.2702180837532
 20
401546.87834811059
 30
0.0
 11
-2317.2645879018378
 21
401550.88397829252
 31
0.0
  0
LINE
  5
64DC1
  8
0
  6
CONTINUOUS
 62
     0
 10
-2341.2702180837809
 20
401526.87834811059
 30
0.0
 11
-2321.2702180837532
 21
401546.87834811059
 31
0.0
  0
LINE
  5
64DC2
  8
0
  6
CONTINUOUS
 62
     0
 10
-2234.0241924419252
 20
401970.88397829252
 30
0.0
 11
-2231.2702180837341
 21
401973.63795265072
 31
0.0
  0
LINE
  5
64DC3
  8
0
  6
CONTINUOUS
 62
     0
 10
-2264.0241924419138
 20
401940.88397829252
 30
0.0
 11
-2234.0241924419252
 21
401970.88397829252
 31
0.0
  0
LINE
  5
64DC4
  8
0
  6
CONTINUOUS
 62
     0
 10
-2321.27021808376
 20
401950.98987355869
 30
0.0
 11
-2301.3761133499438
 21
401970.88397829258
 31
0.0
  0
LINE
  5
64DC5
  8
0
  6
CONTINUOUS
 62
     0
 10
-2301.3761133499438
 20
401970.88397829258
 30
0.0
 11
-2271.3761133499229
 21
402000.88397829258
 31
0.0
  0
LINE
  5
64DC6
  8
0
  6
CONTINUOUS
 62
     0
 10
-2331.376113349922
 20
401940.88397829258
 30
0.0
 11
-2321.27021808376
 21
401950.98987355869
 31
0.0
  0
LINE
  5
64DC7
  8
0
  6
CONTINUOUS
 62
     0
 10
-2341.270218083785
 20
401998.34179446677
 30
0.0
 11
-2338.728034257922
 21
402000.88397829258
 31
0.0
  0
ENDBLK
  5
64DC9
  8
0
  0
BLOCK
  8
0
  2
*U50
 70
     1
 10
0.0
 20
0.0
 30
0.0
  3
*U50
  1

  0
TEXT
  5
64DCB
  8
S-OBRYS
  6
CONTINUOUS
 62
     7
 10
-1960.4701341340781
 20
401923.53993631108
 30
0.0
 40
100.0
  1
700
 41
0.8
  0
ENDBLK
  5
64DCD
  8
0
  0
BLOCK
  8
0
  2
*U51
 70
     1
 10
0.0
 20
0.0
 30
0.0
  3
*U51
  1

  0
TEXT
  5
64DCF
  8
S-OBRYS
  6
CONTINUOUS
 62
     7
 10
-4607.5559323694788
 20
402214.20446386142
 30
0.0
 40
100.0
  1
900
 41
0.8
  0
ENDBLK
  5
64DD1
  8
0
  0
BLOCK
  8
0
  2
*U52
 70
     1
 10
0.0
 20
0.0
 30
0.0
  3
*U52
  1

  0
TEXT
  5
64DD3
  8
S-OBRYS
  6
CONTINUOUS
 62
     7
 10
-5996.2455866435112
 20
405078.35813398717
 30
0.0
 40
100.0
  1
600
 50
90.0
 41
0.8
  0
ENDBLK
  5
64DD5
  8
0
  0
BLOCK
  8
0
  2
*U53
 70
     1
 10
0.0
 20
0.0
 30
0.0
  3
*U53
  1

  0
TEXT
  5
64DD7
  8
S-OBRYS
  6
CONTINUOUS
 62
     7
 10
-6898.9393549567803
 20
406721.165677579
 30
0.0
 40
100.0
  1
1847
 41
0.8
  0
ENDBLK
  5
64DD9
  8
0
  0
BLOCK
  8
0
  2
*U54
 70
     1
 10
0.0
 20
0.0
 30
0.0
  3
*U54
  1

  0
TEXT
  5
64DDB
  8
S-OBRYS
  6
CONTINUOUS
 62
     7
 10
-7864.8763021626364
 20
405453.95337208238
 30
0.0
 40
100.0
  1
1455
 50
90.0
 41
0.8
  0
ENDBLK
  5
64DDD
  8
0
  0
BLOCK
  8
0
  2
*U55
 70
     1
 10
0.0
 20
0.0
 30
0.0
  3
*U55
  1

  0
TEXT
  5
64DDF
  8
S-OBRYS
  6
CONTINUOUS
 62
     7
 10
-7492.3441168615436
 20
406565.29985966033
 30
0.0
 40
100.0
  1
100
 41
0.8
  0
ENDBLK
  5
64DE1
  8
0
  0
BLOCK
  8
0
  2
*U56
 70
     1
 10
0.0
 20
0.0
 30
0.0
  3
*U56
  1

  0
TEXT
  5
64DE3
  8
S-OBRYS
  6
CONTINUOUS
 62
     7
 10
-7632.6298311472592
 20
406394.68421551911
 30
0.0
 40
100.0
  1
292
 41
0.8
  0
ENDBLK
  5
64DE5
  8
0
  0
BLOCK
  8
0
  2
*U57
 70
     1
 10
0.0
 20
0.0
 30
0.0
  3
*U57
  1

  0
TEXT
  5
64DE7
  8
S-OBRYS
  6
CONTINUOUS
 62
     7
 10
-2754.7839056885391
 20
405496.09354983561
 30
0.0
 40
100.0
  1
1065
 50
90.0
 41
0.8
  0
ENDBLK
  5
64DE9
  8
0
  0
BLOCK
  8
0
  2
*U58
 70
     1
 10
0.0
 20
0.0
 30
0.0
  3
*U58
  1

  0
TEXT
  5
64DEB
  8
S-OBRYS
  6
CONTINUOUS
 62
     7
 10
-3233.365456179004
 20
402226.95698858378
 30
0.0
 40
100.0
  1
1508
 41
0.8
  0
ENDBLK
  5
64DED
  8
0
  0
BLOCK
  8
0
  2
*U59
 70
     1
 10
0.0
 20
0.0
 30
0.0
  3
*U59
  1

  0
TEXT
  5
64DEF
  8
S-OBRYS
  6
CONTINUOUS
 62
     7
 10
-4253.8023823604999
 20
401631.59826400678
 30
0.0
 40
100.0
  1
450
 50
90.0
 41
0.8
  0
ENDBLK
  5
64DF1
  8
0
  0
BLOCK
  8
0
  2
*U60
 70
     1
 10
0.0
 20
0.0
 30
0.0
  3
*U60
  1

  0
TEXT
  5
64DF3
  8
S-OBRYS
  6
CONTINUOUS
 62
     7
 10
-3427.5610030513089
 20
404949.17652331467
 30
0.0
 40
100.0
  1
510
 41
0.8
  0
ENDBLK
  5
64DF5
  8
0
  0
BLOCK
  8
0
  2
*U61
 70
     1
 10
0.0
 20
0.0
 30
0.0
  3
*U61
  1

  0
TEXT
  5
64DF7
  8
S-OBRYS
  6
CONTINUOUS
 62
     7
 10
-2697.3900251128789
 20
401681.5982640069
 30
0.0
 40
100.0
  1
280
 50
90.0
 41
0.8
  0
ENDBLK
  5
64DF9
  8
0
  0
BLOCK
  8
0
  2
*U62
 70
     1
 10
0.0
 20
0.0
 30
0.0
  3
*U62
  1

  0
TEXT
  5
64DFB
  8
S-OBRYS
  6
CONTINUOUS
 62
     7
 10
-2775.2225990361471
 20
401359.0655573571
 30
0.0
 40
100.0
  1
88
 41
0.8
  0
ENDBLK
  5
64DFD
  8
0
  0
BLOCK
  8
0
  2
*U63
 70
     1
 10
0.0
 20
0.0
 30
0.0
  3
*U63
  1

  0
TEXT
  5
64DFF
  8
S-OBRYS
  6
CONTINUOUS
 62
     7
 10
-2155.698789512337
 20
401726.9950394929
 30
0.0
 40
100.0
  1
280
 41
0.8
  0
ENDBLK
  5
64E01
  8
0
  0
BLOCK
  8
0
  2
*U64
 70
     1
 10
0.0
 20
0.0
 30
0.0
  3
*U64
  1

  0
TEXT
  5
64E03
  8
S-OBRYS
  6
CONTINUOUS
 62
     7
 10
-5707.272688290117
 20
405388.05188449897
 30
0.0
 40
100.0
  1
219x219
 41
0.8
  0
ENDBLK
  5
64E05
  8
0
  0
ENDSEC
  0
SECTION
  2
ENTITIES
  0
TEXT
  5
2F7A5
  8
KOTY
 10
-393803.77638965531
 20
-299016.15321175661
 30
0.0
 40
150.0
  1

 41
0.7
  7
ROMANT
  0
TEXT
  5
3AD8B
  8
KOTY
 10
-14797.18019204357
 20
454294.55370899959
 30
0.0
 40
150.0
  1

 41
0.7
  7
ROMANT
  0
TEXT
  5
404AD
  8
KOTY
 10
44010.2314385153
 20
465617.23741859582
 30
0.0
 40
92.0
  1

 41
0.7
  7
CYRILLIC
  0
TEXT
  5
404B4
  8
KOTY
 10
39575.071591094718
 20
465613.29777162091
 30
0.0
 40
92.0
  1

 41
0.7
  7
CYRILLIC
  0
TEXT
  5
40B14
  8
KOTY
 10
5856.0590664841584
 20
486921.1132385282
 30
0.0
 40
150.0
  1

 41
0.7
  7
ROMANT
  0
TEXT
  5
40BFC
  8
KOTY
 10
8767.7265956277752
 20
466337.2608060218
 30
0.0
 40
150.0
  1

 41
0.7
  7
ROMANS
  0
TEXT
  5
51A7C
  8
KOTY
 10
-47677.341387967608
 20
395133.71812193602
 30
0.0
 40
150.0
  1

 41
0.7
  7
ROMANS
  0
TEXT
  5
51A94
  8
KOTY
 10
-45176.819295693742
 20
395133.7181219359
 30
0.0
 40
150.0
  1

 41
0.7
  7
ROMANS
  0
TEXT
  5
51A9B
  8
KOTY
 10
-48084.423320344351
 20
397411.27855615731
 30
0.0
 40
150.0
  1

 41
0.7
  7
ROMANT
  0
TEXT
  5
51B05
  8
RAZ
 62
     6
 10
-47365.887544580757
 20
392999.37567832542
 30
0.0
 40
193.54103193599991
  1

 41
0.8
  7
R08
  0
TEXT
  5
51B06
  8
RAZ
 62
     1
 10
-47245.037660778231
 20
393401.77274166199
 30
0.0
 40
125.41458869452801
  1

  7
ROMANS
  0
TEXT
  5
58307
  8
KOTY
 10
22966.528519463162
 20
383405.87475258159
 30
0.0
 40
150.0
  1

 41
0.7
  7
ROMANS
  0
TEXT
  5
58308
  8
KOTY
 10
22966.528519463169
 20
383855.87475258159
 30
0.0
 40
150.0
  1

 41
0.7
  7
ROMANS
  0
TEXT
  5
58315
  8
KOTY
 10
25467.050611737021
 20
383855.87475258141
 30
0.0
 40
150.0
  1

 41
0.7
  7
ROMANS
  0
TEXT
  5
58316
  8
KOTY
 10
25467.050611737021
 20
383405.87475258141
 30
0.0
 40
150.0
  1

 41
0.7
  7
ROMANS
  0
TEXT
  5
5833F
  8
KOTY
 10
22966.528519463162
 20
385205.87475258153
 30
0.0
 40
150.0
  1

 41
0.7
  7
ROMANS
  0
TEXT
  5
58340
  8
KOTY
 10
22966.528519463169
 20
385655.87475258159
 30
0.0
 40
150.0
  1

 41
0.7
  7
ROMANS
  0
TEXT
  5
58354
  8
KOTY
 10
25467.050611737021
 20
385655.87475258141
 30
0.0
 40
150.0
  1

 41
0.7
  7
ROMANS
  0
TEXT
  5
58355
  8
KOTY
 10
25467.050611737021
 20
385205.87475258141
 30
0.0
 40
150.0
  1

 41
0.7
  7
ROMANS
  0
TEXT
  5
58397
  8
KOTY
 10
25467.050611737039
 20
390605.87475258129
 30
0.0
 40
150.0
  1

 41
0.7
  7
ROMANS
  0
TEXT
  5
58398
  8
KOTY
 10
25467.050611737039
 20
391055.87475258141
 30
0.0
 40
150.0
  1

 41
0.7
  7
ROMANS
  0
TEXT
  5
583C1
  8
KOTY
 10
25467.050611737031
 20
389255.87475258141
 30
0.0
 40
150.0
  1

 41
0.7
  7
ROMANS
  0
TEXT
  5
58C84
  8
KOTY
 10
22966.52851946322
 20
387905.87475258153
 30
0.0
 40
150.0
  1

 41
0.7
  7
ROMANS
  0
LINE
  5
64396
  8
S-OBRYS
  6
CONTINUOUS
 10
-9999.3045388990322
 20
395380.74503627518
 30
0.0
 11
500.69546110097139
 21
395380.74503627518
 31
0.0
  0
LINE
  5
64397
  8
S-OBRYS
  6
CONTINUOUS
 10
500.69546110097139
 20
395380.74503627518
 30
0.0
 11
500.69546110097139
 21
410230.74503627518
 31
0.0
  0
LINE
  5
64398
  8
S-OBRYS
  6
CONTINUOUS
 10
500.69546110097139
 20
410230.74503627518
 30
0.0
 11
-9999.3045388990286
 21
410230.74503627518
 31
0.0
  0
LINE
  5
64399
  8
S-OBRYS
  6
CONTINUOUS
 10
-9999.3045388990286
 20
410230.74503627518
 30
0.0
 11
-9999.3045388990322
 21
395380.74503627518
 31
0.0
  0
INSERT
  5
64642
  8
S-OBRYS
  6
CONTINUOUS
  2
*U39
 10
0.0
 20
0.0
 30
0.0
  0
LINE
  5
64A0B
  8
S-OBRYS
  6
CONTINUOUS
 10
-8055.3186625792478
 20
401951.68404010218
 30
0.0
 11
-6208.3186625792478
 21
401951.68404010218
 31
0.0
  0
LINE
  5
64A0C
  8
S-OBRYS
  6
CONTINUOUS
 10
-6208.3186625792478
 20
401541.68399250222
 30
0.0
 11
-8055.3186625792478
 21
401541.68399250222
 31
0.0
  0
LINE
  5
64A0D
  8
S-OBRYS
  6
CONTINUOUS
 10
-8055.3186625792478
 20
401746.68401630229
 30
0.0
 11
-6208.3186625792478
 21
401746.68401630229
 31
0.0
  0
LINE
  5
64A0E
  8
S-OBRYS
  6
CONTINUOUS
 10
-6254.7380892207402
 20
402001.68401630223
 30
0.0
 11
-7926.737867720738
 21
402001.68401630223
 31
0.0
  0
LINE
  5
64A0F
  8
S-OBRYS
  6
CONTINUOUS
 10
-7926.737867720738
 20
402001.68401630223
 30
0.0
 11
-6254.7380892207402
 21
402001.68401630223
 31
0.0
  0
DIMENSION
  5
64A10
  8
S-OBRYS
  6
CONTINUOUS
  2
*D18
 10
-5971.2455866434457
 20
405494.54861017759
 30
0.0
 11
-6046.2455866435112
 21
405194.54861017759
 31
0.0
 70
     0
 13
-6073.5490711773946
 23
404894.54861017771
 33
0.0
 14
-5817.5490830773961
 24
405494.54861017759
 34
0.0
 50
90.0
  0
LINE
  5
64A11
  8
S-OBRYS
  6
CONTINUOUS
 10
-5920.8441168615454
 20
405549.54869807768
 30
0.0
 11
-7439.3442239615442
 21
405549.54869807768
 31
0.0
  0
DIMENSION
  5
64A12
  8
S-OBRYS
  6
CONTINUOUS
  2
*D19
 10
-5817.3441168615418
 20
406696.165677579
 30
0.0
 11
-6740.8441168615418
 21
406771.165677579
 31
0.0
 70
     0
 13
-7664.3441168615436
 23
406382.184215519
 33
0.0
 14
-5817.3441168615418
 24
405949.54850767768
 34
0.0
  0
LINE
  5
64A13
  8
S-OBRYS
  6
CONTINUOUS
 10
-7664.3441168615418
 20
405949.54850767768
 30
0.0
 11
-5817.3441168615418
 21
405949.54850767768
 31
0.0
  0
LINE
  5
64A14
  8
S-OBRYS
  6
CONTINUOUS
 10
-7926.737867720738
 20
401491.68401630229
 30
0.0
 11
-6254.7380892207402
 21
401491.68401630229
 31
0.0
  0
LINE
  5
64A15
  8
S-OBRYS
  6
CONTINUOUS
 10
-5817.3441168615418
 20
405649.54865047761
 30
0.0
 11
-7514.3441882615452
 21
405649.54865047761
 31
0.0
  0
LINE
  5
64A16
  8
S-OBRYS
  6
CONTINUOUS
 10
-7439.3442239615442
 20
405549.54869807768
 30
0.0
 11
-7439.3442239615442
 21
404919.54829347762
 31
0.0
  0
LINE
  5
64A17
  8
S-OBRYS
  6
CONTINUOUS
 10
-7514.3441882615452
 20
405649.54865047761
 30
0.0
 11
-7514.3441882615452
 21
404894.54861017771
 31
0.0
  0
DIMENSION
  5
64A18
  8
S-OBRYS
  6
CONTINUOUS
  2
*D20
 10
-7839.8763021625709
 20
404884.54861017759
 30
0.0
 11
-7914.8763021626364
 21
405612.04861017759
 31
0.0
 70
     0
 13
-7422.3441168615436
 23
406339.54861017771
 33
0.0
 14
-7539.3441763615438
 24
404884.54861017759
 34
0.0
 50
90.0
  0
LINE
  5
64A19
  8
S-OBRYS
  6
CONTINUOUS
 10
-7664.3441168615418
 20
404959.54826967762
 30
0.0
 11
-7664.3441168615418
 21
405949.54850767768
 31
0.0
  0
LINE
  5
64A1A
  8
S-OBRYS
  6
CONTINUOUS
 10
-7606.4293285463627
 20
401693.18404010229
 30
0.0
 11
-7441.6649939566842
 21
401693.18404010229
 31
0.0
  0
LINE
  5
64A1B
  8
S-OBRYS
  6
CONTINUOUS
 10
-7663.7380416207388
 20
401718.18372340221
 30
0.0
 11
-7441.6649939566842
 21
401718.18372340221
 31
0.0
  0
LINE
  5
64A1C
  8
S-OBRYS
  6
CONTINUOUS
 10
-7441.6649939566842
 20
401743.18401630223
 30
0.0
 11
-7606.4293285463627
 21
401743.18401630223
 31
0.0
  0
LINE
  5
64A1D
  8
S-OBRYS
  6
CONTINUOUS
 10
-7763.3186625792478
 20
401891.55841274682
 30
0.0
 11
-7763.3186625792478
 21
401772.590807628
 31
0.0
  0
LINE
  5
64A1E
  8
S-OBRYS
  6
CONTINUOUS
 10
-7606.4293285463627
 20
401918.18401630229
 30
0.0
 11
-7606.4293285463627
 21
401743.18401630223
 31
0.0
  0
CIRCLE
  5
64A1F
  8
S-OBRYS
  6
CONTINUOUS
 10
-7763.3186625792478
 20
401830.68401630229
 30
0.0
 40
49.999999821999992
  0
LINE
  5
64A20
  8
S-OBRYS
  6
CONTINUOUS
 10
-7841.6651083566849
 20
401743.18401630223
 30
0.0
 11
-7841.6651083566849
 21
401918.18401630229
 31
0.0
  0
LINE
  5
64A21
  8
S-OBRYS
  6
CONTINUOUS
 10
-8055.3186625792478
 20
401541.68399250222
 30
0.0
 11
-8055.3186625792478
 21
401951.68404010218
 31
0.0
  0
LINE
  5
64A22
  8
S-OBRYS
  6
CONTINUOUS
 10
-7606.4293285463627
 20
401743.18401630223
 30
0.0
 11
-7841.6651083566849
 21
401743.18401630223
 31
0.0
  0
LINE
  5
64A23
  8
S-OBRYS
  6
CONTINUOUS
 10
-7841.6651083566849
 20
401830.68401630229
 30
0.0
 11
-7606.4293285463627
 21
401830.68401630229
 31
0.0
  0
LINE
  5
64A24
  8
S-OBRYS
  6
CONTINUOUS
 10
-7813.737970220739
 20
401693.18404010229
 30
0.0
 11
-7713.7380178207386
 21
401693.18404010229
 31
0.0
  0
LINE
  5
64A25
  8
S-OBRYS
  6
CONTINUOUS
 10
-7926.737867720738
 20
401541.68399250222
 30
0.0
 11
-7926.737867720738
 21
401491.68401630229
 31
0.0
  0
LINE
  5
64A26
  8
S-OBRYS
  6
CONTINUOUS
 10
-7813.737970220739
 20
401743.18401630223
 30
0.0
 11
-7813.737970220739
 21
401693.18404010229
 31
0.0
  0
LINE
  5
64A27
  8
S-OBRYS
  6
CONTINUOUS
 10
-7713.7380178207386
 20
401693.18404010229
 30
0.0
 11
-7663.7380416207388
 21
401693.18404010229
 31
0.0
  0
LINE
  5
64A28
  8
S-OBRYS
  6
CONTINUOUS
 10
-7713.7380178207386
 20
401693.18404010229
 30
0.0
 11
-7713.7380178207386
 21
401693.18404010229
 31
0.0
  0
LINE
  5
64A29
  8
S-OBRYS
  6
CONTINUOUS
 10
-7663.7380416207388
 20
401693.18404010229
 30
0.0
 11
-7663.7380416207388
 21
401743.18401630223
 31
0.0
  0
LINE
  5
64A2A
  8
S-OBRYS
  6
CONTINUOUS
 10
-7663.7380416207388
 20
401693.18404010229
 30
0.0
 11
-7613.7380654207391
 21
401693.18404010229
 31
0.0
  0
LINE
  5
64A2B
  8
S-OBRYS
  6
CONTINUOUS
 10
-7663.7380416207388
 20
401693.18404010229
 30
0.0
 11
-7663.7380416207388
 21
401693.18404010229
 31
0.0
  0
LINE
  5
64A2C
  8
S-OBRYS
  6
CONTINUOUS
 10
-7606.4293285463627
 20
401693.18404010229
 30
0.0
 11
-7606.4293285463627
 21
401693.18404010229
 31
0.0
  0
LINE
  5
64A2D
  8
S-OBRYS
  6
CONTINUOUS
 10
-7613.7380654207391
 20
401693.18404010229
 30
0.0
 11
-7606.4293285463627
 21
401693.18404010229
 31
0.0
  0
LINE
  5
64A2E
  8
S-OBRYS
  6
CONTINUOUS
 10
-7613.7380654207391
 20
401693.18404010229
 30
0.0
 11
-7613.7380654207391
 21
401693.18404010229
 31
0.0
  0
LINE
  5
64A2F
  8
S-OBRYS
  6
CONTINUOUS
 10
-7841.6651083566849
 20
401918.18401630229
 30
0.0
 11
-7606.4293285463627
 21
401918.18401630229
 31
0.0
  0
LINE
  5
64A30
  8
S-OBRYS
  6
CONTINUOUS
 10
-7926.737867720738
 20
402001.68401630223
 30
0.0
 11
-7926.737867720738
 21
401951.68404010218
 31
0.0
  0
LINE
  5
64A31
  8
S-OBRYS
  6
CONTINUOUS
 10
-7514.3441882615452
 20
404894.54861017771
 30
0.0
 11
-7364.3442596615459
 21
404894.54861017771
 31
0.0
  0
LINE
  5
64A32
  8
S-OBRYS
  6
CONTINUOUS
 10
-7364.3442596615459
 20
404919.54829347762
 30
0.0
 11
-7514.3441882615452
 21
404919.54829347762
 31
0.0
  0
LINE
  5
64A33
  8
S-OBRYS
  6
CONTINUOUS
 10
-7514.3441882615452
 20
404959.54826967762
 30
0.0
 11
-7664.3441168615418
 21
404959.54826967762
 31
0.0
  0
LINE
  5
64A34
  8
S-OBRYS
  6
CONTINUOUS
 10
-7364.3442596615459
 20
404894.54861017771
 30
0.0
 11
-7364.3442596615459
 21
404919.54829347762
 31
0.0
  0
LINE
  5
64A35
  8
S-OBRYS
  6
CONTINUOUS
 10
-7441.6649939566842
 20
401693.18404010229
 30
0.0
 11
-7441.6649939566842
 21
401743.18401630223
 31
0.0
  0
DIMENSION
  5
64A36
  8
S-OBRYS
  6
CONTINUOUS
  2
*D21
 10
-7322.3441168615427
 20
406540.29985966033
 30
0.0
 11
-7372.3441168615436
 21
406540.29985966033
 31
0.0
 70
   128
 13
-7422.3441168615436
 23
406464.06644823612
 33
0.0
 14
-7322.3441168615427
 24
406464.06644823612
 34
0.0
  0
LINE
  5
64A37
  8
S-OBRYS
  6
CONTINUOUS
 10
-7175.6903887389799
 20
406264.54881167773
 30
0.0
 11
-7050.6904482389782
 21
406264.54881167773
 31
0.0
  0
LINE
  5
64A38
  8
S-OBRYS
  6
CONTINUOUS
 10
-7215.4547828286568
 20
406252.04896367772
 30
0.0
 11
-7050.6904482389782
 21
406252.04896367772
 31
0.0
  0
LINE
  5
64A39
  8
S-OBRYS
  6
CONTINUOUS
 10
-7050.6904482389782
 20
406264.54881167773
 30
0.0
 11
-7215.4547828286568
 21
406264.54881167773
 31
0.0
  0
LINE
  5
64A3A
  8
S-OBRYS
  6
CONTINUOUS
 10
-7215.4547828286568
 20
406277.04865967768
 30
0.0
 11
-7050.6904482389782
 21
406277.04865967768
 31
0.0
  0
LINE
  5
64A3B
  8
S-OBRYS
  6
CONTINUOUS
 10
-7050.6904482389782
 20
406289.54850767762
 30
0.0
 11
-7215.4547828286568
 21
406289.54850767768
 31
0.0
  0
LINE
  5
64A3C
  8
S-OBRYS
  6
CONTINUOUS
 10
-7114.3443786615462
 20
405209.54876027763
 30
0.0
 11
-7414.344235861543
 21
405209.54876027763
 31
0.0
  0
LINE
  5
64A3D
  8
S-OBRYS
  6
CONTINUOUS
 10
-7414.344235861543
 20
405259.54812687769
 30
0.0
 11
-7114.3443786615462
 21
405259.54812687769
 31
0.0
  0
LINE
  5
64A3E
  8
S-OBRYS
  6
CONTINUOUS
 10
-7114.3443786615462
 20
405309.54871267767
 30
0.0
 11
-7414.344235861543
 21
405309.54871267767
 31
0.0
  0
LINE
  5
64A3F
  8
S-OBRYS
  6
CONTINUOUS
 10
-7414.344235861543
 20
405059.54822207772
 30
0.0
 11
-7114.3443786615462
 21
405059.54822207772
 31
0.0
  0
LINE
  5
64A40
  8
S-OBRYS
  6
CONTINUOUS
 10
-7114.3443786615462
 20
405109.54880787758
 30
0.0
 11
-7414.344235861543
 21
405109.54880787758
 31
0.0
  0
LINE
  5
64A41
  8
S-OBRYS
  6
CONTINUOUS
 10
-7414.344235861543
 20
405159.54817447759
 30
0.0
 11
-7114.3443786615462
 21
405159.54817447759
 31
0.0
  0
LINE
  5
64A42
  8
S-OBRYS
  6
CONTINUOUS
 10
-7414.344235861543
 20
405334.54839597759
 30
0.0
 11
-7014.344121461545
 21
405334.54839597759
 31
0.0
  0
LINE
  5
64A43
  8
S-OBRYS
  6
CONTINUOUS
 10
-7014.344121461545
 20
405034.54853877763
 30
0.0
 11
-7414.344235861543
 21
405034.54853877763
 31
0.0
  0
LINE
  5
64A44
  8
S-OBRYS
  6
CONTINUOUS
 10
-6995.5182850505926
 20
405184.54846737761
 30
0.0
 11
-7457.3085592576654
 21
405184.54846737761
 31
0.0
  0
LINE
  5
64A45
  8
S-OBRYS
  6
CONTINUOUS
 10
-7372.3441168615418
 20
405949.54850767768
 30
0.0
 11
-7372.3441168615418
 21
405649.54865047761
 31
0.0
  0
LINE
  5
64A46
  8
S-OBRYS
  6
CONTINUOUS
 10
-7664.3441168615418
 20
405949.54850767768
 30
0.0
 11
-7664.3441168615418
 21
405649.54865047761
 31
0.0
  0
LINE
  5
64A47
  8
S-OBRYS
  6
CONTINUOUS
 10
-7439.3442239615442
 20
405384.54896907759
 30
0.0
 11
-7414.344235861543
 21
405384.54896907759
 31
0.0
  0
LINE
  5
64A48
  8
S-OBRYS
  6
CONTINUOUS
 10
-7414.344235861543
 20
404984.54856257758
 30
0.0
 11
-7439.3442239615442
 21
404984.54856257758
 31
0.0
  0
LINE
  5
64A49
  8
S-OBRYS
  6
CONTINUOUS
 10
-7414.344235861543
 20
405384.54896907759
 30
0.0
 11
-7414.344235861543
 21
404984.54856257758
 31
0.0
  0
DIMENSION
  5
64A4A
  8
S-OBRYS
  6
CONTINUOUS
  2
*D22
 10
-7664.3441168615436
 20
406369.68421551911
 30
0.0
 11
-7518.3441168615427
 21
406444.68421551911
 31
0.0
 70
     0
 13
-7372.3441168615436
 23
406086.45909251412
 33
0.0
 14
-7664.3441168615436
 24
405949.54850767768
 34
0.0
  0
LINE
  5
64A4B
  8
S-OBRYS
  6
CONTINUOUS
 10
-7450.6905626389789
 20
406289.54850767762
 30
0.0
 11
-7450.6905626389789
 21
405949.54850767768
 31
0.0
  0
LINE
  5
64A4C
  8
S-OBRYS
  6
CONTINUOUS
 10
-7341.9037242826798
 20
406264.54881167773
 30
0.0
 11
-7341.9037242826798
 21
406190.22886593919
 31
0.0
  0
LINE
  5
64A4D
  8
S-OBRYS
  6
CONTINUOUS
 10
-7391.9037004826823
 20
406239.88868680829
 30
0.0
 11
-7391.9037004826823
 21
406289.54850767762
 31
0.0
  0
LINE
  5
64A4E
  8
S-OBRYS
  6
CONTINUOUS
 10
-7234.0119682236036
 20
406295.41199030681
 30
0.0
 11
-7234.0119682236036
 21
406243.65945990861
 31
0.0
  0
LINE
  5
64A4F
  8
S-OBRYS
  6
CONTINUOUS
 10
-7215.4547828286568
 20
406243.65945990861
 30
0.0
 11
-7215.4547828286568
 21
406295.41199030681
 31
0.0
  0
LINE
  5
64A50
  8
S-OBRYS
  6
CONTINUOUS
 10
-7372.3441168615418
 20
405949.54850767768
 30
0.0
 11
-7372.3441168615418
 21
406359.1391061999
 31
0.0
  0
LINE
  5
64A51
  8
S-OBRYS
  6
CONTINUOUS
 10
-7298.6905626389798
 20
405999.54788697773
 30
0.0
 11
-7450.6905626389789
 21
405999.54788697773
 31
0.0
  0
LINE
  5
64A52
  8
S-OBRYS
  6
CONTINUOUS
 10
-7298.6905626389798
 20
405989.54788697761
 30
0.0
 11
-7450.6905626389789
 21
405989.54788697761
 31
0.0
  0
LINE
  5
64A53
  8
S-OBRYS
  6
CONTINUOUS
 10
-7475.6905626389798
 20
405999.54788697773
 30
0.0
 11
-7475.6905626389798
 21
405989.54788697761
 31
0.0
  0
LINE
  5
64A54
  8
S-OBRYS
  6
CONTINUOUS
 10
-7450.6905626389789
 20
405989.54788697761
 30
0.0
 11
-7475.6905626389798
 21
405989.54788697761
 31
0.0
  0
LINE
  5
64A55
  8
S-OBRYS
  6
CONTINUOUS
 10
-7450.6905626389789
 20
405999.54788697773
 30
0.0
 11
-7475.6905626389798
 21
405999.54788697773
 31
0.0
  0
LINE
  5
64A56
  8
S-OBRYS
  6
CONTINUOUS
 10
-7298.6905626389798
 20
405999.54788697773
 30
0.0
 11
-7218.2203428712846
 21
406243.65945990861
 31
0.0
  0
LINE
  5
64A57
  8
S-OBRYS
  6
CONTINUOUS
 10
-7298.6905626389798
 20
405999.54788697773
 30
0.0
 11
-7273.6905626389798
 21
405999.54788697773
 31
0.0
  0
LINE
  5
64A58
  8
S-OBRYS
  6
CONTINUOUS
 10
-7298.6905626389798
 20
405989.54788697761
 30
0.0
 11
-7273.6905626389798
 21
405989.54788697761
 31
0.0
  0
LINE
  5
64A59
  8
S-OBRYS
  6
CONTINUOUS
 10
-7298.6905626389798
 20
405999.54788697773
 30
0.0
 11
-7298.6905626389798
 21
405949.54850767768
 31
0.0
  0
LINE
  5
64A5A
  8
S-OBRYS
  6
CONTINUOUS
 10
-7273.6905626389798
 20
405999.54788697773
 30
0.0
 11
-7273.6905626389798
 21
405989.54788697761
 31
0.0
  0
LINE
  5
64A5B
  8
S-OBRYS
  6
CONTINUOUS
 10
-7341.9037242826798
 20
406252.04896367772
 30
0.0
 11
-7234.0119682236036
 21
406252.04896367772
 31
0.0
  0
LINE
  5
64A5C
  8
S-OBRYS
  6
CONTINUOUS
 10
-7372.5678621546967
 20
406190.22886593919
 30
0.0
 11
-7341.9037242826798
 21
406190.22886593919
 31
0.0
  0
LINE
  5
64A5D
  8
S-OBRYS
  6
CONTINUOUS
 10
-7391.9037004826823
 20
406239.88868680829
 30
0.0
 11
-7341.9037242826798
 21
406239.88868680829
 31
0.0
  0
LINE
  5
64A5E
  8
S-OBRYS
  6
CONTINUOUS
 10
-7372.5678621546967
 20
406239.88868680829
 30
0.0
 11
-7372.5678621546967
 21
406190.22886593919
 31
0.0
  0
LINE
  5
64A5F
  8
S-OBRYS
  6
CONTINUOUS
 10
-7234.0119682236036
 20
406243.65945990861
 30
0.0
 11
-7215.4547828286568
 21
406243.65945990861
 31
0.0
  0
LINE
  5
64A60
  8
S-OBRYS
  6
CONTINUOUS
 10
-7422.3441168615418
 20
406339.54861017771
 30
0.0
 11
-7322.3441168615418
 21
406339.54861017771
 31
0.0
  0
LINE
  5
64A61
  8
S-OBRYS
  6
CONTINUOUS
 10
-7234.0119682236036
 20
406289.54850767768
 30
0.0
 11
-7450.6905626389789
 21
406289.54850767762
 31
0.0
  0
LINE
  5
64A62
  8
S-OBRYS
  6
CONTINUOUS
 10
-7422.3441168615418
 20
406339.54861017771
 30
0.0
 11
-7422.3441168615418
 21
406289.54850767762
 31
0.0
  0
LINE
  5
64A63
  8
S-OBRYS
  6
CONTINUOUS
 10
-7234.0119682236036
 20
406264.54881167773
 30
0.0
 11
-7341.9037242826798
 21
406264.54881167773
 31
0.0
  0
LINE
  5
64A64
  8
S-OBRYS
  6
CONTINUOUS
 10
-7341.9037242826798
 20
406277.04865967768
 30
0.0
 11
-7234.0119682236036
 21
406277.04865967768
 31
0.0
  0
LINE
  5
64A65
  8
S-OBRYS
  6
CONTINUOUS
 10
-7322.3441168615418
 20
406339.54861017771
 30
0.0
 11
-7322.3441168615418
 21
406289.54850767762
 31
0.0
  0
LINE
  5
64A66
  8
S-OBRYS
  6
CONTINUOUS
 10
-7341.9037242826798
 20
406264.54881167773
 30
0.0
 11
-7341.9037242826798
 21
406289.54850767762
 31
0.0
  0
LINE
  5
64A67
  8
S-OBRYS
  6
CONTINUOUS
 10
-7215.4547828286568
 20
406295.41199030681
 30
0.0
 11
-7234.0119682236036
 21
406295.41199030681
 31
0.0
  0
LINE
  5
64A68
  8
S-OBRYS
  6
CONTINUOUS
 10
-7014.344121461545
 20
405334.54839597759
 30
0.0
 11
-7014.344121461545
 21
405034.54853877763
 31
0.0
  0
LINE
  5
64A69
  8
S-OBRYS
  6
CONTINUOUS
 10
-7114.3443786615462
 20
405034.54853877763
 30
0.0
 11
-7114.3443786615462
 21
405334.54839597759
 31
0.0
  0
LINE
  5
64A6A
  8
S-OBRYS
  6
CONTINUOUS
 10
-7050.6904482389782
 20
406252.04896367772
 30
0.0
 11
-7050.6904482389782
 21
406264.54881167773
 31
0.0
  0
LINE
  5
64A6B
  8
S-OBRYS
  6
CONTINUOUS
 10
-7050.6904482389782
 20
406277.04865967768
 30
0.0
 11
-7050.6904482389782
 21
406289.54850767762
 31
0.0
  0
DIMENSION
  5
64A6C
  8
S-OBRYS
  6
CONTINUOUS
  2
*D23
 10
-2729.7839056884732
 20
405121.68859293079
 30
0.0
 11
-2804.7839056885382
 21
405654.18878793082
 31
0.0
 70
     0
 13
-3108.2752649655959
 23
406186.68898293091
 33
0.0
 14
-3058.2752887655952
 24
405121.68859293079
 34
0.0
 50
90.0
  0
LINE
  5
64A6D
  8
S-OBRYS
  6
CONTINUOUS
 10
-5920.8441168615454
 20
404919.54829347762
 30
0.0
 11
-5920.8441168615454
 21
405549.54869807768
 31
0.0
  0
LINE
  5
64A6E
  8
S-OBRYS
  6
CONTINUOUS
 10
-5845.8441525615463
 20
405649.54865047761
 30
0.0
 11
-5845.8441525615463
 21
404918.38223400241
 31
0.0
  0
LINE
  5
64A6F
  8
S-OBRYS
  6
CONTINUOUS
 10
-3058.2752887655952
 20
405911.68880903092
 30
0.0
 11
-3058.2752887655952
 21
405121.68859293079
 31
0.0
  0
LINE
  5
64A70
  8
S-OBRYS
  6
CONTINUOUS
 10
-3493.2750323655969
 20
405146.68827623082
 30
0.0
 11
-3493.2750323655969
 21
405211.68854533078
 31
0.0
  0
LINE
  5
64A71
  8
S-OBRYS
  6
CONTINUOUS
 10
-3568.2752887655952
 20
405911.68880903092
 30
0.0
 11
-3568.2752887655952
 21
405146.68827623082
 31
0.0
  0
LINE
  5
64A72
  8
S-OBRYS
  6
CONTINUOUS
 10
-3133.275557865597
 20
405211.68854533078
 30
0.0
 11
-3133.275557865597
 21
405186.68825243082
 31
0.0
  0
TEXT
  5
64A73
  8
S-OBRYS
  6
CONTINUOUS
 10
-3544.5721130481361
 20
401083.48854757368
 30
0.0
 40
100.0
  1
ZATÍŽENÍ NA 4ks PATEK-500kg
 41
0.7
  7
PROKOP
  0
LINE
  5
64A74
  8
S-OBRYS
  6
CONTINUOUS
 10
-3572.1930043059001
 20
400881.34928280022
 30
0.0
 11
-1681.2936729775679
 21
400881.34928280022
 31
0.0
  0
LINE
  5
64A75
  8
S-OBRYS
  6
CONTINUOUS
 10
-3572.1930043059001
 20
401033.39341021143
 30
0.0
 11
-1681.2936729775679
 21
401033.39341021143
 31
0.0
  0
TEXT
  5
64A76
  8
S-OBRYS
  6
CONTINUOUS
 10
-3544.5721130481361
 20
400908.51766737422
 30
0.0
 40
100.0
  1
KOTEVNÍ 
 41
0.7
  7
PROKOP
  0
DIMENSION
  5
64A77
  8
S-OBRYS
  6
CONTINUOUS
  2
*D24
 10
-2321.2702180837659
 20
402201.95698858378
 30
0.0
 11
-3075.2702180837659
 21
402276.95698858378
 31
0.0
 70
     0
 13
-3829.2702180837659
 23
402026.42981245642
 33
0.0
 14
-2321.2702180837659
 24
402019.47375728958
 34
0.0
  0
LINE
  5
64A78
  8
S-OBRYS
  6
CONTINUOUS
 10
-2341.2702180837659
 20
401490.88397829258
 30
0.0
 11
-3809.2702180837659
 21
401490.88397829258
 31
0.0
  0
LINE
  5
64A79
  8
S-OBRYS
  6
CONTINUOUS
 10
-3809.2702180837659
 20
402000.88397829258
 30
0.0
 11
-2341.2702180837659
 21
402000.88397829258
 31
0.0
  0
LINE
  5
64A7A
  8
S-OBRYS
  6
CONTINUOUS
 10
-4043.270218083765
 20
401745.88397829258
 30
0.0
 11
-2196.2702180837659
 21
401745.88397829258
 31
0.0
  0
LINE
  5
64A7B
  8
S-OBRYS
  6
CONTINUOUS
 10
-3572.1930043059001
 20
401033.39341021143
 30
0.0
 11
-3572.1930043059001
 21
400881.34928280022
 31
0.0
  0
LINE
  5
64A7C
  8
S-OBRYS
  6
CONTINUOUS
 10
-6208.3186625792478
 20
401951.68404010218
 30
0.0
 11
-6208.3186625792478
 21
401541.68399250222
 31
0.0
  0
LINE
  5
64A7D
  8
S-OBRYS
  6
CONTINUOUS
 10
-6311.8186625792487
 20
401721.18401630229
 30
0.0
 11
-6311.8186625792487
 21
401940.18401630223
 31
0.0
  0
LINE
  5
64A7E
  8
S-OBRYS
  6
CONTINUOUS
 10
-6530.8186625792496
 20
401940.18401630223
 30
0.0
 11
-6530.8186625792496
 21
401721.18401630229
 31
0.0
  0
LINE
  5
64A7F
  8
S-OBRYS
  6
CONTINUOUS
 10
-6421.3186625792496
 20
401940.18401630223
 30
0.0
 11
-6421.3186625792496
 21
401721.18401630229
 31
0.0
  0
LINE
  5
64A80
  8
S-OBRYS
  6
CONTINUOUS
 10
-6530.8186625792496
 20
401721.18401630229
 30
0.0
 11
-6311.8186625792487
 21
401721.18401630229
 31
0.0
  0
LINE
  5
64A81
  8
S-OBRYS
  6
CONTINUOUS
 10
-6530.8186625792496
 20
401830.68401630229
 30
0.0
 11
-6311.8186625792487
 21
401830.68401630229
 31
0.0
  0
LINE
  5
64A82
  8
S-OBRYS
  6
CONTINUOUS
 10
-6254.7380892207402
 20
401491.68401630229
 30
0.0
 11
-6254.7380892207402
 21
401541.68399250222
 31
0.0
  0
LINE
  5
64A83
  8
S-OBRYS
  6
CONTINUOUS
 10
-5970.8440930615434
 20
404919.54829347762
 30
0.0
 11
-5845.8441525615463
 21
404919.54829347762
 31
0.0
  0
LINE
  5
64A84
  8
S-OBRYS
  6
CONTINUOUS
 10
-5970.8440930615434
 20
404894.54861017771
 30
0.0
 11
-5845.8441525615463
 21
404894.54861017771
 31
0.0
  0
LINE
  5
64A85
  8
S-OBRYS
  6
CONTINUOUS
 10
-6530.8186625792496
 20
401940.18401630223
 30
0.0
 11
-6311.8186625792487
 21
401940.18401630223
 31
0.0
  0
LINE
  5
64A86
  8
S-OBRYS
  6
CONTINUOUS
 10
-5970.8440930615434
 20
404894.54861017771
 30
0.0
 11
-5970.8440930615434
 21
404919.54829347762
 31
0.0
  0
LINE
  5
64A87
  8
S-OBRYS
  6
CONTINUOUS
 10
-6254.7380892207402
 20
401951.68404010218
 30
0.0
 11
-6254.7380892207402
 21
402001.68401630223
 31
0.0
  0
LINE
  5
64A88
  8
S-OBRYS
  6
CONTINUOUS
 10
-5845.8441525615463
 20
404918.38223400241
 30
0.0
 11
-5845.8441525615463
 21
404894.54861017771
 31
0.0
  0
DIMENSION
  5
64A89
  8
S-OBRYS
  6
CONTINUOUS
  2
*D25
 10
-4228.8023823604362
 20
401520.88397829258
 30
0.0
 11
-4303.8023823604999
 21
401745.88397829258
 31
0.0
 70
     0
 13
-3932.8348344327001
 23
401970.88397829258
 33
0.0
 14
-3932.8348344327001
 24
401520.88397829258
 34
0.0
 50
90.0
  0
INSERT
  5
64A8A
  8
S-OBRYS
  6
CONTINUOUS
  2
*X47
 10
0.0
 20
0.0
 30
0.0
1001
ACAD
1000
HATCH
1002
{
1070
    19
1000
ANSI31
1040
15.0
1040
0.0
1000
R14_HATCH_DATA
1000
64A8A
1011
1.0
1021
-1.4625986241873510E+308
1031
0.0
1021
0.0
1031
0.0
1011
0.0
1021
-1.4625986241873510E+308
1031
0.0
1021
1.0
1031
0.0
1011
0.0
1021
-1.4625986241873510E+308
1031
0.0
1021
0.0
1031
1.0
1040
0.0
1010
0.0
1020
0.0
1030
1.0
1000
ANSI31
1070
     0
1070
     0
1071
        8
1071
        7
1070
     0
1070
     1
1071
        4
1040
-3829.2702180837659
1040
401970.88397829258
1040
-3829.2702180837659
1040
402000.88397829258
1040
-3919.2702180837668
1040
402000.88397829258
1040
-3919.2702180837668
1040
401970.88397829258
1071
        0
1071
        7
1070
     0
1070
     1
1071
        4
1040
-3809.2702180837659
1040
402000.88397829258
1040
-3829.2702180837659
1040
402000.88397829258
1040
-3829.2702180837659
1040
401970.88397829258
1040
-3809.2702180837641
1040
401970.88397829258
1071
        0
1071
        7
1070
     0
1070
     1
1071
        4
1040
-3809.2702180837659
1040
401970.88397829258
1040
-3829.2702180837659
1040
401970.88397829258
1040
-3829.2702180837659
1040
401940.88397829258
1040
-3809.2702180837659
1040
401940.88397829258
1071
        0
1071
        7
1070
     0
1070
     1
1071
        4
1040
-3829.2702180837659
1040
401940.88397829258
1040
-3829.2702180837659
1040
401970.88397829258
1040
-3919.2702180837668
1040
401970.88397829258
1040
-3919.2702180837668
1040
401940.88397829258
1071
        0
1071
        7
1070
     0
1070
     1
1071
        4
1040
-3829.2702180837659
1040
401520.88397829258
1040
-3829.2702180837659
1040
401550.88397829258
1040
-3919.2702180837668
1040
401550.88397829258
1040
-3919.2702180837668
1040
401520.88397829258
1071
        0
1071
        7
1070
     0
1070
     1
1071
        4
1040
-3809.2702180837659
1040
401550.88397829258
1040
-3829.2702180837659
1040
401550.88397829258
1040
-3829.2702180837659
1040
401520.88397829258
1040
-3809.2702180837659
1040
401520.88397829258
1071
        0
1071
        7
1070
     0
1070
     1
1071
        4
1040
-3809.2702180837659
1040
401520.88397829258
1040
-3829.2702180837659
1040
401520.88397829258
1040
-3829.2702180837659
1040
401490.88397829258
1040
-3809.2702180837659
1040
401490.88397829258
1071
        0
1071
        7
1070
     0
1070
     1
1071
        4
1040
-3829.2702180837659
1040
401490.88397829258
1040
-3829.2702180837659
1040
401520.88397829258
1040
-3919.2702180837668
1040
401520.88397829258
1040
-3919.2702180837668
1040
401490.88397829258
1071
        0
1070
     0
1070
     1
1040
0.0
1040
15.0
1070
     0
1070
     1
1040
0.7853981633974483
1040
-3062.7904556543308
1040
402308.56381687248
1040
-33.675960454009321
1040
33.675960454009328
1070
     0
1040
2.2634797423853268
1071
        8
1040
-3844.1538831917078
1040
401981.24303360347
1040
0.0
1040
-3819.2270543865711
1040
401981.24303360347
1040
0.0
1040
-3819.2270543865711
1040
401954.08127747237
1040
0.0
1040
-3846.4199575559201
1040
401951.81779269298
1040
0.0
1040
-3853.2181914473572
1040
401535.33751772949
1040
0.0
1040
-3819.2270543865711
1040
401533.07403907221
1040
0.0
1040
-3819.2270543865711
1040
401505.91228294099
1040
0.0
1040
-3850.9521170831449
1040
401499.12184084707
1040
0.0
1002
}
  0
LINE
  5
64A8B
  8
S-OBRYS
  6
CONTINUOUS
 10
-4043.270218083765
 20
401945.88388309249
 30
0.0
 11
-4043.270218083765
 21
401545.88407349249
 31
0.0
  0
LINE
  5
64A8C
  8
S-OBRYS
  6
CONTINUOUS
 10
-3919.2702180837668
 20
401490.88397829258
 30
0.0
 11
-3809.2702180837659
 21
401490.88397829258
 31
0.0
  0
LINE
  5
64A8D
  8
S-OBRYS
  6
CONTINUOUS
 10
-3919.2702180837668
 20
401550.88397829258
 30
0.0
 11
-3809.2702180837659
 21
401550.88397829258
 31
0.0
  0
LINE
  5
64A8E
  8
S-OBRYS
  6
CONTINUOUS
 10
-3932.8348344327001
 20
401520.88397829258
 30
0.0
 11
-3779.6259834797988
 21
401520.88397829258
 31
0.0
  0
LINE
  5
64A8F
  8
S-OBRYS
  6
CONTINUOUS
 10
-4043.270218083765
 20
401545.88407349249
 30
0.0
 11
-3919.2702180837668
 21
401545.88407349249
 31
0.0
  0
LINE
  5
64A90
  8
S-OBRYS
  6
CONTINUOUS
 10
-3919.2702180837668
 20
401550.88397829258
 30
0.0
 11
-3919.2702180837668
 21
401490.88397829258
 31
0.0
  0
INSERT
  5
64A91
  8
S-OBRYS
  6
CONTINUOUS
  2
*U48
 10
0.0
 20
0.0
 30
0.0
  0
LINE
  5
64A92
  8
S-OBRYS
  6
CONTINUOUS
 10
-3829.2702180837659
 20
401472.08891761198
 30
0.0
 11
-3829.2702180837659
 21
401576.42981245642
 31
0.0
  0
LINE
  5
64A93
  8
S-OBRYS
  6
CONTINUOUS
 10
-3809.2702180837659
 20
401550.88397829258
 30
0.0
 11
-3809.2702180837659
 21
401490.88397829258
 31
0.0
  0
CIRCLE
  5
64A94
  8
S-OBRYS
  6
CONTINUOUS
 10
-3829.2702180837659
 20
401520.88397829258
 30
0.0
 40
7.0
  0
LINE
  5
64A95
  8
S-OBRYS
  6
CONTINUOUS
 10
-3919.2702180837668
 20
402000.88397829258
 30
0.0
 11
-3809.2702180837659
 21
402000.88397829258
 31
0.0
  0
LINE
  5
64A96
  8
S-OBRYS
  6
CONTINUOUS
 10
-3919.2702180837668
 20
401940.88397829258
 30
0.0
 11
-3809.2702180837659
 21
401940.88397829258
 31
0.0
  0
LINE
  5
64A97
  8
S-OBRYS
  6
CONTINUOUS
 10
-3932.8348344327001
 20
401970.88397829258
 30
0.0
 11
-3779.6259834797988
 21
401970.88397829258
 31
0.0
  0
DIMENSION
  5
64A98
  8
S-OBRYS
  6
CONTINUOUS
  2
*D26
 10
-3058.2752887655952
 20
404924.17652331467
 30
0.0
 11
-3313.2752887655952
 21
404999.17652331467
 31
0.0
 70
     0
 13
-3568.2752887655952
 23
405121.68859293079
 33
0.0
 14
-3058.2752887655952
 24
405121.68859293079
 34
0.0
  0
LINE
  5
64A99
  8
S-OBRYS
  6
CONTINUOUS
 10
-4043.270218083765
 20
401945.88388309249
 30
0.0
 11
-3919.2702180837668
 21
401945.88388309249
 31
0.0
  0
LINE
  5
64A9A
  8
S-OBRYS
  6
CONTINUOUS
 10
-3919.2702180837668
 20
401940.88397829258
 30
0.0
 11
-3919.2702180837668
 21
402000.88397829258
 31
0.0
  0
LINE
  5
64A9B
  8
S-OBRYS
  6
CONTINUOUS
 10
-3568.2752887655952
 20
405121.68859293079
 30
0.0
 11
-3468.2753363655961
 21
405121.68859293079
 31
0.0
  0
LINE
  5
64A9C
  8
S-OBRYS
  6
CONTINUOUS
 10
-3468.2753363655961
 20
405146.68827623082
 30
0.0
 11
-3568.2752887655952
 21
405146.68827623082
 31
0.0
  0
LINE
  5
64A9D
  8
S-OBRYS
  6
CONTINUOUS
 10
-3568.2752887655952
 20
405146.68827623082
 30
0.0
 11
-3568.2752887655952
 21
405121.68859293079
 31
0.0
  0
LINE
  5
64A9E
  8
S-OBRYS
  6
CONTINUOUS
 10
-3468.2753363655961
 20
405121.68859293079
 30
0.0
 11
-3468.2753363655961
 21
405146.68827623082
 31
0.0
  0
CIRCLE
  5
64A9F
  8
S-OBRYS
  6
CONTINUOUS
 10
-3829.2702180837659
 20
401970.88397829258
 30
0.0
 40
7.0
  0
LINE
  5
64AA0
  8
S-OBRYS
  6
CONTINUOUS
 10
-3829.2702180837659
 20
401922.08891761198
 30
0.0
 11
-3829.2702180837659
 21
402026.42981245642
 31
0.0
  0
LINE
  5
64AA1
  8
S-OBRYS
  6
CONTINUOUS
 10
-3809.2702180837659
 20
401940.88397829258
 30
0.0
 11
-3809.2702180837659
 21
402000.88397829258
 31
0.0
  0
LINE
  5
64AA2
  8
S-OBRYS
  6
CONTINUOUS
 10
-3058.2752887655952
 20
405121.68859293079
 30
0.0
 11
-3158.275241165597
 21
405121.68859293079
 31
0.0
  0
LINE
  5
64AA3
  8
S-OBRYS
  6
CONTINUOUS
 10
-3158.275241165597
 20
405146.68827623082
 30
0.0
 11
-3058.2752887655952
 21
405146.68827623082
 31
0.0
  0
LINE
  5
64AA4
  8
S-OBRYS
  6
CONTINUOUS
 10
-3158.275241165597
 20
405146.68827623082
 30
0.0
 11
-3058.2752887655952
 21
405146.68827623082
 31
0.0
  0
LINE
  5
64AA5
  8
S-OBRYS
  6
CONTINUOUS
 10
-3158.275241165597
 20
405121.68859293079
 30
0.0
 11
-3158.275241165597
 21
405146.68827623082
 31
0.0
  0
LINE
  5
64AA6
  8
S-OBRYS
  6
CONTINUOUS
 10
-3133.275557865597
 20
405186.68825243082
 30
0.0
 11
-3133.275557865597
 21
405146.68827623082
 31
0.0
  0
TEXT
  5
64AA7
  8
S-OBRYS
  6
CONTINUOUS
 10
-3014.5721130481352
 20
400908.51766737422
 30
0.0
 40
100.0
  1
ŠROUB 
 41
0.7
  7
PROKOP
  0
TEXT
  5
64AA8
  8
S-OBRYS
  6
CONTINUOUS
 10
-2497.8100844395522
 20
400908.51766737422
 30
0.0
 40
100.0
  1
14mm
 41
0.7
  7
PROKOP
  0
TEXT
  5
64AA9
  8
S-OBRYS
  6
CONTINUOUS
 10
-2580.5539075864972
 20
400908.51766737422
 30
0.0
 40
100.0
  1
\U+2205
 41
0.7
  7
PROKOP
  0
DIMENSION
  5
64AAA
  8
S-OBRYS
  6
CONTINUOUS
  2
*D27
 10
-2672.3900251128139
 20
401655.88397829258
 30
0.0
 11
-2747.3900251128789
 21
401795.88397829258
 31
0.0
 70
     0
 13
-2549.2702180837659
 23
401935.88397829258
 33
0.0
 14
-2549.2702180837659
 24
401655.88397829258
 34
0.0
 50
90.0
  0
DIMENSION
  5
64AAB
  8
S-OBRYS
  6
CONTINUOUS
  2
*D28
 10
-2409.2702180837659
 20
401334.06555735698
 30
0.0
 11
-2699.032122845671
 21
401409.06555735698
 31
0.0
 70
     0
 13
-2321.2702180837659
 23
401569.67903897312
 33
0.0
 14
-2409.2702180837659
 24
401655.88397829258
 34
0.0
  0
LINE
  5
64AAC
  8
S-OBRYS
  6
CONTINUOUS
 10
-2269.2702180837659
 20
401655.88397829258
 30
0.0
 11
-2269.2702180837659
 21
401935.88397829258
 31
0.0
  0
LINE
  5
64AAD
  8
S-OBRYS
  6
CONTINUOUS
 10
-2409.2702180837659
 20
401935.88397829258
 30
0.0
 11
-2409.2702180837659
 21
401655.88397829258
 31
0.0
  0
LINE
  5
64AAE
  8
S-OBRYS
  6
CONTINUOUS
 10
-2549.2702180837659
 20
401935.88397829258
 30
0.0
 11
-2549.2702180837659
 21
401655.88397829258
 31
0.0
  0
INSERT
  5
64AAF
  8
S-OBRYS
  6
CONTINUOUS
  2
*X49
 10
0.0
 20
0.0
 30
0.0
1001
ACAD
1000
HATCH
1002
{
1070
    19
1000
ANSI31
1040
15.0
1040
0.0
1000
R14_HATCH_DATA
1000
64AAF
1011
1.0
1021
-1.4625986241873510E+308
1031
0.0
1021
0.0
1031
0.0
1011
0.0
1021
-1.4625986241873510E+308
1031
0.0
1021
1.0
1031
0.0
1011
0.0
1021
-1.4625986241873510E+308
1031
0.0
1021
0.0
1031
1.0
1040
0.0
1010
0.0
1020
0.0
1030
1.0
1000
ANSI31
1070
     0
1070
     0
1071
        8
1071
        7
1070
     0
1070
     1
1071
        4
1040
-2321.2702180837659
1040
402000.88397829258
1040
-2341.2702180837659
1040
402000.88397829258
1040
-2341.2702180837659
1040
401970.88397829258
1040
-2321.2702180837659
1040
401970.88397829258
1071
        0
1071
        7
1070
     0
1070
     1
1071
        4
1040
-2321.2702180837659
1040
401970.88397829258
1040
-2341.2702180837659
1040
401970.88397829258
1040
-2341.2702180837659
1040
401940.88397829258
1040
-2321.2702180837659
1040
401940.88397829258
1071
        0
1071
        7
1070
     0
1070
     1
1071
        4
1040
-2231.2702180837659
1040
401970.88397829258
1040
-2231.2702180837659
1040
402000.88397829258
1040
-2321.2702180837659
1040
402000.88397829258
1040
-2321.2702180837659
1040
401970.88397829258
1071
        0
1071
        7
1070
     0
1070
     1
1071
        4
1040
-2321.2702180837659
1040
401970.88397829258
1040
-2321.2702180837659
1040
401940.88397829258
1040
-2231.2702180837659
1040
401940.88397829258
1040
-2231.2702180837659
1040
401970.88397829258
1071
        0
1071
        7
1070
     0
1070
     1
1071
        4
1040
-2321.2702180837659
1040
401550.88397829258
1040
-2341.2702180837659
1040
401550.88397829258
1040
-2341.2702180837659
1040
401520.88397829258
1040
-2321.2702180837659
1040
401520.88397829258
1071
        0
1071
        7
1070
     0
1070
     1
1071
        4
1040
-2321.2702180837659
1040
401520.88397829258
1040
-2341.2702180837659
1040
401520.88397829258
1040
-2341.2702180837659
1040
401490.88397829258
1040
-2321.2702180837659
1040
401490.88397829258
1071
        0
1071
        7
1070
     0
1070
     1
1071
        4
1040
-2321.2702180837659
1040
401520.88397829258
1040
-2231.2702180837659
1040
401520.88397829258
1040
-2231.2702180837659
1040
401550.88397829258
1040
-2321.2702180837659
1040
401550.88397829258
1071
        0
1071
        7
1070
     0
1070
     1
1071
        4
1040
-2231.2702180837659
1040
401490.88397829258
1040
-2231.2702180837659
1040
401520.88397829258
1040
-2321.2702180837659
1040
401520.88397829258
1040
-2321.2702180837659
1040
401490.88397829258
1071
        0
1070
     0
1070
     1
1040
0.0
1040
15.0
1070
     0
1070
     1
1040
0.7853981633974483
1040
-3512.7904556543308
1040
402308.56381687248
1040
-33.675960454009321
1040
33.675960454009328
1070
     0
1040
2.0426524484701938
1071
        8
1040
-2330.4608235061278
1040
401986.87412908807
1040
0.0
1040
-2326.370831678476
1040
401956.23433925147
1040
0.0
1040
-2303.8758820257922
1040
401978.7035188732
1040
0.0
1040
-2301.8308915113671
1040
401962.36229844327
1040
0.0
1040
-2328.4158329917032
1040
401535.44793460763
1040
0.0
1040
-2328.4158329917032
1040
401512.9787549859
1040
0.0
1040
-2312.0558656810949
1040
401531.36262643902
1040
0.0
1040
-2295.6959091692879
1040
401502.7654937476
1040
0.0
1002
}
  0
LINE
  5
64AB0
  8
S-OBRYS
  6
CONTINUOUS
 10
-2196.2702180837659
 20
401945.88388309249
 30
0.0
 11
-2196.2702180837659
 21
401545.88407349249
 31
0.0
  0
DIMENSION
  5
64AB1
  8
S-OBRYS
  6
CONTINUOUS
  2
*D29
 10
-2269.2702180837659
 20
401701.99503949302
 30
0.0
 11
-2041.4130752266231
 21
401701.99503949302
 31
0.0
 70
   128
 13
-2549.2702180837659
 23
401655.88397829258
 33
0.0
 14
-2269.2702180837659
 24
401655.88397829258
 34
0.0
  0
LINE
  5
64AB2
  8
S-OBRYS
  6
CONTINUOUS
 10
-2549.2702180837659
 20
401655.88397829258
 30
0.0
 11
-2269.2702180837659
 21
401655.88397829258
 31
0.0
  0
LINE
  5
64AB3
  8
S-OBRYS
  6
CONTINUOUS
 10
-2549.2702180837659
 20
401795.88397829258
 30
0.0
 11
-2269.2702180837659
 21
401795.88397829258
 31
0.0
  0
LINE
  5
64AB4
  8
S-OBRYS
  6
CONTINUOUS
 10
-2363.263660521463
 20
401520.88397829258
 30
0.0
 11
-2196.2702180837659
 21
401520.88397829258
 31
0.0
  0
LINE
  5
64AB5
  8
S-OBRYS
  6
CONTINUOUS
 10
-2231.2702180837659
 20
401550.88397829258
 30
0.0
 11
-2341.2702180837659
 21
401550.88397829258
 31
0.0
  0
LINE
  5
64AB6
  8
S-OBRYS
  6
CONTINUOUS
 10
-2231.2702180837659
 20
401490.88397829258
 30
0.0
 11
-2341.2702180837659
 21
401490.88397829258
 31
0.0
  0
LINE
  5
64AB7
  8
S-OBRYS
  6
CONTINUOUS
 10
-2341.2702180837659
 20
401550.88397829258
 30
0.0
 11
-2341.2702180837659
 21
401490.88397829258
 31
0.0
  0
LINE
  5
64AB8
  8
S-OBRYS
  6
CONTINUOUS
 10
-2196.2702180837659
 20
401545.88407349249
 30
0.0
 11
-2231.2702180837659
 21
401545.88407349249
 31
0.0
  0
LINE
  5
64AB9
  8
S-OBRYS
  6
CONTINUOUS
 10
-2321.2702180837659
 20
401472.29419929552
 30
0.0
 11
-2321.2702180837659
 21
401569.67903897312
 31
0.0
  0
CIRCLE
  5
64ABA
  8
S-OBRYS
  6
CONTINUOUS
 10
-2321.2702180837659
 20
401520.98661913438
 30
0.0
 40
7.0
  0
LINE
  5
64ABB
  8
S-OBRYS
  6
CONTINUOUS
 10
-2231.2702180837659
 20
401550.88397829258
 30
0.0
 11
-2231.2702180837659
 21
401490.88397829258
 31
0.0
  0
LINE
  5
64ABC
  8
S-OBRYS
  6
CONTINUOUS
 10
-2549.2702180837659
 20
401935.88397829258
 30
0.0
 11
-2269.2702180837659
 21
401935.88397829258
 31
0.0
  0
LINE
  5
64ABD
  8
S-OBRYS
  6
CONTINUOUS
 10
-2363.263660521463
 20
401970.88397829258
 30
0.0
 11
-2196.2702180837659
 21
401970.88397829258
 31
0.0
  0
LINE
  5
64ABE
  8
S-OBRYS
  6
CONTINUOUS
 10
-2231.2702180837659
 20
402000.88397829258
 30
0.0
 11
-2341.2702180837659
 21
402000.88397829258
 31
0.0
  0
LINE
  5
64ABF
  8
S-OBRYS
  6
CONTINUOUS
 10
-2231.2702180837659
 20
401940.88397829258
 30
0.0
 11
-2341.2702180837659
 21
401940.88397829258
 31
0.0
  0
LINE
  5
64AC0
  8
S-OBRYS
  6
CONTINUOUS
 10
-2341.2702180837659
 20
401940.88397829258
 30
0.0
 11
-2341.2702180837659
 21
402000.88397829258
 31
0.0
  0
LINE
  5
64AC1
  8
S-OBRYS
  6
CONTINUOUS
 10
-2196.2702180837659
 20
401945.88388309249
 30
0.0
 11
-2231.2702180837659
 21
401945.88388309249
 31
0.0
  0
CIRCLE
  5
64AC2
  8
S-OBRYS
  6
CONTINUOUS
 10
-2321.2702180837659
 20
401970.88397829258
 30
0.0
 40
7.0
  0
LINE
  5
64AC3
  8
S-OBRYS
  6
CONTINUOUS
 10
-2231.2702180837659
 20
401940.88397829258
 30
0.0
 11
-2231.2702180837659
 21
402000.88397829258
 31
0.0
  0
LINE
  5
64AC4
  8
S-OBRYS
  6
CONTINUOUS
 10
-2321.2702180837659
 20
402019.47375728958
 30
0.0
 11
-2321.2702180837659
 21
401922.08891761198
 31
0.0
  0
DIMENSION
  5
64AC5
  8
S-OBRYS
  6
CONTINUOUS
  2
*D30
 10
-5920.8441168615454
 20
405363.05188449897
 30
0.0
 11
-5448.2250692424959
 21
405438.05188449897
 31
0.0
 70
     0
  1
219x219
 13
-6139.8441168615454
 23
405519.54829347762
 33
0.0
 14
-5920.8441168615454
 24
405519.54829347762
 34
0.0
  0
LINE
  5
64AC6
  8
S-OBRYS
  6
CONTINUOUS
 10
-5817.3441168615418
 20
405949.54850767768
 30
0.0
 11
-5817.3441168615418
 21
405649.54865047761
 31
0.0
  0
LINE
  5
64AC7
  8
S-OBRYS
  6
CONTINUOUS
 10
-5895.8441287615424
 20
405494.54861017759
 30
0.0
 11
-6164.8441049615449
 21
405494.54861017759
 31
0.0
  0
LINE
  5
64AC8
  8
S-OBRYS
  6
CONTINUOUS
 10
-6164.8441049615449
 20
405519.54829347762
 30
0.0
 11
-5895.8441287615424
 21
405519.54829347762
 31
0.0
  0
LINE
  5
64AC9
  8
S-OBRYS
  6
CONTINUOUS
 10
-6164.8441049615449
 20
405519.54829347762
 30
0.0
 11
-5895.8441287615424
 21
405519.54829347762
 31
0.0
  0
LINE
  5
64ACA
  8
S-OBRYS
  6
CONTINUOUS
 10
-6164.8441049615449
 20
405494.54861017759
 30
0.0
 11
-6164.8441049615449
 21
405519.54829347762
 31
0.0
  0
LINE
  5
64ACB
  8
S-OBRYS
  6
CONTINUOUS
 10
-6139.8441168615454
 20
405549.54869807768
 30
0.0
 11
-6139.8441168615454
 21
405519.54829347762
 31
0.0
  0
LINE
  5
64ACC
  8
S-OBRYS
  6
CONTINUOUS
 10
-6030.3441168615454
 20
405577.37293711101
 30
0.0
 11
-6030.3441168615454
 21
405467.87470670149
 31
0.0
  0
LINE
  5
64ACD
  8
S-OBRYS
  6
CONTINUOUS
 10
-5967.3443502615437
 20
405549.54869807768
 30
0.0
 11
-5942.3443621615443
 21
405549.54869807768
 31
0.0
  0
LINE
  5
64ACE
  8
S-OBRYS
  6
CONTINUOUS
 10
-5920.8441168615454
 20
405549.54869807768
 30
0.0
 11
-5920.8441168615454
 21
405519.54829347762
 31
0.0
  0
LINE
  5
64ACF
  8
S-OBRYS
  6
CONTINUOUS
 10
-5895.8441287615424
 20
405519.54829347762
 30
0.0
 11
-5895.8441287615424
 21
405494.54861017759
 31
0.0
  0
LINE
  5
64AD0
  8
S-OBRYS
  6
CONTINUOUS
 10
-3108.2752649655959
 20
406186.68898293091
 30
0.0
 11
-3108.2752649655959
 21
405211.68854533078
 31
0.0
  0
LINE
  5
64AD1
  8
S-OBRYS
  6
CONTINUOUS
 10
-3518.2753125655968
 20
405211.68854533078
 30
0.0
 11
-3518.2753125655968
 21
406186.68898293091
 31
0.0
  0
LINE
  5
64AD2
  8
S-OBRYS
  6
CONTINUOUS
 10
-3313.275288765597
 20
406186.68898293091
 30
0.0
 11
-3313.275288765597
 21
405211.68854533078
 31
0.0
  0
CIRCLE
  5
64AD3
  8
S-OBRYS
  6
CONTINUOUS
 10
-3313.275288765597
 20
405949.54850767768
 30
0.0
 40
171.73422572548949
  0
LINE
  5
64AD4
  8
S-OBRYS
  6
CONTINUOUS
 10
-3484.7753931655948
 20
406186.68898293091
 30
0.0
 11
-3485.009514491087
 21
405949.54850767768
 31
0.0
  0
LINE
  5
64AD5
  8
S-OBRYS
  6
CONTINUOUS
 10
-3397.2752887655952
 20
406566.68849043088
 30
0.0
 11
-3397.2752887655952
 21
405708.88331824582
 31
0.0
  0
LINE
  5
64AD6
  8
S-OBRYS
  6
CONTINUOUS
 10
-3532.5202686466841
 20
405733.88300154579
 30
0.0
 11
-3263.5202924466812
 21
405733.88300154579
 31
0.0
  0
LINE
  5
64AD7
  8
S-OBRYS
  6
CONTINUOUS
 10
-3263.5202924466812
 20
405708.88331824582
 30
0.0
 11
-3532.5202686466841
 21
405708.88331824582
 31
0.0
  0
LINE
  5
64AD8
  8
S-OBRYS
  6
CONTINUOUS
 10
-3058.2752887655952
 20
405211.68854533078
 30
0.0
 11
-3568.2752887655952
 21
405211.68854533078
 31
0.0
  0
LINE
  5
64AD9
  8
S-OBRYS
  6
CONTINUOUS
 10
-3485.009514491087
 20
405949.54850767762
 30
0.0
 11
-3141.5410630401079
 21
405949.54850767768
 31
0.0
  0
LINE
  5
64ADA
  8
S-OBRYS
  6
CONTINUOUS
 10
-3518.2753125655968
 20
405911.68880903092
 30
0.0
 11
-3568.2752887655952
 21
405911.68880903092
 31
0.0
  0
LINE
  5
64ADB
  8
S-OBRYS
  6
CONTINUOUS
 10
-3507.5202805466838
 20
405733.88300154579
 30
0.0
 11
-3485.009514491087
 21
405949.54850767768
 31
0.0
  0
LINE
  5
64ADC
  8
S-OBRYS
  6
CONTINUOUS
 10
-3532.5202686466841
 20
405708.88331824582
 30
0.0
 11
-3532.5202686466841
 21
405733.88300154579
 31
0.0
  0
LINE
  5
64ADD
  8
S-OBRYS
  6
CONTINUOUS
 10
-3288.5202805466829
 20
405773.88340614591
 30
0.0
 11
-3288.5202805466829
 21
405733.88300154579
 31
0.0
  0
LINE
  5
64ADE
  8
S-OBRYS
  6
CONTINUOUS
 10
-3263.5202924466812
 20
405733.88300154579
 30
0.0
 11
-3263.5202924466812
 21
405708.88331824582
 31
0.0
  0
LINE
  5
64ADF
  8
S-OBRYS
  6
CONTINUOUS
 10
-3058.2752887655952
 20
405911.68880903092
 30
0.0
 11
-3108.2752649655959
 21
405911.68880903092
 31
0.0
  0
LINE
  5
64AE0
  8
S-OBRYS
  6
CONTINUOUS
 10
-3518.2753125655968
 20
406186.68898293091
 30
0.0
 11
-3108.2752649655959
 21
406186.68898293091
 31
0.0
  0
LINE
  5
64AE1
  8
S-OBRYS
  6
CONTINUOUS
 10
-3484.7753931655948
 20
406491.68760063092
 30
0.0
 11
-3484.7753931655948
 21
406186.68898293091
 31
0.0
  0
LINE
  5
64AE2
  8
S-OBRYS
  6
CONTINUOUS
 10
-3309.7751843655951
 20
406186.68898293091
 30
0.0
 11
-3309.7751843655951
 21
406491.68760063092
 31
0.0
  0
LINE
  5
64AE3
  8
S-OBRYS
  6
CONTINUOUS
 10
-3284.7754883655962
 20
406391.68764823081
 30
0.0
 11
-3284.7754883655962
 21
406516.68849043082
 31
0.0
  0
LINE
  5
64AE4
  8
S-OBRYS
  6
CONTINUOUS
 10
-3484.7753931655948
 20
406236.68836223078
 30
0.0
 11
-3309.7751843655951
 21
406236.68836223078
 31
0.0
  0
LINE
  5
64AE5
  8
S-OBRYS
  6
CONTINUOUS
 10
-3323.6217345430332
 20
406236.68836223078
 30
0.0
 11
-3475.6217345430318
 21
406236.68836223078
 31
0.0
  0
LINE
  5
64AE6
  8
S-OBRYS
  6
CONTINUOUS
 10
-3323.6217345430332
 20
406226.68836223078
 30
0.0
 11
-3475.6217345430318
 21
406226.68836223078
 31
0.0
  0
LINE
  5
64AE7
  8
S-OBRYS
  6
CONTINUOUS
 10
-3475.6217345430318
 20
406226.68836223078
 30
0.0
 11
-3500.6217345430318
 21
406226.68836223078
 31
0.0
  0
LINE
  5
64AE8
  8
S-OBRYS
  6
CONTINUOUS
 10
-3475.6217345430318
 20
406236.68836223078
 30
0.0
 11
-3500.6217345430318
 21
406236.68836223078
 31
0.0
  0
LINE
  5
64AE9
  8
S-OBRYS
  6
CONTINUOUS
 10
-3500.6217345430318
 20
406236.68836223078
 30
0.0
 11
-3500.6217345430318
 21
406226.68836223078
 31
0.0
  0
LINE
  5
64AEA
  8
S-OBRYS
  6
CONTINUOUS
 10
-3323.6217345430332
 20
406236.68836223078
 30
0.0
 11
-3298.6217345430332
 21
406236.68836223078
 31
0.0
  0
LINE
  5
64AEB
  8
S-OBRYS
  6
CONTINUOUS
 10
-3323.6217345430332
 20
406226.68836223078
 30
0.0
 11
-3298.6217345430332
 21
406226.68836223078
 31
0.0
  0
LINE
  5
64AEC
  8
S-OBRYS
  6
CONTINUOUS
 10
-3298.6217345430332
 20
406236.68836223078
 30
0.0
 11
-3298.6217345430332
 21
406226.68836223078
 31
0.0
  0
LINE
  5
64AED
  8
S-OBRYS
  6
CONTINUOUS
 10
-3359.7751605655958
 20
406441.68822133093
 30
0.0
 11
-3434.7754169655959
 21
406441.68822133093
 31
0.0
  0
LINE
  5
64AEE
  8
S-OBRYS
  6
CONTINUOUS
 10
-3434.7754169655959
 20
406341.68826893088
 30
0.0
 11
-3359.7751605655958
 21
406341.68826893088
 31
0.0
  0
LINE
  5
64AEF
  8
S-OBRYS
  6
CONTINUOUS
 10
-3434.7754169655959
 20
406441.68822133093
 30
0.0
 11
-3434.7754169655959
 21
406341.68826893088
 31
0.0
  0
LINE
  5
64AF0
  8
S-OBRYS
  6
CONTINUOUS
 10
-3359.7751605655958
 20
406341.68826893088
 30
0.0
 11
-3359.7751605655958
 21
406441.68822133093
 31
0.0
  0
LINE
  5
64AF1
  8
S-OBRYS
  6
CONTINUOUS
 10
-3309.7751843655951
 20
406391.68764823081
 30
0.0
 11
-3284.7754883655962
 21
406391.68764823081
 31
0.0
  0
LINE
  5
64AF2
  8
S-OBRYS
  6
CONTINUOUS
 10
-3347.2752887655952
 20
406566.68849043088
 30
0.0
 11
-3447.2752887655952
 21
406566.68849043088
 31
0.0
  0
LINE
  5
64AF3
  8
S-OBRYS
  6
CONTINUOUS
 10
-3309.7751843655951
 20
406491.68760063092
 30
0.0
 11
-3484.7753931655948
 21
406491.68760063092
 31
0.0
  0
LINE
  5
64AF4
  8
S-OBRYS
  6
CONTINUOUS
 10
-3284.7754883655962
 20
406516.68849043082
 30
0.0
 11
-3534.7753693655959
 21
406516.68849043082
 31
0.0
  0
LINE
  5
64AF5
  8
S-OBRYS
  6
CONTINUOUS
 10
-3534.7753693655959
 20
406491.68760063092
 30
0.0
 11
-3484.7753931655948
 21
406491.68760063092
 31
0.0
  0
LINE
  5
64AF6
  8
S-OBRYS
  6
CONTINUOUS
 10
-3534.7753693655959
 20
406516.68849043082
 30
0.0
 11
-3534.7753693655959
 21
406491.68760063092
 31
0.0
  0
LINE
  5
64AF7
  8
S-OBRYS
  6
CONTINUOUS
 10
-3447.2752887655952
 20
406566.68849043088
 30
0.0
 11
-3447.2752887655952
 21
406516.68849043082
 31
0.0
  0
LINE
  5
64AF8
  8
S-OBRYS
  6
CONTINUOUS
 10
-3347.2752887655952
 20
406516.68849043082
 30
0.0
 11
-3347.2752887655952
 21
406566.68849043088
 31
0.0
  0
LINE
  5
64AF9
  8
S-OBRYS
  6
CONTINUOUS
 10
-2321.2702180837659
 20
401922.08891761198
 30
0.0
 11
-2321.2702180837659
 21
402026.42981245642
 31
0.0
  0
LINE
  5
64AFA
  8
S-OBRYS
  6
CONTINUOUS
 10
-5817.3441168615418
 20
404959.54826967762
 30
0.0
 11
-5817.3441168615418
 21
405949.54850767768
 31
0.0
  0
LINE
  5
64AFB
  8
S-OBRYS
  6
CONTINUOUS
 10
-1495.819815975939
 20
402162.60466492421
 30
0.0
 11
-1381.826149077946
 21
402092.55538656277
 31
0.0
  0
LINE
  5
64AFC
  8
S-OBRYS
  6
CONTINUOUS
 10
-1495.885628167865
 20
402096.43484123232
 30
0.0
 11
-1381.891961269813
 21
402026.38556287088
 31
0.0
  0
LINE
  5
64AFD
  8
S-OBRYS
  6
CONTINUOUS
 10
-1495.9576102001349
 20
402024.06164950621
 30
0.0
 11
-1381.9639433020841
 21
401954.0123711449
 31
0.0
  0
LINE
  5
64AFE
  8
S-OBRYS
  6
CONTINUOUS
 10
-1496.0337055716429
 20
401947.55276615842
 30
0.0
 11
-1382.040038673649
 21
401877.5034877971
 31
0.0
  0
LINE
  5
64AFF
  8
S-OBRYS
  6
CONTINUOUS
 10
-1496.1056876039711
 20
401875.17957443232
 30
0.0
 11
-1382.1120207059189
 21
401805.130296071
 31
0.0
  0
LINE
  5
64B00
  8
S-OBRYS
  6
CONTINUOUS
 10
-1496.1858962023159
 20
401794.5351123953
 30
0.0
 11
-1382.1922293042639
 21
401724.48583403393
 31
0.0
  0
LINE
  5
64B01
  8
S-OBRYS
  6
CONTINUOUS
 10
-1496.2702180837859
 20
401709.75501520239
 30
0.0
 11
-1382.276551185792
 21
401639.70573684108
 31
0.0
  0
LINE
  5
64B02
  8
S-OBRYS
  6
CONTINUOUS
 10
-1496.3565965786449
 20
401622.90712866507
 30
0.0
 11
-1382.3629296806521
 21
401552.85785030382
 31
0.0
  0
LINE
  5
64B03
  8
S-OBRYS
  6
CONTINUOUS
 10
-1496.4368051771071
 20
401542.262666628
 30
0.0
 11
-1382.4431382789969
 21
401472.21338826662
 31
0.0
  0
LINE
  5
64B04
  8
S-OBRYS
  6
CONTINUOUS
 10
-1496.5149571620041
 20
401463.68599393551
 30
0.0
 11
-1382.5212902639521
 21
401393.63671557419
 31
0.0
  0
LINE
  5
64B05
  8
S-OBRYS
  6
CONTINUOUS
 10
-1496.603392270312
 20
401374.77031805331
 30
0.0
 11
-1382.6097253723181
 21
401304.721039692
 31
0.0
  0
LINE
  5
64B06
  8
S-OBRYS
  6
CONTINUOUS
 10
-1496.6959406617441
 20
401281.71900701569
 30
0.0
 11
-1382.7022737636919
 21
401211.66972865432
 31
0.0
  0
DIMENSION
  5
64B07
  8
S-OBRYS
  6
CONTINUOUS
  2
*D16
 10
-1496.098621612962
 20
401898.53993631119
 30
0.0
 11
-1846.1844198483641
 21
401973.53993631119
 31
0.0
 70
     0
  1
700
 13
-2196.2702180837659
 23
401882.9803502243
 33
0.0
 14
-1496.098621612962
 24
401882.28396288451
 34
0.0
  0
LINE
  5
64B08
  8
S-OBRYS
  6
CONTINUOUS
 10
-1496.098621612962
 20
401908.53993631108
 30
0.0
 11
-1496.098621612962
 21
402179.81182687171
 31
0.0
  0
LINE
  5
64B09
  8
S-OBRYS
  6
CONTINUOUS
 10
-1496.098621612962
 20
401885.43396288459
 30
0.0
 11
-1496.098621612962
 21
401261.3114858683
 31
0.0
  0
LINE
  5
64B0A
  8
S-OBRYS
  6
CONTINUOUS
 10
-4943.2702180837641
 20
402243.28949159081
 30
0.0
 11
-4943.2702180837641
 21
401355.4831326608
 31
0.0
  0
LINE
  5
64B0B
  8
S-OBRYS
  6
CONTINUOUS
 10
-4943.2702180837641
 20
402243.28949159081
 30
0.0
 11
-5057.3334992441141
 21
402173.35362537933
 31
0.0
  0
LINE
  5
64B0C
  8
S-OBRYS
  6
CONTINUOUS
 10
-4943.2702180837641
 20
402177.11963517062
 30
0.0
 11
-5057.3334992441141
 21
402107.18376895919
 31
0.0
  0
LINE
  5
64B0D
  8
S-OBRYS
  6
CONTINUOUS
 10
-4943.2702180837641
 20
402104.74640764802
 30
0.0
 11
-5057.3334992441141
 21
402034.8105414366
 31
0.0
  0
LINE
  5
64B0E
  8
S-OBRYS
  6
CONTINUOUS
 10
-4943.2702180837641
 20
402028.23748645833
 30
0.0
 11
-5057.3334992441141
 21
401958.30162024678
 31
0.0
  0
LINE
  5
64B0F
  8
S-OBRYS
  6
CONTINUOUS
 10
-4943.2702180837641
 20
401955.86425893579
 30
0.0
 11
-5057.3334992441141
 21
401885.92839272431
 31
0.0
  0
LINE
  5
64B10
  8
S-OBRYS
  6
CONTINUOUS
 10
-4943.2702180837641
 20
401875.2197570111
 30
0.0
 11
-5057.3334992441141
 21
401805.28389079968
 31
0.0
  0
LINE
  5
64B11
  8
S-OBRYS
  6
CONTINUOUS
 10
-4943.2702180837641
 20
401790.43961788528
 30
0.0
 11
-5057.3334992441141
 21
401720.50375167379
 31
0.0
  0
LINE
  5
64B12
  8
S-OBRYS
  6
CONTINUOUS
 10
-4943.2702180837641
 20
401703.5916883921
 30
0.0
 11
-5057.3334992441141
 21
401633.65582218062
 31
0.0
  0
LINE
  5
64B13
  8
S-OBRYS
  6
CONTINUOUS
 10
-4943.2702180837641
 20
401622.94718646741
 30
0.0
 11
-5057.3334992441141
 21
401553.01132025587
 31
0.0
  0
LINE
  5
64B14
  8
S-OBRYS
  6
CONTINUOUS
 10
-4943.2702180837641
 20
401544.37047491019
 30
0.0
 11
-5057.3334992441141
 21
401474.43460869871
 31
0.0
  0
LINE
  5
64B15
  8
S-OBRYS
  6
CONTINUOUS
 10
-4943.2702180837641
 20
401455.45475504949
 30
0.0
 11
-5057.3334992441141
 21
401385.51888883801
 31
0.0
  0
LINE
  5
64B16
  8
S-OBRYS
  6
CONTINUOUS
 10
-4943.2702180837641
 20
401362.40339798777
 30
0.0
 11
-5057.3334992441141
 21
401292.46753177629
 31
0.0
  0
DIMENSION
  5
64B17
  8
S-OBRYS
  6
CONTINUOUS
  2
*D17
 10
-4943.2702180837641
 20
402189.2044638613
 30
0.0
 11
-4493.270218083765
 21
402264.2044638613
 31
0.0
 70
     0
 13
-4043.270218083765
 23
401887.87026358
 33
0.0
 14
-4943.2702180837641
 24
401887.87026358
 34
0.0
  0
VIEWPORT
  5
1FAB5
 67
     1
  8
0
  6
ČERCHOVANÁ
 10
12.669026204836801
 20
9.4585013259736659
 30
0.0
 40
41.707206501782828
 41
24.2248555085413
 68
     1
 69
     1
1001
ACAD
1000
MVIEW
1002
{
1070
    16
1010
0.0
1020
0.0
1030
0.0
1010
0.0
1020
0.0
1030
1.0
1040
0.0
1040
24.2248555085413
1040
12.669026204836801
1040
9.4585013259736659
1040
50.0
1040
0.0
1040
0.0
1070
     0
1070
   100
1070
     1
1070
     1
1070
     0
1070
     0
1070
     0
1070
     0
1040
0.0
1040
0.0
1040
0.0
1040
10.0
1040
10.0
1040
10.0
1040
10.0
1070
     0
1002
{
1002
}
1002
}
  0
VIEWPORT
  5
1FAB7
 67
     1
  8
2-VZT
  6
ČERCHOVANÁ
 10
5.24999976158142
 20
3.99999976158142
 30
0.0
 40
8.3999996185302717
 41
6.3999996185302717
 68
     2
 69
     2
1001
ACAD
1000
MVIEW
1002
{
1070
    16
1010
0.0
1020
0.0
1030
0.0
1010
0.0
1020
0.0
1030
1.0
1040
0.0
1040
517776.44812413253
1040
-335493.7046016907
1040
-205251.99203018961
1040
50.0
1040
0.0
1040
0.0
1070
     0
1070
   100
1070
     1
1070
     0
1070
     0
1070
     0
1070
     0
1070
     0
1040
0.0
1040
0.0
1040
0.0
1040
1.0
1040
1.0
1040
1.0
1040
1.0
1070
     0
1002
{
1002
}
1002
}
  0
ENDSEC
  0
EOF
