  0
SECTION
  2
HEADER
  9
$ACADVER
  1
AC1009
  9
$INSBASE
 10
0.0
 20
0.0
 30
0.0
  9
$EXTMIN
 10
33814.171101787782
 20
404934.70576643618
 30
0.0
  9
$EXTMAX
 10
38627.671776863703
 20
407904.70576643629
 30
0.0
  9
$LIMMIN
 10
-127022.6804658414
 20
-67144.462473645661
  9
$LIMMAX
 10
-873.19720690528334
 20
6755.1563308572058
  9
$ORTHOMODE
 70
     1
  9
$REGENMODE
 70
     1
  9
$FILLMODE
 70
     1
  9
$QTEXTMODE
 70
     0
  9
$MIRRTEXT
 70
     0
  9
$DRAGMODE
 70
     2
  9
$LTSCALE
 40
50.0
  9
$OSMODE
 70
   679
  9
$ATTMODE
 70
     1
  9
$TEXTSIZE
 40
200.0
  9
$TRACEWID
 40
10.0
  9
$TEXTSTYLE
  7
R
  9
$CLAYER
  8
S-OBRYS
  9
$CELTYPE
  6
CONTINUOUS
  9
$CECOLOR
 62
   256
  9
$DIMSCALE
 40
50.0
  9
$DIMASZ
 40
2.0
  9
$DIMEXO
 40
0.063
  9
$DIMDLI
 40
5.0
  9
$DIMRND
 40
0.0
  9
$DIMDLE
 40
0.0
  9
$DIMEXE
 40
0.2
  9
$DIMTP
 40
0.0
  9
$DIMTM
 40
0.0
  9
$DIMTXT
 40
2.0
  9
$DIMCEN
 40
2.0
  9
$DIMTSZ
 40
0.0
  9
$DIMTOL
 70
     0
  9
$DIMLIM
 70
     0
  9
$DIMTIH
 70
     0
  9
$DIMTOH
 70
     0
  9
$DIMSE1
 70
     0
  9
$DIMSE2
 70
     0
  9
$DIMTAD
 70
     1
  9
$DIMZIN
 70
    12
  9
$DIMBLK
  1

  9
$DIMASO
 70
     1
  9
$DIMSHO
 70
     0
  9
$DIMPOST
  1

  9
$DIMAPOST
  1

  9
$DIMALT
 70
     0
  9
$DIMALTD
 70
     2
  9
$DIMALTF
 40
25.399999999999999
  9
$DIMLFAC
 40
1.0
  9
$DIMTOFL
 70
     1
  9
$DIMTVP
 40
0.0
  9
$DIMTIX
 70
     0
  9
$DIMSOXD
 70
     0
  9
$DIMSAH
 70
     1
  9
$DIMBLK1
  1
OPEN
  9
$DIMBLK2
  1
OPEN
  9
$DIMSTYLE
  2
EMBABA
  9
$DIMCLRD
 70
     0
  9
$DIMCLRE
 70
     0
  9
$DIMCLRT
 70
     7
  9
$DIMTFAC
 40
1.0
  9
$DIMGAP
 40
0.5
  9
$LUNITS
 70
     2
  9
$LUPREC
 70
     0
  9
$SKETCHINC
 40
10.0
  9
$FILLETRAD
 40
400.0
  9
$AUNITS
 70
     0
  9
$AUPREC
 70
     4
  9
$MENU
  1
ACAD
  9
$ELEVATION
 40
0.0
  9
$PELEVATION
 40
0.0
  9
$THICKNESS
 40
0.0
  9
$LIMCHECK
 70
     0
  9
$BLIPMODE
 70
     0
  9
$CHAMFERA
 40
0.0
  9
$CHAMFERB
 40
0.0
  9
$SKPOLY
 70
     0
  9
$TDCREATE
 40
2450205.720229167
  9
$TDUPDATE
 40
2453552.4576649312
  9
$TDINDWG
 40
42.617990891200002
  9
$TDUSRTIMER
 40
42.617990891200002
  9
$USRTIMER
 70
     1
  9
$ANGBASE
 50
0.0
  9
$ANGDIR
 70
     0
  9
$PDMODE
 70
     2
  9
$PDSIZE
 40
-5.0
  9
$PLINEWID
 40
0.0
  9
$COORDS
 70
     0
  9
$SPLFRAME
 70
     0
  9
$SPLINETYPE
 70
     6
  9
$SPLINESEGS
 70
     8
  9
$ATTDIA
 70
     0
  9
$ATTREQ
 70
     1
  9
$HANDLING
 70
     1
  9
$HANDSEED
  5
6757F
  9
$SURFTAB1
 70
    18
  9
$SURFTAB2
 70
    18
  9
$SURFTYPE
 70
     6
  9
$SURFU
 70
    18
  9
$SURFV
 70
    18
  9
$UCSNAME
  2

  9
$UCSORG
 10
0.0
 20
0.0
 30
0.0
  9
$UCSXDIR
 10
1.0
 20
0.0
 30
0.0
  9
$UCSYDIR
 10
0.0
 20
1.0
 30
0.0
  9
$PUCSNAME
  2

  9
$PUCSORG
 10
0.0
 20
0.0
 30
0.0
  9
$PUCSXDIR
 10
1.0
 20
0.0
 30
0.0
  9
$PUCSYDIR
 10
0.0
 20
1.0
 30
0.0
  9
$USERI1
 70
     0
  9
$USERI2
 70
     0
  9
$USERI3
 70
     0
  9
$USERI4
 70
     0
  9
$USERI5
 70
     0
  9
$USERR1
 40
0.0
  9
$USERR2
 40
50.0
  9
$USERR3
 40
0.0
  9
$USERR4
 40
0.0
  9
$USERR5
 40
0.0
  9
$WORLDVIEW
 70
     1
  9
$SHADEDGE
 70
     3
  9
$SHADEDIF
 70
    70
  9
$TILEMODE
 70
     1
  9
$MAXACTVP
 70
    16
  9
$PLIMCHECK
 70
     0
  9
$PEXTMIN
 10
1.049999952316284
 20
0.7999999523162842
 30
0.0
  9
$PEXTMAX
 10
9.4499995708465558
 20
7.1999995708465558
 30
0.0
  9
$PLIMMIN
 10
-0.2500002402958907
 20
-0.2499999962453767
  9
$PLIMMAX
 10
10.74999951940821
 20
8.2499997634587316
  9
$UNITMODE
 70
     0
  9
$VISRETAIN
 70
     0
  9
$PLINEGEN
 70
     0
  9
$PSLTSCALE
 70
     1
  0
ENDSEC
  0
SECTION
  2
TABLES
  0
TABLE
  2
VPORT
 70
     5
  0
VPORT
  2
*ACTIVE
 70
     0
 10
0.0
 20
0.0
 11
1.0
 21
1.0
 12
35878.394513967542
 22
406289.00157911499
 13
0.0
 23
0.0
 14
1.0
 24
1.0
 15
1.0
 25
1.0
 16
0.0
 26
0.0
 36
1.0
 17
0.0
 27
0.0
 37
0.0
 40
6371.2416939636432
 41
1.6116303219106951
 42
50.0
 43
0.0
 44
0.0
 50
0.0
 51
0.0
 71
     0
 72
   100
 73
     1
 74
     0
 75
     0
 76
     1
 77
     0
 78
     0
  0
ENDTAB
  0
TABLE
  2
LTYPE
 70
    14
  0
LTYPE
  2
CONTINUOUS
 70
     0
  3
Solid line
 72
    65
 73
     0
 40
0.0
  0
LTYPE
  2
ČERCHOVANÁ
 70
     0
  3
Čerchovaná __ . __ . __ . __ . __ . __ . __ . _
 72
    65
 73
     4
 40
1.0
 49
0.5
 49
-0.25
 49
0.0
 49
-0.25
  0
LTYPE
  2
DASHDOT
 70
     0
  3
__ . __ . __ . __ . __ . __ . __ . __ . __ . __
 72
    65
 73
     4
 40
1.0
 49
0.5
 49
-0.25
 49
0.0
 49
-0.25
  0
LTYPE
  2
DOT
 70
     0
  3
Dot . . . . . . . . . . . . . . . . . . . . . .
 72
    65
 73
     2
 40
2.2000000000000002
 49
1.1000000000000001
 49
-1.1000000000000001
  0
ENDTAB
  0
TABLE
  2
LAYER
 70
    39
  0
LAYER
  2
0
 70
     0
 62
     7
  6
CONTINUOUS
  0
LAYER
  2
RAZ
 70
     0
 62
     7
  6
CONTINUOUS
  0
LAYER
  2
KOTY
 70
     0
 62
     2
  6
CONTINUOUS
  0
LAYER
  2
DEFPOINTS
 70
     0
 62
     7
  6
CONTINUOUS
  0
LAYER
  2
2-VZT
 70
     0
 62
     4
  6
CONTINUOUS
  0
LAYER
  2
OBRYS
 70
     0
 62
     7
  6
CONTINUOUS
  0
LAYER
  2
S-OBRYS
 70
     0
 62
     7
  6
CONTINUOUS
  0
LAYER
  2
OSA
 70
     0
 62
     7
  6
DASHDOT
  0
ENDTAB
  0
TABLE
  2
STYLE
 70
    11
  0
STYLE
  2
STANDARD
 70
     0
 40
0.0
 41
0.8
 50
0.0
 71
     0
 42
200.0
  3
ROMANS.SHX
  4

  0
STYLE
  2
R
 70
     0
 40
0.0
 41
1.0
 50
0.0
 71
     0
 42
200.0
  3
romans.shx
  4

  0
STYLE
  2
ROMANS
 70
     0
 40
0.0
 41
0.8
 50
0.0
 71
     0
 42
300.0
  3
ROMANS.shx
  4

  0
STYLE
  2
R08
 70
     0
 40
0.0
 41
0.8
 50
0.0
 71
     0
 42
800.0
  3
ROMANS.shx
  4

  0
STYLE
  2
ROMANT
 70
     0
 40
0.0
 41
0.7
 50
0.0
 71
     0
 42
3.0
  3
romant
  4

  0
STYLE
  2
CYRILLIC
 70
     0
 40
2.2999999999999989
 41
0.7
 50
0.0
 71
     0
 42
2.2999999999999989
  3
cyrillic
  4

  0
ENDTAB
  0
TABLE
  2
VIEW
 70
     0
  0
ENDTAB
  0
TABLE
  2
UCS
 70
     0
  0
ENDTAB
  0
TABLE
  2
APPID
 70
     7
  0
APPID
  2
ACAD
 70
     0
  0
APPID
  2
PHOENIX7010
 70
     0
  0
APPID
  2
CONTENTBLOCKICON
 70
     0
  0
APPID
  2
CONTENTLONGBLOCKNAME
 70
     0
  0
APPID
  2
ACAD_DSTYLE_DIMTEXT_FILL
 70
     0
  0
APPID
  2
DCO15
 70
     0
  0
APPID
  2
ACAECLAYERSTANDARD
 70
     0
  0
ENDTAB
  0
TABLE
  2
DIMSTYLE
 70
     9
  0
DIMSTYLE
  2
STANDARD
 70
     0
  3

  4

  5

  6
OPEN
  7
OPEN
 40
1.0
 41
80.0
 42
1.0
 43
0.0
 44
1.0
 45
0.0
 46
0.8
 47
0.0
 48
0.0
140
70.0
141
-3.0
142
0.0
143
0.0394
144
1.0
145
1.0
146
0.5
147
1.0
 71
     0
 72
     0
 73
     0
 74
     0
 75
     0
 76
     0
 77
     0
 78
     8
170
     0
171
     2
172
     1
173
     1
174
     0
175
     0
176
     7
177
     7
178
     2
  0
DIMSTYLE
  2
EMBABA
 70
     0
  3

  4

  5

  6
OPEN
  7
OPEN
 40
50.0
 41
2.0
 42
0.063
 43
5.0
 44
0.2
 45
0.0
 46
0.0
 47
0.0
 48
0.0
140
2.0
141
2.0
142
0.0
143
25.399999999999999
144
1.0
145
0.0
146
1.0
147
0.5
 71
     0
 72
     0
 73
     0
 74
     0
 75
     0
 76
     0
 77
     1
 78
    12
170
     0
171
     2
172
     1
173
     1
174
     0
175
     0
176
     0
177
     0
178
     7
  0
ENDTAB
  0
ENDSEC
  0
SECTION
  2
BLOCKS
  0
BLOCK
  8
0
  2
$MODEL_SPACE
 70
     0
 10
0.0
 20
0.0
 30
0.0
  3
$MODEL_SPACE
  1

  0
ENDBLK
  5
9
  8
0
  0
BLOCK
 67
     1
  8
0
  2
$PAPER_SPACE
 70
     0
 10
0.0
 20
0.0
 30
0.0
  3
$PAPER_SPACE
  1

  0
ENDBLK
  5
E
 67
     1
  8
0
  0
BLOCK
  8
0
  2
_OPEN
 70
     0
 10
0.0
 20
0.0
 30
0.0
  3
_OPEN
  1

  0
LINE
  5
28
  8
0
  6
BYBLOCK
 62
     0
 10
-1.0
 20
0.1666666666666666
 30
0.0
 11
0.0
 21
0.0
 31
0.0
  0
LINE
  5
29
  8
0
  6
BYBLOCK
 62
     0
 10
0.0
 20
0.0
 30
0.0
 11
-1.0
 21
-0.1666666666666666
 31
0.0
  0
LINE
  5
2A
  8
0
  6
BYBLOCK
 62
     0
 10
0.0
 20
0.0
 30
0.0
 11
-1.0
 21
0.0
 31
0.0
  0
ENDBLK
  5
2C
  8
0
  0
BLOCK
  8
OSA
  2
_17
 70
     0
 10
142.88792699999999
 20
1501.4862009999999
 30
0.0
  3
_17
  1

  0
ARC
  5
6648B
  8
OBRYS
 10
100.825192
 20
1544.4862009999999
 30
0.0
 40
6.0
 50
47.630395000000107
 51
90.000000000000185
  0
LINE
  5
6648C
  8
OBRYS
 10
43.887933999999987
 20
1550.4862009999999
 30
0.0
 11
100.825192
 21
1550.4862009999999
 31
0.0
  0
ARC
  5
6648D
  8
OBRYS
 10
100.825192
 20
1544.4862009999999
 30
0.0
 40
6.0
 50
47.630395000000107
 51
90.000000000000185
  0
ARC
  5
6648E
  8
OBRYS
 10
43.887933999999987
 20
1544.4862009999999
 30
0.0
 40
6.0
 50
90.000000000000185
 51
180.0000000000004
  0
LINE
  5
6648F
  8
OBRYS
 10
37.887934000000001
 20
1511.4862009999999
 30
0.0
 11
37.887934000000001
 21
1544.4862009999999
 31
0.0
  0
ARC
  5
66490
  8
OBRYS
 10
132.58304699999999
 20
1522.4862009999999
 30
0.0
 40
3.0
 50
90.000000000000185
 51
164.64944100000031
  0
LINE
  5
66491
  8
OBRYS
 10
37.887934000000001
 20
1511.4862009999999
 30
0.0
 11
37.887934000000001
 21
1501.4862009999999
 31
0.0
  0
LINE
  5
66492
  8
OBRYS
 10
142.88792699999999
 20
1501.4862009999999
 30
0.0
 11
37.887934000000001
 21
1501.4862009999999
 31
0.0
  0
LINE
  5
66493
  8
OBRYS
 10
101.85950200000001
 20
1550.396379
 30
0.0
 11
101.85950200000001
 21
1503.4862009999999
 31
0.0
  0
LINE
  5
66494
  8
OBRYS
 10
129.69007400000001
 20
1523.2803730000001
 30
0.0
 11
126.50886800000001
 21
1511.6920279999999
 31
0.0
  0
ARC
  5
66495
  8
OBRYS
 10
123.61589600000001
 20
1512.4862009999999
 30
0.0
 40
3.0
 50
270.00000000000063
 51
344.64944100000082
  0
LINE
  5
66496
  8
OBRYS
 10
104.868655
 20
1548.9190779999999
 30
0.0
 11
129.699263
 21
1526.2697619999999
 31
0.0
  0
ARC
  5
66497
  8
OBRYS
 10
131.72099499999999
 20
1528.4862009999999
 30
0.0
 40
3.0
 50
227.6303950000005
 51
270.00000000000063
  0
LINE
  5
66498
  8
OBRYS
 10
142.88792699999999
 20
1527.4862009999999
 30
0.0
 11
128.36567299999999
 21
1527.4862009999999
 31
0.0
  0
LINE
  5
66499
  8
OBRYS
 10
142.88792699999999
 20
1525.4862009999999
 30
0.0
 11
131.72099499999999
 21
1525.4862009999999
 31
0.0
  0
LINE
  5
6649A
  8
OBRYS
 10
142.88792699999999
 20
1509.4862009999999
 30
0.0
 11
101.85950200000001
 21
1509.4862009999999
 31
0.0
  0
LINE
  5
6649B
  8
OBRYS
 10
142.88792699999999
 20
1503.4862009999999
 30
0.0
 11
37.887934000000001
 21
1503.4862009999999
 31
0.0
  0
LINE
  5
6649C
  8
OBRYS
 10
142.88792699999999
 20
1503.4862009999999
 30
0.0
 11
247.88792000000001
 21
1503.4862009999999
 31
0.0
  0
LINE
  5
6649D
  8
OBRYS
 10
142.88792699999999
 20
1509.4862009999999
 30
0.0
 11
183.9163519999999
 21
1509.4862009999999
 31
0.0
  0
LINE
  5
6649E
  8
OBRYS
 10
142.88792699999999
 20
1525.4862009999999
 30
0.0
 11
154.05485899999999
 21
1525.4862009999999
 31
0.0
  0
LINE
  5
6649F
  8
OBRYS
 10
142.88792699999999
 20
1527.4862009999999
 30
0.0
 11
157.41018199999999
 21
1527.4862009999999
 31
0.0
  0
ARC
  5
664A0
  8
OBRYS
 10
154.05485899999999
 20
1528.4862009999999
 30
0.0
 40
3.0
 50
270.00000000000063
 51
312.36960500000072
  0
LINE
  5
664A1
  8
OBRYS
 10
180.90719899999991
 20
1548.9190779999999
 30
0.0
 11
156.07659100000001
 21
1526.2697619999999
 31
0.0
  0
ARC
  5
664A2
  8
OBRYS
 10
162.15995899999999
 20
1512.4862009999999
 30
0.0
 40
3.0
 50
195.3505590000004
 51
270.00000000000063
  0
LINE
  5
664A3
  8
OBRYS
 10
156.08578
 20
1523.2803730000001
 30
0.0
 11
159.266986
 21
1511.6920279999999
 31
0.0
  0
LINE
  5
664A4
  8
OBRYS
 10
183.9163519999999
 20
1550.396379
 30
0.0
 11
183.9163519999999
 21
1503.4862009999999
 31
0.0
  0
LINE
  5
664A5
  8
OSA
 10
142.88792699999999
 20
1531.6959400000001
 30
0.0
 11
142.88792699999999
 21
1501.4862009999999
 31
0.0
  0
LINE
  5
664A6
  8
OBRYS
 10
142.88792699999999
 20
1501.4862009999999
 30
0.0
 11
247.88792000000001
 21
1501.4862009999999
 31
0.0
  0
LINE
  5
664A7
  8
OBRYS
 10
247.88792000000001
 20
1511.4862009999999
 30
0.0
 11
247.88792000000001
 21
1501.4862009999999
 31
0.0
  0
ARC
  5
664A8
  8
OBRYS
 10
153.19280699999999
 20
1522.4862009999999
 30
0.0
 40
3.0
 50
15.350559000000031
 51
90.000000000000185
  0
LINE
  5
664A9
  8
OBRYS
 10
247.88792000000001
 20
1511.4862009999999
 30
0.0
 11
247.88792000000001
 21
1544.4862009999999
 31
0.0
  0
ARC
  5
664AA
  8
OBRYS
 10
241.88792000000001
 20
1544.4862009999999
 30
0.0
 40
6.0
 50
0.0
 51
90.000000000000185
  0
ARC
  5
664AB
  8
OBRYS
 10
184.95066199999999
 20
1544.4862009999999
 30
0.0
 40
6.0
 50
90.000000000000185
 51
132.36960500000029
  0
LINE
  5
664AC
  8
OBRYS
 10
241.88792000000001
 20
1550.4862009999999
 30
0.0
 11
184.95066199999999
 21
1550.4862009999999
 31
0.0
  0
ARC
  5
664AD
  8
OBRYS
 10
184.95066199999999
 20
1544.4862009999999
 30
0.0
 40
6.0
 50
90.000000000000185
 51
132.36960500000029
  0
CIRCLE
  5
664AE
  8
OBRYS
 10
62.887926999999998
 20
1533.4862009999999
 30
0.0
 40
6.5
  0
LINE
  5
664AF
  8
OSA
 10
62.887926999999998
 20
1533.4862009999999
 30
0.0
 11
46.387926999999991
 21
1533.4862009999999
 31
0.0
  0
LINE
  5
664B0
  8
OSA
 10
62.887926999999998
 20
1533.4862009999999
 30
0.0
 11
79.387927000000005
 21
1533.4862009999999
 31
0.0
  0
LINE
  5
664B1
  8
OSA
 10
62.887926999999998
 20
1533.4862009999999
 30
0.0
 11
62.887926999999998
 21
1549.9862009999999
 31
0.0
  0
LINE
  5
664B2
  8
OSA
 10
62.887926999999998
 20
1533.4862009999999
 30
0.0
 11
62.887926999999998
 21
1516.9862009999999
 31
0.0
  0
LINE
  5
664B3
  8
OSA
 10
222.88792699999999
 20
1533.4862009999999
 30
0.0
 11
222.88792699999999
 21
1516.9862009999999
 31
0.0
  0
LINE
  5
664B4
  8
OSA
 10
222.88792699999999
 20
1533.4862009999999
 30
0.0
 11
222.88792699999999
 21
1549.9862009999999
 31
0.0
  0
LINE
  5
664B5
  8
OSA
 10
222.88792699999999
 20
1533.4862009999999
 30
0.0
 11
206.38792699999999
 21
1533.4862009999999
 31
0.0
  0
LINE
  5
664B6
  8
OSA
 10
222.88792699999999
 20
1533.4862009999999
 30
0.0
 11
239.38792699999999
 21
1533.4862009999999
 31
0.0
  0
CIRCLE
  5
664B7
  8
OBRYS
 10
222.88792699999999
 20
1533.4862009999999
 30
0.0
 40
6.5
  0
ENDBLK
  5
664B8
  8
OSA
  0
BLOCK
  8
OBRYS
  2
SROUB_M8X25_18
 70
     2
 10
524.25270699999999
 20
962.94628399999999
 30
0.0
  3
SROUB_M8X25_18
  1

  0
LINE
  5
664BB
  8
OBRYS
 10
396.25270699999999
 20
957.24628399999995
 30
0.0
 11
396.25270699999999
 21
968.64628400000004
 31
0.0
  0
LINE
  5
664BC
  8
OBRYS
 10
397.052707
 20
956.44628399999999
 30
0.0
 11
404.25270699999999
 21
956.44628399999999
 31
0.0
  0
LINE
  5
664BD
  8
OBRYS
 10
404.25270699999999
 20
956.44628399999999
 30
0.0
 11
404.25270699999999
 21
969.44628399999988
 31
0.0
  0
LINE
  5
664BE
  8
OBRYS
 10
404.25270699999999
 20
969.44628399999988
 30
0.0
 11
397.052707
 21
969.44628399999988
 31
0.0
  0
ARC
  5
664BF
  8
OBRYS
 10
397.052707
 20
957.24628399999995
 30
0.0
 40
0.8
 50
180.0000000000004
 51
270.00000000000063
  0
ARC
  5
664C0
  8
OBRYS
 10
397.052707
 20
968.64628400000004
 30
0.0
 40
0.8
 50
90.000000000000185
 51
180.0000000000004
  0
LINE
  5
664C1
  8
OBRYS
  6
DOT
 62
     7
 10
396.25270699999999
 20
959.48216000000014
 30
0.0
 11
399.58604000000003
 21
959.48216000000014
 31
0.0
  0
LINE
  5
664C2
  8
OBRYS
  6
DOT
 62
     7
 10
396.25270699999999
 20
961.21422199999995
 30
0.0
 11
399.58604000000003
 21
961.21422199999995
 31
0.0
  0
LINE
  5
664C3
  8
OBRYS
  6
DOT
 62
     7
 10
396.25270699999999
 20
964.67834500000004
 30
0.0
 11
399.58604000000003
 21
964.67834500000004
 31
0.0
  0
LINE
  5
664C4
  8
OBRYS
  6
DOT
 62
     7
 10
396.25270699999999
 20
966.41040699999996
 30
0.0
 11
399.58604000000003
 21
966.41040699999996
 31
0.0
  0
ARC
  5
664C5
  8
OBRYS
  6
DOT
 62
     7
 10
396.02353299999999
 20
960.34819100000016
 30
0.0
 40
0.8958399999999999
 50
284.8221670000006
 51
75.177833000000177
  0
ARC
  5
664C6
  8
OBRYS
  6
DOT
 62
     7
 10
394.33601199999998
 20
962.94628399999999
 30
0.0
 40
2.583361
 50
317.89679100000069
 51
42.103209000000092
  0
ARC
  5
664C7
  8
OBRYS
  6
DOT
 62
     7
 10
396.02353299999999
 20
965.54437600000006
 30
0.0
 40
0.8958399999999999
 50
284.8221670000006
 51
75.177833000000177
  0
ARC
  5
664C8
  8
OBRYS
  6
DOT
 62
     7
 10
399.35686600000002
 20
960.34819100000016
 30
0.0
 40
0.8958399999999999
 50
284.8221670000006
 51
75.177833000000177
  0
ARC
  5
664C9
  8
OBRYS
  6
DOT
 62
     7
 10
397.66934500000002
 20
962.94628399999999
 30
0.0
 40
2.583361
 50
317.89679100000069
 51
42.103209000000092
  0
ARC
  5
664CA
  8
OBRYS
  6
DOT
 62
     7
 10
399.35686600000002
 20
965.54437600000006
 30
0.0
 40
0.8958399999999999
 50
284.8221670000006
 51
75.177833000000177
  0
LINE
  5
664CB
  8
OBRYS
  6
DOT
 62
     7
 10
400.25270699999999
 20
960.34819100000016
 30
0.0
 11
401.98476799999992
 21
962.94628399999999
 31
0.0
  0
LINE
  5
664CC
  8
OBRYS
  6
DOT
 62
     7
 10
401.98476799999992
 20
962.94628399999999
 30
0.0
 11
400.25270699999999
 21
965.54437600000006
 31
0.0
  0
ENDBLK
  5
664CD
  8
OBRYS
  0
BLOCK
  8
OBRYS
  2
SROUB_M8X25_19
 70
     2
 10
524.25270699999999
 20
1030.1214210000001
 30
0.0
  3
SROUB_M8X25_19
  1

  0
LINE
  5
664D0
  8
OBRYS
 10
396.25270699999999
 20
1035.8214210000001
 30
0.0
 11
396.25270699999999
 21
1024.421421
 31
0.0
  0
LINE
  5
664D1
  8
OBRYS
 10
397.052707
 20
1036.6214210000001
 30
0.0
 11
404.25270699999999
 21
1036.6214210000001
 31
0.0
  0
LINE
  5
664D2
  8
OBRYS
 10
404.25270699999999
 20
1036.6214210000001
 30
0.0
 11
404.25270699999999
 21
1023.6214210000001
 31
0.0
  0
LINE
  5
664D3
  8
OBRYS
 10
404.25270699999999
 20
1023.6214210000001
 30
0.0
 11
397.052707
 21
1023.6214210000001
 31
0.0
  0
ARC
  5
664D4
  8
OBRYS
 10
397.052707
 20
1035.8214210000001
 30
0.0
 40
0.8
 50
90.000000000000185
 51
180.0000000000004
  0
ARC
  5
664D5
  8
OBRYS
 10
397.052707
 20
1024.421421
 30
0.0
 40
0.8
 50
180.0000000000004
 51
270.00000000000063
  0
LINE
  5
664D6
  8
OBRYS
  6
DOT
 62
     7
 10
396.25270699999999
 20
1033.585544
 30
0.0
 11
399.58604000000003
 21
1033.585544
 31
0.0
  0
LINE
  5
664D7
  8
OBRYS
  6
DOT
 62
     7
 10
396.25270699999999
 20
1031.8534830000001
 30
0.0
 11
399.58604000000003
 21
1031.8534830000001
 31
0.0
  0
LINE
  5
664D8
  8
OBRYS
  6
DOT
 62
     7
 10
396.25270699999999
 20
1028.389359
 30
0.0
 11
399.58604000000003
 21
1028.389359
 31
0.0
  0
LINE
  5
664D9
  8
OBRYS
  6
DOT
 62
     7
 10
396.25270699999999
 20
1026.6572980000001
 30
0.0
 11
399.58604000000003
 21
1026.6572980000001
 31
0.0
  0
ARC
  5
664DA
  8
OBRYS
  6
DOT
 62
     7
 10
396.02353299999999
 20
1032.719513
 30
0.0
 40
0.8958399999999999
 50
284.8221670000006
 51
75.177833000000177
  0
ARC
  5
664DB
  8
OBRYS
  6
DOT
 62
     7
 10
394.33601199999998
 20
1030.1214210000001
 30
0.0
 40
2.583361
 50
317.89679100000069
 51
42.103209000000092
  0
ARC
  5
664DC
  8
OBRYS
  6
DOT
 62
     7
 10
396.02353299999999
 20
1027.5233290000001
 30
0.0
 40
0.8958399999999999
 50
284.8221670000006
 51
75.177833000000177
  0
ARC
  5
664DD
  8
OBRYS
  6
DOT
 62
     7
 10
399.35686600000002
 20
1032.719513
 30
0.0
 40
0.8958399999999999
 50
284.8221670000006
 51
75.177833000000177
  0
ARC
  5
664DE
  8
OBRYS
  6
DOT
 62
     7
 10
397.66934500000002
 20
1030.1214210000001
 30
0.0
 40
2.583361
 50
317.89679100000069
 51
42.103209000000092
  0
ARC
  5
664DF
  8
OBRYS
  6
DOT
 62
     7
 10
399.35686600000002
 20
1027.5233290000001
 30
0.0
 40
0.8958399999999999
 50
284.8221670000006
 51
75.177833000000177
  0
LINE
  5
664E0
  8
OBRYS
  6
DOT
 62
     7
 10
400.25270699999999
 20
1032.719513
 30
0.0
 11
401.98476799999992
 21
1030.1214210000001
 31
0.0
  0
LINE
  5
664E1
  8
OBRYS
  6
DOT
 62
     7
 10
401.98476799999992
 20
1030.1214210000001
 30
0.0
 11
400.25270699999999
 21
1027.5233290000001
 31
0.0
  0
ENDBLK
  5
664E2
  8
OBRYS
  0
BLOCK
  8
OBRYS
  2
SROUB_M6X20_20
 70
     2
 10
504.95590099999998
 20
1153.6214210000001
 30
0.0
  3
SROUB_M6X20_20
  1

  0
LINE
  5
664E5
  8
OBRYS
 10
504.95589299999989
 20
1150.7346649999999
 30
0.0
 11
507.45590900000002
 21
1152.17805
 31
0.0
  0
LINE
  5
664E6
  8
OBRYS
 10
507.45590900000002
 20
1152.17805
 30
0.0
 11
507.45591599999989
 21
1155.0648060000001
 31
0.0
  0
LINE
  5
664E7
  8
OBRYS
 10
507.45591599999989
 20
1155.0648060000001
 30
0.0
 11
504.95590900000002
 21
1156.5081769999999
 31
0.0
  0
LINE
  5
664E8
  8
OBRYS
 10
504.95590900000002
 20
1156.5081769999999
 30
0.0
 11
502.455893
 21
1155.0647919999999
 31
0.0
  0
LINE
  5
664E9
  8
OBRYS
 10
502.455893
 20
1155.0647919999999
 30
0.0
 11
502.45588500000002
 21
1152.178036
 31
0.0
  0
LINE
  5
664EA
  8
OBRYS
 10
502.45588500000002
 20
1152.178036
 30
0.0
 11
504.95589299999989
 21
1150.7346649999999
 31
0.0
  0
CIRCLE
  5
664EB
  8
OBRYS
 10
504.95590099999998
 20
1153.6214210000001
 30
0.0
 40
2.8867690000000001
  0
CIRCLE
  5
664EC
  8
OBRYS
 10
504.95590099999998
 20
1153.6214210000001
 30
0.0
 40
5.0
  0
ENDBLK
  5
664ED
  8
OBRYS
  0
BLOCK
  8
OBRYS
  2
SROUB_M6X20_21
 70
     2
 10
504.95590099999998
 20
1106.6214210000001
 30
0.0
  3
SROUB_M6X20_21
  1

  0
LINE
  5
664F0
  8
OBRYS
 10
502.455893
 20
1105.17805
 30
0.0
 11
504.95590900000002
 21
1103.7346649999999
 31
0.0
  0
LINE
  5
664F1
  8
OBRYS
 10
504.95590900000002
 20
1103.7346649999999
 30
0.0
 11
507.45591599999989
 21
1105.178036
 31
0.0
  0
LINE
  5
664F2
  8
OBRYS
 10
507.45591599999989
 20
1105.178036
 30
0.0
 11
507.45590900000002
 21
1108.0647919999999
 31
0.0
  0
LINE
  5
664F3
  8
OBRYS
 10
507.45590900000002
 20
1108.0647919999999
 30
0.0
 11
504.95589299999989
 21
1109.5081769999999
 31
0.0
  0
LINE
  5
664F4
  8
OBRYS
 10
504.95589299999989
 20
1109.5081769999999
 30
0.0
 11
502.45588500000002
 21
1108.0648060000001
 31
0.0
  0
LINE
  5
664F5
  8
OBRYS
 10
502.45588500000002
 20
1108.0648060000001
 30
0.0
 11
502.455893
 21
1105.17805
 31
0.0
  0
CIRCLE
  5
664F6
  8
OBRYS
 10
504.95590099999998
 20
1106.6214210000001
 30
0.0
 40
2.8867690000000001
  0
CIRCLE
  5
664F7
  8
OBRYS
 10
504.95590099999998
 20
1106.6214210000001
 30
0.0
 40
5.0
  0
ENDBLK
  5
664F8
  8
OBRYS
  0
BLOCK
  8
OBRYS
  2
SROUB_M6X20_22
 70
     2
 10
423.54951299999999
 20
1106.6214210000001
 30
0.0
  3
SROUB_M6X20_22
  1

  0
LINE
  5
664FB
  8
OBRYS
 10
426.04952100000003
 20
1105.17805
 30
0.0
 11
423.5495049999999
 21
1103.7346649999999
 31
0.0
  0
LINE
  5
664FC
  8
OBRYS
 10
423.5495049999999
 20
1103.7346649999999
 30
0.0
 11
421.04949699999997
 21
1105.178036
 31
0.0
  0
LINE
  5
664FD
  8
OBRYS
 10
421.04949699999997
 20
1105.178036
 30
0.0
 11
421.04950500000001
 21
1108.0647919999999
 31
0.0
  0
LINE
  5
664FE
  8
OBRYS
 10
421.04950500000001
 20
1108.0647919999999
 30
0.0
 11
423.54952100000003
 21
1109.5081769999999
 31
0.0
  0
LINE
  5
664FF
  8
OBRYS
 10
423.54952100000003
 20
1109.5081769999999
 30
0.0
 11
426.0495279999999
 21
1108.0648060000001
 31
0.0
  0
LINE
  5
66500
  8
OBRYS
 10
426.0495279999999
 20
1108.0648060000001
 30
0.0
 11
426.04952100000003
 21
1105.17805
 31
0.0
  0
CIRCLE
  5
66501
  8
OBRYS
 10
423.54951299999999
 20
1106.6214210000001
 30
0.0
 40
2.8867690000000001
  0
CIRCLE
  5
66502
  8
OBRYS
 10
423.54951299999999
 20
1106.6214210000001
 30
0.0
 40
5.0
  0
ENDBLK
  5
66503
  8
OBRYS
  0
BLOCK
  8
OBRYS
  2
SROUB_M6X20_23
 70
     2
 10
423.54951299999999
 20
1153.6214210000001
 30
0.0
  3
SROUB_M6X20_23
  1

  0
LINE
  5
66506
  8
OBRYS
 10
423.54952100000003
 20
1150.7346649999999
 30
0.0
 11
421.04950500000001
 21
1152.17805
 31
0.0
  0
LINE
  5
66507
  8
OBRYS
 10
421.04950500000001
 20
1152.17805
 30
0.0
 11
421.04949699999997
 21
1155.0648060000001
 31
0.0
  0
LINE
  5
66508
  8
OBRYS
 10
421.04949699999997
 20
1155.0648060000001
 30
0.0
 11
423.5495049999999
 21
1156.5081769999999
 31
0.0
  0
LINE
  5
66509
  8
OBRYS
 10
423.5495049999999
 20
1156.5081769999999
 30
0.0
 11
426.04952100000003
 21
1155.0647919999999
 31
0.0
  0
LINE
  5
6650A
  8
OBRYS
 10
426.04952100000003
 20
1155.0647919999999
 30
0.0
 11
426.0495279999999
 21
1152.178036
 31
0.0
  0
LINE
  5
6650B
  8
OBRYS
 10
426.0495279999999
 20
1152.178036
 30
0.0
 11
423.54952100000003
 21
1150.7346649999999
 31
0.0
  0
CIRCLE
  5
6650C
  8
OBRYS
 10
423.54951299999999
 20
1153.6214210000001
 30
0.0
 40
2.8867690000000001
  0
CIRCLE
  5
6650D
  8
OBRYS
 10
423.54951299999999
 20
1153.6214210000001
 30
0.0
 40
5.0
  0
ENDBLK
  5
6650E
  8
OBRYS
  0
BLOCK
  8
OBRYS
  2
SROUB_M8X25_24
 70
     2
 10
404.25270699999999
 20
1030.1214210000001
 30
0.0
  3
SROUB_M8X25_24
  1

  0
LINE
  5
66511
  8
OBRYS
 10
532.25270699999987
 20
1035.8214210000001
 30
0.0
 11
532.25270699999987
 21
1024.421421
 31
0.0
  0
LINE
  5
66512
  8
OBRYS
 10
531.45270700000003
 20
1036.6214210000001
 30
0.0
 11
524.25270699999999
 21
1036.6214210000001
 31
0.0
  0
LINE
  5
66513
  8
OBRYS
 10
524.25270699999999
 20
1036.6214210000001
 30
0.0
 11
524.25270699999999
 21
1023.6214210000001
 31
0.0
  0
LINE
  5
66514
  8
OBRYS
 10
524.25270699999999
 20
1023.6214210000001
 30
0.0
 11
531.45270700000003
 21
1023.6214210000001
 31
0.0
  0
ARC
  5
66515
  8
OBRYS
 10
531.45270700000003
 20
1035.8214210000001
 30
0.0
 40
0.8
 50
0.0
 51
90.000000000000185
  0
ARC
  5
66516
  8
OBRYS
 10
531.45270700000003
 20
1024.421421
 30
0.0
 40
0.8
 50
270.00000000000063
 51
360.0000000000008
  0
LINE
  5
66517
  8
OBRYS
  6
DOT
 62
     7
 10
532.25270699999987
 20
1033.585544
 30
0.0
 11
528.91937299999995
 21
1033.585544
 31
0.0
  0
LINE
  5
66518
  8
OBRYS
  6
DOT
 62
     7
 10
532.25270699999987
 20
1031.8534830000001
 30
0.0
 11
528.91937299999995
 21
1031.8534830000001
 31
0.0
  0
LINE
  5
66519
  8
OBRYS
  6
DOT
 62
     7
 10
532.25270699999987
 20
1028.389359
 30
0.0
 11
528.91937299999995
 21
1028.389359
 31
0.0
  0
LINE
  5
6651A
  8
OBRYS
  6
DOT
 62
     7
 10
532.25270699999987
 20
1026.6572980000001
 30
0.0
 11
528.91937299999995
 21
1026.6572980000001
 31
0.0
  0
ARC
  5
6651B
  8
OBRYS
  6
DOT
 62
     7
 10
532.48188000000005
 20
1032.719513
 30
0.0
 40
0.8958399999999999
 50
104.82216700000021
 51
255.17783300000059
  0
ARC
  5
6651C
  8
OBRYS
  6
DOT
 62
     7
 10
534.16940199999999
 20
1030.1214210000001
 30
0.0
 40
2.583361
 50
137.89679100000029
 51
222.1032090000005
  0
ARC
  5
6651D
  8
OBRYS
  6
DOT
 62
     7
 10
532.48188000000005
 20
1027.5233290000001
 30
0.0
 40
0.8958399999999999
 50
104.82216700000021
 51
255.17783300000059
  0
ARC
  5
6651E
  8
OBRYS
  6
DOT
 62
     7
 10
529.14854700000001
 20
1032.719513
 30
0.0
 40
0.8958399999999999
 50
104.82216700000021
 51
255.17783300000059
  0
ARC
  5
6651F
  8
OBRYS
  6
DOT
 62
     7
 10
530.83606799999995
 20
1030.1214210000001
 30
0.0
 40
2.583361
 50
137.89679100000029
 51
222.1032090000005
  0
ARC
  5
66520
  8
OBRYS
  6
DOT
 62
     7
 10
529.14854700000001
 20
1027.5233290000001
 30
0.0
 40
0.8958399999999999
 50
104.82216700000021
 51
255.17783300000059
  0
LINE
  5
66521
  8
OBRYS
  6
DOT
 62
     7
 10
528.25270699999987
 20
1032.719513
 30
0.0
 11
526.52064499999994
 21
1030.1214210000001
 31
0.0
  0
LINE
  5
66522
  8
OBRYS
  6
DOT
 62
     7
 10
526.52064499999994
 20
1030.1214210000001
 30
0.0
 11
528.25270699999987
 21
1027.5233290000001
 31
0.0
  0
ENDBLK
  5
66523
  8
OBRYS
  0
BLOCK
  8
OBRYS
  2
SROUB_M8X25_25
 70
     2
 10
404.25270699999999
 20
962.94628399999999
 30
0.0
  3
SROUB_M8X25_25
  1

  0
LINE
  5
66526
  8
OBRYS
 10
532.25270699999987
 20
957.24628399999995
 30
0.0
 11
532.25270699999987
 21
968.64628400000004
 31
0.0
  0
LINE
  5
66527
  8
OBRYS
 10
531.45270700000003
 20
956.44628399999999
 30
0.0
 11
524.25270699999999
 21
956.44628399999999
 31
0.0
  0
LINE
  5
66528
  8
OBRYS
 10
524.25270699999999
 20
956.44628399999999
 30
0.0
 11
524.25270699999999
 21
969.44628399999988
 31
0.0
  0
LINE
  5
66529
  8
OBRYS
 10
524.25270699999999
 20
969.44628399999988
 30
0.0
 11
531.45270700000003
 21
969.44628399999988
 31
0.0
  0
ARC
  5
6652A
  8
OBRYS
 10
531.45270700000003
 20
957.24628399999995
 30
0.0
 40
0.8
 50
270.00000000000063
 51
360.0000000000008
  0
ARC
  5
6652B
  8
OBRYS
 10
531.45270700000003
 20
968.64628400000004
 30
0.0
 40
0.8
 50
0.0
 51
90.000000000000185
  0
LINE
  5
6652C
  8
OBRYS
  6
DOT
 62
     7
 10
532.25270699999987
 20
959.48216000000014
 30
0.0
 11
528.91937299999995
 21
959.48216000000014
 31
0.0
  0
LINE
  5
6652D
  8
OBRYS
  6
DOT
 62
     7
 10
532.25270699999987
 20
961.21422199999995
 30
0.0
 11
528.91937299999995
 21
961.21422199999995
 31
0.0
  0
LINE
  5
6652E
  8
OBRYS
  6
DOT
 62
     7
 10
532.25270699999987
 20
964.67834500000004
 30
0.0
 11
528.91937299999995
 21
964.67834500000004
 31
0.0
  0
LINE
  5
6652F
  8
OBRYS
  6
DOT
 62
     7
 10
532.25270699999987
 20
966.41040699999996
 30
0.0
 11
528.91937299999995
 21
966.41040699999996
 31
0.0
  0
ARC
  5
66530
  8
OBRYS
  6
DOT
 62
     7
 10
532.48188000000005
 20
960.34819100000016
 30
0.0
 40
0.8958399999999999
 50
104.82216700000021
 51
255.17783300000059
  0
ARC
  5
66531
  8
OBRYS
  6
DOT
 62
     7
 10
534.16940199999999
 20
962.94628399999999
 30
0.0
 40
2.583361
 50
137.89679100000029
 51
222.1032090000005
  0
ARC
  5
66532
  8
OBRYS
  6
DOT
 62
     7
 10
532.48188000000005
 20
965.54437600000006
 30
0.0
 40
0.8958399999999999
 50
104.82216700000021
 51
255.17783300000059
  0
ARC
  5
66533
  8
OBRYS
  6
DOT
 62
     7
 10
529.14854700000001
 20
960.34819100000016
 30
0.0
 40
0.8958399999999999
 50
104.82216700000021
 51
255.17783300000059
  0
ARC
  5
66534
  8
OBRYS
  6
DOT
 62
     7
 10
530.83606799999995
 20
962.94628399999999
 30
0.0
 40
2.583361
 50
137.89679100000029
 51
222.1032090000005
  0
ARC
  5
66535
  8
OBRYS
  6
DOT
 62
     7
 10
529.14854700000001
 20
965.54437600000006
 30
0.0
 40
0.8958399999999999
 50
104.82216700000021
 51
255.17783300000059
  0
LINE
  5
66536
  8
OBRYS
  6
DOT
 62
     7
 10
528.25270699999987
 20
960.34819100000016
 30
0.0
 11
526.52064499999994
 21
962.94628399999999
 31
0.0
  0
LINE
  5
66537
  8
OBRYS
  6
DOT
 62
     7
 10
526.52064499999994
 20
962.94628399999999
 30
0.0
 11
528.25270699999987
 21
965.54437600000006
 31
0.0
  0
ENDBLK
  5
66538
  8
OBRYS
  0
BLOCK
  8
OBRYS
  2
_26
 70
     0
 10
11.887926999999999
 20
1451.4862009999999
 30
0.0
  3
_26
  1

  0
LINE
  5
6653B
  8
OBRYS
 10
-292.905866
 20
1362.738795
 30
0.0
 11
-292.905866
 21
1540.233637
 31
0.0
  0
LINE
  5
6653C
  8
OSA
 10
71.887927000000005
 20
1451.4862009999999
 30
0.0
 11
-311.11204199999997
 21
1451.4862009999999
 31
0.0
  0
LINE
  5
6653D
  8
OBRYS
 10
-12.533521
 20
1359.0388740000001
 30
0.0
 11
-27.112072999999999
 21
1358.2748360000001
 31
0.0
  0
LINE
  5
6653E
  8
OBRYS
 10
11.887926999999999
 20
1373.178461
 30
0.0
 11
-11.112073000000001
 21
1373.178461
 31
0.0
  0
ARC
  5
6653F
  8
OBRYS
 10
-12.612073000000001
 20
1360.536799
 30
0.0
 40
1.5
 50
273.00000000000063
 51
360.0000000000008
  0
LINE
  5
66540
  8
OBRYS
 10
11.887926999999999
 20
1378.4862009999999
 30
0.0
 11
-7.5301640000000001
 21
1376.445277
 31
0.0
  0
ARC
  5
66541
  8
OBRYS
 10
-7.1120729999999988
 20
1372.4671880000001
 30
0.0
 40
4.0
 50
96.000000000000213
 51
180.0000000000004
  0
LINE
  5
66542
  8
OBRYS
 10
-27.112072999999999
 20
1363.4862009999999
 30
0.0
 11
-28.112072999999999
 21
1363.4862009999999
 31
0.0
  0
LINE
  5
66543
  8
OBRYS
 10
-12.612073000000001
 20
1442.9862009999999
 30
0.0
 11
-28.112072999999999
 21
1442.9862009999999
 31
0.0
  0
ARC
  5
66544
  8
OBRYS
 10
-12.612073000000001
 20
1444.4862009999999
 30
0.0
 40
1.5
 50
270.00000000000063
 51
360.0000000000008
  0
LINE
  5
66545
  8
OBRYS
 10
-12.612073000000001
 20
1459.9862009999999
 30
0.0
 11
-28.112072999999999
 21
1459.9862009999999
 31
0.0
  0
ARC
  5
66546
  8
OBRYS
 10
-12.612073000000001
 20
1458.4862009999999
 30
0.0
 40
1.5
 50
0.0
 51
90.000000000000185
  0
LINE
  5
66547
  8
OBRYS
 10
11.887926999999999
 20
1524.4862009999999
 30
0.0
 11
-7.5301640000000001
 21
1526.5271250000001
 31
0.0
  0
LINE
  5
66548
  8
OBRYS
 10
11.887926999999999
 20
1529.79394
 30
0.0
 11
-11.112073000000001
 21
1529.79394
 31
0.0
  0
ARC
  5
66549
  8
OBRYS
 10
-7.1120729999999988
 20
1530.5052129999999
 30
0.0
 40
4.0
 50
180.0000000000004
 51
264.00000000000063
  0
LINE
  5
6654A
  8
OBRYS
 10
-27.112072999999999
 20
1539.4862009999999
 30
0.0
 11
-28.112072999999999
 21
1539.4862009999999
 31
0.0
  0
LINE
  5
6654B
  8
OBRYS
 10
-12.533521
 20
1543.9335579999999
 30
0.0
 11
-27.112072999999999
 21
1544.697596
 31
0.0
  0
ARC
  5
6654C
  8
OBRYS
 10
-12.612073000000001
 20
1542.435602
 30
0.0
 40
1.5
 50
0.0
 51
87.000000000000185
  0
LINE
  5
6654D
  8
OBRYS
 10
-11.112073000000001
 20
1542.435602
 30
0.0
 11
-11.112073000000001
 21
1451.4862009999999
 31
0.0
  0
LINE
  5
6654E
  8
OBRYS
 10
-28.112072999999999
 20
1539.4862009999999
 30
0.0
 11
-28.112072999999999
 21
1451.4862009999999
 31
0.0
  0
LINE
  5
6654F
  8
OBRYS
 10
11.887926999999999
 20
1529.79394
 30
0.0
 11
11.887926999999999
 21
1451.4862009999999
 31
0.0
  0
LINE
  5
66550
  8
OBRYS
 10
-27.112072999999999
 20
1544.7499949999999
 30
0.0
 11
-27.112072999999999
 21
1451.4862009999999
 31
0.0
  0
LINE
  5
66551
  8
OBRYS
 10
11.887926999999999
 20
1373.178461
 30
0.0
 11
11.887926999999999
 21
1451.4862009999999
 31
0.0
  0
LINE
  5
66552
  8
OBRYS
 10
-28.112072999999999
 20
1363.4862009999999
 30
0.0
 11
-28.112072999999999
 21
1451.4862009999999
 31
0.0
  0
LINE
  5
66553
  8
OBRYS
 10
-27.112072999999999
 20
1358.2224369999999
 30
0.0
 11
-27.112072999999999
 21
1451.4862009999999
 31
0.0
  0
LINE
  5
66554
  8
OBRYS
 10
-11.112073000000001
 20
1360.536799
 30
0.0
 11
-11.112073000000001
 21
1451.4862009999999
 31
0.0
  0
LINE
  5
66555
  8
OBRYS
 10
-209.112042
 20
1545.5074709999999
 30
0.0
 11
-123.112073
 21
1545.5074709999999
 31
0.0
  0
LINE
  5
66556
  8
OBRYS
 10
-209.112042
 20
1549.1847170000001
 30
0.0
 11
-123.112073
 21
1549.1847170000001
 31
0.0
  0
LINE
  5
66557
  8
OBRYS
 10
-209.112042
 20
1550.4862009999999
 30
0.0
 11
-123.112073
 21
1550.4862009999999
 31
0.0
  0
LINE
  5
66558
  8
OBRYS
 10
-208.82136299999999
 20
1529.460566
 30
0.0
 11
-123.112073
 21
1529.460566
 31
0.0
  0
LINE
  5
66559
  8
OBRYS
 10
-208.82136299999999
 20
1539.150324
 30
0.0
 11
-123.112073
 21
1539.150324
 31
0.0
  0
LINE
  5
6655A
  8
OBRYS
 10
-209.112042
 20
1508.683863
 30
0.0
 11
-123.112073
 21
1508.683863
 31
0.0
  0
LINE
  5
6655B
  8
OBRYS
 10
-209.112042
 20
1505.288538
 30
0.0
 11
-123.112073
 21
1505.288538
 31
0.0
  0
LINE
  5
6655C
  8
OBRYS
 10
-209.112042
 20
1503.9256539999999
 30
0.0
 11
-123.112073
 21
1503.9256539999999
 31
0.0
  0
LINE
  5
6655D
  8
OBRYS
 10
-209.112042
 20
1495.5467470000001
 30
0.0
 11
-123.112073
 21
1495.5467470000001
 31
0.0
  0
LINE
  5
6655E
  8
OBRYS
 10
-209.112042
 20
1494.183863
 30
0.0
 11
-123.112073
 21
1494.183863
 31
0.0
  0
LINE
  5
6655F
  8
OBRYS
 10
-209.112042
 20
1490.788538
 30
0.0
 11
-123.112073
 21
1490.788538
 31
0.0
  0
LINE
  5
66560
  8
OBRYS
 10
-209.112042
 20
1489.4256539999999
 30
0.0
 11
-123.112073
 21
1489.4256539999999
 31
0.0
  0
LINE
  5
66561
  8
OBRYS
 10
-209.112042
 20
1481.0467470000001
 30
0.0
 11
-123.112073
 21
1481.0467470000001
 31
0.0
  0
LINE
  5
66562
  8
OBRYS
 10
-209.112042
 20
1479.683863
 30
0.0
 11
-123.112073
 21
1479.683863
 31
0.0
  0
LINE
  5
66563
  8
OBRYS
 10
-209.112042
 20
1476.288538
 30
0.0
 11
-123.112073
 21
1476.288538
 31
0.0
  0
LINE
  5
66564
  8
OBRYS
 10
-209.112042
 20
1474.9256539999999
 30
0.0
 11
-123.112073
 21
1474.9256539999999
 31
0.0
  0
LINE
  5
66565
  8
OBRYS
 10
-209.112042
 20
1466.0467470000001
 30
0.0
 11
-123.112073
 21
1466.0467470000001
 31
0.0
  0
LINE
  5
66566
  8
OBRYS
 10
-209.112042
 20
1464.683863
 30
0.0
 11
-123.112073
 21
1464.683863
 31
0.0
  0
LINE
  5
66567
  8
OBRYS
 10
-209.112042
 20
1461.288538
 30
0.0
 11
-123.112073
 21
1461.288538
 31
0.0
  0
LINE
  5
66568
  8
OBRYS
 10
-209.112042
 20
1459.9256539999999
 30
0.0
 11
-123.112073
 21
1459.9256539999999
 31
0.0
  0
LINE
  5
66569
  8
OBRYS
 10
-208.82136299999999
 20
1363.822077
 30
0.0
 11
-123.112073
 21
1363.822077
 31
0.0
  0
LINE
  5
6656A
  8
OBRYS
 10
-209.112042
 20
1353.7876839999999
 30
0.0
 11
-123.112073
 21
1353.7876839999999
 31
0.0
  0
LINE
  5
6656B
  8
OBRYS
 10
-209.112042
 20
1357.4649300000001
 30
0.0
 11
-123.112073
 21
1357.4649300000001
 31
0.0
  0
LINE
  5
6656C
  8
OBRYS
 10
-208.82136299999999
 20
1373.5118660000001
 30
0.0
 11
-123.112073
 21
1373.5118660000001
 31
0.0
  0
LINE
  5
6656D
  8
OBRYS
 10
-209.112042
 20
1412.183863
 30
0.0
 11
-123.112073
 21
1412.183863
 31
0.0
  0
LINE
  5
6656E
  8
OBRYS
 10
-209.112042
 20
1408.788538
 30
0.0
 11
-123.112073
 21
1408.788538
 31
0.0
  0
LINE
  5
6656F
  8
OBRYS
 10
-209.112042
 20
1407.4256539999999
 30
0.0
 11
-123.112073
 21
1407.4256539999999
 31
0.0
  0
LINE
  5
66570
  8
OBRYS
 10
-209.112042
 20
1397.683863
 30
0.0
 11
-123.112073
 21
1397.683863
 31
0.0
  0
LINE
  5
66571
  8
OBRYS
 10
-209.112042
 20
1399.0467470000001
 30
0.0
 11
-123.112073
 21
1399.0467470000001
 31
0.0
  0
LINE
  5
66572
  8
OBRYS
 10
-209.112042
 20
1394.288538
 30
0.0
 11
-123.112073
 21
1394.288538
 31
0.0
  0
LINE
  5
66573
  8
OBRYS
 10
-209.112042
 20
1352.4862009999999
 30
0.0
 11
-123.112073
 21
1352.4862009999999
 31
0.0
  0
LINE
  5
66574
  8
OBRYS
 10
-209.112042
 20
1443.0467470000001
 30
0.0
 11
-123.112073
 21
1443.0467470000001
 31
0.0
  0
LINE
  5
66575
  8
OBRYS
 10
-209.112042
 20
1441.683863
 30
0.0
 11
-123.112073
 21
1441.683863
 31
0.0
  0
LINE
  5
66576
  8
OBRYS
 10
-209.112042
 20
1438.288538
 30
0.0
 11
-123.112073
 21
1438.288538
 31
0.0
  0
LINE
  5
66577
  8
OBRYS
 10
-209.112042
 20
1436.9256539999999
 30
0.0
 11
-123.112073
 21
1436.9256539999999
 31
0.0
  0
LINE
  5
66578
  8
OBRYS
 10
-209.112042
 20
1428.0467470000001
 30
0.0
 11
-123.112073
 21
1428.0467470000001
 31
0.0
  0
LINE
  5
66579
  8
OBRYS
 10
-209.112042
 20
1426.683863
 30
0.0
 11
-123.112073
 21
1426.683863
 31
0.0
  0
LINE
  5
6657A
  8
OBRYS
 10
-209.112042
 20
1423.288538
 30
0.0
 11
-123.112073
 21
1423.288538
 31
0.0
  0
LINE
  5
6657B
  8
OBRYS
 10
-209.112042
 20
1421.9256539999999
 30
0.0
 11
-123.112073
 21
1421.9256539999999
 31
0.0
  0
LINE
  5
6657C
  8
OBRYS
 10
-209.112042
 20
1413.5467470000001
 30
0.0
 11
-123.112073
 21
1413.5467470000001
 31
0.0
  0
LINE
  5
6657D
  8
OBRYS
 10
-32.112073000000002
 20
1392.9256539999999
 30
0.0
 11
-37.112073000000002
 21
1394.288538
 31
0.0
  0
LINE
  5
6657E
  8
OBRYS
 10
-37.112073000000002
 20
1424.9862009999999
 30
0.0
 11
-37.112073000000002
 21
1423.288538
 31
0.0
  0
LINE
  5
6657F
  8
OBRYS
 10
-32.112073000000002
 20
1424.9862009999999
 30
0.0
 11
-32.112073000000002
 21
1421.9256539999999
 31
0.0
  0
LINE
  5
66580
  8
OBRYS
 10
-32.112073000000002
 20
1443.0467470000001
 30
0.0
 11
-37.112073000000002
 21
1441.683863
 31
0.0
  0
LINE
  5
66581
  8
OBRYS
 10
-32.112073000000002
 20
1436.9256539999999
 30
0.0
 11
-37.112073000000002
 21
1438.288538
 31
0.0
  0
LINE
  5
66582
  8
OBRYS
 10
-32.112073000000002
 20
1428.0467470000001
 30
0.0
 11
-37.112073000000002
 21
1426.683863
 31
0.0
  0
LINE
  5
66583
  8
OBRYS
 10
-32.112073000000002
 20
1439.9862009999999
 30
0.0
 11
-32.112073000000002
 21
1436.9256539999999
 31
0.0
  0
LINE
  5
66584
  8
OBRYS
 10
-32.112073000000002
 20
1439.9862009999999
 30
0.0
 11
-32.112073000000002
 21
1443.0467470000001
 31
0.0
  0
LINE
  5
66585
  8
OBRYS
 10
-32.112073000000002
 20
1424.9862009999999
 30
0.0
 11
-32.112073000000002
 21
1428.0467470000001
 31
0.0
  0
LINE
  5
66586
  8
OBRYS
 10
-37.112073000000002
 20
1439.9862009999999
 30
0.0
 11
-37.112073000000002
 21
1438.288538
 31
0.0
  0
LINE
  5
66587
  8
OBRYS
 10
-37.112073000000002
 20
1439.9862009999999
 30
0.0
 11
-37.112073000000002
 21
1441.683863
 31
0.0
  0
LINE
  5
66588
  8
OBRYS
 10
-37.112073000000002
 20
1424.9862009999999
 30
0.0
 11
-37.112073000000002
 21
1426.683863
 31
0.0
  0
LINE
  5
66589
  8
OBRYS
 10
-32.112073000000002
 20
1421.9256539999999
 30
0.0
 11
-37.112073000000002
 21
1423.288538
 31
0.0
  0
LINE
  5
6658A
  8
OBRYS
 10
-32.112073000000002
 20
1407.4256539999999
 30
0.0
 11
-37.112073000000002
 21
1408.788538
 31
0.0
  0
LINE
  5
6658B
  8
OBRYS
 10
-32.112073000000002
 20
1413.5467470000001
 30
0.0
 11
-37.112073000000002
 21
1412.183863
 31
0.0
  0
LINE
  5
6658C
  8
OBRYS
 10
-32.112073000000002
 20
1399.0467470000001
 30
0.0
 11
-37.112073000000002
 21
1397.683863
 31
0.0
  0
LINE
  5
6658D
  8
OBRYS
 10
-32.112073000000002
 20
1410.4862009999999
 30
0.0
 11
-32.112073000000002
 21
1407.4256539999999
 31
0.0
  0
LINE
  5
6658E
  8
OBRYS
 10
-32.112073000000002
 20
1410.4862009999999
 30
0.0
 11
-32.112073000000002
 21
1413.5467470000001
 31
0.0
  0
LINE
  5
6658F
  8
OBRYS
 10
-37.112073000000002
 20
1410.4862009999999
 30
0.0
 11
-37.112073000000002
 21
1408.788538
 31
0.0
  0
LINE
  5
66590
  8
OBRYS
 10
-37.112073000000002
 20
1410.4862009999999
 30
0.0
 11
-37.112073000000002
 21
1412.183863
 31
0.0
  0
LINE
  5
66591
  8
OBRYS
 10
-37.112073000000002
 20
1395.9862009999999
 30
0.0
 11
-37.112073000000002
 21
1397.683863
 31
0.0
  0
LINE
  5
66592
  8
OBRYS
 10
-28.112072999999999
 20
1441.4587349999999
 30
0.0
 11
-32.112073000000002
 21
1441.4587349999999
 31
0.0
  0
LINE
  5
66593
  8
OBRYS
 10
-28.112072999999999
 20
1442.7587229999999
 30
0.0
 11
-32.112073000000002
 21
1442.7587229999999
 31
0.0
  0
LINE
  5
66594
  8
OBRYS
 10
-32.112073000000002
 20
1395.9862009999999
 30
0.0
 11
-32.112073000000002
 21
1392.9256539999999
 31
0.0
  0
LINE
  5
66595
  8
OBRYS
 10
-32.112073000000002
 20
1392.9256539999999
 30
0.0
 11
-32.112073000000002
 21
1399.0467470000001
 31
0.0
  0
LINE
  5
66596
  8
OBRYS
 10
-37.112073000000002
 20
1395.9862009999999
 30
0.0
 11
-37.112073000000002
 21
1394.288538
 31
0.0
  0
LINE
  5
66597
  8
OBRYS
 10
-32.112073000000002
 20
1428.0467470000001
 30
0.0
 11
-123.112073
 21
1428.0467470000001
 31
0.0
  0
LINE
  5
66598
  8
OBRYS
 10
-37.112073000000002
 20
1426.683863
 30
0.0
 11
-123.112073
 21
1426.683863
 31
0.0
  0
LINE
  5
66599
  8
OBRYS
 10
-32.112073000000002
 20
1421.9256539999999
 30
0.0
 11
-123.112073
 21
1421.9256539999999
 31
0.0
  0
LINE
  5
6659A
  8
OBRYS
 10
-37.112073000000002
 20
1423.288538
 30
0.0
 11
-123.112073
 21
1423.288538
 31
0.0
  0
LINE
  5
6659B
  8
OBRYS
 10
-37.112073000000002
 20
1412.183863
 30
0.0
 11
-123.112073
 21
1412.183863
 31
0.0
  0
LINE
  5
6659C
  8
OBRYS
 10
-32.112073000000002
 20
1413.5467470000001
 30
0.0
 11
-123.112073
 21
1413.5467470000001
 31
0.0
  0
LINE
  5
6659D
  8
OBRYS
 10
-37.112073000000002
 20
1408.788538
 30
0.0
 11
-123.112073
 21
1408.788538
 31
0.0
  0
LINE
  5
6659E
  8
OBRYS
 10
-32.112073000000002
 20
1407.4256539999999
 30
0.0
 11
-123.112073
 21
1407.4256539999999
 31
0.0
  0
LINE
  5
6659F
  8
OBRYS
 10
-32.112073000000002
 20
1399.0467470000001
 30
0.0
 11
-123.112073
 21
1399.0467470000001
 31
0.0
  0
LINE
  5
665A0
  8
OBRYS
 10
-37.112073000000002
 20
1397.683863
 30
0.0
 11
-123.112073
 21
1397.683863
 31
0.0
  0
LINE
  5
665A1
  8
OBRYS
 10
-37.112073000000002
 20
1394.288538
 30
0.0
 11
-123.112073
 21
1394.288538
 31
0.0
  0
LINE
  5
665A2
  8
OBRYS
 10
-32.112073000000002
 20
1443.0467470000001
 30
0.0
 11
-123.112073
 21
1443.0467470000001
 31
0.0
  0
LINE
  5
665A3
  8
OBRYS
 10
-37.112073000000002
 20
1441.683863
 30
0.0
 11
-123.112073
 21
1441.683863
 31
0.0
  0
LINE
  5
665A4
  8
OBRYS
 10
-37.112073000000002
 20
1438.288538
 30
0.0
 11
-123.112073
 21
1438.288538
 31
0.0
  0
LINE
  5
665A5
  8
OBRYS
 10
-32.112073000000002
 20
1436.9256539999999
 30
0.0
 11
-123.112073
 21
1436.9256539999999
 31
0.0
  0
LINE
  5
665A6
  8
OBRYS
 10
-45.523327999999999
 20
1443.0467470000001
 30
0.0
 11
-45.523327999999999
 21
1451.4862009999999
 31
0.0
  0
LINE
  5
665A7
  8
OBRYS
 10
-48.523327999999999
 20
1443.0467470000001
 30
0.0
 11
-48.523327999999999
 21
1451.4862009999999
 31
0.0
  0
LINE
  5
665A8
  8
OBRYS
 10
-48.523327999999999
 20
1459.9256539999999
 30
0.0
 11
-48.523327999999999
 21
1451.4862009999999
 31
0.0
  0
LINE
  5
665A9
  8
OBRYS
 10
-45.523327999999999
 20
1459.9256539999999
 30
0.0
 11
-45.523327999999999
 21
1451.4862009999999
 31
0.0
  0
LINE
  5
665AA
  8
OBRYS
 10
-28.112072999999999
 20
1460.213679
 30
0.0
 11
-32.112073000000002
 21
1460.213679
 31
0.0
  0
LINE
  5
665AB
  8
OBRYS
 10
-28.112072999999999
 20
1461.5136660000001
 30
0.0
 11
-32.112073000000002
 21
1461.5136660000001
 31
0.0
  0
LINE
  5
665AC
  8
OBRYS
 10
-37.112073000000002
 20
1492.4862009999999
 30
0.0
 11
-37.112073000000002
 21
1490.788538
 31
0.0
  0
LINE
  5
665AD
  8
OBRYS
 10
-32.112073000000002
 20
1492.4862009999999
 30
0.0
 11
-32.112073000000002
 21
1489.4256539999999
 31
0.0
  0
LINE
  5
665AE
  8
OBRYS
 10
-32.112073000000002
 20
1489.4256539999999
 30
0.0
 11
-37.112073000000002
 21
1490.788538
 31
0.0
  0
LINE
  5
665AF
  8
OBRYS
 10
-32.112073000000002
 20
1481.0467470000001
 30
0.0
 11
-37.112073000000002
 21
1479.683863
 31
0.0
  0
LINE
  5
665B0
  8
OBRYS
 10
-37.112073000000002
 20
1477.9862009999999
 30
0.0
 11
-37.112073000000002
 21
1476.288538
 31
0.0
  0
LINE
  5
665B1
  8
OBRYS
 10
-37.112073000000002
 20
1462.9862009999999
 30
0.0
 11
-37.112073000000002
 21
1461.288538
 31
0.0
  0
LINE
  5
665B2
  8
OBRYS
 10
-37.112073000000002
 20
1462.9862009999999
 30
0.0
 11
-37.112073000000002
 21
1464.683863
 31
0.0
  0
LINE
  5
665B3
  8
OBRYS
 10
-32.112073000000002
 20
1477.9862009999999
 30
0.0
 11
-32.112073000000002
 21
1474.9256539999999
 31
0.0
  0
LINE
  5
665B4
  8
OBRYS
 10
-32.112073000000002
 20
1462.9862009999999
 30
0.0
 11
-32.112073000000002
 21
1459.9256539999999
 31
0.0
  0
LINE
  5
665B5
  8
OBRYS
 10
-32.112073000000002
 20
1462.9862009999999
 30
0.0
 11
-32.112073000000002
 21
1466.0467470000001
 31
0.0
  0
LINE
  5
665B6
  8
OBRYS
 10
-32.112073000000002
 20
1474.9256539999999
 30
0.0
 11
-37.112073000000002
 21
1476.288538
 31
0.0
  0
LINE
  5
665B7
  8
OBRYS
 10
-32.112073000000002
 20
1466.0467470000001
 30
0.0
 11
-37.112073000000002
 21
1464.683863
 31
0.0
  0
LINE
  5
665B8
  8
OBRYS
 10
-32.112073000000002
 20
1459.9256539999999
 30
0.0
 11
-37.112073000000002
 21
1461.288538
 31
0.0
  0
LINE
  5
665B9
  8
OBRYS
 10
-32.112073000000002
 20
1477.9862009999999
 30
0.0
 11
-32.112073000000002
 21
1481.0467470000001
 31
0.0
  0
LINE
  5
665BA
  8
OBRYS
 10
-37.112073000000002
 20
1477.9862009999999
 30
0.0
 11
-37.112073000000002
 21
1479.683863
 31
0.0
  0
LINE
  5
665BB
  8
OBRYS
 10
-37.112073000000002
 20
1506.9862009999999
 30
0.0
 11
-37.112073000000002
 21
1508.683863
 31
0.0
  0
LINE
  5
665BC
  8
OBRYS
 10
-32.112073000000002
 20
1506.9862009999999
 30
0.0
 11
-32.112073000000002
 21
1510.0467470000001
 31
0.0
  0
LINE
  5
665BD
  8
OBRYS
 10
-32.112073000000002
 20
1510.0467470000001
 30
0.0
 11
-32.112073000000002
 21
1503.9256539999999
 31
0.0
  0
LINE
  5
665BE
  8
OBRYS
 10
-37.112073000000002
 20
1506.9862009999999
 30
0.0
 11
-37.112073000000002
 21
1505.288538
 31
0.0
  0
LINE
  5
665BF
  8
OBRYS
 10
-32.112073000000002
 20
1503.9256539999999
 30
0.0
 11
-37.112073000000002
 21
1505.288538
 31
0.0
  0
LINE
  5
665C0
  8
OBRYS
 10
-32.112073000000002
 20
1495.5467470000001
 30
0.0
 11
-37.112073000000002
 21
1494.183863
 31
0.0
  0
LINE
  5
665C1
  8
OBRYS
 10
-32.112073000000002
 20
1510.0467470000001
 30
0.0
 11
-37.112073000000002
 21
1508.683863
 31
0.0
  0
LINE
  5
665C2
  8
OBRYS
 10
-37.112073000000002
 20
1492.4862009999999
 30
0.0
 11
-37.112073000000002
 21
1494.183863
 31
0.0
  0
LINE
  5
665C3
  8
OBRYS
 10
-32.112073000000002
 20
1492.4862009999999
 30
0.0
 11
-32.112073000000002
 21
1495.5467470000001
 31
0.0
  0
LINE
  5
665C4
  8
OBRYS
 10
-37.112073000000002
 20
1508.683863
 30
0.0
 11
-123.112073
 21
1508.683863
 31
0.0
  0
LINE
  5
665C5
  8
OBRYS
 10
-37.112073000000002
 20
1505.288538
 30
0.0
 11
-123.112073
 21
1505.288538
 31
0.0
  0
LINE
  5
665C6
  8
OBRYS
 10
-32.112073000000002
 20
1503.9256539999999
 30
0.0
 11
-123.112073
 21
1503.9256539999999
 31
0.0
  0
LINE
  5
665C7
  8
OBRYS
 10
-37.112073000000002
 20
1494.183863
 30
0.0
 11
-123.112073
 21
1494.183863
 31
0.0
  0
LINE
  5
665C8
  8
OBRYS
 10
-32.112073000000002
 20
1495.5467470000001
 30
0.0
 11
-123.112073
 21
1495.5467470000001
 31
0.0
  0
LINE
  5
665C9
  8
OBRYS
 10
-37.112073000000002
 20
1490.788538
 30
0.0
 11
-123.112073
 21
1490.788538
 31
0.0
  0
LINE
  5
665CA
  8
OBRYS
 10
-32.112073000000002
 20
1489.4256539999999
 30
0.0
 11
-123.112073
 21
1489.4256539999999
 31
0.0
  0
LINE
  5
665CB
  8
OBRYS
 10
-32.112073000000002
 20
1481.0467470000001
 30
0.0
 11
-123.112073
 21
1481.0467470000001
 31
0.0
  0
LINE
  5
665CC
  8
OBRYS
 10
-37.112073000000002
 20
1479.683863
 30
0.0
 11
-123.112073
 21
1479.683863
 31
0.0
  0
LINE
  5
665CD
  8
OBRYS
 10
-37.112073000000002
 20
1476.288538
 30
0.0
 11
-123.112073
 21
1476.288538
 31
0.0
  0
LINE
  5
665CE
  8
OBRYS
 10
-32.112073000000002
 20
1474.9256539999999
 30
0.0
 11
-123.112073
 21
1474.9256539999999
 31
0.0
  0
LINE
  5
665CF
  8
OBRYS
 10
-37.112073000000002
 20
1464.683863
 30
0.0
 11
-123.112073
 21
1464.683863
 31
0.0
  0
LINE
  5
665D0
  8
OBRYS
 10
-37.112073000000002
 20
1461.288538
 30
0.0
 11
-123.112073
 21
1461.288538
 31
0.0
  0
LINE
  5
665D1
  8
OBRYS
 10
-32.112073000000002
 20
1459.9256539999999
 30
0.0
 11
-123.112073
 21
1459.9256539999999
 31
0.0
  0
LINE
  5
665D2
  8
OBRYS
 10
-32.112073000000002
 20
1466.0467470000001
 30
0.0
 11
-123.112073
 21
1466.0467470000001
 31
0.0
  0
LINE
  5
665D3
  8
OBRYS
 10
-209.112042
 20
1395.9862009999999
 30
0.0
 11
-209.112042
 21
1397.683863
 31
0.0
  0
LINE
  5
665D4
  8
OBRYS
 10
-209.112042
 20
1410.4862009999999
 30
0.0
 11
-209.112042
 21
1412.183863
 31
0.0
  0
LINE
  5
665D5
  8
OBRYS
 10
-209.112042
 20
1410.4862009999999
 30
0.0
 11
-209.112042
 21
1408.788538
 31
0.0
  0
LINE
  5
665D6
  8
OBRYS
 10
-209.112042
 20
1424.9862009999999
 30
0.0
 11
-209.112042
 21
1426.683863
 31
0.0
  0
LINE
  5
665D7
  8
OBRYS
 10
-209.112042
 20
1439.9862009999999
 30
0.0
 11
-209.112042
 21
1441.683863
 31
0.0
  0
LINE
  5
665D8
  8
OBRYS
 10
-209.112042
 20
1439.9862009999999
 30
0.0
 11
-209.112042
 21
1438.288538
 31
0.0
  0
LINE
  5
665D9
  8
OBRYS
 10
-209.112042
 20
1424.9862009999999
 30
0.0
 11
-209.112042
 21
1423.288538
 31
0.0
  0
LINE
  5
665DA
  8
OBRYS
 10
-209.112042
 20
1395.9862009999999
 30
0.0
 11
-209.112042
 21
1394.288538
 31
0.0
  0
LINE
  5
665DB
  8
OBRYS
 10
-37.402721999999997
 20
1373.5118660000001
 30
0.0
 11
-123.112073
 21
1373.5118660000001
 31
0.0
  0
LINE
  5
665DC
  8
OBRYS
 10
-37.112073000000002
 20
1357.4649300000001
 30
0.0
 11
-123.112073
 21
1357.4649300000001
 31
0.0
  0
LINE
  5
665DD
  8
OBRYS
 10
-37.112073000000002
 20
1353.7876839999999
 30
0.0
 11
-123.112073
 21
1353.7876839999999
 31
0.0
  0
LINE
  5
665DE
  8
OBRYS
 10
-37.112073000000002
 20
1352.4862009999999
 30
0.0
 11
-123.112073
 21
1352.4862009999999
 31
0.0
  0
LINE
  5
665DF
  8
OBRYS
 10
-37.402721999999997
 20
1363.822077
 30
0.0
 11
-123.112073
 21
1363.822077
 31
0.0
  0
LINE
  5
665E0
  8
OBRYS
 10
-32.112073000000002
 20
1392.9256539999999
 30
0.0
 11
-35.41267100000001
 21
1374.748163
 31
0.0
  0
LINE
  5
665E1
  8
OBRYS
 10
-32.112073000000002
 20
1370.5011239999999
 30
0.0
 11
-32.715893999999999
 21
1370.5011239999999
 31
0.0
  0
LINE
  5
665E2
  8
OBRYS
 10
-32.112073000000002
 20
1373.522639
 30
0.0
 11
-33.125318
 21
1373.522639
 31
0.0
  0
LINE
  5
665E3
  8
OBRYS
 10
-32.112073000000002
 20
1379.1231330000001
 30
0.0
 11
-32.684460999999999
 21
1379.1231330000001
 31
0.0
  0
LINE
  5
665E4
  8
OBRYS
 10
-32.112073000000002
 20
1382.0779970000001
 30
0.0
 11
-33.504345999999998
 21
1382.0779970000001
 31
0.0
  0
ARC
  5
665E5
  8
OBRYS
 10
-37.057873999999998
 20
1375.176508
 30
0.0
 40
1.7
 50
258.29437300000058
 51
345.40676900000079
  0
ARC
  5
665E6
  8
OBRYS
 10
-37.057873999999998
 20
1365.486719
 30
0.0
 40
1.7
 50
258.29437300000058
 51
349.03604100000081
  0
ARC
  5
665E7
  8
OBRYS
 10
-37.456921999999999
 20
1359.1295720000001
 30
0.0
 40
1.7
 50
281.70564100000058
 51
349.74478900000082
  0
LINE
  5
665E8
  8
OBRYS
 10
-32.112073000000002
 20
1373.522639
 30
0.0
 11
-35.789929000000001
 21
1355.1191960000001
 31
0.0
  0
ARC
  5
665E9
  8
OBRYS
 10
-37.456921999999999
 20
1354.1508429999999
 30
0.0
 40
1.7
 50
281.70564100000058
 51
347.56907700000079
  0
LINE
  5
665EA
  8
OBRYS
 10
-32.112073000000002
 20
1370.5011239999999
 30
0.0
 11
-35.796826000000003
 21
1353.784907
 31
0.0
  0
ARC
  5
665EB
  8
OBRYS
 10
-37.456921999999999
 20
1355.4523260000001
 30
0.0
 40
1.7
 50
281.70564100000058
 51
348.69851700000078
  0
LINE
  5
665EC
  8
OBRYS
 10
-32.112073000000002
 20
1382.0779970000001
 30
0.0
 11
-35.388866999999998
 21
1365.1633859999999
 31
0.0
  0
LINE
  5
665ED
  8
OBRYS
 10
-32.112073000000002
 20
1379.1231330000001
 30
0.0
 11
-35.784131000000009
 21
1358.8269290000001
 31
0.0
  0
LINE
  5
665EE
  8
OBRYS
 10
-32.112073000000002
 20
1395.9862009999999
 30
0.0
 11
-32.112073000000002
 21
1392.9256539999999
 31
0.0
  0
LINE
  5
665EF
  8
OBRYS
 10
-28.112072999999999
 20
1442.7587229999999
 30
0.0
 11
-32.112073000000002
 21
1442.7587229999999
 31
0.0
  0
LINE
  5
665F0
  8
OBRYS
 10
-28.112072999999999
 20
1441.4587349999999
 30
0.0
 11
-32.112073000000002
 21
1441.4587349999999
 31
0.0
  0
LINE
  5
665F1
  8
OBRYS
 10
-28.112072999999999
 20
1362.4862009999999
 30
0.0
 11
-34.026502000000001
 21
1362.4862009999999
 31
0.0
  0
LINE
  5
665F2
  8
OBRYS
 10
-209.112042
 20
1477.9862009999999
 30
0.0
 11
-209.112042
 21
1479.683863
 31
0.0
  0
LINE
  5
665F3
  8
OBRYS
 10
-209.112042
 20
1462.9862009999999
 30
0.0
 11
-209.112042
 21
1464.683863
 31
0.0
  0
LINE
  5
665F4
  8
OBRYS
 10
-209.112042
 20
1462.9862009999999
 30
0.0
 11
-209.112042
 21
1461.288538
 31
0.0
  0
LINE
  5
665F5
  8
OBRYS
 10
-209.112042
 20
1477.9862009999999
 30
0.0
 11
-209.112042
 21
1476.288538
 31
0.0
  0
LINE
  5
665F6
  8
OBRYS
 10
-209.112042
 20
1492.4862009999999
 30
0.0
 11
-209.112042
 21
1490.788538
 31
0.0
  0
LINE
  5
665F7
  8
OBRYS
 10
-200.70078799999999
 20
1459.9256539999999
 30
0.0
 11
-200.70078799999999
 21
1451.4862009999999
 31
0.0
  0
LINE
  5
665F8
  8
OBRYS
 10
-197.70078799999999
 20
1459.9256539999999
 30
0.0
 11
-197.70078799999999
 21
1451.4862009999999
 31
0.0
  0
LINE
  5
665F9
  8
OBRYS
 10
-209.112042
 20
1506.9862009999999
 30
0.0
 11
-209.112042
 21
1505.288538
 31
0.0
  0
LINE
  5
665FA
  8
OBRYS
 10
-209.112042
 20
1506.9862009999999
 30
0.0
 11
-209.112042
 21
1508.683863
 31
0.0
  0
LINE
  5
665FB
  8
OBRYS
 10
-209.112042
 20
1492.4862009999999
 30
0.0
 11
-209.112042
 21
1494.183863
 31
0.0
  0
LINE
  5
665FC
  8
OBRYS
 10
-37.402721999999997
 20
1539.150324
 30
0.0
 11
-123.112073
 21
1539.150324
 31
0.0
  0
LINE
  5
665FD
  8
OBRYS
 10
-37.402721999999997
 20
1529.460566
 30
0.0
 11
-123.112073
 21
1529.460566
 31
0.0
  0
LINE
  5
665FE
  8
OBRYS
 10
-32.112073000000002
 20
1520.894434
 30
0.0
 11
-35.388866999999998
 21
1537.8090159999999
 31
0.0
  0
ARC
  5
665FF
  8
OBRYS
 10
-37.057873999999998
 20
1537.485682
 30
0.0
 40
1.7
 50
10.96395900000002
 51
101.70564300000019
  0
ARC
  5
66600
  8
OBRYS
 10
-37.057873999999998
 20
1527.795924
 30
0.0
 40
1.7
 50
14.59323100000003
 51
101.70564300000019
  0
LINE
  5
66601
  8
OBRYS
 10
-32.112073000000002
 20
1520.894434
 30
0.0
 11
-33.504345999999998
 21
1520.894434
 31
0.0
  0
LINE
  5
66602
  8
OBRYS
 10
-32.112073000000002
 20
1523.8492679999999
 30
0.0
 11
-32.684460999999999
 21
1523.8492679999999
 31
0.0
  0
LINE
  5
66603
  8
OBRYS
 10
-32.112073000000002
 20
1529.449793
 30
0.0
 11
-33.125318
 21
1529.449793
 31
0.0
  0
LINE
  5
66604
  8
OBRYS
 10
-32.112073000000002
 20
1532.4713079999999
 30
0.0
 11
-32.715893999999999
 21
1532.4713079999999
 31
0.0
  0
LINE
  5
66605
  8
OBRYS
 10
-32.112073000000002
 20
1506.9862009999999
 30
0.0
 11
-32.112073000000002
 21
1510.0467470000001
 31
0.0
  0
LINE
  5
66606
  8
OBRYS
 10
-32.112073000000002
 20
1510.0467470000001
 30
0.0
 11
-35.41267100000001
 21
1528.224238
 31
0.0
  0
LINE
  5
66607
  8
OBRYS
 10
-32.112073000000002
 20
1510.0467470000001
 30
0.0
 11
-32.112073000000002
 21
1451.4862009999999
 31
0.0
  0
LINE
  5
66608
  8
OBRYS
 10
-28.112072999999999
 20
1540.4862009999999
 30
0.0
 11
-28.112072999999999
 21
1451.4862009999999
 31
0.0
  0
LINE
  5
66609
  8
OBRYS
 10
-28.112072999999999
 20
1540.4862009999999
 30
0.0
 11
-34.026502000000001
 21
1540.4862009999999
 31
0.0
  0
LINE
  5
6660A
  8
OBRYS
 10
-28.112072999999999
 20
1461.5136660000001
 30
0.0
 11
-32.112073000000002
 21
1461.5136660000001
 31
0.0
  0
LINE
  5
6660B
  8
OBRYS
 10
-28.112072999999999
 20
1460.213679
 30
0.0
 11
-32.112073000000002
 21
1460.213679
 31
0.0
  0
LINE
  5
6660C
  8
OBRYS
 10
-37.112073000000002
 20
1550.4862009999999
 30
0.0
 11
-123.112073
 21
1550.4862009999999
 31
0.0
  0
LINE
  5
6660D
  8
OBRYS
 10
-37.112073000000002
 20
1549.1847170000001
 30
0.0
 11
-123.112073
 21
1549.1847170000001
 31
0.0
  0
LINE
  5
6660E
  8
OBRYS
 10
-37.112073000000002
 20
1545.5074709999999
 30
0.0
 11
-123.112073
 21
1545.5074709999999
 31
0.0
  0
ARC
  5
6660F
  8
OBRYS
 10
-37.456921999999999
 20
1547.5200749999999
 30
0.0
 40
1.7
 50
11.301483000000021
 51
78.294357000000176
  0
ARC
  5
66610
  8
OBRYS
 10
-37.456921999999999
 20
1548.8215580000001
 30
0.0
 40
1.7
 50
12.430923000000019
 51
78.294357000000176
  0
ARC
  5
66611
  8
OBRYS
 10
-37.456921999999999
 20
1543.8428289999999
 30
0.0
 40
1.7
 50
10.255211000000021
 51
78.294357000000176
  0
LINE
  5
66612
  8
OBRYS
 10
-32.112073000000002
 20
1523.8492679999999
 30
0.0
 11
-35.784131000000009
 21
1544.1455020000001
 31
0.0
  0
LINE
  5
66613
  8
OBRYS
 10
-32.112073000000002
 20
1532.4713079999999
 30
0.0
 11
-35.796826000000003
 21
1549.1874949999999
 31
0.0
  0
LINE
  5
66614
  8
OBRYS
 10
-32.112073000000002
 20
1529.449793
 30
0.0
 11
-35.789929000000001
 21
1547.8532359999999
 31
0.0
  0
LINE
  5
66615
  8
OBRYS
 10
-197.70078799999999
 20
1443.0467470000001
 30
0.0
 11
-197.70078799999999
 21
1451.4862009999999
 31
0.0
  0
LINE
  5
66616
  8
OBRYS
 10
-200.70078799999999
 20
1443.0467470000001
 30
0.0
 11
-200.70078799999999
 21
1451.4862009999999
 31
0.0
  0
LINE
  5
66617
  8
OBRYS
 10
-32.112073000000002
 20
1392.9256539999999
 30
0.0
 11
-32.112073000000002
 21
1451.4862009999999
 31
0.0
  0
LINE
  5
66618
  8
OBRYS
 10
-28.112072999999999
 20
1362.4862009999999
 30
0.0
 11
-28.112072999999999
 21
1451.4862009999999
 31
0.0
  0
ARC
  5
66619
  8
OBRYS
 10
-297.14851099999998
 20
1358.4961490000001
 30
0.0
 40
6.0
 50
30.000000000000071
 51
60.000000000000142
  0
LINE
  5
6661A
  8
OBRYS
 10
-289.74091800000002
 20
1357.665827
 30
0.0
 11
-291.95234399999998
 21
1361.4961490000001
 31
0.0
  0
ARC
  5
6661B
  8
OBRYS
 10
-284.54475100000002
 20
1360.665827
 30
0.0
 40
6.0
 50
210.00000000000051
 51
267.00000000000063
  0
ARC
  5
6661C
  8
OBRYS
 10
-307.11204199999997
 20
1375.7956180000001
 30
0.0
 40
4.0
 50
180.0000000000004
 51
240.00000000000051
  0
LINE
  5
6661D
  8
OBRYS
 10
-294.14851099999998
 20
1363.692286
 30
0.0
 11
-309.11204199999997
 21
1372.3315070000001
 31
0.0
  0
LINE
  5
6661E
  8
OBRYS
 10
-209.112042
 20
1352.4862009999999
 30
0.0
 11
-243.112042
 21
1352.4862009999999
 31
0.0
  0
LINE
  5
6661F
  8
OBRYS
 10
-243.112042
 20
1352.4862009999999
 30
0.0
 11
-284.85877699999998
 21
1354.6740669999999
 31
0.0
  0
LINE
  5
66620
  8
OBRYS
 10
-294.14851099999998
 20
1539.280115
 30
0.0
 11
-309.11204199999997
 21
1530.6408939999999
 31
0.0
  0
ARC
  5
66621
  8
OBRYS
 10
-307.11204199999997
 20
1527.176813
 30
0.0
 40
4.0
 50
120.0000000000002
 51
180.0000000000004
  0
ARC
  5
66622
  8
OBRYS
 10
-297.14851099999998
 20
1544.4762820000001
 30
0.0
 40
6.0
 50
300.00000000000068
 51
330.00000000000068
  0
ARC
  5
66623
  8
OBRYS
 10
-284.54475100000002
 20
1542.306574
 30
0.0
 40
6.0
 50
93.000000000000213
 51
150.00000000000031
  0
LINE
  5
66624
  8
OBRYS
 10
-289.74091800000002
 20
1545.306574
 30
0.0
 11
-291.95234399999998
 21
1541.4762820000001
 31
0.0
  0
LINE
  5
66625
  8
OBRYS
 10
-311.11204199999997
 20
1527.176813
 30
0.0
 11
-311.11204199999997
 21
1451.4862009999999
 31
0.0
  0
LINE
  5
66626
  8
OBRYS
 10
-209.112042
 20
1550.4862009999999
 30
0.0
 11
-243.112042
 21
1550.4862009999999
 31
0.0
  0
LINE
  5
66627
  8
OBRYS
 10
-209.112042
 20
1550.4862009999999
 30
0.0
 11
-209.112042
 21
1451.4862009999999
 31
0.0
  0
LINE
  5
66628
  8
OBRYS
 10
-243.112042
 20
1550.4862009999999
 30
0.0
 11
-284.85877699999998
 21
1548.2983650000001
 31
0.0
  0
LINE
  5
66629
  8
OBRYS
 10
-311.11204199999997
 20
1375.7956180000001
 30
0.0
 11
-311.11204199999997
 21
1451.4862009999999
 31
0.0
  0
LINE
  5
6662A
  8
OBRYS
 10
-209.112042
 20
1352.4862009999999
 30
0.0
 11
-209.112042
 21
1451.4862009999999
 31
0.0
  0
ENDBLK
  5
6662B
  8
OBRYS
  0
BLOCK
  8
OBRYS
  2
SROUB_M6X16_27
 70
     2
 10
260.88792699999999
 20
1494.121952
 30
0.0
  3
SROUB_M6X16_27
  1

  0
LINE
  5
6662E
  8
OBRYS
 10
264.88792699999999
 20
1498.5219520000001
 30
0.0
 11
264.88792699999999
 21
1489.7219520000001
 31
0.0
  0
LINE
  5
6662F
  8
OBRYS
 10
264.28792700000002
 20
1499.121952
 30
0.0
 11
260.88792699999999
 21
1499.121952
 31
0.0
  0
LINE
  5
66630
  8
OBRYS
 10
260.88792699999999
 20
1499.121952
 30
0.0
 11
260.88792699999999
 21
1489.121952
 31
0.0
  0
LINE
  5
66631
  8
OBRYS
 10
260.88792699999999
 20
1489.121952
 30
0.0
 11
264.28792700000002
 21
1489.121952
 31
0.0
  0
ARC
  5
66632
  8
OBRYS
 10
264.28792700000002
 20
1498.5219520000001
 30
0.0
 40
0.6
 50
0.0
 51
90.000000000000185
  0
ARC
  5
66633
  8
OBRYS
 10
264.28792700000002
 20
1489.7219520000001
 30
0.0
 40
0.6
 50
270.00000000000063
 51
360.0000000000008
  0
LINE
  5
66634
  8
OBRYS
  6
DOT
 62
     7
 10
264.88792699999999
 20
1496.431368
 30
0.0
 11
262.38792699999999
 21
1496.431368
 31
0.0
  0
LINE
  5
66635
  8
OBRYS
  6
DOT
 62
     7
 10
264.88792699999999
 20
1495.27666
 30
0.0
 11
262.38792699999999
 21
1495.27666
 31
0.0
  0
LINE
  5
66636
  8
OBRYS
  6
DOT
 62
     7
 10
264.88792699999999
 20
1492.967245
 30
0.0
 11
262.38792699999999
 21
1492.967245
 31
0.0
  0
LINE
  5
66637
  8
OBRYS
  6
DOT
 62
     7
 10
264.88792699999999
 20
1491.812537
 30
0.0
 11
262.38792699999999
 21
1491.812537
 31
0.0
  0
ARC
  5
66638
  8
OBRYS
  6
DOT
 62
     7
 10
264.97126500000002
 20
1495.854014
 30
0.0
 40
0.5833370000000001
 50
98.213565000000216
 51
261.78643500000049
  0
ARC
  5
66639
  8
OBRYS
  6
DOT
 62
     7
 10
265.97127699999999
 20
1494.121952
 30
0.0
 40
1.58335
 50
133.17381200000031
 51
226.82618800000051
  0
ARC
  5
6663A
  8
OBRYS
  6
DOT
 62
     7
 10
264.97126500000002
 20
1492.389891
 30
0.0
 40
0.5833370000000001
 50
98.213565000000216
 51
261.78643500000049
  0
ARC
  5
6663B
  8
OBRYS
  6
DOT
 62
     7
 10
262.47126500000002
 20
1495.854014
 30
0.0
 40
0.5833370000000001
 50
98.213565000000216
 51
261.78643500000049
  0
ARC
  5
6663C
  8
OBRYS
  6
DOT
 62
     7
 10
263.47127699999999
 20
1494.121952
 30
0.0
 40
1.58335
 50
133.17381200000031
 51
226.82618800000051
  0
ARC
  5
6663D
  8
OBRYS
  6
DOT
 62
     7
 10
262.47126500000002
 20
1492.389891
 30
0.0
 40
0.5833370000000001
 50
98.213565000000216
 51
261.78643500000049
  0
LINE
  5
6663E
  8
OBRYS
  6
DOT
 62
     7
 10
261.88792699999999
 20
1495.854014
 30
0.0
 11
260.73321900000002
 21
1494.121952
 31
0.0
  0
LINE
  5
6663F
  8
OBRYS
  6
DOT
 62
     7
 10
260.73321900000002
 20
1494.121952
 30
0.0
 11
261.88792699999999
 21
1492.389891
 31
0.0
  0
ENDBLK
  5
66640
  8
OBRYS
  0
BLOCK
  8
OBRYS
  2
SROUB_M6X16_29
 70
     2
 10
260.88792699999999
 20
1451.4862009999999
 30
0.0
  3
SROUB_M6X16_29
  1

  0
LINE
  5
66643
  8
OBRYS
 10
264.88792699999999
 20
1447.0862010000001
 30
0.0
 11
264.88792699999999
 21
1455.886201
 31
0.0
  0
LINE
  5
66644
  8
OBRYS
 10
264.28792700000002
 20
1446.4862009999999
 30
0.0
 11
260.88792699999999
 21
1446.4862009999999
 31
0.0
  0
LINE
  5
66645
  8
OBRYS
 10
260.88792699999999
 20
1446.4862009999999
 30
0.0
 11
260.88792699999999
 21
1456.4862009999999
 31
0.0
  0
LINE
  5
66646
  8
OBRYS
 10
260.88792699999999
 20
1456.4862009999999
 30
0.0
 11
264.28792700000002
 21
1456.4862009999999
 31
0.0
  0
ARC
  5
66647
  8
OBRYS
 10
264.28792700000002
 20
1447.0862010000001
 30
0.0
 40
0.6
 50
270.00000000000063
 51
360.0000000000008
  0
ARC
  5
66648
  8
OBRYS
 10
264.28792700000002
 20
1455.886201
 30
0.0
 40
0.6
 50
0.0
 51
90.000000000000185
  0
LINE
  5
66649
  8
OBRYS
  6
DOT
 62
     7
 10
264.88792699999999
 20
1449.1767850000001
 30
0.0
 11
262.38792699999999
 21
1449.1767850000001
 31
0.0
  0
LINE
  5
6664A
  8
OBRYS
  6
DOT
 62
     7
 10
264.88792699999999
 20
1450.3314929999999
 30
0.0
 11
262.38792699999999
 21
1450.3314929999999
 31
0.0
  0
LINE
  5
6664B
  8
OBRYS
  6
DOT
 62
     7
 10
264.88792699999999
 20
1452.6409080000001
 30
0.0
 11
262.38792699999999
 21
1452.6409080000001
 31
0.0
  0
LINE
  5
6664C
  8
OBRYS
  6
DOT
 62
     7
 10
264.88792699999999
 20
1453.7956160000001
 30
0.0
 11
262.38792699999999
 21
1453.7956160000001
 31
0.0
  0
ARC
  5
6664D
  8
OBRYS
  6
DOT
 62
     7
 10
264.97126500000002
 20
1449.7541389999999
 30
0.0
 40
0.5833370000000001
 50
98.213565000000216
 51
261.78643500000049
  0
ARC
  5
6664E
  8
OBRYS
  6
DOT
 62
     7
 10
265.97127699999999
 20
1451.4862009999999
 30
0.0
 40
1.58335
 50
133.17381200000031
 51
226.82618800000051
  0
ARC
  5
6664F
  8
OBRYS
  6
DOT
 62
     7
 10
264.97126500000002
 20
1453.2182620000001
 30
0.0
 40
0.5833370000000001
 50
98.213565000000216
 51
261.78643500000049
  0
ARC
  5
66650
  8
OBRYS
  6
DOT
 62
     7
 10
262.47126500000002
 20
1449.7541389999999
 30
0.0
 40
0.5833370000000001
 50
98.213565000000216
 51
261.78643500000049
  0
ARC
  5
66651
  8
OBRYS
  6
DOT
 62
     7
 10
263.47127699999999
 20
1451.4862009999999
 30
0.0
 40
1.58335
 50
133.17381200000031
 51
226.82618800000051
  0
ARC
  5
66652
  8
OBRYS
  6
DOT
 62
     7
 10
262.47126500000002
 20
1453.2182620000001
 30
0.0
 40
0.5833370000000001
 50
98.213565000000216
 51
261.78643500000049
  0
LINE
  5
66653
  8
OBRYS
  6
DOT
 62
     7
 10
261.88792699999999
 20
1449.7541389999999
 30
0.0
 11
260.73321900000002
 21
1451.4862009999999
 31
0.0
  0
LINE
  5
66654
  8
OBRYS
  6
DOT
 62
     7
 10
260.73321900000002
 20
1451.4862009999999
 30
0.0
 11
261.88792699999999
 21
1453.2182620000001
 31
0.0
  0
ENDBLK
  5
66655
  8
OBRYS
  0
BLOCK
  8
OBRYS
  2
SROUB_M14X30_30
 70
     2
 10
142.88792699999999
 20
1451.4862009999999
 30
0.0
  3
SROUB_M14X30_30
  1

  0
LINE
  5
66658
  8
OBRYS
 10
136.88792699999999
 20
1454.9503239999999
 30
0.0
 11
136.88792699999999
 21
1448.0220770000001
 31
0.0
  0
LINE
  5
66659
  8
OBRYS
 10
136.88792699999999
 20
1448.0220770000001
 30
0.0
 11
142.88792699999999
 21
1444.5579540000001
 31
0.0
  0
LINE
  5
6665A
  8
OBRYS
 10
142.88792699999999
 20
1444.5579540000001
 30
0.0
 11
148.88792699999999
 21
1448.0220770000001
 31
0.0
  0
LINE
  5
6665B
  8
OBRYS
 10
148.88792699999999
 20
1448.0220770000001
 30
0.0
 11
148.88792699999999
 21
1454.9503239999999
 31
0.0
  0
LINE
  5
6665C
  8
OBRYS
 10
148.88792699999999
 20
1454.9503239999999
 30
0.0
 11
142.88792699999999
 21
1458.4144470000001
 31
0.0
  0
LINE
  5
6665D
  8
OBRYS
 10
142.88792699999999
 20
1458.4144470000001
 30
0.0
 11
136.88792699999999
 21
1454.9503239999999
 31
0.0
  0
CIRCLE
  5
6665E
  8
OBRYS
 10
142.88792699999999
 20
1451.4862009999999
 30
0.0
 40
6.9282459999999988
  0
CIRCLE
  5
6665F
  8
OBRYS
 10
142.88792699999999
 20
1451.4862009999999
 30
0.0
 40
10.5
  0
ENDBLK
  5
66660
  8
OBRYS
  0
BLOCK
  8
OBRYS
  2
SROUB_M6X20_43
 70
     2
 10
464.25270699999987
 20
1083.1214210000001
 30
0.0
  3
SROUB_M6X20_43
  1

  0
LINE
  5
66663
  8
OBRYS
 10
461.75270699999999
 20
1084.5648060000001
 30
0.0
 11
461.75270699999999
 21
1081.678036
 31
0.0
  0
LINE
  5
66664
  8
OBRYS
 10
461.75270699999999
 20
1081.678036
 30
0.0
 11
464.25270699999987
 21
1080.2346520000001
 31
0.0
  0
LINE
  5
66665
  8
OBRYS
 10
464.25270699999987
 20
1080.2346520000001
 30
0.0
 11
466.75270699999999
 21
1081.678036
 31
0.0
  0
LINE
  5
66666
  8
OBRYS
 10
466.75270699999999
 20
1081.678036
 30
0.0
 11
466.75270699999999
 21
1084.5648060000001
 31
0.0
  0
LINE
  5
66667
  8
OBRYS
 10
466.75270699999999
 20
1084.5648060000001
 30
0.0
 11
464.25270699999987
 21
1086.00819
 31
0.0
  0
LINE
  5
66668
  8
OBRYS
 10
464.25270699999987
 20
1086.00819
 30
0.0
 11
461.75270699999999
 21
1084.5648060000001
 31
0.0
  0
CIRCLE
  5
66669
  8
OBRYS
 10
464.25270699999987
 20
1083.1214210000001
 30
0.0
 40
2.8867690000000001
  0
CIRCLE
  5
6666A
  8
OBRYS
 10
464.25270699999987
 20
1083.1214210000001
 30
0.0
 40
5.0
  0
ENDBLK
  5
6666B
  8
OBRYS
  0
BLOCK
  8
OBRYS
  2
SROUB_M6X20_44
 70
     2
 10
464.25270699999987
 20
1177.1214210000001
 30
0.0
  3
SROUB_M6X20_44
  1

  0
LINE
  5
6666E
  8
OBRYS
 10
461.75270699999999
 20
1175.678036
 30
0.0
 11
461.75270699999999
 21
1178.5648060000001
 31
0.0
  0
LINE
  5
6666F
  8
OBRYS
 10
461.75270699999999
 20
1178.5648060000001
 30
0.0
 11
464.25270699999987
 21
1180.00819
 31
0.0
  0
LINE
  5
66670
  8
OBRYS
 10
464.25270699999987
 20
1180.00819
 30
0.0
 11
466.75270699999999
 21
1178.5648060000001
 31
0.0
  0
LINE
  5
66671
  8
OBRYS
 10
466.75270699999999
 20
1178.5648060000001
 30
0.0
 11
466.75270699999999
 21
1175.678036
 31
0.0
  0
LINE
  5
66672
  8
OBRYS
 10
466.75270699999999
 20
1175.678036
 30
0.0
 11
464.25270699999987
 21
1174.2346520000001
 31
0.0
  0
LINE
  5
66673
  8
OBRYS
 10
464.25270699999987
 20
1174.2346520000001
 30
0.0
 11
461.75270699999999
 21
1175.678036
 31
0.0
  0
CIRCLE
  5
66674
  8
OBRYS
 10
464.25270699999987
 20
1177.1214210000001
 30
0.0
 40
2.8867690000000001
  0
CIRCLE
  5
66675
  8
OBRYS
 10
464.25270699999987
 20
1177.1214210000001
 30
0.0
 40
5.0
  0
ENDBLK
  5
66676
  8
OBRYS
  0
BLOCK
  8
0
  2
*D70
 70
     1
 10
0.0
 20
0.0
 30
0.0
  3
*D70
  1

  0
LINE
  5
67058
  8
S-OBRYS
  6
CONTINUOUS
 62
     0
 10
34483.087757790483
 20
406718.66238718393
 30
0.0
 11
34483.087757790483
 21
406489.9812861844
 31
0.0
  0
LINE
  5
67059
  8
S-OBRYS
  6
CONTINUOUS
 62
     0
 10
35220.087757790527
 20
406843.66238718393
 30
0.0
 11
35220.087757790527
 21
406489.9812861844
 31
0.0
  0
LINE
  5
6705A
  8
S-OBRYS
  6
CONTINUOUS
 62
     0
 10
34523.087757790483
 20
406499.98128618428
 30
0.0
 11
35180.087757790527
 21
406499.98128618428
 31
0.0
  0
INSERT
  5
6705B
  8
S-OBRYS
  6
CONTINUOUS
 62
     0
  2
_OPEN
 10
34483.087757790483
 20
406499.98128618428
 30
0.0
 41
40.0
 42
40.0
 43
40.0
 50
180.0
  0
INSERT
  5
6705C
  8
S-OBRYS
  6
CONTINUOUS
 62
     0
  2
_OPEN
 10
35220.087757790527
 20
406499.98128618428
 30
0.0
 41
40.0
 42
40.0
 43
40.0
  0
INSERT
  5
6705D
  8
S-OBRYS
  6
CONTINUOUS
  2
*U111
 10
0.0
 20
0.0
 30
0.0
  0
POINT
  5
6705E
  8
DEFPOINTS
  6
CONTINUOUS
 62
     0
 10
34483.087757790483
 20
406721.81238718389
 30
0.0
  0
POINT
  5
6705F
  8
DEFPOINTS
  6
CONTINUOUS
 62
     0
 10
35220.087757790527
 20
406846.81238718401
 30
0.0
  0
POINT
  5
67060
  8
DEFPOINTS
  6
CONTINUOUS
 62
     0
 10
35220.087757790527
 20
406499.98128618428
 30
0.0
  0
ENDBLK
  5
66EEC
  8
0
  0
BLOCK
  8
0
  2
*D71
 70
     1
 10
0.0
 20
0.0
 30
0.0
  3
*D71
  1

  0
LINE
  5
67061
  8
S-OBRYS
  6
CONTINUOUS
 62
     0
 10
35155.584754878371
 20
406454.00658860942
 30
0.0
 11
35370.799166225617
 21
406454.00658860942
 31
0.0
  0
LINE
  5
67062
  8
S-OBRYS
  6
CONTINUOUS
 62
     0
 10
35155.584754879201
 20
405876.92326960951
 30
0.0
 11
35370.799166225617
 21
405876.92326960951
 31
0.0
  0
LINE
  5
67063
  8
S-OBRYS
  6
CONTINUOUS
 62
     0
 10
35360.799166225617
 20
406414.00658860942
 30
0.0
 11
35360.799166225617
 21
405916.92326960951
 31
0.0
  0
INSERT
  5
67064
  8
S-OBRYS
  6
CONTINUOUS
 62
     0
  2
_OPEN
 10
35360.799166225617
 20
406454.00658860942
 30
0.0
 41
40.0
 42
40.0
 43
40.0
 50
90.0
  0
INSERT
  5
67065
  8
S-OBRYS
  6
CONTINUOUS
 62
     0
  2
_OPEN
 10
35360.799166225617
 20
405876.92326960951
 30
0.0
 41
40.0
 42
40.0
 43
40.0
 50
270.0
  0
INSERT
  5
67066
  8
S-OBRYS
  6
CONTINUOUS
  2
*U112
 10
0.0
 20
0.0
 30
0.0
  0
POINT
  5
67067
  8
DEFPOINTS
  6
CONTINUOUS
 62
     0
 10
35152.434754878363
 20
406454.00658860942
 30
0.0
  0
POINT
  5
67068
  8
DEFPOINTS
  6
CONTINUOUS
 62
     0
 10
35152.434754879199
 20
405876.92326960951
 30
0.0
  0
POINT
  5
67069
  8
DEFPOINTS
  6
CONTINUOUS
 62
     0
 10
35360.799166225617
 20
405876.92326960951
 30
0.0
  0
ENDBLK
  5
66EF8
  8
0
  0
BLOCK
  8
0
  2
*D72
 70
     1
 10
0.0
 20
0.0
 30
0.0
  3
*D72
  1

  0
LINE
  5
6706A
  8
S-OBRYS
  6
CONTINUOUS
 62
     0
 10
34491.434754879032
 20
405871.8566196094
 30
0.0
 11
34491.434754879032
 21
405660.64239837858
 31
0.0
  0
LINE
  5
6706B
  8
S-OBRYS
  6
CONTINUOUS
 62
     0
 10
35250.934754879127
 20
405916.85661960952
 30
0.0
 11
35250.934754879127
 21
405660.64239837858
 31
0.0
  0
LINE
  5
6706C
  8
S-OBRYS
  6
CONTINUOUS
 62
     0
 10
34531.434754879032
 20
405670.64239837858
 30
0.0
 11
35210.934754879127
 21
405670.64239837858
 31
0.0
  0
INSERT
  5
6706D
  8
S-OBRYS
  6
CONTINUOUS
 62
     0
  2
_OPEN
 10
34491.434754879032
 20
405670.64239837858
 30
0.0
 41
40.0
 42
40.0
 43
40.0
 50
180.0
  0
INSERT
  5
6706E
  8
S-OBRYS
  6
CONTINUOUS
 62
     0
  2
_OPEN
 10
35250.934754879127
 20
405670.64239837858
 30
0.0
 41
40.0
 42
40.0
 43
40.0
  0
INSERT
  5
6706F
  8
S-OBRYS
  6
CONTINUOUS
  2
*U113
 10
0.0
 20
0.0
 30
0.0
  0
POINT
  5
67070
  8
DEFPOINTS
  6
CONTINUOUS
 62
     0
 10
34491.434754879032
 20
405875.00661960948
 30
0.0
  0
POINT
  5
67071
  8
DEFPOINTS
  6
CONTINUOUS
 62
     0
 10
35250.934754879127
 20
405920.0066196096
 30
0.0
  0
POINT
  5
67072
  8
DEFPOINTS
  6
CONTINUOUS
 62
     0
 10
35250.934754879127
 20
405670.64239837858
 30
0.0
  0
ENDBLK
  5
66F04
  8
0
  0
BLOCK
  8
0
  2
*D73
 70
     1
 10
0.0
 20
0.0
 30
0.0
  3
*D73
  1

  0
LINE
  5
67073
  8
S-OBRYS
  6
CONTINUOUS
 62
     0
 10
35237.584754879143
 20
405920.00661960948
 30
0.0
 11
35328.118445060412
 21
405920.00661960948
 31
0.0
  0
LINE
  5
67074
  8
S-OBRYS
  6
CONTINUOUS
 62
     0
 10
35237.584754879143
 20
406080.00661960948
 30
0.0
 11
35328.118445060412
 21
406080.00661960948
 31
0.0
  0
LINE
  5
67075
  8
S-OBRYS
  6
CONTINUOUS
 62
     0
 10
35318.118445060398
 20
405960.00661960948
 30
0.0
 11
35318.118445060398
 21
406040.00661960948
 31
0.0
  0
INSERT
  5
67076
  8
S-OBRYS
  6
CONTINUOUS
 62
     0
  2
_OPEN
 10
35318.118445060398
 20
405920.00661960948
 30
0.0
 41
40.0
 42
40.0
 43
40.0
 50
270.0
  0
INSERT
  5
67077
  8
S-OBRYS
  6
CONTINUOUS
 62
     0
  2
_OPEN
 10
35318.118445060398
 20
406080.00661960948
 30
0.0
 41
40.0
 42
40.0
 43
40.0
 50
90.0
  0
INSERT
  5
67078
  8
S-OBRYS
  6
CONTINUOUS
  2
*U114
 10
0.0
 20
0.0
 30
0.0
  0
POINT
  5
67079
  8
DEFPOINTS
  6
CONTINUOUS
 62
     0
 10
35234.434754879127
 20
405920.00661960948
 30
0.0
  0
POINT
  5
6707A
  8
DEFPOINTS
  6
CONTINUOUS
 62
     0
 10
35234.434754879127
 20
406080.00661960948
 30
0.0
  0
POINT
  5
6707B
  8
DEFPOINTS
  6
CONTINUOUS
 62
     0
 10
35318.118445060398
 20
406080.00661960948
 30
0.0
  0
ENDBLK
  5
66F10
  8
0
  0
BLOCK
  8
0
  2
*D74
 70
     1
 10
0.0
 20
0.0
 30
0.0
  3
*D74
  1

  0
LINE
  5
6707C
  8
S-OBRYS
  6
CONTINUOUS
 62
     0
 10
34936.237757790543
 20
407031.81238718389
 30
0.0
 11
35385.806458223873
 21
407031.81238718389
 31
0.0
  0
LINE
  5
6707D
  8
S-OBRYS
  6
CONTINUOUS
 62
     0
 10
34976.237757790543
 20
406676.81238718389
 30
0.0
 11
35385.806458223873
 21
406676.81238718389
 31
0.0
  0
LINE
  5
6707E
  8
S-OBRYS
  6
CONTINUOUS
 62
     0
 10
35375.806458223873
 20
406991.81238718389
 30
0.0
 11
35375.806458223873
 21
406716.81238718389
 31
0.0
  0
INSERT
  5
6707F
  8
S-OBRYS
  6
CONTINUOUS
 62
     0
  2
_OPEN
 10
35375.806458223873
 20
407031.81238718389
 30
0.0
 41
40.0
 42
40.0
 43
40.0
 50
90.0
  0
INSERT
  5
67080
  8
S-OBRYS
  6
CONTINUOUS
 62
     0
  2
_OPEN
 10
35375.806458223873
 20
406676.81238718389
 30
0.0
 41
40.0
 42
40.0
 43
40.0
 50
270.0
  0
INSERT
  5
67081
  8
S-OBRYS
  6
CONTINUOUS
  2
*U115
 10
0.0
 20
0.0
 30
0.0
  0
POINT
  5
67082
  8
DEFPOINTS
  6
CONTINUOUS
 62
     0
 10
34933.087757790541
 20
407031.81238718389
 30
0.0
  0
POINT
  5
67083
  8
DEFPOINTS
  6
CONTINUOUS
 62
     0
 10
34973.087757790541
 20
406676.81238718389
 30
0.0
  0
POINT
  5
67084
  8
DEFPOINTS
  6
CONTINUOUS
 62
     0
 10
35375.806458223873
 20
406676.81238718389
 30
0.0
  0
ENDBLK
  5
66F1C
  8
0
  0
BLOCK
  8
0
  2
*D75
 70
     1
 10
0.0
 20
0.0
 30
0.0
  3
*D75
  1

  0
LINE
  5
67085
  8
S-OBRYS
  6
CONTINUOUS
 62
     0
 10
35076.434754878959
 20
405996.8566196094
 30
0.0
 11
35076.434754878959
 21
405759.77097521082
 31
0.0
  0
LINE
  5
67086
  8
S-OBRYS
  6
CONTINUOUS
 62
     0
 10
34636.434754879061
 20
405996.8566196094
 30
0.0
 11
34636.434754879061
 21
405759.77097521082
 31
0.0
  0
LINE
  5
67087
  8
S-OBRYS
  6
CONTINUOUS
 62
     0
 10
35036.434754878959
 20
405769.7709752107
 30
0.0
 11
34676.434754879061
 21
405769.7709752107
 31
0.0
  0
INSERT
  5
67088
  8
S-OBRYS
  6
CONTINUOUS
 62
     0
  2
_OPEN
 10
35076.434754878959
 20
405769.7709752107
 30
0.0
 41
40.0
 42
40.0
 43
40.0
  0
INSERT
  5
67089
  8
S-OBRYS
  6
CONTINUOUS
 62
     0
  2
_OPEN
 10
34636.434754879061
 20
405769.7709752107
 30
0.0
 41
40.0
 42
40.0
 43
40.0
 50
180.0
  0
INSERT
  5
6708A
  8
S-OBRYS
  6
CONTINUOUS
  2
*U116
 10
0.0
 20
0.0
 30
0.0
  0
POINT
  5
6708B
  8
DEFPOINTS
  6
CONTINUOUS
 62
     0
 10
35076.434754878959
 20
406000.00661960948
 30
0.0
  0
POINT
  5
6708C
  8
DEFPOINTS
  6
CONTINUOUS
 62
     0
 10
34636.434754879061
 20
406000.00661960948
 30
0.0
  0
POINT
  5
6708D
  8
DEFPOINTS
  6
CONTINUOUS
 62
     0
 10
34636.434754879061
 20
405769.7709752107
 30
0.0
  0
ENDBLK
  5
66F28
  8
0
  0
BLOCK
  8
0
  2
*D76
 70
     1
 10
0.0
 20
0.0
 30
0.0
  3
*D76
  1

  0
LINE
  5
6708E
  8
S-OBRYS
  6
CONTINUOUS
 62
     0
 10
34971.434754879047
 20
406148.15661960951
 30
0.0
 11
34971.434754879047
 21
406211.21707912872
 31
0.0
  0
LINE
  5
6708F
  8
S-OBRYS
  6
CONTINUOUS
 62
     0
 10
34741.434754879061
 20
406148.15661960951
 30
0.0
 11
34741.434754879061
 21
406211.21707912872
 31
0.0
  0
LINE
  5
67090
  8
S-OBRYS
  6
CONTINUOUS
 62
     0
 10
34931.434754879047
 20
406201.21707912872
 30
0.0
 11
34781.434754879061
 21
406201.21707912872
 31
0.0
  0
INSERT
  5
67091
  8
S-OBRYS
  6
CONTINUOUS
 62
     0
  2
_OPEN
 10
34971.434754879047
 20
406201.21707912872
 30
0.0
 41
40.0
 42
40.0
 43
40.0
  0
INSERT
  5
67092
  8
S-OBRYS
  6
CONTINUOUS
 62
     0
  2
_OPEN
 10
34741.434754879061
 20
406201.21707912872
 30
0.0
 41
40.0
 42
40.0
 43
40.0
 50
180.0
  0
INSERT
  5
67093
  8
S-OBRYS
  6
CONTINUOUS
  2
*U117
 10
0.0
 20
0.0
 30
0.0
  0
POINT
  5
67094
  8
DEFPOINTS
  6
CONTINUOUS
 62
     0
 10
34971.434754879047
 20
406145.00661960948
 30
0.0
  0
POINT
  5
67095
  8
DEFPOINTS
  6
CONTINUOUS
 62
     0
 10
34741.434754879061
 20
406145.00661960948
 30
0.0
  0
POINT
  5
67096
  8
DEFPOINTS
  6
CONTINUOUS
 62
     0
 10
34741.434754879061
 20
406201.21707912872
 30
0.0
  0
ENDBLK
  5
66F34
  8
0
  0
BLOCK
  8
0
  2
*D77
 70
     1
 10
0.0
 20
0.0
 30
0.0
  3
*D77
  1

  0
LINE
  5
67097
  8
S-OBRYS
  6
CONTINUOUS
 62
     0
 10
34741.434754879061
 20
406128.15661960951
 30
0.0
 11
34741.434754879061
 21
406211.21707912872
 31
0.0
  0
LINE
  5
67098
  8
S-OBRYS
  6
CONTINUOUS
 62
     0
 10
34491.434754879032
 20
406128.15661960951
 30
0.0
 11
34491.434754879032
 21
406211.21707912872
 31
0.0
  0
LINE
  5
67099
  8
S-OBRYS
  6
CONTINUOUS
 62
     0
 10
34701.434754879061
 20
406201.21707912872
 30
0.0
 11
34531.434754879032
 21
406201.21707912872
 31
0.0
  0
INSERT
  5
6709A
  8
S-OBRYS
  6
CONTINUOUS
 62
     0
  2
_OPEN
 10
34741.434754879061
 20
406201.21707912872
 30
0.0
 41
40.0
 42
40.0
 43
40.0
  0
INSERT
  5
6709B
  8
S-OBRYS
  6
CONTINUOUS
 62
     0
  2
_OPEN
 10
34491.434754879032
 20
406201.21707912872
 30
0.0
 41
40.0
 42
40.0
 43
40.0
 50
180.0
  0
INSERT
  5
6709C
  8
S-OBRYS
  6
CONTINUOUS
  2
*U118
 10
0.0
 20
0.0
 30
0.0
  0
POINT
  5
6709D
  8
DEFPOINTS
  6
CONTINUOUS
 62
     0
 10
34741.434754879061
 20
406125.00661960948
 30
0.0
  0
POINT
  5
6709E
  8
DEFPOINTS
  6
CONTINUOUS
 62
     0
 10
34491.434754879032
 20
406125.00661960948
 30
0.0
  0
POINT
  5
6709F
  8
DEFPOINTS
  6
CONTINUOUS
 62
     0
 10
34491.434754879032
 20
406201.21707912872
 30
0.0
  0
ENDBLK
  5
66F40
  8
0
  0
BLOCK
  8
0
  2
*D78
 70
     1
 10
0.0
 20
0.0
 30
0.0
  3
*D78
  1

  0
LINE
  5
670A0
  8
S-OBRYS
  6
CONTINUOUS
 62
     0
 10
34569.90476023902
 20
406071.14900642447
 30
0.0
 11
34748.2204531241
 21
406026.8750936205
 31
0.0
  0
LINE
  5
670A1
  8
S-OBRYS
  6
CONTINUOUS
 62
     0
 10
34964.649056634022
 20
405973.13814559852
 30
0.0
 11
35003.470330806209
 21
405963.49923115497
 31
0.0
  0
INSERT
  5
670A2
  8
S-OBRYS
  6
CONTINUOUS
  2
*U119
 10
0.0
 20
0.0
 30
0.0
  0
LINE
  5
670A3
  8
S-OBRYS
  6
CONTINUOUS
 62
     0
 10
34925.827782461827
 20
405982.7770600419
 30
0.0
 11
34787.041727296302
 21
406017.23617917718
 31
0.0
  0
INSERT
  5
670A4
  8
S-OBRYS
  6
CONTINUOUS
 62
     0
  2
_OPEN
 10
34925.827782461827
 20
405982.7770600419
 30
0.0
 41
40.0
 42
40.0
 43
40.0
 50
166.05603348641949
  0
INSERT
  5
670A5
  8
S-OBRYS
  6
CONTINUOUS
 62
     0
  2
_OPEN
 10
34787.041727296302
 20
406017.23617917718
 30
0.0
 41
40.0
 42
40.0
 43
40.0
 50
346.05603348641949
  0
POINT
  5
670A6
  8
DEFPOINTS
  6
CONTINUOUS
 62
     0
 10
34787.041727296302
 20
406017.23617917718
 30
0.0
  0
POINT
  5
670A7
  8
DEFPOINTS
  6
CONTINUOUS
 62
     0
 10
34925.827782461827
 20
405982.7770600419
 30
0.0
  0
ENDBLK
  5
66F4B
  8
0
  0
BLOCK
  8
0
  2
*D79
 70
     1
 10
0.0
 20
0.0
 30
0.0
  3
*D79
  1

  0
LINE
  5
670A8
  8
S-OBRYS
  6
CONTINUOUS
 62
     0
 10
34494.967311125321
 20
405991.2717829452
 30
0.0
 11
34740.468608805459
 21
405997.20430542581
 31
0.0
  0
LINE
  5
670A9
  8
S-OBRYS
  6
CONTINUOUS
 62
     0
 10
34972.400900953158
 20
406002.80893379293
 30
0.0
 11
35012.389227185522
 21
406003.77524902869
 31
0.0
  0
INSERT
  5
670AA
  8
S-OBRYS
  6
CONTINUOUS
  2
*U120
 10
0.0
 20
0.0
 30
0.0
  0
LINE
  5
670AB
  8
S-OBRYS
  6
CONTINUOUS
 62
     0
 10
34932.412574720802
 20
406001.84261855722
 30
0.0
 11
34780.456935037822
 21
405998.17062066152
 31
0.0
  0
INSERT
  5
670AC
  8
S-OBRYS
  6
CONTINUOUS
 62
     0
  2
_OPEN
 10
34932.412574720802
 20
406001.84261855722
 30
0.0
 41
40.0
 42
40.0
 43
40.0
 50
181.3842792843765
  0
INSERT
  5
670AD
  8
S-OBRYS
  6
CONTINUOUS
 62
     0
  2
_OPEN
 10
34780.456935037822
 20
405998.17062066152
 30
0.0
 41
40.0
 42
40.0
 43
40.0
 50
1.3842792843765379
  0
POINT
  5
670AE
  8
DEFPOINTS
  6
CONTINUOUS
 62
     0
 10
34780.456935037822
 20
405998.17062066152
 30
0.0
  0
POINT
  5
670AF
  8
DEFPOINTS
  6
CONTINUOUS
 62
     0
 10
34932.412574720802
 20
406001.84261855722
 30
0.0
  0
ENDBLK
  5
66F56
  8
0
  0
BLOCK
  8
0
  2
*D80
 70
     1
 10
0.0
 20
0.0
 30
0.0
  3
*D80
  1

  0
LINE
  5
670B0
  8
S-OBRYS
  6
CONTINUOUS
 62
     0
 10
34776.587757790527
 20
407034.96238718397
 30
0.0
 11
34776.587757790527
 21
407099.63974470343
 31
0.0
  0
LINE
  5
670B1
  8
S-OBRYS
  6
CONTINUOUS
 62
     0
 10
34919.587757790541
 20
407034.96238718397
 30
0.0
 11
34919.587757790541
 21
407099.63974470343
 31
0.0
  0
LINE
  5
670B2
  8
S-OBRYS
  6
CONTINUOUS
 62
     0
 10
34816.587757790527
 20
407089.63974470331
 30
0.0
 11
34879.587757790541
 21
407089.63974470331
 31
0.0
  0
LINE
  5
670B3
  8
S-OBRYS
  6
CONTINUOUS
 62
     0
 10
34919.587757790541
 20
407089.63974470331
 30
0.0
 11
35128.043128083162
 21
407089.63974470331
 31
0.0
  0
INSERT
  5
670B4
  8
S-OBRYS
  6
CONTINUOUS
 62
     0
  2
_OPEN
 10
34776.587757790527
 20
407089.63974470331
 30
0.0
 41
40.0
 42
40.0
 43
40.0
 50
180.0
  0
INSERT
  5
670B5
  8
S-OBRYS
  6
CONTINUOUS
 62
     0
  2
_OPEN
 10
34919.587757790541
 20
407089.63974470331
 30
0.0
 41
40.0
 42
40.0
 43
40.0
  0
INSERT
  5
670B6
  8
S-OBRYS
  6
CONTINUOUS
  2
*U121
 10
0.0
 20
0.0
 30
0.0
  0
POINT
  5
670B7
  8
DEFPOINTS
  6
CONTINUOUS
 62
     0
 10
34776.587757790527
 20
407031.81238718389
 30
0.0
  0
POINT
  5
670B8
  8
DEFPOINTS
  6
CONTINUOUS
 62
     0
 10
34919.587757790541
 20
407031.81238718389
 30
0.0
  0
POINT
  5
670B9
  8
DEFPOINTS
  6
CONTINUOUS
 62
     0
 10
34919.587757790541
 20
407089.63974470331
 30
0.0
  0
ENDBLK
  5
66F63
  8
0
  0
BLOCK
  8
0
  2
*D92
 70
     1
 10
0.0
 20
0.0
 30
0.0
  3
*D92
  1

  0
LINE
  5
6711C
  8
S-OBRYS
  6
CONTINUOUS
 62
     0
 10
34740.587757790527
 20
407018.11238718388
 30
0.0
 11
34740.587757790527
 21
407262.22280377359
 31
0.0
  0
LINE
  5
6711D
  8
S-OBRYS
  6
CONTINUOUS
 62
     0
 10
34955.587757790527
 20
407018.11238718388
 30
0.0
 11
34955.587757790527
 21
407262.22280377359
 31
0.0
  0
LINE
  5
6711E
  8
S-OBRYS
  6
CONTINUOUS
 62
     0
 10
34780.587757790527
 20
407252.22280377347
 30
0.0
 11
34915.587757790527
 21
407252.22280377347
 31
0.0
  0
LINE
  5
6711F
  8
S-OBRYS
  6
CONTINUOUS
 62
     0
 10
34955.587757790527
 20
407252.22280377347
 30
0.0
 11
35129.016329219099
 21
407252.22280377347
 31
0.0
  0
INSERT
  5
67120
  8
S-OBRYS
  6
CONTINUOUS
 62
     0
  2
_OPEN
 10
34740.587757790527
 20
407252.22280377347
 30
0.0
 41
40.0
 42
40.0
 43
40.0
 50
180.0
  0
INSERT
  5
67121
  8
S-OBRYS
  6
CONTINUOUS
 62
     0
  2
_OPEN
 10
34955.587757790527
 20
407252.22280377347
 30
0.0
 41
40.0
 42
40.0
 43
40.0
  0
INSERT
  5
67122
  8
S-OBRYS
  6
CONTINUOUS
  2
*U133
 10
0.0
 20
0.0
 30
0.0
  0
POINT
  5
67123
  8
DEFPOINTS
  6
CONTINUOUS
 62
     0
 10
34740.587757790527
 20
407014.96238718397
 30
0.0
  0
POINT
  5
67124
  8
DEFPOINTS
  6
CONTINUOUS
 62
     0
 10
34955.587757790527
 20
407014.96238718397
 30
0.0
  0
POINT
  5
67125
  8
DEFPOINTS
  6
CONTINUOUS
 62
     0
 10
34955.587757790527
 20
407252.22280377347
 30
0.0
  0
ENDBLK
  5
66FF3
  8
0
  0
BLOCK
  8
0
  2
*D93
 70
     1
 10
0.0
 20
0.0
 30
0.0
  3
*D93
  1

  0
LINE
  5
67126
  8
S-OBRYS
  6
CONTINUOUS
 62
     0
 10
34763.087757790527
 20
407033.112387184
 30
0.0
 11
34763.087757790527
 21
407184.0985693835
 31
0.0
  0
LINE
  5
67127
  8
S-OBRYS
  6
CONTINUOUS
 62
     0
 10
34933.087757790527
 20
407033.112387184
 30
0.0
 11
34933.087757790527
 21
407184.0985693835
 31
0.0
  0
LINE
  5
67128
  8
S-OBRYS
  6
CONTINUOUS
 62
     0
 10
34803.087757790527
 20
407174.09856938361
 30
0.0
 11
34893.087757790527
 21
407174.09856938361
 31
0.0
  0
LINE
  5
67129
  8
S-OBRYS
  6
CONTINUOUS
 62
     0
 10
34933.087757790527
 20
407174.09856938361
 30
0.0
 11
35127.471279347708
 21
407174.09856938361
 31
0.0
  0
INSERT
  5
6712A
  8
S-OBRYS
  6
CONTINUOUS
 62
     0
  2
_OPEN
 10
34763.087757790527
 20
407174.09856938361
 30
0.0
 41
40.0
 42
40.0
 43
40.0
 50
180.0
  0
INSERT
  5
6712B
  8
S-OBRYS
  6
CONTINUOUS
 62
     0
  2
_OPEN
 10
34933.087757790527
 20
407174.09856938361
 30
0.0
 41
40.0
 42
40.0
 43
40.0
  0
INSERT
  5
6712C
  8
S-OBRYS
  6
CONTINUOUS
  2
*U134
 10
0.0
 20
0.0
 30
0.0
  0
POINT
  5
6712D
  8
DEFPOINTS
  6
CONTINUOUS
 62
     0
 10
34763.087757790527
 20
407029.96238718391
 30
0.0
  0
POINT
  5
6712E
  8
DEFPOINTS
  6
CONTINUOUS
 62
     0
 10
34933.087757790527
 20
407029.96238718391
 30
0.0
  0
POINT
  5
6712F
  8
DEFPOINTS
  6
CONTINUOUS
 62
     0
 10
34933.087757790527
 20
407174.09856938361
 30
0.0
  0
ENDBLK
  5
67000
  8
0
  0
BLOCK
  8
0
  2
*D94
 70
     1
 10
0.0
 20
0.0
 30
0.0
  3
*D94
  1

  0
LINE
  5
67130
  8
S-OBRYS
  6
CONTINUOUS
 62
     0
 10
35071.237757790543
 20
406832.81238718389
 30
0.0
 11
35305.069842456403
 21
406832.81238718389
 31
0.0
  0
LINE
  5
67131
  8
S-OBRYS
  6
CONTINUOUS
 62
     0
 10
35071.237757790528
 20
406860.81238718389
 30
0.0
 11
35305.069842456403
 21
406860.81238718389
 31
0.0
  0
LINE
  5
67132
  8
S-OBRYS
  6
CONTINUOUS
 62
     0
 10
35295.069842456403
 20
406900.81238718389
 30
0.0
 11
35295.069842456403
 21
406940.81238718389
 31
0.0
  0
LINE
  5
67133
  8
S-OBRYS
  6
CONTINUOUS
 62
     0
 10
35295.069842456403
 20
406792.81238718389
 30
0.0
 11
35295.069842456403
 21
406563.32729409699
 31
0.0
  0
LINE
  5
67134
  8
S-OBRYS
  6
CONTINUOUS
 62
     0
 10
35295.069842456403
 20
406860.81238718389
 30
0.0
 11
35295.069842456403
 21
406832.81238718389
 31
0.0
  0
INSERT
  5
67135
  8
S-OBRYS
  6
CONTINUOUS
 62
     0
  2
_OPEN
 10
35295.069842456403
 20
406860.81238718389
 30
0.0
 41
40.0
 42
40.0
 43
40.0
 50
270.0
  0
INSERT
  5
67136
  8
S-OBRYS
  6
CONTINUOUS
 62
     0
  2
_OPEN
 10
35295.069842456403
 20
406832.81238718389
 30
0.0
 41
40.0
 42
40.0
 43
40.0
 50
90.0
  0
INSERT
  5
67137
  8
S-OBRYS
  6
CONTINUOUS
  2
*U135
 10
0.0
 20
0.0
 30
0.0
  0
POINT
  5
67138
  8
DEFPOINTS
  6
CONTINUOUS
 62
     0
 10
35068.087757790527
 20
406832.81238718389
 30
0.0
  0
POINT
  5
67139
  8
DEFPOINTS
  6
CONTINUOUS
 62
     0
 10
35068.087757790527
 20
406860.81238718389
 30
0.0
  0
POINT
  5
6713A
  8
DEFPOINTS
  6
CONTINUOUS
 62
     0
 10
35295.069842456403
 20
406860.81238718389
 30
0.0
  0
ENDBLK
  5
6700E
  8
0
  0
BLOCK
  8
0
  2
*D95
 70
     1
 10
0.0
 20
0.0
 30
0.0
  3
*D95
  1

  0
LINE
  5
67173
  8
S-OBRYS
  6
CONTINUOUS
 62
     0
 10
34723.087757790527
 20
406676.81238718389
 30
0.0
 11
34723.087757790527
 21
406571.08622335352
 31
0.0
  0
LINE
  5
67174
  8
S-OBRYS
  6
CONTINUOUS
 62
     0
 10
34973.087757790527
 20
406676.81238718389
 30
0.0
 11
34973.087757790527
 21
406571.08622335352
 31
0.0
  0
LINE
  5
67175
  8
S-OBRYS
  6
CONTINUOUS
 62
     0
 10
34763.087757790527
 20
406581.08622335357
 30
0.0
 11
34933.087757790527
 21
406581.08622335357
 31
0.0
  0
INSERT
  5
67176
  8
S-OBRYS
  6
CONTINUOUS
 62
     0
  2
_OPEN
 10
34723.087757790527
 20
406581.08622335357
 30
0.0
 41
40.0
 42
40.0
 43
40.0
 50
180.0
  0
INSERT
  5
67177
  8
S-OBRYS
  6
CONTINUOUS
 62
     0
  2
_OPEN
 10
34973.087757790527
 20
406581.08622335357
 30
0.0
 41
40.0
 42
40.0
 43
40.0
  0
INSERT
  5
67178
  8
S-OBRYS
  6
CONTINUOUS
  2
*U138
 10
0.0
 20
0.0
 30
0.0
  0
POINT
  5
67179
  8
DEFPOINTS
  6
CONTINUOUS
 62
     0
 10
34723.087757790527
 20
406679.96238718397
 30
0.0
  0
POINT
  5
6717A
  8
DEFPOINTS
  6
CONTINUOUS
 62
     0
 10
34973.087757790527
 20
406679.96238718397
 30
0.0
  0
POINT
  5
6717B
  8
DEFPOINTS
  6
CONTINUOUS
 62
     0
 10
34973.087757790527
 20
406581.08622335357
 30
0.0
  0
ENDBLK
  5
6701A
  8
0
  0
BLOCK
  8
0
  2
*D96
 70
     1
 10
0.0
 20
0.0
 30
0.0
  3
*D96
  1

  0
LINE
  5
67144
  8
S-OBRYS
  6
CONTINUOUS
 62
     0
 10
34483.087757790527
 20
406941.13660092407
 30
0.0
 11
34483.087757790527
 21
406947.98660092411
 31
0.0
  0
LINE
  5
67145
  8
S-OBRYS
  6
CONTINUOUS
 62
     0
 10
34233.087757790498
 20
406943.96736512048
 30
0.0
 11
34233.087757790498
 21
406927.98660092411
 31
0.0
  0
LINE
  5
67146
  8
S-OBRYS
  6
CONTINUOUS
 62
     0
 10
34443.087757790527
 20
406937.98660092411
 30
0.0
 11
34273.087757790498
 21
406937.98660092411
 31
0.0
  0
INSERT
  5
67147
  8
S-OBRYS
  6
CONTINUOUS
 62
     0
  2
_OPEN
 10
34483.087757790527
 20
406937.98660092411
 30
0.0
 41
40.0
 42
40.0
 43
40.0
  0
INSERT
  5
67148
  8
S-OBRYS
  6
CONTINUOUS
 62
     0
  2
_OPEN
 10
34233.087757790498
 20
406937.98660092411
 30
0.0
 41
40.0
 42
40.0
 43
40.0
 50
180.0
  0
INSERT
  5
67149
  8
S-OBRYS
  6
CONTINUOUS
  2
*U136
 10
0.0
 20
0.0
 30
0.0
  0
POINT
  5
6714A
  8
DEFPOINTS
  6
CONTINUOUS
 62
     0
 10
34483.087757790527
 20
406937.98660092411
 30
0.0
  0
POINT
  5
6714B
  8
DEFPOINTS
  6
CONTINUOUS
 62
     0
 10
34233.087757790498
 20
406947.11736512062
 30
0.0
  0
POINT
  5
6714C
  8
DEFPOINTS
  6
CONTINUOUS
 62
     0
 10
34233.087757790498
 20
406937.98660092411
 30
0.0
  0
ENDBLK
  5
67026
  8
0
  0
BLOCK
  8
0
  2
*U97
 70
     1
 10
0.0
 20
0.0
 30
0.0
  3
*U97
  1

  0
TEXT
  5
671BA
  6
CONTINUOUS
 10
-16.449777305735289
 20
47.447339193138752
 30
0.0
 40
80.0
  1
1b
  7
R
  0
ENDBLK
  5
671BC
  8
0
  0
BLOCK
  8
0
  2
*U98
 70
     1
 10
0.0
 20
0.0
 30
0.0
  3
*U98
  1

  0
TEXT
  5
671BE
  6
CONTINUOUS
 10
23.348488544496441
 20
49.591841048852068
 30
0.0
 40
20.0
  1
1a
  7
R
  0
ENDBLK
  5
671C0
  8
0
  0
BLOCK
  8
0
  2
*U99
 70
     1
 10
0.0
 20
0.0
 30
0.0
  3
*U99
  1

  0
TEXT
  5
671C2
  6
CONTINUOUS
 10
-3.9222036020662499
 20
557.31871110200882
 30
0.0
 40
100.0
  1
příruba prosévačka
  7
R
  0
ENDBLK
  5
671C4
  8
0
  0
BLOCK
  8
0
  2
*U100
 70
     1
 10
0.0
 20
0.0
 30
0.0
  3
*U100
  1

  0
SOLID
  5
6739C
  8
S-OBRYS
  6
CONTINUOUS
 10
0.0000000000009095
 20
139.99744886101851
 30
0.0
 11
-38.161174275154998
 21
132.40671934395951
 31
0.0
 12
0.0000000000008972
 22
132.40671934395951
 32
0.0
 13
0.0000000000008972
 23
132.40671934395951
 33
0.0
210
0.0
220
0.0
230
1.0
  0
SOLID
  5
6739D
  8
S-OBRYS
  6
CONTINUOUS
 10
0.0000000000009308
 20
139.99744886101851
 30
0.0
 11
0.0000000000009263
 21
132.40671934395951
 31
0.0
 12
45.472905011396342
 22
132.40671934395951
 32
0.0
 13
45.472905011396342
 23
132.40671934395951
 33
0.0
210
0.0
220
0.0
230
1.0
  0
SOLID
  5
6739E
  8
S-OBRYS
  6
CONTINUOUS
 10
-38.161174275154998
 20
132.40671934395951
 30
0.0
 11
-53.575680531111601
 21
129.34058341259859
 31
0.0
 12
0.0000000000008923
 22
129.34058341259859
 32
0.0
 13
0.0000000000008923
 23
129.34058341259859
 33
0.0
210
0.0
220
0.0
230
1.0
  0
SOLID
  5
6739F
  8
S-OBRYS
  6
CONTINUOUS
 10
38.161174275154998
 20
132.40671934395951
 30
0.0
 11
-0.0000000000008972
 21
132.40671934395951
 31
0.0
 12
-0.0000000000008923
 22
129.34058341259859
 32
0.0
 13
-0.0000000000008923
 23
129.34058341259859
 33
0.0
210
0.0
220
0.0
230
-1.0
  0
SOLID
  5
673A0
  8
S-OBRYS
  6
CONTINUOUS
 10
0.0000000000009263
 20
132.40671934395951
 30
0.0
 11
0.0000000000009236
 21
129.34058341259859
 31
0.0
 12
51.136331847933711
 22
129.34058341259859
 32
0.0
 13
51.136331847933711
 23
129.34058341259859
 33
0.0
210
0.0
220
0.0
230
1.0
  0
SOLID
  5
673A1
  8
S-OBRYS
  6
CONTINUOUS
 10
-0.0000000000009263
 20
132.40671934395951
 30
0.0
 11
-45.472905011396342
 21
132.40671934395951
 31
0.0
 12
-51.136331847933711
 22
129.34058341259859
 32
0.0
 13
-51.136331847933711
 23
129.34058341259859
 33
0.0
210
0.0
220
0.0
230
-1.0
  0
SOLID
  5
673A2
  8
S-OBRYS
  6
CONTINUOUS
 10
-53.575680531111601
 20
129.34058341259859
 30
0.0
 11
-69.31660138571813
 21
118.82283635637209
 31
0.0
 12
0.0000000000008752
 22
118.82283635637209
 32
0.0
 13
0.0000000000008752
 23
118.82283635637209
 33
0.0
210
0.0
220
0.0
230
1.0
  0
SOLID
  5
673A3
  8
S-OBRYS
  6
CONTINUOUS
 10
53.575680531111601
 20
129.34058341259859
 30
0.0
 11
-0.0000000000008923
 21
129.34058341259859
 31
0.0
 12
-0.0000000000008752
 22
118.82283635637209
 32
0.0
 13
-0.0000000000008752
 23
118.82283635637209
 33
0.0
210
0.0
220
0.0
230
-1.0
  0
SOLID
  5
673A4
  8
S-OBRYS
  6
CONTINUOUS
 10
0.0000000000009236
 20
129.34058341259859
 30
0.0
 11
0.0000000000009141
 21
118.82283635637209
 31
0.0
 12
70.563549776822697
 22
118.82283635637209
 32
0.0
 13
70.563549776822697
 23
118.82283635637209
 33
0.0
210
0.0
220
0.0
230
1.0
  0
SOLID
  5
673A5
  8
S-OBRYS
  6
CONTINUOUS
 10
-0.0000000000009236
 20
129.34058341259859
 30
0.0
 11
-51.136331847933711
 21
129.34058341259859
 31
0.0
 12
-70.563549776822697
 22
118.82283635637209
 32
0.0
 13
-70.563549776822697
 23
118.82283635637209
 33
0.0
210
0.0
220
0.0
230
-1.0
  0
SOLID
  5
673A6
  8
S-OBRYS
  6
CONTINUOUS
 10
-69.31660138571813
 20
118.82283635637209
 30
0.0
 11
-77.074356569801722
 21
113.6392700641597
 31
0.0
 12
0.0000000000008669
 22
113.6392700641597
 32
0.0
 13
0.0000000000008669
 23
113.6392700641597
 33
0.0
210
0.0
220
0.0
230
1.0
  0
SOLID
  5
673A7
  8
S-OBRYS
  6
CONTINUOUS
 10
69.31660138571813
 20
118.82283635637209
 30
0.0
 11
-0.0000000000008752
 21
118.82283635637209
 31
0.0
 12
-0.0000000000008669
 22
113.6392700641597
 32
0.0
 13
-0.0000000000008669
 23
113.6392700641597
 33
0.0
210
0.0
220
0.0
230
-1.0
  0
SOLID
  5
673A8
  8
S-OBRYS
  6
CONTINUOUS
 10
-0.0000000000009141
 20
118.82283635637209
 30
0.0
 11
-43.257964790378153
 21
118.82283635637209
 31
0.0
 12
-0.0000000000008669
 22
113.6392700641597
 32
0.0
 13
-0.0000000000008669
 23
113.6392700641597
 33
0.0
210
0.0
220
0.0
230
-1.0
  0
SOLID
  5
673A9
  8
S-OBRYS
  6
CONTINUOUS
 10
43.257964790378153
 20
118.82283635637209
 30
0.0
 11
69.752660745180563
 21
113.6392700641597
 31
0.0
 12
80.138059552472512
 22
113.6392700641597
 32
0.0
 13
80.138059552472512
 23
113.6392700641597
 33
0.0
210
0.0
220
0.0
230
1.0
  0
SOLID
  5
673AA
  8
S-OBRYS
  6
CONTINUOUS
 10
-43.257964790378153
 20
118.82283635637209
 30
0.0
 11
-70.563549776822697
 21
118.82283635637209
 31
0.0
 12
-80.138059552472512
 22
113.6392700641597
 32
0.0
 13
-80.138059552472512
 23
113.6392700641597
 33
0.0
210
0.0
220
0.0
230
-1.0
  0
SOLID
  5
673AB
  8
S-OBRYS
  6
CONTINUOUS
 10
-77.074356569801722
 20
113.6392700641597
 30
0.0
 11
-81.835969744916312
 21
110.45766185851311
 31
0.0
 12
-6.3230180733350423
 22
110.45766185851311
 32
0.0
 13
-6.3230180733350423
 23
110.45766185851311
 33
0.0
210
0.0
220
0.0
230
1.0
  0
SOLID
  5
673AC
  8
S-OBRYS
  6
CONTINUOUS
 10
77.074356569801722
 20
113.6392700641597
 30
0.0
 11
-0.0000000000009095
 21
113.6392700641597
 31
0.0
 12
6.3230180733350423
 22
110.45766185851311
 32
0.0
 13
6.3230180733350423
 23
110.45766185851311
 33
0.0
210
0.0
220
0.0
230
-1.0
  0
SOLID
  5
673AD
  8
S-OBRYS
  6
CONTINUOUS
 10
-69.752660745180563
 20
113.6392700641597
 30
0.0
 11
-80.138059552472512
 21
113.6392700641597
 31
0.0
 12
-86.014773989985784
 22
110.45766185851311
 32
0.0
 13
-86.014773989985784
 23
110.45766185851311
 33
0.0
210
0.0
220
0.0
230
-1.0
  0
SOLID
  5
673AE
  8
S-OBRYS
  6
CONTINUOUS
 10
-81.835969744916312
 20
110.45766185851311
 30
0.0
 11
-98.994949366115677
 21
98.992398227135112
 31
0.0
 12
-29.108686348926501
 22
98.992398227135112
 32
0.0
 13
-29.108686348926501
 23
98.992398227135112
 33
0.0
210
0.0
220
0.0
230
1.0
  0
SOLID
  5
673AF
  8
S-OBRYS
  6
CONTINUOUS
 10
81.835969744916312
 20
110.45766185851311
 30
0.0
 11
6.3230180733350423
 21
110.45766185851311
 31
0.0
 12
29.108686348926501
 22
98.992398227135112
 32
0.0
 13
29.108686348926501
 23
98.992398227135112
 33
0.0
210
0.0
220
0.0
230
-1.0
  0
SOLID
  5
673B0
  8
S-OBRYS
  6
CONTINUOUS
 10
-98.994949366115677
 20
98.992398227135112
 30
0.0
 11
-105.1474220648437
 21
89.784572131576567
 31
0.0
 12
-47.408001366728207
 22
89.784572131576567
 32
0.0
 13
-47.408001366728207
 23
89.784572131576567
 33
0.0
210
0.0
220
0.0
230
1.0
  0
SOLID
  5
673B1
  8
S-OBRYS
  6
CONTINUOUS
 10
98.994949366115677
 20
98.992398227135112
 30
0.0
 11
29.108686348926501
 21
98.992398227135112
 31
0.0
 12
47.408001366728207
 22
89.784572131576567
 32
0.0
 13
47.408001366728207
 23
89.784572131576567
 33
0.0
210
0.0
220
0.0
230
-1.0
  0
SOLID
  5
673B2
  8
S-OBRYS
  6
CONTINUOUS
 10
-105.1474220648437
 20
89.784572131576567
 30
0.0
 11
-129.34313455157911
 21
53.573129392131037
 31
0.0
 12
-79.374828760212864
 22
53.573129392131037
 32
0.0
 13
-79.374828760212864
 23
53.573129392131037
 33
0.0
210
0.0
220
0.0
230
1.0
  0
SOLID
  5
673B3
  8
S-OBRYS
  6
CONTINUOUS
 10
105.1474220648437
 20
89.784572131576567
 30
0.0
 11
47.408001366728207
 21
89.784572131576567
 31
0.0
 12
79.374828760212864
 22
53.573129392131037
 32
0.0
 13
79.374828760212864
 23
53.573129392131037
 33
0.0
210
0.0
220
0.0
230
-1.0
  0
SOLID
  5
673B4
  8
S-OBRYS
  6
CONTINUOUS
 10
-129.34313455157911
 20
53.573129392131037
 30
0.0
 11
-130.0542390623242
 21
49.998165602233577
 31
0.0
 12
-82.530744177112922
 22
49.998165602233577
 32
0.0
 13
-82.530744177112922
 23
49.998165602233577
 33
0.0
210
0.0
220
0.0
230
1.0
  0
SOLID
  5
673B5
  8
S-OBRYS
  6
CONTINUOUS
 10
129.34313455157911
 20
53.573129392131037
 30
0.0
 11
79.374828760212864
 21
53.573129392131037
 31
0.0
 12
82.530744177112922
 22
49.998165602233577
 32
0.0
 13
82.530744177112922
 23
49.998165602233577
 33
0.0
210
0.0
220
0.0
230
-1.0
  0
SOLID
  5
673B6
  8
S-OBRYS
  6
CONTINUOUS
 10
-130.0542390623242
 20
49.998165602233577
 30
0.0
 11
-139.99999999999909
 21
-0.0025511389815165
 31
0.0
 12
-100.3210092793351
 22
-0.0025511389815165
 32
0.0
 13
-100.3210092793351
 23
-0.0025511389815165
 33
0.0
210
0.0
220
0.0
230
1.0
  0
SOLID
  5
673B7
  8
S-OBRYS
  6
CONTINUOUS
 10
130.0542390623242
 20
49.998165602233577
 30
0.0
 11
82.530744177112922
 21
49.998165602233577
 31
0.0
 12
100.3210092793351
 22
-0.0025511389815165
 32
0.0
 13
100.3210092793351
 23
-0.0025511389815165
 33
0.0
210
0.0
220
0.0
230
-1.0
  0
SOLID
  5
673B8
  8
S-OBRYS
  6
CONTINUOUS
 10
-139.99999999999909
 20
-0.0025511389815165
 30
0.0
 11
-139.99999999999909
 21
-0.0025511389815165
 31
0.0
 12
-100.3210092793351
 22
-0.0025511389815165
 32
0.0
 13
-100.3210092793351
 23
-0.0025511389815165
 33
0.0
210
0.0
220
0.0
230
1.0
  0
SOLID
  5
673B9
  8
S-OBRYS
  6
CONTINUOUS
 10
-139.99999999999909
 20
-0.0025511389815165
 30
0.0
 11
-139.99999999999909
 21
-0.0025511389815165
 31
0.0
 12
-100.3210092793351
 22
-0.0025511389815165
 32
0.0
 13
-100.3210092793351
 23
-0.0025511389815165
 33
0.0
210
0.0
220
0.0
230
1.0
  0
SOLID
  5
673BA
  8
S-OBRYS
  6
CONTINUOUS
 10
-139.99999999999909
 20
-0.0025511389815165
 30
0.0
 11
-129.84246727386059
 21
-49.210929550002639
 31
0.0
 12
-99.06190873285847
 22
-49.210929550002639
 32
0.0
 13
-99.06190873285847
 23
-49.210929550002639
 33
0.0
210
0.0
220
0.0
230
1.0
  0
SOLID
  5
673BB
  8
S-OBRYS
  6
CONTINUOUS
 10
139.99999999999909
 20
-0.0025511389815165
 30
0.0
 11
100.3210092793351
 21
-0.0025511389815165
 31
0.0
 12
99.06190873285847
 22
-49.210929550002639
 32
0.0
 13
99.06190873285847
 23
-49.210929550002639
 33
0.0
210
0.0
220
0.0
230
-1.0
  0
SOLID
  5
673BC
  8
S-OBRYS
  6
CONTINUOUS
 10
-129.84246727386059
 20
-49.210929550002639
 30
0.0
 11
-128.5571280787878
 21
-55.437781995665958
 31
0.0
 12
-96.581884865961825
 22
-55.437781995665958
 32
0.0
 13
-96.581884865961825
 23
-55.437781995665958
 33
0.0
210
0.0
220
0.0
230
1.0
  0
SOLID
  5
673BD
  8
S-OBRYS
  6
CONTINUOUS
 10
129.84246727386059
 20
-49.210929550002639
 30
0.0
 11
99.06190873285847
 21
-49.210929550002639
 31
0.0
 12
96.581884865961825
 22
-55.437781995665958
 32
0.0
 13
96.581884865961825
 23
-55.437781995665958
 33
0.0
210
0.0
220
0.0
230
-1.0
  0
SOLID
  5
673BE
  8
S-OBRYS
  6
CONTINUOUS
 10
-128.5571280787878
 20
-55.437781995665958
 30
0.0
 11
-100.90705859159959
 21
-94.941806017968446
 31
0.0
 12
-80.848266112557738
 22
-94.941806017968446
 32
0.0
 13
-80.848266112557738
 23
-94.941806017968446
 33
0.0
210
0.0
220
0.0
230
1.0
  0
SOLID
  5
673BF
  8
S-OBRYS
  6
CONTINUOUS
 10
128.5571280787878
 20
-55.437781995665958
 30
0.0
 11
96.581884865961825
 21
-55.437781995665958
 31
0.0
 12
80.848266112557738
 22
-94.941806017968446
 32
0.0
 13
80.848266112557738
 23
-94.941806017968446
 33
0.0
210
0.0
220
0.0
230
-1.0
  0
SOLID
  5
673C0
  8
S-OBRYS
  6
CONTINUOUS
 10
-100.90705859159959
 20
-94.941806017968446
 30
0.0
 11
-96.099073998086027
 21
-101.81103790069579
 31
0.0
 12
-74.67034594858022
 22
-101.81103790069579
 32
0.0
 13
-74.67034594858022
 23
-101.81103790069579
 33
0.0
210
0.0
220
0.0
230
1.0
  0
SOLID
  5
673C1
  8
S-OBRYS
  6
CONTINUOUS
 10
100.90705859159959
 20
-94.941806017968446
 30
0.0
 11
80.848266112557738
 21
-94.941806017968446
 31
0.0
 12
74.67034594858022
 22
-101.81103790069579
 32
0.0
 13
74.67034594858022
 23
-101.81103790069579
 33
0.0
210
0.0
220
0.0
230
-1.0
  0
SOLID
  5
673C2
  8
S-OBRYS
  6
CONTINUOUS
 10
96.099073998086027
 20
-101.81103790069579
 30
0.0
 11
74.67034594858022
 21
-101.81103790069579
 31
0.0
 12
47.931742838711259
 22
-131.54170131277371
 32
0.0
 13
47.931742838711259
 23
-131.54170131277371
 33
0.0
210
0.0
220
0.0
230
-1.0
  0
LINE
  5
673C3
  8
S-OBRYS
  6
CONTINUOUS
 10
0.0000000000008972
 20
132.40671934395951
 30
0.0
 11
0.0000000000009095
 21
139.99744886101851
 31
0.0
  0
LINE
  5
673C4
  8
S-OBRYS
  6
CONTINUOUS
 10
0.0000000000009308
 20
139.99744886101851
 30
0.0
 11
0.0000000000009263
 21
132.40671934395951
 31
0.0
  0
LINE
  5
673C5
  8
S-OBRYS
  6
CONTINUOUS
 10
-38.161174275154998
 20
132.40671934395951
 30
0.0
 11
-53.575680531111601
 21
129.34058341259859
 31
0.0
  0
LINE
  5
673C6
  8
S-OBRYS
  6
CONTINUOUS
 10
0.0000000000008972
 20
132.40671934395951
 30
0.0
 11
0.0000000000008923
 21
129.34058341259859
 31
0.0
  0
LINE
  5
673C7
  8
S-OBRYS
  6
CONTINUOUS
 10
0.0000000000009263
 20
132.40671934395951
 30
0.0
 11
0.0000000000009236
 21
129.34058341259859
 31
0.0
  0
LINE
  5
673C8
  8
S-OBRYS
  6
CONTINUOUS
 10
45.472905011396342
 20
132.40671934395951
 30
0.0
 11
51.136331847933711
 21
129.34058341259859
 31
0.0
  0
LINE
  5
673C9
  8
S-OBRYS
  6
CONTINUOUS
 10
-53.575680531111601
 20
129.34058341259859
 30
0.0
 11
-69.31660138571813
 21
118.82283635637209
 31
0.0
  0
LINE
  5
673CA
  8
S-OBRYS
  6
CONTINUOUS
 10
0.0000000000008923
 20
129.34058341259859
 30
0.0
 11
0.0000000000008752
 21
118.82283635637209
 31
0.0
  0
LINE
  5
673CB
  8
S-OBRYS
  6
CONTINUOUS
 10
0.0000000000009236
 20
129.34058341259859
 30
0.0
 11
0.0000000000009141
 21
118.82283635637209
 31
0.0
  0
LINE
  5
673CC
  8
S-OBRYS
  6
CONTINUOUS
 10
51.136331847933711
 20
129.34058341259859
 30
0.0
 11
70.563549776822697
 21
118.82283635637209
 31
0.0
  0
LINE
  5
673CD
  8
S-OBRYS
  6
CONTINUOUS
 10
-69.31660138571813
 20
118.82283635637209
 30
0.0
 11
-77.074356569801722
 21
113.6392700641597
 31
0.0
  0
LINE
  5
673CE
  8
S-OBRYS
  6
CONTINUOUS
 10
43.257964790378153
 20
118.82283635637209
 30
0.0
 11
0.0000000000008669
 21
113.6392700641597
 31
0.0
  0
LINE
  5
673CF
  8
S-OBRYS
  6
CONTINUOUS
 10
0.0000000000008669
 20
113.6392700641597
 30
0.0
 11
0.0000000000009141
 21
118.82283635637209
 31
0.0
  0
LINE
  5
673D0
  8
S-OBRYS
  6
CONTINUOUS
 10
70.563549776822697
 20
118.82283635637209
 30
0.0
 11
80.138059552472512
 21
113.6392700641597
 31
0.0
  0
LINE
  5
673D1
  8
S-OBRYS
  6
CONTINUOUS
 10
-77.074356569801722
 20
113.6392700641597
 30
0.0
 11
-81.835969744916312
 21
110.45766185851311
 31
0.0
  0
LINE
  5
673D2
  8
S-OBRYS
  6
CONTINUOUS
 10
0.0000000000009095
 20
113.6392700641597
 30
0.0
 11
-6.3230180733350423
 21
110.45766185851311
 31
0.0
  0
LINE
  5
673D3
  8
S-OBRYS
  6
CONTINUOUS
 10
80.138059552472512
 20
113.6392700641597
 30
0.0
 11
86.014773989985784
 21
110.45766185851311
 31
0.0
  0
LINE
  5
673D4
  8
S-OBRYS
  6
CONTINUOUS
 10
86.014773989985784
 20
110.45766185851311
 30
0.0
 11
69.752660745180563
 21
113.6392700641597
 31
0.0
  0
LINE
  5
673D5
  8
S-OBRYS
  6
CONTINUOUS
 10
-81.835969744916312
 20
110.45766185851311
 30
0.0
 11
-98.994949366115677
 21
98.992398227135112
 31
0.0
  0
LINE
  5
673D6
  8
S-OBRYS
  6
CONTINUOUS
 10
-6.3230180733350423
 20
110.45766185851311
 30
0.0
 11
-29.108686348926501
 21
98.992398227135112
 31
0.0
  0
LINE
  5
673D7
  8
S-OBRYS
  6
CONTINUOUS
 10
-98.994949366115677
 20
98.992398227135112
 30
0.0
 11
-105.1474220648437
 21
89.784572131576567
 31
0.0
  0
LINE
  5
673D8
  8
S-OBRYS
  6
CONTINUOUS
 10
-29.108686348926501
 20
98.992398227135112
 30
0.0
 11
-47.408001366728207
 21
89.784572131576567
 31
0.0
  0
LINE
  5
673D9
  8
S-OBRYS
  6
CONTINUOUS
 10
-105.1474220648437
 20
89.784572131576567
 30
0.0
 11
-129.34313455157911
 21
53.573129392131037
 31
0.0
  0
LINE
  5
673DA
  8
S-OBRYS
  6
CONTINUOUS
 10
-47.408001366728207
 20
89.784572131576567
 30
0.0
 11
-79.374828760212864
 21
53.573129392131037
 31
0.0
  0
LINE
  5
673DB
  8
S-OBRYS
  6
CONTINUOUS
 10
-129.34313455157911
 20
53.573129392131037
 30
0.0
 11
-130.0542390623242
 21
49.998165602233577
 31
0.0
  0
LINE
  5
673DC
  8
S-OBRYS
  6
CONTINUOUS
 10
-79.374828760212864
 20
53.573129392131037
 30
0.0
 11
-82.530744177112922
 21
49.998165602233577
 31
0.0
  0
LINE
  5
673DD
  8
S-OBRYS
  6
CONTINUOUS
 10
-130.0542390623242
 20
49.998165602233577
 30
0.0
 11
-139.99999999999909
 21
-0.0025511389815165
 31
0.0
  0
LINE
  5
673DE
  8
S-OBRYS
  6
CONTINUOUS
 10
-82.530744177112922
 20
49.998165602233577
 30
0.0
 11
-100.3210092793351
 21
-0.0025511389815165
 31
0.0
  0
LINE
  5
673DF
  8
S-OBRYS
  6
CONTINUOUS
 10
-139.99999999999909
 20
-0.0025511389815165
 30
0.0
 11
-100.3210092793351
 21
-0.0025511389815165
 31
0.0
  0
LINE
  5
673E0
  8
S-OBRYS
  6
CONTINUOUS
 10
-139.99999999999909
 20
-0.0025511389815165
 30
0.0
 11
-100.3210092793351
 21
-0.0025511389815165
 31
0.0
  0
LINE
  5
673E1
  8
S-OBRYS
  6
CONTINUOUS
 10
-139.99999999999909
 20
-0.0025511389815165
 30
0.0
 11
-129.84246727386059
 21
-49.210929550002639
 31
0.0
  0
LINE
  5
673E2
  8
S-OBRYS
  6
CONTINUOUS
 10
-100.3210092793351
 20
-0.0025511389815165
 30
0.0
 11
-99.06190873285847
 21
-49.210929550002639
 31
0.0
  0
LINE
  5
673E3
  8
S-OBRYS
  6
CONTINUOUS
 10
-129.84246727386059
 20
-49.210929550002639
 30
0.0
 11
-128.5571280787878
 21
-55.437781995665958
 31
0.0
  0
LINE
  5
673E4
  8
S-OBRYS
  6
CONTINUOUS
 10
-99.06190873285847
 20
-49.210929550002639
 30
0.0
 11
-96.581884865961825
 21
-55.437781995665958
 31
0.0
  0
LINE
  5
673E5
  8
S-OBRYS
  6
CONTINUOUS
 10
-128.5571280787878
 20
-55.437781995665958
 30
0.0
 11
-100.90705859159959
 21
-94.941806017968446
 31
0.0
  0
LINE
  5
673E6
  8
S-OBRYS
  6
CONTINUOUS
 10
-96.581884865961825
 20
-55.437781995665958
 30
0.0
 11
-80.848266112557738
 21
-94.941806017968446
 31
0.0
  0
LINE
  5
673E7
  8
S-OBRYS
  6
CONTINUOUS
 10
-100.90705859159959
 20
-94.941806017968446
 30
0.0
 11
-96.099073998086027
 21
-101.81103790069579
 31
0.0
  0
LINE
  5
673E8
  8
S-OBRYS
  6
CONTINUOUS
 10
-80.848266112557738
 20
-94.941806017968446
 30
0.0
 11
-74.67034594858022
 21
-101.81103790069579
 31
0.0
  0
LINE
  5
673E9
  8
S-OBRYS
  6
CONTINUOUS
 10
-74.67034594858022
 20
-101.81103790069579
 30
0.0
 11
-47.931742838711259
 21
-131.54170131277371
 31
0.0
  0
LINE
  5
673EA
  8
S-OBRYS
  6
CONTINUOUS
 10
-47.931742838711259
 20
-131.54170131277371
 30
0.0
 11
-96.099073998086027
 21
-101.81103790069579
 31
0.0
  0
ENDBLK
  5
673EC
  8
0
  0
BLOCK
  8
0
  2
*U101
 70
     1
 10
0.0
 20
0.0
 30
0.0
  3
*U101
  1

  0
SOLID
  5
673F7
  8
S-OBRYS
  6
CONTINUOUS
 10
2000.0000000000421
 20
549.9974488602569
 30
0.0
 11
2000.0000000000421
 21
-0.0025511389934536
 31
0.0
 12
2012.2676761359601
 22
-0.0025511389934536
 32
0.0
 13
2012.2676761359601
 23
-0.0025511389934536
 33
0.0
210
0.0
220
0.0
230
1.0
  0
SOLID
  5
673F8
  8
S-OBRYS
  6
CONTINUOUS
 10
2000.0000000000421
 20
-0.0025511389934536
 30
0.0
 11
2000.0000000000421
 21
-0.0025511389934536
 31
0.0
 12
2012.2676761359601
 22
-0.0025511389934536
 32
0.0
 13
2012.2676761359601
 23
-0.0025511389934536
 33
0.0
210
0.0
220
0.0
230
1.0
  0
SOLID
  5
673F9
  8
S-OBRYS
  6
CONTINUOUS
 10
2000.0000000000421
 20
-0.0025511389934536
 30
0.0
 11
2000.0000000000421
 21
-0.0025511389934536
 31
0.0
 12
2012.2676761359601
 22
-0.0025511389934536
 32
0.0
 13
2012.2676761359601
 23
-0.0025511389934536
 33
0.0
210
0.0
220
0.0
230
1.0
  0
SOLID
  5
673FA
  8
S-OBRYS
  6
CONTINUOUS
 10
2000.0000000000421
 20
-0.0025511389934536
 30
0.0
 11
2000.0000000000421
 21
-526.00255113898993
 31
0.0
 12
2024.0000354950589
 22
-526.00255113898993
 32
0.0
 13
2024.0000354950589
 23
-526.00255113898993
 33
0.0
210
0.0
220
0.0
230
1.0
  0
SOLID
  5
673FB
  8
S-OBRYS
  6
CONTINUOUS
 10
-2000.0000000000421
 20
-0.0025511389934536
 30
0.0
 11
-2012.2676761359601
 21
-0.0025511389934536
 31
0.0
 12
-2024.0000354950589
 22
-526.00255113898993
 32
0.0
 13
-2024.0000354950589
 23
-526.00255113898993
 33
0.0
210
0.0
220
0.0
230
-1.0
  0
SOLID
  5
673FC
  8
S-OBRYS
  6
CONTINUOUS
 10
2000.0000000000421
 20
-526.00255113898993
 30
0.0
 11
2000.0000000000421
 21
-545.98193239837519
 31
0.0
 12
2670.0000000000268
 22
-545.98193239837519
 32
0.0
 13
2670.0000000000268
 23
-545.98193239837519
 33
0.0
  0
SOLID
  5
673FD
  8
S-OBRYS
  6
CONTINUOUS
 10
-2000.0000000000421
 20
-526.00255113898993
 30
0.0
 11
-2024.0000354950589
 21
-526.00255113898993
 31
0.0
 12
-2670.0000000000268
 22
-545.98193239837519
 32
0.0
 13
-2670.0000000000268
 23
-545.98193239837519
 33
0.0
210
0.0
220
0.0
230
-1.0
  0
SOLID
  5
673FE
  8
S-OBRYS
  6
CONTINUOUS
 10
2000.0000000000421
 20
-545.98193239837519
 30
0.0
 11
2000.0000000000421
 21
-550.00255113897902
 31
0.0
 12
2670.0000000000268
 22
-550.00255113897902
 32
0.0
 13
2670.0000000000268
 23
-550.00255113897902
 33
0.0
  0
SOLID
  5
673FF
  8
S-OBRYS
  6
CONTINUOUS
 10
-2000.0000000000421
 20
-545.98193239837519
 30
0.0
 11
-2669.9999999999241
 21
-545.98193239837519
 31
0.0
 12
-2670.0000000000268
 22
-550.00255113897902
 32
0.0
 13
-2670.0000000000268
 23
-550.00255113897902
 33
0.0
210
0.0
220
0.0
230
-1.0
  0
SOLID
  5
67400
  8
S-OBRYS
  6
CONTINUOUS
 10
2670.0000000000268
 20
-545.98193239837519
 30
0.0
 11
2670.0000000000418
 21
-550.00255113897902
 31
0.0
 12
2800.0000000000568
 22
-550.00255113897902
 32
0.0
 13
2800.0000000000568
 23
-550.00255113897902
 33
0.0
  0
SOLID
  5
67401
  8
S-OBRYS
  6
CONTINUOUS
 10
2000.0000000000421
 20
-550.00255113897902
 30
0.0
 11
2000.0000000000421
 21
-550.00255113897902
 31
0.0
 12
2670.0000000000268
 22
-550.00255113897902
 32
0.0
 13
2670.0000000000268
 23
-550.00255113897902
 33
0.0
210
0.0
220
0.0
230
1.0
  0
SOLID
  5
67402
  8
S-OBRYS
  6
CONTINUOUS
 10
2670.0000000000418
 20
-550.00255113897902
 30
0.0
 11
2670.0000000000418
 21
-550.00255113897902
 31
0.0
 12
2800.0000000000568
 22
-550.00255113897902
 32
0.0
 13
2800.0000000000568
 23
-550.00255113897902
 33
0.0
210
0.0
220
0.0
230
1.0
  0
LINE
  5
67403
  8
S-OBRYS
  6
CONTINUOUS
 10
2000.0000000000421
 20
549.9974488602569
 30
0.0
 11
2000.0000000000421
 21
-0.0025511389934536
 31
0.0
  0
LINE
  5
67404
  8
S-OBRYS
  6
CONTINUOUS
 10
2012.2676761359601
 20
-0.0025511389934536
 30
0.0
 11
2000.0000000000421
 21
549.9974488602569
 31
0.0
  0
LINE
  5
67405
  8
S-OBRYS
  6
CONTINUOUS
 10
2000.0000000000421
 20
-0.0025511389934536
 30
0.0
 11
2012.2676761359601
 21
-0.0025511389934536
 31
0.0
  0
LINE
  5
67406
  8
S-OBRYS
  6
CONTINUOUS
 10
2000.0000000000421
 20
-0.0025511389934536
 30
0.0
 11
2012.2676761359601
 21
-0.0025511389934536
 31
0.0
  0
LINE
  5
67407
  8
S-OBRYS
  6
CONTINUOUS
 10
2000.0000000000421
 20
-0.0025511389934536
 30
0.0
 11
2000.0000000000421
 21
-526.00255113898993
 31
0.0
  0
LINE
  5
67408
  8
S-OBRYS
  6
CONTINUOUS
 10
2012.2676761359601
 20
-0.0025511389934536
 30
0.0
 11
2024.0000354950589
 21
-526.00255113898993
 31
0.0
  0
LINE
  5
67409
  8
S-OBRYS
  6
CONTINUOUS
 10
2000.0000000000421
 20
-526.00255113898993
 30
0.0
 11
2000.0000000000421
 21
-545.98193239837519
 31
0.0
  0
LINE
  5
6740A
  8
S-OBRYS
  6
CONTINUOUS
 10
2024.0000354950589
 20
-526.00255113898993
 30
0.0
 11
2670.0000000000268
 21
-545.98193239837519
 31
0.0
  0
LINE
  5
6740B
  8
S-OBRYS
  6
CONTINUOUS
 10
2000.0000000000421
 20
-545.98193239837519
 30
0.0
 11
2000.0000000000421
 21
-550.00255113897902
 31
0.0
  0
LINE
  5
6740C
  8
S-OBRYS
  6
CONTINUOUS
 10
2670.0000000000268
 20
-545.98193239837519
 30
0.0
 11
2670.0000000000418
 21
-550.00255113897902
 31
0.0
  0
LINE
  5
6740D
  8
S-OBRYS
  6
CONTINUOUS
 10
2000.0000000000421
 20
-550.00255113897902
 30
0.0
 11
2670.0000000000268
 21
-550.00255113897902
 31
0.0
  0
LINE
  5
6740E
  8
S-OBRYS
  6
CONTINUOUS
 10
2670.0000000000418
 20
-550.00255113897902
 30
0.0
 11
2800.0000000000568
 21
-550.00255113897902
 31
0.0
  0
ENDBLK
  5
67410
  8
0
  0
BLOCK
  8
0
  2
*X102
 70
     1
 10
0.0
 20
0.0
 30
0.0
  3
*X102
  1

  0
LINE
  5
67417
  8
0
  6
CONTINUOUS
 62
     0
 10
2800.00000000004
 20
654.33382523685566
 30
0.0
 11
2754.3363763758612
 21
699.99744886103508
 31
0.0
  0
LINE
  5
67418
  8
0
  6
CONTINUOUS
 62
     0
 10
2740.0000000000368
 20
624.53126402616181
 30
0.0
 11
2670.00000000004
 21
694.53126402615806
 31
0.0
  0
LINE
  5
67419
  8
0
  6
CONTINUOUS
 62
     0
 10
2670.00000000004
 20
694.53126402615806
 30
0.0
 11
2664.5338151651781
 21
699.99744886102053
 31
0.0
  0
LINE
  5
6741A
  8
0
  6
CONTINUOUS
 62
     0
 10
2741.5338151651699
 20
622.99744886102405
 30
0.0
 11
2740.0000000000368
 21
624.53126402616181
 31
0.0
  0
LINE
  5
6741B
  8
0
  6
CONTINUOUS
 62
     0
 10
2603.2868620971822
 20
671.44184071832569
 30
0.0
 11
2600.0000000000332
 21
674.72870281547512
 31
0.0
  0
LINE
  5
6741C
  8
0
  6
CONTINUOUS
 62
     0
 10
2600.0000000000332
 20
674.72870281547512
 30
0.0
 11
2574.7312539544769
 21
699.99744886103144
 31
0.0
  0
LINE
  5
6741D
  8
0
  6
CONTINUOUS
 62
     0
 10
2651.7312539544769
 20
622.99744886103144
 30
0.0
 11
2609.4443918573311
 21
665.28431095817723
 31
0.0
  0
LINE
  5
6741E
  8
0
  6
CONTINUOUS
 62
     0
 10
2561.9286927437902
 20
622.99744886103497
 30
0.0
 11
2540.0000000000359
 21
644.92614160478468
 31
0.0
  0
LINE
  5
6741F
  8
0
  6
CONTINUOUS
 62
     0
 10
2740.00000000004
 20
-632.70459292351734
 30
0.0
 11
2730.2979582154881
 21
-623.00255113896492
 31
0.0
  0
LINE
  5
67420
  8
0
  6
CONTINUOUS
 62
     0
 10
2800.0000000000441
 20
-692.70459292352098
 30
0.0
 11
2740.00000000004
 21
-632.70459292351734
 31
0.0
  0
LINE
  5
67421
  8
0
  6
CONTINUOUS
 62
     0
 10
2670.00000000004
 20
-652.50715413421494
 30
0.0
 11
2640.495397004805
 21
-623.00255113897936
 31
0.0
  0
LINE
  5
67422
  8
0
  6
CONTINUOUS
 62
     0
 10
2717.4953970047859
 20
-700.00255113896492
 30
0.0
 11
2670.00000000004
 21
-652.50715413421494
 31
0.0
  0
LINE
  5
67423
  8
0
  6
CONTINUOUS
 62
     0
 10
2600.00000000004
 20
-672.30971534490516
 30
0.0
 11
2598.593417944765
 21
-670.9031332896302
 31
0.0
  0
LINE
  5
67424
  8
0
  6
CONTINUOUS
 62
     0
 10
2590.0994178493752
 20
-662.40913319423987
 30
0.0
 11
2550.6928357941042
 21
-623.00255113896856
 31
0.0
  0
LINE
  5
67425
  8
0
  6
CONTINUOUS
 62
     0
 10
2627.6928357941042
 20
-700.00255113896856
 30
0.0
 11
2600.00000000004
 21
-672.30971534490516
 31
0.0
  0
ENDBLK
  5
67427
  8
0
  0
BLOCK
  8
0
  2
*X103
 70
     1
 10
0.0
 20
0.0
 30
0.0
  3
*X103
  1

  0
LINE
  5
67429
  8
0
  6
CONTINUOUS
 62
     0
 10
450.00000000003268
 20
-657.76862319080817
 30
0.0
 11
414.23392794820018
 21
-622.00255113897583
 31
0.0
  0
LINE
  5
6742A
  8
0
  6
CONTINUOUS
 62
     0
 10
388.00000000003638
 20
-685.57118440149861
 30
0.0
 11
324.43136673751718
 21
-622.00255113897947
 31
0.0
  0
LINE
  5
6742B
  8
0
  6
CONTINUOUS
 62
     0
 10
402.43136673751718
 20
-700.00255113897583
 30
0.0
 11
388.00000000003638
 21
-685.57118440149861
 31
0.0
  0
LINE
  5
6742C
  8
0
  6
CONTINUOUS
 62
     0
 10
312.62880552682691
 20
-700.00255113897583
 30
0.0
 11
234.62880552682691
 21
-622.00255113897583
 31
0.0
  0
LINE
  5
6742D
  8
0
  6
CONTINUOUS
 62
     0
 10
222.82624431612561
 20
-700.00255113897583
 30
0.0
 11
144.82624431612561
 21
-622.00255113897583
 31
0.0
  0
LINE
  5
6742E
  8
0
  6
CONTINUOUS
 62
     0
 10
88.000000000032742
 20
-654.97886803356948
 30
0.0
 11
55.023683105442622
 21
-622.00255113897947
 31
0.0
  0
LINE
  5
6742F
  8
0
  6
CONTINUOUS
 62
     0
 10
133.02368310544259
 20
-700.00255113897583
 30
0.0
 11
88.000000000032742
 21
-654.97886803356948
 31
0.0
  0
LINE
  5
67430
  8
0
  6
CONTINUOUS
 62
     0
 10
43.221121894745011
 20
-700.00255113896856
 30
0.0
 11
0.0000000000400178
 21
-656.78142924426345
 31
0.0
  0
ENDBLK
  5
67432
  8
0
  0
BLOCK
  8
0
  2
*X104
 70
     1
 10
0.0
 20
0.0
 30
0.0
  3
*X104
  1

  0
LINE
  5
67434
  8
0
  6
CONTINUOUS
 62
     0
 10
450.00000000003268
 20
664.2313768091916
 30
0.0
 11
414.23392794820018
 21
699.99744886102405
 31
0.0
  0
LINE
  5
67435
  8
0
  6
CONTINUOUS
 62
     0
 10
388.00000000003638
 20
636.42881559850139
 30
0.0
 11
324.43136673751718
 21
699.99744886102053
 31
0.0
  0
LINE
  5
67436
  8
0
  6
CONTINUOUS
 62
     0
 10
402.43136673751718
 20
621.99744886102405
 30
0.0
 11
388.00000000003638
 21
636.42881559850139
 31
0.0
  0
LINE
  5
67437
  8
0
  6
CONTINUOUS
 62
     0
 10
312.62880552682691
 20
621.99744886102405
 30
0.0
 11
234.62880552682691
 21
699.99744886102405
 31
0.0
  0
LINE
  5
67438
  8
0
  6
CONTINUOUS
 62
     0
 10
222.82624431612561
 20
621.99744886102405
 30
0.0
 11
144.82624431612561
 21
699.99744886102405
 31
0.0
  0
LINE
  5
67439
  8
0
  6
CONTINUOUS
 62
     0
 10
88.000000000032742
 20
667.0211319664304
 30
0.0
 11
55.023683105442622
 21
699.99744886102053
 31
0.0
  0
LINE
  5
6743A
  8
0
  6
CONTINUOUS
 62
     0
 10
133.02368310544259
 20
621.99744886102405
 30
0.0
 11
88.000000000032742
 21
667.0211319664304
 31
0.0
  0
LINE
  5
6743B
  8
0
  6
CONTINUOUS
 62
     0
 10
43.221121894745011
 20
621.99744886103144
 30
0.0
 11
0.0000000000400178
 21
665.21857075573644
 31
0.0
  0
ENDBLK
  5
6743D
  8
0
  0
BLOCK
  8
0
  2
*U105
 70
     1
 10
0.0
 20
0.0
 30
0.0
  3
*U105
  1

  0
SOLID
  5
67467
  8
S-OBRYS
  6
CONTINUOUS
 10
23.926472929392531
 20
198.5636582193265
 30
0.0
 11
-38.604115154101692
 21
196.2389538682194
 31
0.0
 12
32.103175268884371
 22
196.2389538682194
 32
0.0
 13
32.103175268884371
 23
196.2389538682194
 33
0.0
210
0.0
220
0.0
230
1.0
  0
SOLID
  5
67468
  8
S-OBRYS
  6
CONTINUOUS
 10
-38.604115154101692
 20
196.2389538682194
 30
0.0
 11
-78.949019672852074
 21
181.45156905484751
 31
0.0
 12
84.114969345357281
 22
181.45156905484751
 32
0.0
 13
84.114969345357281
 23
181.45156905484751
 33
0.0
210
0.0
220
0.0
230
1.0
  0
SOLID
  5
67469
  8
S-OBRYS
  6
CONTINUOUS
 10
38.604115154101692
 20
196.2389538682194
 30
0.0
 11
-32.103175268884371
 21
196.2389538682194
 31
0.0
 12
-84.114969345357281
 22
181.45156905484751
 32
0.0
 13
-84.114969345357281
 23
181.45156905484751
 33
0.0
210
0.0
220
0.0
230
-1.0
  0
SOLID
  5
6746A
  8
S-OBRYS
  6
CONTINUOUS
 10
-78.949019672852074
 20
181.45156905484751
 30
0.0
 11
-97.35586526728747
 21
174.7050142605801
 31
0.0
 12
94.165928679889575
 22
174.7050142605801
 32
0.0
 13
94.165928679889575
 23
174.7050142605801
 33
0.0
210
0.0
220
0.0
230
1.0
  0
SOLID
  5
6746B
  8
S-OBRYS
  6
CONTINUOUS
 10
78.949019672852074
 20
181.45156905484751
 30
0.0
 11
-84.114969345357281
 21
181.45156905484751
 31
0.0
 12
-94.165928679889575
 22
174.7050142605801
 32
0.0
 13
-94.165928679889575
 23
174.7050142605801
 33
0.0
210
0.0
220
0.0
230
-1.0
  0
SOLID
  5
6746C
  8
S-OBRYS
  6
CONTINUOUS
 10
-97.35586526728747
 20
174.7050142605801
 30
0.0
 11
-120.10470635802611
 21
156.84897376239681
 31
0.0
 12
120.7677043114311
 22
156.84897376239681
 32
0.0
 13
120.7677043114311
 23
156.84897376239681
 33
0.0
210
0.0
220
0.0
230
1.0
  0
SOLID
  5
6746D
  8
S-OBRYS
  6
CONTINUOUS
 10
97.35586526728747
 20
174.7050142605801
 30
0.0
 11
-94.165928679889575
 21
174.7050142605801
 31
0.0
 12
-120.7677043114311
 22
156.84897376239681
 32
0.0
 13
-120.7677043114311
 23
156.84897376239681
 33
0.0
210
0.0
220
0.0
230
-1.0
  0
SOLID
  5
6746E
  8
S-OBRYS
  6
CONTINUOUS
 10
-120.10470635802611
 20
156.84897376239681
 30
0.0
 11
-122.92408311457839
 21
154.63598606144839
 31
0.0
 12
6.5672195654880881
 22
154.63598606144839
 32
0.0
 13
6.5672195654880881
 23
154.63598606144839
 33
0.0
  0
SOLID
  5
6746F
  8
S-OBRYS
  6
CONTINUOUS
 10
120.10470635802611
 20
156.84897376239681
 30
0.0
 11
-69.249698635440552
 21
156.84897376239681
 31
0.0
 12
-6.5672195654880881
 22
154.63598606144839
 32
0.0
 13
-6.5672195654880881
 23
154.63598606144839
 33
0.0
210
0.0
220
0.0
230
-1.0
  0
SOLID
  5
67470
  8
S-OBRYS
  6
CONTINUOUS
 10
69.249698635440552
 20
156.84897376239681
 30
0.0
 11
76.956701167932707
 21
154.63598606144839
 31
0.0
 12
124.0645943639587
 22
154.63598606144839
 32
0.0
 13
124.0645943639587
 23
154.63598606144839
 33
0.0
  0
SOLID
  5
67471
  8
S-OBRYS
  6
CONTINUOUS
 10
-69.249698635440552
 20
156.84897376239681
 30
0.0
 11
-120.7677043114311
 21
156.84897376239681
 31
0.0
 12
-124.0645943639587
 22
154.63598606144839
 32
0.0
 13
-124.0645943639587
 23
154.63598606144839
 33
0.0
210
0.0
220
0.0
230
-1.0
  0
SOLID
  5
67472
  8
S-OBRYS
  6
CONTINUOUS
 10
-122.92408311457839
 20
154.63598606144839
 30
0.0
 11
-133.19040334997061
 21
146.5777368891373
 31
0.0
 12
-15.4949380520486
 22
146.5777368891373
 32
0.0
 13
-15.4949380520486
 23
146.5777368891373
 33
0.0
210
0.0
220
0.0
230
1.0
  0
SOLID
  5
67473
  8
S-OBRYS
  6
CONTINUOUS
 10
122.92408311457839
 20
154.63598606144839
 30
0.0
 11
-6.5672195654880881
 21
154.63598606144839
 31
0.0
 12
15.4949380520486
 22
146.5777368891373
 32
0.0
 13
15.4949380520486
 23
146.5777368891373
 33
0.0
210
0.0
220
0.0
230
-1.0
  0
SOLID
  5
67474
  8
S-OBRYS
  6
CONTINUOUS
 10
76.956701167932707
 20
154.63598606144839
 30
0.0
 11
105.0205475019353
 21
146.5777368891373
 31
0.0
 12
136.06970470668469
 22
146.5777368891373
 32
0.0
 13
136.06970470668469
 23
146.5777368891373
 33
0.0
210
0.0
220
0.0
230
1.0
  0
SOLID
  5
67475
  8
S-OBRYS
  6
CONTINUOUS
 10
-76.956701167932707
 20
154.63598606144839
 30
0.0
 11
-124.0645943639587
 21
154.63598606144839
 31
0.0
 12
-136.06970470668469
 22
146.5777368891373
 32
0.0
 13
-136.06970470668469
 23
146.5777368891373
 33
0.0
210
0.0
220
0.0
230
-1.0
  0
SOLID
  5
67476
  8
S-OBRYS
  6
CONTINUOUS
 10
-133.19040334997061
 20
146.5777368891373
 30
0.0
 11
-142.1583566531657
 21
139.5386030392437
 31
0.0
 12
-34.766925945015558
 22
139.5386030392437
 32
0.0
 13
-34.766925945015558
 23
139.5386030392437
 33
0.0
210
0.0
220
0.0
230
1.0
  0
SOLID
  5
67477
  8
S-OBRYS
  6
CONTINUOUS
 10
133.19040334997061
 20
146.5777368891373
 30
0.0
 11
15.4949380520486
 21
146.5777368891373
 31
0.0
 12
34.766925945015558
 22
139.5386030392437
 32
0.0
 13
34.766925945015558
 23
139.5386030392437
 33
0.0
210
0.0
220
0.0
230
-1.0
  0
SOLID
  5
67478
  8
S-OBRYS
  6
CONTINUOUS
 10
-105.0205475019353
 20
146.5777368891373
 30
0.0
 11
-136.0697047066846
 21
146.5777368891373
 31
0.0
 12
-129.53519906752251
 22
139.5386030392437
 32
0.0
 13
-129.53519906752251
 23
139.5386030392437
 33
0.0
210
0.0
220
0.0
230
-1.0
  0
SOLID
  5
67479
  8
S-OBRYS
  6
CONTINUOUS
 10
136.0697047066846
 20
146.5777368891373
 30
0.0
 11
129.5351990675228
 21
139.5386030392437
 31
0.0
 12
143.09108860080289
 22
139.5386030392437
 32
0.0
 13
143.09108860080289
 23
139.5386030392437
 33
0.0
210
0.0
220
0.0
230
1.0
  0
SOLID
  5
6747A
  8
S-OBRYS
  6
CONTINUOUS
 10
-142.1583566531657
 20
139.5386030392437
 30
0.0
 11
-146.577746761573
 21
136.06973144098379
 31
0.0
 12
-44.264124445500642
 22
136.06973144098379
 32
0.0
 13
-44.264124445500642
 23
136.06973144098379
 33
0.0
210
0.0
220
0.0
230
1.0
  0
SOLID
  5
6747B
  8
S-OBRYS
  6
CONTINUOUS
 10
142.1583566531657
 20
139.5386030392437
 30
0.0
 11
34.766925945015558
 21
139.5386030392437
 31
0.0
 12
44.264124445500642
 22
136.06973144098379
 32
0.0
 13
44.264124445500642
 23
136.06973144098379
 33
0.0
210
0.0
220
0.0
230
-1.0
  0
SOLID
  5
6747C
  8
S-OBRYS
  6
CONTINUOUS
 10
129.53519906752311
 20
139.5386030392437
 30
0.0
 11
136.25658556636
 21
136.06973144098379
 31
0.0
 12
146.55121305505739
 22
136.06973144098379
 32
0.0
 13
146.55121305505739
 23
136.06973144098379
 33
0.0
210
0.0
220
0.0
230
1.0
  0
SOLID
  5
6747D
  8
S-OBRYS
  6
CONTINUOUS
 10
-129.53519906752311
 20
139.5386030392437
 30
0.0
 11
-143.09108860080289
 21
139.5386030392437
 31
0.0
 12
-146.55121305505739
 22
136.06973144098379
 32
0.0
 13
-146.55121305505739
 23
136.06973144098379
 33
0.0
210
0.0
220
0.0
230
-1.0
  0
SOLID
  5
6747E
  8
S-OBRYS
  6
CONTINUOUS
 10
-146.577746761573
 20
136.06973144098379
 30
0.0
 11
-146.82644713633809
 21
135.69921976065609
 31
0.0
 12
-146.17862225930841
 22
135.69921976065609
 32
0.0
 13
-146.17862225930841
 23
135.69921976065609
 33
0.0
210
0.0
220
0.0
230
1.0
  0
SOLID
  5
6747F
  8
S-OBRYS
  6
CONTINUOUS
 10
-146.577746761573
 20
136.06973144098379
 30
0.0
 11
-146.1786222593083
 21
135.69921976065609
 31
0.0
 12
-45.27852433755357
 22
135.69921976065609
 32
0.0
 13
-45.27852433755357
 23
135.69921976065609
 33
0.0
210
0.0
220
0.0
230
1.0
  0
SOLID
  5
67480
  8
S-OBRYS
  6
CONTINUOUS
 10
146.577746761573
 20
136.06973144098379
 30
0.0
 11
44.264124445500642
 21
136.06973144098379
 31
0.0
 12
45.27852433755357
 22
135.69921976065609
 32
0.0
 13
45.27852433755357
 23
135.69921976065609
 33
0.0
210
0.0
220
0.0
230
-1.0
  0
SOLID
  5
67481
  8
S-OBRYS
  6
CONTINUOUS
 10
136.25658556636
 20
136.06973144098379
 30
0.0
 11
136.9744997742728
 21
135.69921976065609
 31
0.0
 12
146.92079044913899
 22
135.69921976065609
 32
0.0
 13
146.92079044913899
 23
135.69921976065609
 33
0.0
  0
SOLID
  5
67482
  8
S-OBRYS
  6
CONTINUOUS
 10
-136.25658556636
 20
136.06973144098379
 30
0.0
 11
-146.55121305505739
 21
136.06973144098379
 31
0.0
 12
-146.92079044913899
 22
135.69921976065609
 32
0.0
 13
-146.92079044913899
 23
135.69921976065609
 33
0.0
210
0.0
220
0.0
230
-1.0
  0
SOLID
  5
67483
  8
S-OBRYS
  6
CONTINUOUS
 10
-146.82644713633809
 20
135.69921976065609
 30
0.0
 11
-148.55953071023251
 21
133.1172867510318
 31
0.0
 12
-143.39729907285621
 22
133.1172867510318
 32
0.0
 13
-143.39729907285621
 23
133.1172867510318
 33
0.0
210
0.0
220
0.0
230
1.0
  0
SOLID
  5
67484
  8
S-OBRYS
  6
CONTINUOUS
 10
146.82644713633809
 20
135.69921976065609
 30
0.0
 11
146.17862225930841
 21
135.69921976065609
 31
0.0
 12
143.39729907285621
 22
133.1172867510318
 32
0.0
 13
143.39729907285621
 23
133.1172867510318
 33
0.0
210
0.0
220
0.0
230
-1.0
  0
SOLID
  5
67485
  8
S-OBRYS
  6
CONTINUOUS
 10
-146.1786222593083
 20
135.69921976065609
 30
0.0
 11
-143.39729907285621
 21
133.1172867510318
 31
0.0
 12
-52.347431217720782
 22
133.1172867510318
 32
0.0
 13
-52.347431217720782
 23
133.1172867510318
 33
0.0
210
0.0
220
0.0
230
1.0
  0
SOLID
  5
67486
  8
S-OBRYS
  6
CONTINUOUS
 10
146.1786222593083
 20
135.69921976065609
 30
0.0
 11
45.27852433755357
 21
135.69921976065609
 31
0.0
 12
52.347431217720782
 22
133.1172867510318
 32
0.0
 13
52.347431217720782
 23
133.1172867510318
 33
0.0
210
0.0
220
0.0
230
-1.0
  0
SOLID
  5
67487
  8
S-OBRYS
  6
CONTINUOUS
 10
136.9744997742728
 20
135.69921976065609
 30
0.0
 11
141.9773282676926
 21
133.1172867510318
 31
0.0
 12
149.1279024510051
 22
133.1172867510318
 32
0.0
 13
149.1279024510051
 23
133.1172867510318
 33
0.0
210
0.0
220
0.0
230
1.0
  0
SOLID
  5
67488
  8
S-OBRYS
  6
CONTINUOUS
 10
-136.9744997742728
 20
135.69921976065609
 30
0.0
 11
-146.92079044913899
 21
135.69921976065609
 31
0.0
 12
-149.1279024510051
 22
133.1172867510318
 32
0.0
 13
-149.1279024510051
 23
133.1172867510318
 33
0.0
210
0.0
220
0.0
230
-1.0
  0
SOLID
  5
67489
  8
S-OBRYS
  6
CONTINUOUS
 10
-148.55953071023251
 20
133.1172867510318
 30
0.0
 11
-149.09588464192939
 21
132.3182312744525
 31
0.0
 12
-142.53653641325681
 22
132.3182312744525
 32
0.0
 13
-142.53653641325681
 23
132.3182312744525
 33
0.0
210
0.0
220
0.0
230
1.0
  0
SOLID
  5
6748A
  8
S-OBRYS
  6
CONTINUOUS
 10
148.55953071023251
 20
133.1172867510318
 30
0.0
 11
143.39729907285621
 21
133.1172867510318
 31
0.0
 12
142.53653641325681
 22
132.3182312744525
 32
0.0
 13
142.53653641325681
 23
132.3182312744525
 33
0.0
210
0.0
220
0.0
230
-1.0
  0
SOLID
  5
6748B
  8
S-OBRYS
  6
CONTINUOUS
 10
-143.39729907285621
 20
133.1172867510318
 30
0.0
 11
-142.5365364132567
 21
132.3182312744525
 31
0.0
 12
-53.3662231178794
 22
132.3182312744525
 32
0.0
 13
-53.3662231178794
 23
132.3182312744525
 33
0.0
210
0.0
220
0.0
230
1.0
  0
SOLID
  5
6748C
  8
S-OBRYS
  6
CONTINUOUS
 10
143.39729907285621
 20
133.1172867510318
 30
0.0
 11
52.347431217720782
 21
133.1172867510318
 31
0.0
 12
53.3662231178794
 22
132.3182312744525
 32
0.0
 13
53.3662231178794
 23
132.3182312744525
 33
0.0
210
0.0
220
0.0
230
-1.0
  0
SOLID
  5
6748D
  8
S-OBRYS
  6
CONTINUOUS
 10
141.9773282676926
 20
133.1172867510318
 30
0.0
 11
143.5256013991617
 21
132.3182312744525
 31
0.0
 12
149.81095848922959
 22
132.3182312744525
 32
0.0
 13
149.81095848922959
 23
132.3182312744525
 33
0.0
210
0.0
220
0.0
230
1.0
  0
SOLID
  5
6748E
  8
S-OBRYS
  6
CONTINUOUS
 10
-141.9773282676926
 20
133.1172867510318
 30
0.0
 11
-149.1279024510051
 21
133.1172867510318
 31
0.0
 12
-149.81095848922959
 22
132.3182312744525
 32
0.0
 13
-149.81095848922959
 23
132.3182312744525
 33
0.0
210
0.0
220
0.0
230
-1.0
  0
SOLID
  5
6748F
  8
S-OBRYS
  6
CONTINUOUS
 10
-149.09588464192939
 20
132.3182312744525
 30
0.0
 11
-154.6660961334224
 21
124.0197780797475
 31
0.0
 12
-133.5972338844588
 22
124.0197780797475
 32
0.0
 13
-133.5972338844588
 23
124.0197780797475
 33
0.0
210
0.0
220
0.0
230
1.0
  0
SOLID
  5
67490
  8
S-OBRYS
  6
CONTINUOUS
 10
149.09588464192939
 20
132.3182312744525
 30
0.0
 11
142.53653641325681
 21
132.3182312744525
 31
0.0
 12
133.5972338844588
 22
124.0197780797475
 32
0.0
 13
133.5972338844588
 23
124.0197780797475
 33
0.0
210
0.0
220
0.0
230
-1.0
  0
SOLID
  5
67491
  8
S-OBRYS
  6
CONTINUOUS
 10
-142.5365364132567
 20
132.3182312744525
 30
0.0
 11
-133.59723388445869
 21
124.0197780797475
 31
0.0
 12
-63.946711139565778
 22
124.0197780797475
 32
0.0
 13
-63.946711139565778
 23
124.0197780797475
 33
0.0
210
0.0
220
0.0
230
1.0
  0
SOLID
  5
67492
  8
S-OBRYS
  6
CONTINUOUS
 10
142.5365364132567
 20
132.3182312744525
 30
0.0
 11
53.3662231178794
 21
132.3182312744525
 31
0.0
 12
63.946711139565778
 22
124.0197780797475
 32
0.0
 13
63.946711139565778
 23
124.0197780797475
 33
0.0
210
0.0
220
0.0
230
-1.0
  0
SOLID
  5
67493
  8
S-OBRYS
  6
CONTINUOUS
 10
-143.5256013991617
 20
132.3182312744525
 30
0.0
 11
-149.81095848922959
 21
132.3182312744525
 31
0.0
 12
-156.90471947167379
 22
124.0197780797475
 32
0.0
 13
-156.90471947167379
 23
124.0197780797475
 33
0.0
210
0.0
220
0.0
230
-1.0
  0
SOLID
  5
67494
  8
S-OBRYS
  6
CONTINUOUS
 10
-154.6660961334224
 20
124.0197780797475
 30
0.0
 11
-174.54172651883511
 21
94.409234795978335
 31
0.0
 12
-101.7000118064241
 22
94.409234795978335
 32
0.0
 13
-101.7000118064241
 23
94.409234795978335
 33
0.0
  0
SOLID
  5
67495
  8
S-OBRYS
  6
CONTINUOUS
 10
154.6660961334224
 20
124.0197780797475
 30
0.0
 11
133.5972338844588
 21
124.0197780797475
 31
0.0
 12
101.7000118064241
 22
94.409234795978335
 32
0.0
 13
101.7000118064241
 23
94.409234795978335
 33
0.0
210
0.0
220
0.0
230
-1.0
  0
SOLID
  5
67496
  8
S-OBRYS
  6
CONTINUOUS
 10
133.59723388445869
 20
124.0197780797475
 30
0.0
 11
63.946711139565778
 21
124.0197780797475
 31
0.0
 12
101.7000118064241
 22
94.409234795978335
 32
0.0
 13
101.7000118064241
 23
94.409234795978335
 33
0.0
210
0.0
220
0.0
230
-1.0
  0
SOLID
  5
67497
  8
S-OBRYS
  6
CONTINUOUS
 10
-174.54172651883511
 20
94.409234795978335
 30
0.0
 11
-181.4515789272838
 21
84.114996079656194
 31
0.0
 12
-108.6042812278811
 22
84.114996079656194
 32
0.0
 13
-108.6042812278811
 23
84.114996079656194
 33
0.0
210
0.0
220
0.0
230
1.0
  0
SOLID
  5
67498
  8
S-OBRYS
  6
CONTINUOUS
 10
174.54172651883511
 20
94.409234795978335
 30
0.0
 11
101.7000118064241
 21
94.409234795978335
 31
0.0
 12
108.6042812278811
 22
84.114996079656194
 32
0.0
 13
108.6042812278811
 23
84.114996079656194
 33
0.0
210
0.0
220
0.0
230
-1.0
  0
SOLID
  5
67499
  8
S-OBRYS
  6
CONTINUOUS
 10
-181.4515789272838
 20
84.114996079656194
 30
0.0
 11
-193.33459639556139
 21
42.31875790992347
 31
0.0
 12
-136.6367076247617
 22
42.31875790992347
 32
0.0
 13
-136.6367076247617
 23
42.31875790992347
 33
0.0
210
0.0
220
0.0
230
1.0
  0
SOLID
  5
6749A
  8
S-OBRYS
  6
CONTINUOUS
 10
181.4515789272838
 20
84.114996079656194
 30
0.0
 11
108.6042812278811
 21
84.114996079656194
 31
0.0
 12
136.6367076247617
 22
42.31875790992347
 32
0.0
 13
136.6367076247617
 23
42.31875790992347
 33
0.0
210
0.0
220
0.0
230
-1.0
  0
SOLID
  5
6749B
  8
S-OBRYS
  6
CONTINUOUS
 10
-193.33459639556139
 20
42.31875790992347
 30
0.0
 11
-198.56366809176311
 21
23.926499663690979
 31
0.0
 12
-141.8434835426128
 22
23.926499663690979
 32
0.0
 13
-141.8434835426128
 23
23.926499663690979
 33
0.0
210
0.0
220
0.0
230
1.0
  0
SOLID
  5
6749C
  8
S-OBRYS
  6
CONTINUOUS
 10
193.33459639556139
 20
42.31875790992347
 30
0.0
 11
136.6367076247617
 21
42.31875790992347
 31
0.0
 12
141.8434835426128
 22
23.926499663690979
 32
0.0
 13
141.8434835426128
 23
23.926499663690979
 33
0.0
210
0.0
220
0.0
230
-1.0
  0
SOLID
  5
6749D
  8
S-OBRYS
  6
CONTINUOUS
 10
-198.56366809176311
 20
23.926499663690979
 30
0.0
 11
-197.0038088360742
 21
-18.031057880888529
 31
0.0
 12
-153.72150293915519
 22
-18.031057880888529
 32
0.0
 13
-153.72150293915519
 23
-18.031057880888529
 33
0.0
210
0.0
220
0.0
230
1.0
  0
SOLID
  5
6749E
  8
S-OBRYS
  6
CONTINUOUS
 10
198.56366809176311
 20
23.926499663690979
 30
0.0
 11
141.8434835426128
 21
23.926499663690979
 31
0.0
 12
153.72150293915519
 22
-18.031057880888529
 32
0.0
 13
153.72150293915519
 23
-18.031057880888529
 33
0.0
210
0.0
220
0.0
230
-1.0
  0
SOLID
  5
6749F
  8
S-OBRYS
  6
CONTINUOUS
 10
-197.0038088360742
 20
-18.031057880888529
 30
0.0
 11
-196.238963740656
 21
-38.60408841980378
 31
0.0
 12
-152.9181325828894
 22
-38.60408841980378
 32
0.0
 13
-152.9181325828894
 23
-38.60408841980378
 33
0.0
  0
SOLID
  5
674A0
  8
S-OBRYS
  6
CONTINUOUS
 10
197.0038088360742
 20
-18.031057880888529
 30
0.0
 11
153.72150293915519
 21
-18.031057880888529
 31
0.0
 12
152.9181325828894
 22
-38.60408841980378
 32
0.0
 13
152.9181325828894
 23
-38.60408841980378
 33
0.0
210
0.0
220
0.0
230
-1.0
  0
SOLID
  5
674A1
  8
S-OBRYS
  6
CONTINUOUS
 10
-196.238963740656
 20
-38.60408841980378
 30
0.0
 11
-180.80802484871359
 21
-80.704822531160019
 31
0.0
 12
-151.2741121893886
 22
-80.704822531160019
 32
0.0
 13
-151.2741121893886
 23
-80.704822531160019
 33
0.0
210
0.0
220
0.0
230
1.0
  0
SOLID
  5
674A2
  8
S-OBRYS
  6
CONTINUOUS
 10
196.238963740656
 20
-38.60408841980378
 30
0.0
 11
152.9181325828894
 21
-38.60408841980378
 31
0.0
 12
151.2741121893886
 22
-80.704822531160019
 32
0.0
 13
151.2741121893886
 23
-80.704822531160019
 33
0.0
210
0.0
220
0.0
230
-1.0
  0
SOLID
  5
674A3
  8
S-OBRYS
  6
CONTINUOUS
 10
-180.80802484871359
 20
-80.704822531160019
 30
0.0
 11
-174.70502413301631
 21
-97.355838532990006
 31
0.0
 12
-145.12161814036139
 22
-97.355838532990006
 32
0.0
 13
-145.12161814036139
 23
-97.355838532990006
 33
0.0
210
0.0
220
0.0
230
1.0
  0
SOLID
  5
674A4
  8
S-OBRYS
  6
CONTINUOUS
 10
180.80802484871359
 20
-80.704822531160019
 30
0.0
 11
151.2741121893886
 21
-80.704822531160019
 31
0.0
 12
145.12161814036139
 22
-97.355838532990006
 32
0.0
 13
145.12161814036139
 23
-97.355838532990006
 33
0.0
210
0.0
220
0.0
230
-1.0
  0
SOLID
  5
674A5
  8
S-OBRYS
  6
CONTINUOUS
 10
-174.70502413301631
 20
-97.355838532990006
 30
0.0
 11
-141.59490448962191
 21
-139.53858617738231
 31
0.0
 12
-129.53523567425751
 22
-139.53858617738231
 32
0.0
 13
-129.53523567425751
 23
-139.53858617738231
 33
0.0
210
0.0
220
0.0
230
1.0
  0
SOLID
  5
674A6
  8
S-OBRYS
  6
CONTINUOUS
 10
174.70502413301631
 20
-97.355838532990006
 30
0.0
 11
145.12161814036139
 21
-97.355838532990006
 31
0.0
 12
129.53523567425751
 22
-139.53858617738231
 32
0.0
 13
129.53523567425751
 23
-139.53858617738231
 33
0.0
210
0.0
220
0.0
230
-1.0
  0
SOLID
  5
674A7
  8
S-OBRYS
  6
CONTINUOUS
 10
141.59490448962191
 20
-139.53858617738231
 30
0.0
 11
129.53523567425759
 21
-139.53858617738231
 31
0.0
 12
136.0697413134194
 22
-146.57772002727569
 32
0.0
 13
136.0697413134194
 23
-146.57772002727569
 33
0.0
210
0.0
220
0.0
230
-1.0
  0
SOLID
  5
674A8
  8
S-OBRYS
  6
CONTINUOUS
 10
-129.53523567425751
 20
-139.53858617738231
 30
0.0
 11
-136.0697413134194
 21
-146.57772002727569
 31
0.0
 12
-125.2121400426451
 22
-146.57772002727569
 32
0.0
 13
-125.2121400426451
 23
-146.57772002727569
 33
0.0
210
0.0
220
0.0
230
1.0
  0
SOLID
  5
674A9
  8
S-OBRYS
  6
CONTINUOUS
 10
-136.0697413134194
 20
-146.57772002727569
 30
0.0
 11
-128.64834715820271
 21
-152.9542450331025
 31
0.0
 12
-121.2959867224501
 22
-152.9542450331025
 32
0.0
 13
-121.2959867224501
 23
-152.9542450331025
 33
0.0
210
0.0
220
0.0
230
1.0
  0
SOLID
  5
674AA
  8
S-OBRYS
  6
CONTINUOUS
 10
136.0697413134194
 20
-146.57772002727569
 30
0.0
 11
125.2121400426451
 21
-146.57772002727569
 31
0.0
 12
121.2959867224501
 22
-152.9542450331025
 32
0.0
 13
121.2959867224501
 23
-152.9542450331025
 33
0.0
210
0.0
220
0.0
230
-1.0
  0
SOLID
  5
674AB
  8
S-OBRYS
  6
CONTINUOUS
 10
-128.64834715820271
 20
-152.9542450331025
 30
0.0
 11
-124.4155441826761
 21
-156.5911053660374
 31
0.0
 12
-118.6470868850928
 22
-156.5911053660374
 32
0.0
 13
-118.6470868850928
 23
-156.5911053660374
 33
0.0
210
0.0
220
0.0
230
1.0
  0
SOLID
  5
674AC
  8
S-OBRYS
  6
CONTINUOUS
 10
128.64834715820271
 20
-152.9542450331025
 30
0.0
 11
121.2959867224501
 21
-152.9542450331025
 31
0.0
 12
118.6470868850928
 22
-156.5911053660374
 32
0.0
 13
118.6470868850928
 23
-156.5911053660374
 33
0.0
210
0.0
220
0.0
230
-1.0
  0
SOLID
  5
674AD
  8
S-OBRYS
  6
CONTINUOUS
 10
124.4155441826761
 20
-156.5911053660374
 30
0.0
 11
118.6470868850928
 21
-156.5911053660374
 31
0.0
 12
112.0270211232598
 22
-165.6802578628913
 32
0.0
 13
112.0270211232598
 23
-165.6802578628913
 33
0.0
210
0.0
220
0.0
230
-1.0
  0
LINE
  5
674AE
  8
S-OBRYS
  6
CONTINUOUS
 10
23.926472929392531
 20
198.5636582193265
 30
0.0
 11
-38.604115154101692
 21
196.2389538682194
 31
0.0
  0
LINE
  5
674AF
  8
S-OBRYS
  6
CONTINUOUS
 10
32.103175268884371
 20
196.2389538682194
 30
0.0
 11
23.926472929392531
 21
198.5636582193265
 31
0.0
  0
LINE
  5
674B0
  8
S-OBRYS
  6
CONTINUOUS
 10
-38.604115154101692
 20
196.2389538682194
 30
0.0
 11
-78.949019672852074
 21
181.45156905484751
 31
0.0
  0
LINE
  5
674B1
  8
S-OBRYS
  6
CONTINUOUS
 10
32.103175268884371
 20
196.2389538682194
 30
0.0
 11
84.114969345357281
 21
181.45156905484751
 31
0.0
  0
LINE
  5
674B2
  8
S-OBRYS
  6
CONTINUOUS
 10
-78.949019672852074
 20
181.45156905484751
 30
0.0
 11
-97.35586526728747
 21
174.7050142605801
 31
0.0
  0
LINE
  5
674B3
  8
S-OBRYS
  6
CONTINUOUS
 10
84.114969345357281
 20
181.45156905484751
 30
0.0
 11
94.165928679889575
 21
174.7050142605801
 31
0.0
  0
LINE
  5
674B4
  8
S-OBRYS
  6
CONTINUOUS
 10
-97.35586526728747
 20
174.7050142605801
 30
0.0
 11
-120.10470635802611
 21
156.84897376239681
 31
0.0
  0
LINE
  5
674B5
  8
S-OBRYS
  6
CONTINUOUS
 10
94.165928679889575
 20
174.7050142605801
 30
0.0
 11
120.7677043114311
 21
156.84897376239681
 31
0.0
  0
LINE
  5
674B6
  8
S-OBRYS
  6
CONTINUOUS
 10
-120.10470635802611
 20
156.84897376239681
 30
0.0
 11
-122.92408311457839
 21
154.63598606144839
 31
0.0
  0
LINE
  5
674B7
  8
S-OBRYS
  6
CONTINUOUS
 10
120.7677043114311
 20
156.84897376239681
 30
0.0
 11
124.0645943639587
 21
154.63598606144839
 31
0.0
  0
LINE
  5
674B8
  8
S-OBRYS
  6
CONTINUOUS
 10
-122.92408311457839
 20
154.63598606144839
 30
0.0
 11
-133.19040334997061
 21
146.5777368891373
 31
0.0
  0
LINE
  5
674B9
  8
S-OBRYS
  6
CONTINUOUS
 10
6.5672195654880881
 20
154.63598606144839
 30
0.0
 11
-15.4949380520486
 21
146.5777368891373
 31
0.0
  0
LINE
  5
674BA
  8
S-OBRYS
  6
CONTINUOUS
 10
76.956701167932707
 20
154.63598606144839
 30
0.0
 11
105.0205475019353
 21
146.5777368891373
 31
0.0
  0
LINE
  5
674BB
  8
S-OBRYS
  6
CONTINUOUS
 10
124.0645943639587
 20
154.63598606144839
 30
0.0
 11
136.06970470668469
 21
146.5777368891373
 31
0.0
  0
LINE
  5
674BC
  8
S-OBRYS
  6
CONTINUOUS
 10
-133.19040334997061
 20
146.5777368891373
 30
0.0
 11
-142.1583566531657
 21
139.5386030392437
 31
0.0
  0
LINE
  5
674BD
  8
S-OBRYS
  6
CONTINUOUS
 10
-15.4949380520486
 20
146.5777368891373
 30
0.0
 11
-34.766925945015558
 21
139.5386030392437
 31
0.0
  0
LINE
  5
674BE
  8
S-OBRYS
  6
CONTINUOUS
 10
136.0697047066846
 20
146.5777368891373
 30
0.0
 11
129.53519906752251
 21
139.5386030392437
 31
0.0
  0
LINE
  5
674BF
  8
S-OBRYS
  6
CONTINUOUS
 10
129.53519906752251
 20
139.5386030392437
 30
0.0
 11
105.0205475019353
 21
146.5777368891373
 31
0.0
  0
LINE
  5
674C0
  8
S-OBRYS
  6
CONTINUOUS
 10
136.0697047066846
 20
146.5777368891373
 30
0.0
 11
129.5351990675228
 21
139.5386030392437
 31
0.0
  0
LINE
  5
674C1
  8
S-OBRYS
  6
CONTINUOUS
 10
143.09108860080289
 20
139.5386030392437
 30
0.0
 11
136.0697047066846
 21
146.5777368891373
 31
0.0
  0
LINE
  5
674C2
  8
S-OBRYS
  6
CONTINUOUS
 10
-142.1583566531657
 20
139.5386030392437
 30
0.0
 11
-146.577746761573
 21
136.06973144098379
 31
0.0
  0
LINE
  5
674C3
  8
S-OBRYS
  6
CONTINUOUS
 10
-34.766925945015558
 20
139.5386030392437
 30
0.0
 11
-44.264124445500642
 21
136.06973144098379
 31
0.0
  0
LINE
  5
674C4
  8
S-OBRYS
  6
CONTINUOUS
 10
129.53519906752311
 20
139.5386030392437
 30
0.0
 11
136.25658556636
 21
136.06973144098379
 31
0.0
  0
LINE
  5
674C5
  8
S-OBRYS
  6
CONTINUOUS
 10
143.09108860080289
 20
139.5386030392437
 30
0.0
 11
146.55121305505739
 21
136.06973144098379
 31
0.0
  0
LINE
  5
674C6
  8
S-OBRYS
  6
CONTINUOUS
 10
-146.577746761573
 20
136.06973144098379
 30
0.0
 11
-146.82644713633809
 21
135.69921976065609
 31
0.0
  0
LINE
  5
674C7
  8
S-OBRYS
  6
CONTINUOUS
 10
-146.17862225930841
 20
135.69921976065609
 30
0.0
 11
-146.577746761573
 21
136.06973144098379
 31
0.0
  0
LINE
  5
674C8
  8
S-OBRYS
  6
CONTINUOUS
 10
-146.577746761573
 20
136.06973144098379
 30
0.0
 11
-146.1786222593083
 21
135.69921976065609
 31
0.0
  0
LINE
  5
674C9
  8
S-OBRYS
  6
CONTINUOUS
 10
-44.264124445500642
 20
136.06973144098379
 30
0.0
 11
-45.27852433755357
 21
135.69921976065609
 31
0.0
  0
LINE
  5
674CA
  8
S-OBRYS
  6
CONTINUOUS
 10
136.25658556636
 20
136.06973144098379
 30
0.0
 11
136.9744997742728
 21
135.69921976065609
 31
0.0
  0
LINE
  5
674CB
  8
S-OBRYS
  6
CONTINUOUS
 10
146.55121305505739
 20
136.06973144098379
 30
0.0
 11
146.92079044913899
 21
135.69921976065609
 31
0.0
  0
LINE
  5
674CC
  8
S-OBRYS
  6
CONTINUOUS
 10
-146.82644713633809
 20
135.69921976065609
 30
0.0
 11
-148.55953071023251
 21
133.1172867510318
 31
0.0
  0
LINE
  5
674CD
  8
S-OBRYS
  6
CONTINUOUS
 10
-146.17862225930841
 20
135.69921976065609
 30
0.0
 11
-143.39729907285621
 21
133.1172867510318
 31
0.0
  0
LINE
  5
674CE
  8
S-OBRYS
  6
CONTINUOUS
 10
-146.1786222593083
 20
135.69921976065609
 30
0.0
 11
-143.39729907285621
 21
133.1172867510318
 31
0.0
  0
LINE
  5
674CF
  8
S-OBRYS
  6
CONTINUOUS
 10
-45.27852433755357
 20
135.69921976065609
 30
0.0
 11
-52.347431217720782
 21
133.1172867510318
 31
0.0
  0
LINE
  5
674D0
  8
S-OBRYS
  6
CONTINUOUS
 10
136.9744997742728
 20
135.69921976065609
 30
0.0
 11
141.9773282676926
 21
133.1172867510318
 31
0.0
  0
LINE
  5
674D1
  8
S-OBRYS
  6
CONTINUOUS
 10
146.92079044913899
 20
135.69921976065609
 30
0.0
 11
149.1279024510051
 21
133.1172867510318
 31
0.0
  0
LINE
  5
674D2
  8
S-OBRYS
  6
CONTINUOUS
 10
-148.55953071023251
 20
133.1172867510318
 30
0.0
 11
-149.09588464192939
 21
132.3182312744525
 31
0.0
  0
LINE
  5
674D3
  8
S-OBRYS
  6
CONTINUOUS
 10
-143.39729907285621
 20
133.1172867510318
 30
0.0
 11
-142.53653641325681
 21
132.3182312744525
 31
0.0
  0
LINE
  5
674D4
  8
S-OBRYS
  6
CONTINUOUS
 10
-143.39729907285621
 20
133.1172867510318
 30
0.0
 11
-142.5365364132567
 21
132.3182312744525
 31
0.0
  0
LINE
  5
674D5
  8
S-OBRYS
  6
CONTINUOUS
 10
-52.347431217720782
 20
133.1172867510318
 30
0.0
 11
-53.3662231178794
 21
132.3182312744525
 31
0.0
  0
LINE
  5
674D6
  8
S-OBRYS
  6
CONTINUOUS
 10
141.9773282676926
 20
133.1172867510318
 30
0.0
 11
143.5256013991617
 21
132.3182312744525
 31
0.0
  0
LINE
  5
674D7
  8
S-OBRYS
  6
CONTINUOUS
 10
149.1279024510051
 20
133.1172867510318
 30
0.0
 11
149.81095848922959
 21
132.3182312744525
 31
0.0
  0
LINE
  5
674D8
  8
S-OBRYS
  6
CONTINUOUS
 10
-149.09588464192939
 20
132.3182312744525
 30
0.0
 11
-154.6660961334224
 21
124.0197780797475
 31
0.0
  0
LINE
  5
674D9
  8
S-OBRYS
  6
CONTINUOUS
 10
-142.53653641325681
 20
132.3182312744525
 30
0.0
 11
-133.5972338844588
 21
124.0197780797475
 31
0.0
  0
LINE
  5
674DA
  8
S-OBRYS
  6
CONTINUOUS
 10
-142.5365364132567
 20
132.3182312744525
 30
0.0
 11
-133.59723388445869
 21
124.0197780797475
 31
0.0
  0
LINE
  5
674DB
  8
S-OBRYS
  6
CONTINUOUS
 10
-53.3662231178794
 20
132.3182312744525
 30
0.0
 11
-63.946711139565778
 21
124.0197780797475
 31
0.0
  0
LINE
  5
674DC
  8
S-OBRYS
  6
CONTINUOUS
 10
149.81095848922959
 20
132.3182312744525
 30
0.0
 11
156.90471947167379
 21
124.0197780797475
 31
0.0
  0
LINE
  5
674DD
  8
S-OBRYS
  6
CONTINUOUS
 10
156.90471947167379
 20
124.0197780797475
 30
0.0
 11
143.5256013991617
 21
132.3182312744525
 31
0.0
  0
LINE
  5
674DE
  8
S-OBRYS
  6
CONTINUOUS
 10
-154.6660961334224
 20
124.0197780797475
 30
0.0
 11
-174.54172651883511
 21
94.409234795978335
 31
0.0
  0
LINE
  5
674DF
  8
S-OBRYS
  6
CONTINUOUS
 10
-63.946711139565778
 20
124.0197780797475
 30
0.0
 11
-101.7000118064241
 21
94.409234795978335
 31
0.0
  0
LINE
  5
674E0
  8
S-OBRYS
  6
CONTINUOUS
 10
-101.7000118064241
 20
94.409234795978335
 30
0.0
 11
-133.59723388445869
 21
124.0197780797475
 31
0.0
  0
LINE
  5
674E1
  8
S-OBRYS
  6
CONTINUOUS
 10
-174.54172651883511
 20
94.409234795978335
 30
0.0
 11
-181.4515789272838
 21
84.114996079656194
 31
0.0
  0
LINE
  5
674E2
  8
S-OBRYS
  6
CONTINUOUS
 10
-101.7000118064241
 20
94.409234795978335
 30
0.0
 11
-108.6042812278811
 21
84.114996079656194
 31
0.0
  0
LINE
  5
674E3
  8
S-OBRYS
  6
CONTINUOUS
 10
-181.4515789272838
 20
84.114996079656194
 30
0.0
 11
-193.33459639556139
 21
42.31875790992347
 31
0.0
  0
LINE
  5
674E4
  8
S-OBRYS
  6
CONTINUOUS
 10
-108.6042812278811
 20
84.114996079656194
 30
0.0
 11
-136.6367076247617
 21
42.31875790992347
 31
0.0
  0
LINE
  5
674E5
  8
S-OBRYS
  6
CONTINUOUS
 10
-193.33459639556139
 20
42.31875790992347
 30
0.0
 11
-198.56366809176311
 21
23.926499663690979
 31
0.0
  0
LINE
  5
674E6
  8
S-OBRYS
  6
CONTINUOUS
 10
-136.6367076247617
 20
42.31875790992347
 30
0.0
 11
-141.8434835426128
 21
23.926499663690979
 31
0.0
  0
LINE
  5
674E7
  8
S-OBRYS
  6
CONTINUOUS
 10
-198.56366809176311
 20
23.926499663690979
 30
0.0
 11
-197.0038088360742
 21
-18.031057880888529
 31
0.0
  0
LINE
  5
674E8
  8
S-OBRYS
  6
CONTINUOUS
 10
-141.8434835426128
 20
23.926499663690979
 30
0.0
 11
-153.72150293915519
 21
-18.031057880888529
 31
0.0
  0
LINE
  5
674E9
  8
S-OBRYS
  6
CONTINUOUS
 10
-197.0038088360742
 20
-18.031057880888529
 30
0.0
 11
-196.238963740656
 21
-38.60408841980378
 31
0.0
  0
LINE
  5
674EA
  8
S-OBRYS
  6
CONTINUOUS
 10
-153.72150293915519
 20
-18.031057880888529
 30
0.0
 11
-152.9181325828894
 21
-38.60408841980378
 31
0.0
  0
LINE
  5
674EB
  8
S-OBRYS
  6
CONTINUOUS
 10
-196.238963740656
 20
-38.60408841980378
 30
0.0
 11
-180.80802484871359
 21
-80.704822531160019
 31
0.0
  0
LINE
  5
674EC
  8
S-OBRYS
  6
CONTINUOUS
 10
-152.9181325828894
 20
-38.60408841980378
 30
0.0
 11
-151.2741121893886
 21
-80.704822531160019
 31
0.0
  0
LINE
  5
674ED
  8
S-OBRYS
  6
CONTINUOUS
 10
-180.80802484871359
 20
-80.704822531160019
 30
0.0
 11
-174.70502413301631
 21
-97.355838532990006
 31
0.0
  0
LINE
  5
674EE
  8
S-OBRYS
  6
CONTINUOUS
 10
-151.2741121893886
 20
-80.704822531160019
 30
0.0
 11
-145.12161814036139
 21
-97.355838532990006
 31
0.0
  0
LINE
  5
674EF
  8
S-OBRYS
  6
CONTINUOUS
 10
-174.70502413301631
 20
-97.355838532990006
 30
0.0
 11
-141.59490448962191
 21
-139.53858617738231
 31
0.0
  0
LINE
  5
674F0
  8
S-OBRYS
  6
CONTINUOUS
 10
-145.12161814036139
 20
-97.355838532990006
 30
0.0
 11
-129.53523567425751
 21
-139.53858617738231
 31
0.0
  0
LINE
  5
674F1
  8
S-OBRYS
  6
CONTINUOUS
 10
-129.53523567425759
 20
-139.53858617738231
 30
0.0
 11
-136.0697413134194
 21
-146.57772002727569
 31
0.0
  0
LINE
  5
674F2
  8
S-OBRYS
  6
CONTINUOUS
 10
-125.2121400426451
 20
-146.57772002727569
 30
0.0
 11
-129.53523567425751
 21
-139.53858617738231
 31
0.0
  0
LINE
  5
674F3
  8
S-OBRYS
  6
CONTINUOUS
 10
-136.0697413134194
 20
-146.57772002727569
 30
0.0
 11
-128.64834715820271
 21
-152.9542450331025
 31
0.0
  0
LINE
  5
674F4
  8
S-OBRYS
  6
CONTINUOUS
 10
-125.2121400426451
 20
-146.57772002727569
 30
0.0
 11
-121.2959867224501
 21
-152.9542450331025
 31
0.0
  0
LINE
  5
674F5
  8
S-OBRYS
  6
CONTINUOUS
 10
-128.64834715820271
 20
-152.9542450331025
 30
0.0
 11
-124.4155441826761
 21
-156.5911053660374
 31
0.0
  0
LINE
  5
674F6
  8
S-OBRYS
  6
CONTINUOUS
 10
-121.2959867224501
 20
-152.9542450331025
 30
0.0
 11
-118.6470868850928
 21
-156.5911053660374
 31
0.0
  0
LINE
  5
674F7
  8
S-OBRYS
  6
CONTINUOUS
 10
-118.6470868850928
 20
-156.5911053660374
 30
0.0
 11
-112.0270211232598
 21
-165.6802578628913
 31
0.0
  0
LINE
  5
674F8
  8
S-OBRYS
  6
CONTINUOUS
 10
-112.0270211232598
 20
-165.6802578628913
 30
0.0
 11
-124.4155441826761
 21
-156.5911053660374
 31
0.0
  0
ENDBLK
  5
674FA
  8
0
  0
BLOCK
  8
0
  2
*U106
 70
     1
 10
0.0
 20
0.0
 30
0.0
  3
*U106
  1

  0
TEXT
  5
674FC
  8
OBRYS
  6
CONTINUOUS
 10
34224.389532986643
 20
407667.81319243921
 30
0.0
 40
70.0
  1
DÁVKOVAČ OBILÍ AD 250
  7
R
  0
ENDBLK
  5
674FE
  8
0
  0
BLOCK
  8
0
  2
*U107
 70
     1
 10
0.0
 20
0.0
 30
0.0
  3
*U107
  1

  0
TEXT
  5
67500
  8
S-OBRYS
  6
CONTINUOUS
 62
     7
 10
37746.748586149319
 20
407277.22280377347
 30
0.0
 40
30.0
  1
\U+2205215
 41
0.8
  0
ENDBLK
  5
67502
  8
0
  0
BLOCK
  8
0
  2
*U108
 70
     1
 10
0.0
 20
0.0
 30
0.0
  3
*U108
  1

  0
TEXT
  5
67504
  8
S-OBRYS
  6
CONTINUOUS
 62
     7
 10
37745.203536277928
 20
407199.09856938361
 30
0.0
 40
30.0
  1
\U+2205152
 41
0.8
  0
ENDBLK
  5
67506
  8
0
  0
BLOCK
  8
0
  2
*U109
 70
     1
 10
0.0
 20
0.0
 30
0.0
  3
*U109
  1

  0
TEXT
  5
67508
  8
S-OBRYS
  6
CONTINUOUS
 62
     7
 10
37999.659242243702
 20
406584.89872266829
 30
0.0
 40
30.0
  1
\U+220528
 50
90.0
 41
0.8
  0
ENDBLK
  5
6750A
  8
0
  0
BLOCK
  8
0
  2
*U110
 70
     1
 10
0.0
 20
0.0
 30
0.0
  3
*U110
  1

  0
TEXT
  5
6750C
  8
S-OBRYS
  6
CONTINUOUS
 62
     7
 10
37016.248586149297
 20
406962.98660092411
 30
0.0
 40
30.0
  1
MIN.250
 41
0.8
  0
ENDBLK
  5
6750E
  8
0
  0
BLOCK
  8
0
  2
*U111
 70
     1
 10
0.0
 20
0.0
 30
0.0
  3
*U111
  1

  0
TEXT
  5
67510
  8
S-OBRYS
  6
CONTINUOUS
 62
     7
 10
34817.302043504787
 20
406524.98128618428
 30
0.0
 40
30.0
  1
737
 41
0.8
  0
ENDBLK
  5
67512
  8
0
  0
BLOCK
  8
0
  2
*U112
 70
     1
 10
0.0
 20
0.0
 30
0.0
  3
*U112
  1

  0
TEXT
  5
67514
  8
S-OBRYS
  6
CONTINUOUS
 62
     7
 10
35335.799166225552
 20
406131.1792148237
 30
0.0
 40
30.0
  1
578
 50
90.0
 41
0.8
  0
ENDBLK
  5
67516
  8
0
  0
BLOCK
  8
0
  2
*U113
 70
     1
 10
0.0
 20
0.0
 30
0.0
  3
*U113
  1

  0
TEXT
  5
67518
  8
S-OBRYS
  6
CONTINUOUS
 62
     7
 10
34836.899040593373
 20
405695.6423983787
 30
0.0
 40
30.0
  1
760
 41
0.8
  0
ENDBLK
  5
6751A
  8
0
  0
BLOCK
  8
0
  2
*U114
 70
     1
 10
0.0
 20
0.0
 30
0.0
  3
*U114
  1

  0
TEXT
  5
6751C
  8
S-OBRYS
  6
CONTINUOUS
 62
     7
 10
35293.11844506034
 20
405964.00661960943
 30
0.0
 40
30.0
  1
160
 50
90.0
 41
0.8
  0
ENDBLK
  5
6751E
  8
0
  0
BLOCK
  8
0
  2
*U115
 70
     1
 10
0.0
 20
0.0
 30
0.0
  3
*U115
  1

  0
TEXT
  5
67520
  8
S-OBRYS
  6
CONTINUOUS
 62
     7
 10
35350.8064582238
 20
406820.02667289821
 30
0.0
 40
30.0
  1
355
 50
90.0
 41
0.8
  0
ENDBLK
  5
67522
  8
0
  0
BLOCK
  8
0
  2
*U116
 70
     1
 10
0.0
 20
0.0
 30
0.0
  3
*U116
  1

  0
TEXT
  5
67524
  8
S-OBRYS
  6
CONTINUOUS
 62
     7
 10
34822.149040593293
 20
405794.77097521082
 30
0.0
 40
30.0
  1
440
 41
0.8
  0
ENDBLK
  5
67526
  8
0
  0
BLOCK
  8
0
  2
*U117
 70
     1
 10
0.0
 20
0.0
 30
0.0
  3
*U117
  1

  0
TEXT
  5
67528
  8
S-OBRYS
  6
CONTINUOUS
 62
     7
 10
34822.149040593336
 20
406226.21707912878
 30
0.0
 40
30.0
  1
230
 41
0.8
  0
ENDBLK
  5
6752A
  8
0
  0
BLOCK
  8
0
  2
*U118
 70
     1
 10
0.0
 20
0.0
 30
0.0
  3
*U118
  1

  0
TEXT
  5
6752C
  8
S-OBRYS
  6
CONTINUOUS
 62
     7
 10
34582.149040593322
 20
406226.21707912878
 30
0.0
 40
30.0
  1
250
 41
0.8
  0
ENDBLK
  5
6752E
  8
0
  0
BLOCK
  8
0
  2
*U119
 70
     1
 10
0.0
 20
0.0
 30
0.0
  3
*U119
  1

  0
TEXT
  5
67530
  8
S-OBRYS
  6
CONTINUOUS
 62
     7
 10
34596.864840337577
 20
406090.21417392162
 30
0.0
 40
30.0
  1
\U+2205143
 50
346.05603348641949
 41
0.8
  0
ENDBLK
  5
67532
  8
0
  0
BLOCK
  8
0
  2
*U120
 70
     1
 10
0.0
 20
0.0
 30
0.0
  3
*U120
  1

  0
TEXT
  5
67534
  8
S-OBRYS
  6
CONTINUOUS
 62
     7
 10
34515.928497178298
 20
406016.78560684237
 30
0.0
 40
30.0
  1
\U+2205152
 50
1.3842792843765379
 41
0.8
  0
ENDBLK
  5
67536
  8
0
  0
BLOCK
  8
0
  2
*U121
 70
     1
 10
0.0
 20
0.0
 30
0.0
  3
*U121
  1

  0
TEXT
  5
67538
  8
S-OBRYS
  6
CONTINUOUS
 62
     7
 10
35016.18598522601
 20
407114.63974470343
 30
0.0
 40
30.0
  1
\U+2205143
 41
0.8
  0
ENDBLK
  5
6753A
  8
0
  0
BLOCK
  8
0
  2
*U122
 70
     1
 10
0.0
 20
0.0
 30
0.0
  3
*U122
  1

  0
TEXT
  5
6753C
  8
S-OBRYS
  6
CONTINUOUS
 62
     7
 10
37546.891443292152
 20
406524.98128618428
 30
0.0
 40
30.0
  1
737
 41
0.8
  0
ENDBLK
  5
6753E
  8
0
  0
BLOCK
  8
0
  2
*U123
 70
     1
 10
0.0
 20
0.0
 30
0.0
  3
*U123
  1

  0
TEXT
  5
67540
  8
S-OBRYS
  6
CONTINUOUS
 62
     7
 10
38065.388566012924
 20
406131.1792148237
 30
0.0
 40
30.0
  1
578
 50
90.0
 41
0.8
  0
ENDBLK
  5
67542
  8
0
  0
BLOCK
  8
0
  2
*U124
 70
     1
 10
0.0
 20
0.0
 30
0.0
  3
*U124
  1

  0
TEXT
  5
67544
  8
S-OBRYS
  6
CONTINUOUS
 62
     7
 10
37566.48844038073
 20
405695.6423983787
 30
0.0
 40
30.0
  1
760
 41
0.8
  0
ENDBLK
  5
67546
  8
0
  0
BLOCK
  8
0
  2
*U125
 70
     1
 10
0.0
 20
0.0
 30
0.0
  3
*U125
  1

  0
TEXT
  5
67548
  8
S-OBRYS
  6
CONTINUOUS
 62
     7
 10
38022.707844847697
 20
405964.00661960943
 30
0.0
 40
30.0
  1
160
 50
90.0
 41
0.8
  0
ENDBLK
  5
6754A
  8
0
  0
BLOCK
  8
0
  2
*U126
 70
     1
 10
0.0
 20
0.0
 30
0.0
  3
*U126
  1

  0
TEXT
  5
6754C
  8
S-OBRYS
  6
CONTINUOUS
 62
     7
 10
38080.395858011158
 20
406820.02667289821
 30
0.0
 40
30.0
  1
355
 50
90.0
 41
0.8
  0
ENDBLK
  5
6754E
  8
0
  0
BLOCK
  8
0
  2
*U127
 70
     1
 10
0.0
 20
0.0
 30
0.0
  3
*U127
  1

  0
TEXT
  5
67550
  8
S-OBRYS
  6
CONTINUOUS
 62
     7
 10
37551.738440380657
 20
405794.77097521082
 30
0.0
 40
30.0
  1
440
 41
0.8
  0
ENDBLK
  5
67552
  8
0
  0
BLOCK
  8
0
  2
*U128
 70
     1
 10
0.0
 20
0.0
 30
0.0
  3
*U128
  1

  0
TEXT
  5
67554
  8
S-OBRYS
  6
CONTINUOUS
 62
     7
 10
37551.738440380701
 20
406226.21707912878
 30
0.0
 40
30.0
  1
230
 41
0.8
  0
ENDBLK
  5
67556
  8
0
  0
BLOCK
  8
0
  2
*U129
 70
     1
 10
0.0
 20
0.0
 30
0.0
  3
*U129
  1

  0
TEXT
  5
67558
  8
S-OBRYS
  6
CONTINUOUS
 62
     7
 10
37311.738440380686
 20
406226.21707912878
 30
0.0
 40
30.0
  1
250
 41
0.8
  0
ENDBLK
  5
6755A
  8
0
  0
BLOCK
  8
0
  2
*U130
 70
     1
 10
0.0
 20
0.0
 30
0.0
  3
*U130
  1

  0
TEXT
  5
6755C
  8
S-OBRYS
  6
CONTINUOUS
 62
     7
 10
37326.454240124913
 20
406090.2141739215
 30
0.0
 40
30.0
  1
\U+2205143
 50
346.05603348644212
 41
0.8
  0
ENDBLK
  5
6755E
  8
0
  0
BLOCK
  8
0
  2
*U131
 70
     1
 10
0.0
 20
0.0
 30
0.0
  3
*U131
  1

  0
TEXT
  5
67560
  8
S-OBRYS
  6
CONTINUOUS
 62
     7
 10
37245.517896965677
 20
406016.78560684237
 30
0.0
 40
30.0
  1
\U+2205152
 50
1.384279284398763
 41
0.8
  0
ENDBLK
  5
67562
  8
0
  0
BLOCK
  8
0
  2
*U132
 70
     1
 10
0.0
 20
0.0
 30
0.0
  3
*U132
  1

  0
TEXT
  5
67564
  8
S-OBRYS
  6
CONTINUOUS
 62
     7
 10
37745.775385013381
 20
407114.63974470343
 30
0.0
 40
30.0
  1
\U+2205143
 41
0.8
  0
ENDBLK
  5
67566
  8
0
  0
BLOCK
  8
0
  2
*U133
 70
     1
 10
0.0
 20
0.0
 30
0.0
  3
*U133
  1

  0
TEXT
  5
67568
  8
S-OBRYS
  6
CONTINUOUS
 62
     7
 10
35017.159186361947
 20
407277.22280377347
 30
0.0
 40
30.0
  1
\U+2205215
 41
0.8
  0
ENDBLK
  5
6756A
  8
0
  0
BLOCK
  8
0
  2
*U134
 70
     1
 10
0.0
 20
0.0
 30
0.0
  3
*U134
  1

  0
TEXT
  5
6756C
  8
S-OBRYS
  6
CONTINUOUS
 62
     7
 10
35015.614136490563
 20
407199.09856938361
 30
0.0
 40
30.0
  1
\U+2205152
 41
0.8
  0
ENDBLK
  5
6756E
  8
0
  0
BLOCK
  8
0
  2
*U135
 70
     1
 10
0.0
 20
0.0
 30
0.0
  3
*U135
  1

  0
TEXT
  5
67570
  8
S-OBRYS
  6
CONTINUOUS
 62
     7
 10
35270.069842456331
 20
406584.89872266829
 30
0.0
 40
30.0
  1
\U+220528
 50
90.0
 41
0.8
  0
ENDBLK
  5
67572
  8
0
  0
BLOCK
  8
0
  2
*U136
 70
     1
 10
0.0
 20
0.0
 30
0.0
  3
*U136
  1

  0
TEXT
  5
67574
  8
S-OBRYS
  6
CONTINUOUS
 62
     7
 10
34286.65918636194
 20
406962.98660092411
 30
0.0
 40
30.0
  1
MIN.250
 41
0.8
  0
ENDBLK
  5
67576
  8
0
  0
BLOCK
  8
0
  2
*U137
 70
     1
 10
0.0
 20
0.0
 30
0.0
  3
*U137
  1

  0
TEXT
  5
67578
  8
S-OBRYS
  6
CONTINUOUS
 62
     7
 10
37543.391443292167
 20
406601.00985308859
 30
0.0
 40
30.0
  1
250
 41
0.8
  0
ENDBLK
  5
6757A
  8
0
  0
BLOCK
  8
0
  2
*U138
 70
     1
 10
0.0
 20
0.0
 30
0.0
  3
*U138
  1

  0
TEXT
  5
6757C
  8
S-OBRYS
  6
CONTINUOUS
 62
     7
 10
34813.802043504809
 20
406606.08622335352
 30
0.0
 40
30.0
  1
250
 41
0.8
  0
ENDBLK
  5
6757E
  8
0
  0
ENDSEC
  0
SECTION
  2
ENTITIES
  0
TEXT
  5
2F7A5
  8
KOTY
 10
-393803.77638965531
 20
-299016.15321175661
 30
0.0
 40
150.0
  1

 41
0.7
  7
ROMANT
  0
TEXT
  5
3AD8B
  8
KOTY
 10
-14797.18019204357
 20
454294.55370899959
 30
0.0
 40
150.0
  1

 41
0.7
  7
ROMANT
  0
TEXT
  5
404AD
  8
KOTY
 10
44010.2314385153
 20
465617.23741859582
 30
0.0
 40
92.0
  1

 41
0.7
  7
CYRILLIC
  0
TEXT
  5
404B4
  8
KOTY
 10
39575.071591094718
 20
465613.29777162091
 30
0.0
 40
92.0
  1

 41
0.7
  7
CYRILLIC
  0
TEXT
  5
40B14
  8
KOTY
 10
5856.0590664841584
 20
486921.1132385282
 30
0.0
 40
150.0
  1

 41
0.7
  7
ROMANT
  0
TEXT
  5
40BFC
  8
KOTY
 10
8767.7265956277752
 20
466337.2608060218
 30
0.0
 40
150.0
  1

 41
0.7
  7
ROMANS
  0
TEXT
  5
51A7C
  8
KOTY
 10
-47677.341387967608
 20
395133.71812193602
 30
0.0
 40
150.0
  1

 41
0.7
  7
ROMANS
  0
TEXT
  5
51A94
  8
KOTY
 10
-45176.819295693742
 20
395133.7181219359
 30
0.0
 40
150.0
  1

 41
0.7
  7
ROMANS
  0
TEXT
  5
51A9B
  8
KOTY
 10
-48084.423320344351
 20
397411.27855615731
 30
0.0
 40
150.0
  1

 41
0.7
  7
ROMANT
  0
TEXT
  5
51B05
  8
RAZ
 62
     6
 10
-47365.887544580757
 20
392999.37567832542
 30
0.0
 40
193.54103193599991
  1

 41
0.8
  7
R08
  0
TEXT
  5
51B06
  8
RAZ
 62
     1
 10
-47245.037660778231
 20
393401.77274166199
 30
0.0
 40
125.41458869452801
  1

  7
ROMANS
  0
TEXT
  5
58307
  8
KOTY
 10
22966.528519463162
 20
383405.87475258159
 30
0.0
 40
150.0
  1

 41
0.7
  7
ROMANS
  0
TEXT
  5
58308
  8
KOTY
 10
22966.528519463169
 20
383855.87475258159
 30
0.0
 40
150.0
  1

 41
0.7
  7
ROMANS
  0
TEXT
  5
58315
  8
KOTY
 10
25467.050611737021
 20
383855.87475258141
 30
0.0
 40
150.0
  1

 41
0.7
  7
ROMANS
  0
TEXT
  5
58316
  8
KOTY
 10
25467.050611737021
 20
383405.87475258141
 30
0.0
 40
150.0
  1

 41
0.7
  7
ROMANS
  0
TEXT
  5
5833F
  8
KOTY
 10
22966.528519463162
 20
385205.87475258153
 30
0.0
 40
150.0
  1

 41
0.7
  7
ROMANS
  0
TEXT
  5
58340
  8
KOTY
 10
22966.528519463169
 20
385655.87475258159
 30
0.0
 40
150.0
  1

 41
0.7
  7
ROMANS
  0
TEXT
  5
58354
  8
KOTY
 10
25467.050611737021
 20
385655.87475258141
 30
0.0
 40
150.0
  1

 41
0.7
  7
ROMANS
  0
TEXT
  5
58355
  8
KOTY
 10
25467.050611737021
 20
385205.87475258141
 30
0.0
 40
150.0
  1

 41
0.7
  7
ROMANS
  0
TEXT
  5
58397
  8
KOTY
 10
25467.050611737039
 20
390605.87475258129
 30
0.0
 40
150.0
  1

 41
0.7
  7
ROMANS
  0
TEXT
  5
58398
  8
KOTY
 10
25467.050611737039
 20
391055.87475258141
 30
0.0
 40
150.0
  1

 41
0.7
  7
ROMANS
  0
TEXT
  5
583C1
  8
KOTY
 10
25467.050611737031
 20
389255.87475258141
 30
0.0
 40
150.0
  1

 41
0.7
  7
ROMANS
  0
TEXT
  5
58C84
  8
KOTY
 10
22966.52851946322
 20
387905.87475258153
 30
0.0
 40
150.0
  1

 41
0.7
  7
ROMANS
  0
LINE
  5
66B54
  8
OBRYS
  6
CONTINUOUS
 10
33814.171101787782
 20
407904.70576643629
 30
0.0
 11
33814.171101787782
 21
404934.70576643618
 31
0.0
  0
LINE
  5
66B55
  8
OBRYS
  6
CONTINUOUS
 10
33814.171101787782
 20
404934.70576643618
 30
0.0
 11
35914.171101787782
 21
404934.70576643618
 31
0.0
  0
LINE
  5
66B56
  8
OBRYS
  6
CONTINUOUS
 10
35914.171101787782
 20
404934.70576643618
 30
0.0
 11
35914.171101787782
 21
407904.70576643629
 31
0.0
  0
LINE
  5
66B57
  8
OBRYS
  6
CONTINUOUS
 10
35914.171101787782
 20
407904.70576643629
 30
0.0
 11
33814.171101787782
 21
407904.70576643629
 31
0.0
  0
INSERT
  5
66B58
  8
S-OBRYS
  6
CONTINUOUS
  2
*U106
 10
0.0
 20
0.0
 30
0.0
  0
LINE
  5
66D00
  8
S-OBRYS
  6
CONTINUOUS
 10
34733.087757790541
 20
406886.81238718389
 30
0.0
 11
34671.587757790527
 21
406886.81238718389
 31
0.0
  0
LINE
  5
66D01
  8
S-OBRYS
  6
CONTINUOUS
 10
35068.087757790527
 20
406832.81238718389
 30
0.0
 11
35024.587757790541
 21
406832.81238718389
 31
0.0
  0
LINE
  5
66D02
  8
S-OBRYS
  6
CONTINUOUS
 10
35068.087757790527
 20
406860.81238718389
 30
0.0
 11
35068.087757790527
 21
406832.81238718389
 31
0.0
  0
LINE
  5
66D03
  8
S-OBRYS
  6
CONTINUOUS
 10
35024.587757790541
 20
406860.81238718389
 30
0.0
 11
35068.087757790527
 21
406860.81238718389
 31
0.0
  0
LINE
  5
66D04
  8
S-OBRYS
  6
CONTINUOUS
 10
34628.087757790541
 20
406832.81238718389
 30
0.0
 11
34671.587757790527
 21
406832.81238718389
 31
0.0
  0
LINE
  5
66D05
  8
S-OBRYS
  6
CONTINUOUS
 10
34648.087757790527
 20
406860.81238718389
 30
0.0
 11
34648.087757790527
 21
406832.81238718389
 31
0.0
  0
LINE
  5
66D06
  8
S-OBRYS
  6
CONTINUOUS
 10
34671.587757790527
 20
406860.81238718389
 30
0.0
 11
34628.087757790541
 21
406860.81238718389
 31
0.0
  0
LINE
  5
66D07
  8
S-OBRYS
  6
CONTINUOUS
 10
35024.587757790541
 20
406806.81238718389
 30
0.0
 11
34963.087757790527
 21
406806.81238718389
 31
0.0
  0
LINE
  5
66D08
  8
S-OBRYS
  6
CONTINUOUS
 10
35024.587757790541
 20
406886.81238718389
 30
0.0
 11
35024.587757790541
 21
406806.81238718389
 31
0.0
  0
LINE
  5
66D09
  8
S-OBRYS
  6
CONTINUOUS
 10
34963.087757790527
 20
406886.81238718389
 30
0.0
 11
35024.587757790541
 21
406886.81238718389
 31
0.0
  0
LINE
  5
66D0A
  8
S-OBRYS
  6
CONTINUOUS
 10
34671.587757790527
 20
406806.81238718389
 30
0.0
 11
34733.087757790541
 21
406806.81238718389
 31
0.0
  0
LINE
  5
66D0B
  8
S-OBRYS
  6
CONTINUOUS
 10
34671.587757790527
 20
406886.81238718389
 30
0.0
 11
34671.587757790527
 21
406806.81238718389
 31
0.0
  0
LINE
  5
66D0C
  8
S-OBRYS
  6
CONTINUOUS
 10
34948.087757790527
 20
406701.81238718389
 30
0.0
 11
34948.087757790527
 21
406991.81238718389
 31
0.0
  0
LINE
  5
66D0D
  8
S-OBRYS
  6
CONTINUOUS
 10
34748.087757790541
 20
406991.81238718389
 30
0.0
 11
34748.087757790483
 21
406701.81238718389
 31
0.0
  0
LINE
  5
66D0E
  8
S-OBRYS
  6
CONTINUOUS
 10
34933.087757790541
 20
406701.81238718389
 30
0.0
 11
34963.087757790527
 21
406701.81238718389
 31
0.0
  0
LINE
  5
66D0F
  8
S-OBRYS
  6
CONTINUOUS
 10
34933.087757790541
 20
406686.81238718389
 30
0.0
 11
34933.087757790541
 21
406701.81238718389
 31
0.0
  0
LINE
  5
66D10
  8
S-OBRYS
  6
CONTINUOUS
 10
34973.087757790541
 20
406686.81238718389
 30
0.0
 11
34933.087757790541
 21
406686.81238718389
 31
0.0
  0
LINE
  5
66D11
  8
S-OBRYS
  6
CONTINUOUS
 10
34973.087757790541
 20
406676.81238718389
 30
0.0
 11
34973.087757790541
 21
406686.81238718389
 31
0.0
  0
LINE
  5
66D12
  8
S-OBRYS
  6
CONTINUOUS
 10
34763.087757790527
 20
406686.81238718389
 30
0.0
 11
34763.087757790541
 21
406701.81238718389
 31
0.0
  0
LINE
  5
66D13
  8
S-OBRYS
  6
CONTINUOUS
 10
34723.087757790527
 20
406686.81238718389
 30
0.0
 11
34933.087757790541
 21
406686.81238718389
 31
0.0
  0
LINE
  5
66D14
  8
S-OBRYS
  6
CONTINUOUS
 10
34723.087757790527
 20
406676.81238718389
 30
0.0
 11
34723.087757790527
 21
406686.81238718389
 31
0.0
  0
LINE
  5
66D15
  8
S-OBRYS
  6
CONTINUOUS
 10
34763.087757790527
 20
406991.81238718389
 30
0.0
 11
34733.087757790541
 21
406991.81238718389
 31
0.0
  0
LINE
  5
66D16
  8
S-OBRYS
  6
CONTINUOUS
 10
34933.087757790541
 20
407006.81238718389
 30
0.0
 11
34933.087757790541
 21
406991.81238718389
 31
0.0
  0
LINE
  5
66D17
  8
S-OBRYS
  6
CONTINUOUS
 10
34955.587757790527
 20
407006.81238718389
 30
0.0
 11
34933.087757790541
 21
407006.81238718389
 31
0.0
  0
LINE
  5
66D18
  8
S-OBRYS
  6
CONTINUOUS
 10
34955.587757790527
 20
407016.81238718401
 30
0.0
 11
34955.587757790527
 21
407006.81238718389
 31
0.0
  0
LINE
  5
66D19
  8
S-OBRYS
  6
CONTINUOUS
 10
34763.087757790527
 20
407006.81238718389
 30
0.0
 11
34763.087757790527
 21
406991.81238718389
 31
0.0
  0
LINE
  5
66D1A
  8
S-OBRYS
  6
CONTINUOUS
 10
34740.587757790541
 20
407006.81238718389
 30
0.0
 11
34763.087757790527
 21
407006.81238718389
 31
0.0
  0
LINE
  5
66D1B
  8
S-OBRYS
  6
CONTINUOUS
 10
34740.587757790541
 20
407016.81238718401
 30
0.0
 11
34740.587757790541
 21
407006.81238718389
 31
0.0
  0
LINE
  5
66D1C
  8
S-OBRYS
  6
CONTINUOUS
 10
34723.087757790527
 20
406676.81238718389
 30
0.0
 11
34973.087757790541
 21
406676.81238718389
 31
0.0
  0
LINE
  5
66D1D
  8
S-OBRYS
  6
CONTINUOUS
 10
34963.087757790527
 20
406991.81238718389
 30
0.0
 11
34933.087757790541
 21
406991.81238718389
 31
0.0
  0
LINE
  5
66D1E
  8
S-OBRYS
  6
CONTINUOUS
 10
34963.087757790527
 20
406701.81238718389
 30
0.0
 11
34963.087757790483
 21
406991.81238718389
 31
0.0
  0
LINE
  5
66D1F
  8
S-OBRYS
  6
CONTINUOUS
 10
34733.087757790541
 20
406701.81238718389
 30
0.0
 11
34763.087757790527
 21
406701.81238718389
 31
0.0
  0
LINE
  5
66D20
  8
S-OBRYS
  6
CONTINUOUS
 10
34733.087757790541
 20
406991.81238718389
 30
0.0
 11
34733.087757790483
 21
406701.81238718389
 31
0.0
  0
LINE
  5
66D21
  8
S-OBRYS
  6
CONTINUOUS
 10
34941.087757790541
 20
406846.81238718389
 30
0.0
 11
35068.087757790527
 21
406846.81238718389
 31
0.0
  0
LINE
  5
66D22
  8
S-OBRYS
  6
CONTINUOUS
 10
34755.087757790527
 20
406846.81238718389
 30
0.0
 11
34941.087757790541
 21
406846.81238718389
 31
0.0
  0
LINE
  5
66D23
  8
S-OBRYS
  6
CONTINUOUS
 10
34628.087757790541
 20
406846.81238718389
 30
0.0
 11
34755.087757790527
 21
406846.81238718389
 31
0.0
  0
DIMENSION
  5
66D24
  8
S-OBRYS
  6
CONTINUOUS
  2
*D92
 10
34955.587757790527
 20
407252.22280377347
 30
0.0
 11
35062.302043504809
 21
407252.22280377347
 31
0.0
 70
   128
  1
%%c215
 13
34740.587757790527
 23
407014.96238718397
 33
0.0
 14
34955.587757790527
 24
407014.96238718397
 34
0.0
1001
ACAD
1000
DSTYLE
1002
{
1070
    41
1040
0.8
1070
   140
1040
0.6
1002
}
  0
DIMENSION
  5
66D25
  8
S-OBRYS
  6
CONTINUOUS
  2
*D93
 10
34933.087757790527
 20
407174.09856938361
 30
0.0
 11
35060.756993633418
 21
407174.09856938361
 31
0.0
 70
   128
  1
%%c152
 13
34763.087757790527
 23
407029.96238718391
 33
0.0
 14
34933.087757790527
 24
407029.96238718391
 34
0.0
1001
ACAD
1000
DSTYLE
1002
{
1070
    41
1040
0.8
1070
   140
1040
0.6
1002
}
  0
DIMENSION
  5
66D26
  8
S-OBRYS
  6
CONTINUOUS
  2
*D94
 10
35295.069842456403
 20
406860.81238718389
 30
0.0
 11
35295.069842456331
 21
406618.61300838267
 31
0.0
 70
   128
  1
%%c28
 13
35068.087757790527
 23
406832.81238718389
 33
0.0
 14
35068.087757790527
 24
406860.81238718389
 34
0.0
 50
90.0
1001
ACAD
1000
DSTYLE
1002
{
1070
    41
1040
0.8
1070
   140
1040
0.6
1002
}
  0
LINE
  5
66D27
  8
S-OBRYS
  6
CONTINUOUS
 10
34763.087757790527
 20
407016.81238718401
 30
0.0
 11
34763.087757790527
 21
407031.81238718389
 31
0.0
  0
LINE
  5
66D28
  8
S-OBRYS
  6
CONTINUOUS
 10
34763.087757790527
 20
407031.81238718389
 30
0.0
 11
34933.087757790541
 21
407031.81238718389
 31
0.0
  0
LINE
  5
66D29
  8
S-OBRYS
  6
CONTINUOUS
 10
34933.087757790541
 20
407031.81238718389
 30
0.0
 11
34933.087757790541
 21
407016.81238718401
 31
0.0
  0
LINE
  5
66D2A
  8
S-OBRYS
  6
CONTINUOUS
 10
34848.087757790541
 20
406651.15043833369
 30
0.0
 11
34848.087757790541
 21
407036.44470451819
 31
0.0
  0
LINE
  5
66D2B
  8
S-OBRYS
  6
CONTINUOUS
 10
34740.587757790541
 20
407016.81238718401
 30
0.0
 11
34955.587757790527
 21
407016.81238718401
 31
0.0
  0
DIMENSION
  5
66D2C
  8
S-OBRYS
  6
CONTINUOUS
  2
*D95
 10
34973.087757790527
 20
406581.08622335357
 30
0.0
 11
34848.087757790527
 21
406581.08622335357
 31
0.0
 70
   128
 13
34723.087757790527
 23
406679.96238718397
 33
0.0
 14
34973.087757790527
 24
406679.96238718397
 34
0.0
1001
ACAD
1000
DSTYLE
1002
{
1070
    41
1040
0.8
1070
   140
1040
0.6
1002
}
  0
DIMENSION
  5
66D2D
  8
S-OBRYS
  6
CONTINUOUS
  2
*D96
 10
34233.087757790498
 20
406937.98660092411
 30
0.0
 11
34358.087757790512
 21
406977.98660092399
 31
0.0
 70
     0
  1
MIN.250
 13
34483.087757790527
 23
406937.98660092411
 33
0.0
 14
34233.087757790498
 24
406947.11736512062
 34
0.0
1001
ACAD
1000
DSTYLE
1002
{
1070
    41
1040
0.8
1070
   140
1040
0.6
1002
}
  0
LINE
  5
66D2E
  8
S-OBRYS
  6
CONTINUOUS
 10
34233.087757790498
 20
406807.44772146043
 30
0.0
 11
34233.087757790498
 21
407330.27658259688
 31
0.0
  0
LINE
  5
66D2F
  8
S-OBRYS
  6
CONTINUOUS
 10
34233.087757790498
 20
407330.27658259688
 30
0.0
 11
34177.362749013751
 21
407297.53562062979
 31
0.0
  0
LINE
  5
66D30
  8
S-OBRYS
  6
CONTINUOUS
 10
34233.087757790498
 20
407294.39622306603
 30
0.0
 11
34177.362749013751
 21
407261.65526109881
 31
0.0
  0
LINE
  5
66D31
  8
S-OBRYS
  6
CONTINUOUS
 10
34233.087757790498
 20
407258.51586353523
 30
0.0
 11
34177.362749013751
 21
407225.77490156807
 31
0.0
  0
LINE
  5
66D32
  8
S-OBRYS
  6
CONTINUOUS
 10
34233.087757790498
 20
407217.50999339559
 30
0.0
 11
34177.362749013751
 21
407184.76903142838
 31
0.0
  0
LINE
  5
66D33
  8
S-OBRYS
  6
CONTINUOUS
 10
34233.087757790498
 20
407176.50323062111
 30
0.0
 11
34177.362749013751
 21
407143.76226865401
 31
0.0
  0
LINE
  5
66D34
  8
S-OBRYS
  6
CONTINUOUS
 10
34233.087757790498
 20
407137.54774325207
 30
0.0
 11
34177.362749013751
 21
407104.80678128492
 31
0.0
  0
LINE
  5
66D35
  8
S-OBRYS
  6
CONTINUOUS
 10
34233.087757790498
 20
407096.54187311261
 30
0.0
 11
34177.362749013751
 21
407063.8009111454
 31
0.0
  0
LINE
  5
66D36
  8
S-OBRYS
  6
CONTINUOUS
 10
34233.087757790498
 20
407057.58549310837
 30
0.0
 11
34177.362749013751
 21
407024.84453114128
 31
0.0
  0
LINE
  5
66D37
  8
S-OBRYS
  6
CONTINUOUS
 10
34233.087757790498
 20
407016.57962296897
 30
0.0
 11
34177.362749013751
 21
406983.83866100182
 31
0.0
  0
LINE
  5
66D38
  8
S-OBRYS
  6
CONTINUOUS
 10
34233.087757790498
 20
406974.54811512667
 30
0.0
 11
34177.362749013751
 21
406941.80715315952
 31
0.0
  0
LINE
  5
66D39
  8
S-OBRYS
  6
CONTINUOUS
 10
34233.087757790498
 20
406930.46622451401
 30
0.0
 11
34177.362749013751
 21
406897.7252625468
 31
0.0
  0
LINE
  5
66D3A
  8
S-OBRYS
  6
CONTINUOUS
 10
34233.087757790498
 20
406889.46035437437
 30
0.0
 11
34177.362749013751
 21
406856.71939240728
 31
0.0
  0
LINE
  5
66D3B
  8
S-OBRYS
  6
CONTINUOUS
 10
34233.087757790498
 20
406850.50486700528
 30
0.0
 11
34177.362749013751
 21
406817.76390503818
 31
0.0
  0
LINE
  5
66D3C
  8
S-OBRYS
  6
CONTINUOUS
 10
34233.087757790498
 20
406807.44772146043
 30
0.0
 11
34177.362749013751
 21
406774.70675949322
 31
0.0
  0
LINE
  5
66D3D
  8
S-OBRYS
  6
CONTINUOUS
 10
34733.087757790541
 20
406971.81238718389
 30
0.0
 11
34483.087757790527
 21
406971.81238718389
 31
0.0
  0
LINE
  5
66D3E
  8
S-OBRYS
  6
CONTINUOUS
 10
34733.087757790483
 20
406721.81238718389
 30
0.0
 11
34483.087757790483
 21
406721.81238718389
 31
0.0
  0
LINE
  5
66D3F
  8
S-OBRYS
  6
CONTINUOUS
 10
34483.087757790483
 20
406721.81238718389
 30
0.0
 11
34483.087757790527
 21
406971.81238718389
 31
0.0
  0
LINE
  5
66D40
  8
S-OBRYS
  6
CONTINUOUS
 10
34628.087757790541
 20
406896.81238718389
 30
0.0
 11
34628.087757790541
 21
406796.81238718377
 31
0.0
  0
LINE
  5
66D41
  8
S-OBRYS
  6
CONTINUOUS
 10
34628.087757790541
 20
406796.81238718377
 30
0.0
 11
34648.087757790527
 21
406796.81238718377
 31
0.0
  0
LINE
  5
66D42
  8
S-OBRYS
  6
CONTINUOUS
 10
34648.087757790527
 20
406796.81238718377
 30
0.0
 11
34648.087757790527
 21
406896.81238718389
 31
0.0
  0
LINE
  5
66D43
  8
S-OBRYS
  6
CONTINUOUS
 10
34648.087757790527
 20
406896.81238718389
 30
0.0
 11
34628.087757790541
 21
406896.81238718389
 31
0.0
  0
LINE
  5
66D44
  8
S-OBRYS
  6
CONTINUOUS
 10
34733.087757790527
 20
406949.4910018224
 30
0.0
 11
34581.057400145291
 21
406949.4910018224
 31
0.0
  0
LINE
  5
66D45
  8
S-OBRYS
  6
CONTINUOUS
 10
34581.057400145291
 20
406949.4910018224
 30
0.0
 11
34581.057400145291
 21
406854.68776061351
 31
0.0
  0
LINE
  5
66D46
  8
S-OBRYS
  6
CONTINUOUS
 10
34617.440965108057
 20
406890.8762147291
 30
0.0
 11
34617.440965108057
 21
406870.8762147291
 31
0.0
  0
LINE
  5
66D47
  8
S-OBRYS
  6
CONTINUOUS
 10
34617.440965108057
 20
406870.8762147291
 30
0.0
 11
34517.440965108071
 21
406870.8762147291
 31
0.0
  0
LINE
  5
66D48
  8
S-OBRYS
  6
CONTINUOUS
 10
34517.440965108071
 20
406870.8762147291
 30
0.0
 11
34517.440965108071
 21
406890.8762147291
 31
0.0
  0
LINE
  5
66D49
  8
S-OBRYS
  6
CONTINUOUS
 10
34517.440965108071
 20
406890.8762147291
 30
0.0
 11
34617.440965108057
 21
406890.8762147291
 31
0.0
  0
INSERT
  5
66D4A
  8
OSA
  6
CONTINUOUS
  2
_17
 10
35202.434754879017
 20
406000.00661960948
 30
0.0
 50
270.0
  0
INSERT
  5
66D4B
  8
OBRYS
 62
     7
  2
_26
 10
35152.434754878828
 20
406131.00661960943
 30
0.0
 50
270.0
  0
LINE
  5
66D4C
  8
OBRYS
 10
35202.434754878872
 20
406105.00661960948
 30
0.0
 11
35202.434754879163
 21
405895.00661960948
 31
0.0
  0
LINE
  5
66D4D
  8
OBRYS
 10
35102.434754878886
 20
406084.90450434992
 30
0.0
 11
35102.434754878959
 21
406031.28392394423
 31
0.0
  0
LINE
  5
66D4E
  8
OBRYS
 10
35102.434754879047
 20
405969.62379506562
 30
0.0
 11
35102.43475487917
 21
405883.50659165089
 31
0.0
  0
LINE
  5
66D4F
  8
OBRYS
 10
35202.434754879097
 20
405915.00661960948
 30
0.0
 11
35202.434754878872
 21
406105.00661960948
 31
0.0
  0
LINE
  5
66D50
  8
OBRYS
 10
35202.434754879097
 20
405915.00661960948
 30
0.0
 11
35202.434754879163
 21
405895.00661960948
 31
0.0
  0
INSERT
  5
66D51
  8
OBRYS
 62
     7
 66
     1
  2
SROUB_M6X16_27
 10
35195.070505879223
 20
405882.00661960943
 30
0.0
 50
270.0
  0
ATTRIB
  5
66D52
  8
OBRYS
 10
33700.948553878807
 20
406142.89454660728
 30
0.0
 40
7.0
  1
DIN 7984
 50
270.0
  2
norma roz.
 70
     1
  0
ATTRIB
  5
66D53
  8
OBRYS
 10
33700.948553878807
 20
406142.89454660728
 30
0.0
 40
7.0
  1
1
 50
270.0
  2
roztec
 70
     1
  0
ATTRIB
  5
66D54
  8
OBRYS
 10
33700.948553878807
 20
406142.89454660728
 30
0.0
 40
7.0
  1
*N
 50
270.0
  2
puvod
 70
     1
  0
SEQEND
  5
66D55
  8
OBRYS
  0
INSERT
  5
66D56
  8
OBRYS
 62
     7
 66
     1
  2
SROUB_M6X16_29
 10
35152.434754879192
 20
405882.00661960943
 30
0.0
 50
270.0
  0
ATTRIB
  5
66D57
  8
OBRYS
 10
33700.948553878807
 20
406142.89454660728
 30
0.0
 40
7.0
  1
DIN 7984
 50
270.0
  2
norma roz.
 70
     1
  0
ATTRIB
  5
66D58
  8
OBRYS
 10
33700.948553878807
 20
406142.89454660728
 30
0.0
 40
7.0
  1
1
 50
270.0
  2
roztec
 70
     1
  0
ATTRIB
  5
66D59
  8
OBRYS
 10
33700.948553878807
 20
406142.89454660728
 30
0.0
 40
7.0
  1
*N
 50
270.0
  2
puvod
 70
     1
  0
SEQEND
  5
66D5A
  8
OBRYS
  0
INSERT
  5
66D5B
  8
OBRYS
 62
     7
 66
     1
  2
SROUB_M14X30_30
 10
35152.434754879017
 20
406000.00661960948
 30
0.0
 50
270.0
  0
ATTRIB
  5
66D5C
  8
OBRYS
 10
33700.948553878807
 20
406142.89454660728
 30
0.0
 40
7.0
  1
CSN 02 1143
 50
270.0
  2
norma roz.
 70
     1
  0
ATTRIB
  5
66D5D
  8
OBRYS
 10
33700.948553878807
 20
406142.89454660728
 30
0.0
 40
7.0
  1
2
 50
270.0
  2
roztec
 70
     1
  0
ATTRIB
  5
66D5E
  8
OBRYS
 10
33700.948553878807
 20
406142.89454660728
 30
0.0
 40
7.0
  1
*N
 50
270.0
  2
puvod
 70
     1
  0
ATTRIB
  5
66D5F
  8
OBRYS
 10
33700.948553878807
 20
406142.89454660728
 30
0.0
 40
7.0
  1
02 1143
 50
270.0
  2
tridici znak
 70
     1
  0
SEQEND
  5
66D60
  8
OBRYS
  0
ARC
  5
66D61
  8
OBRYS
 10
35142.934754879177
 20
405891.00661960931
 30
0.0
 40
1.0
 50
180.0
 51
270.0
  0
LINE
  5
66D62
  8
OBRYS
 10
35161.934754879163
 20
405890.00661960943
 30
0.0
 11
35142.934754879163
 21
405890.00661960943
 31
0.0
  0
LINE
  5
66D63
  8
OBRYS
 10
35141.934754879163
 20
405893.00661960943
 30
0.0
 11
35141.934754879163
 21
405891.00661960931
 31
0.0
  0
ARC
  5
66D64
  8
OBRYS
 10
35161.934754879177
 20
405891.00661960931
 30
0.0
 40
1.0
 50
270.0
 51
0.0
  0
LINE
  5
66D65
  8
OBRYS
 10
35162.934754879163
 20
405893.00661960943
 30
0.0
 11
35162.934754879163
 21
405891.00661960931
 31
0.0
  0
LINE
  5
66D66
  8
OBRYS
 10
35137.934754879163
 20
405895.00661960948
 30
0.0
 11
35166.934754879163
 21
405895.00661960948
 31
0.0
  0
LINE
  5
66D67
  8
OBRYS
 10
35164.934754879163
 20
405893.00661960943
 30
0.0
 11
35139.934754879163
 21
405893.00661960943
 31
0.0
  0
LINE
  5
66D68
  8
OBRYS
 10
35202.434754879163
 20
405895.00661960948
 30
0.0
 11
35166.934754879163
 21
405895.00661960948
 31
0.0
  0
ARC
  5
66D69
  8
OBRYS
 10
35166.93475487917
 20
405893.00661960943
 30
0.0
 40
2.0
 50
90.0
 51
180.0
  0
LINE
  5
66D6A
  8
OBRYS
 10
35102.434754879163
 20
405895.00661960943
 30
0.0
 11
35137.934754879163
 21
405895.00661960948
 31
0.0
  0
ARC
  5
66D6B
  8
OBRYS
 10
35137.93475487917
 20
405893.00661960943
 30
0.0
 40
2.0
 50
0.0
 51
90.0
  0
LINE
  5
66D6C
  8
OSA
 10
35106.434754879047
 20
406000.00661960943
 30
0.0
 11
35202.434754878981
 21
406000.00661960948
 31
0.0
  0
LINE
  5
66D6D
  8
OBRYS
 10
35102.434754878872
 20
406105.00661960943
 30
0.0
 11
35202.434754878872
 21
406105.00661960948
 31
0.0
  0
LINE
  5
66D6E
  8
OBRYS
 10
35202.434754879163
 20
405895.00661960948
 30
0.0
 11
35202.434754879163
 21
405883.50661960948
 31
0.0
  0
ARC
  5
66D6F
  8
OBRYS
 10
35200.934754879177
 20
405883.50661960948
 30
0.0
 40
1.5
 50
270.0
 51
0.0
  0
LINE
  5
66D70
  8
OBRYS
 10
35103.934754879163
 20
405882.00661960931
 30
0.0
 11
35200.934754879163
 21
405882.00661960943
 31
0.0
  0
LINE
  5
66D71
  8
OBRYS
 10
35102.434754879163
 20
405890.00661960943
 30
0.0
 11
35202.434754879163
 21
405890.0066196096
 31
0.0
  0
LINE
  5
66D72
  8
OBRYS
 10
35096.434753878799
 20
406119.00661960931
 30
0.0
 11
35208.434756878822
 21
406119.0066196096
 31
0.0
  0
LINE
  5
66D73
  8
OBRYS
 10
35077.434754878806
 20
406131.00661960931
 30
0.0
 11
35227.434754878806
 21
406131.00661960948
 31
0.0
  0
LINE
  5
66D74
  8
OBRYS
 10
35077.434754878806
 20
406131.00661960931
 30
0.0
 11
35077.434754878806
 21
406121.00661960931
 31
0.0
  0
LINE
  5
66D75
  8
OBRYS
 10
35079.434754878806
 20
406119.00661960919
 30
0.0
 11
35096.434754878806
 21
406119.00661960931
 31
0.0
  0
ARC
  5
66D76
  8
OBRYS
 10
35079.43475487885
 20
406121.00661960931
 30
0.0
 40
2.0
 50
180.0
 51
270.0
  0
LINE
  5
66D77
  8
OBRYS
 10
35208.434754878806
 20
406119.0066196096
 30
0.0
 11
35225.934754878806
 21
406119.0066196096
 31
0.0
  0
LINE
  5
66D78
  8
OBRYS
 10
35227.434754878806
 20
406131.00661960948
 30
0.0
 11
35227.434754878806
 21
406120.50661960948
 31
0.0
  0
ARC
  5
66D79
  8
OBRYS
 10
35225.934754878843
 20
406120.50661960948
 30
0.0
 40
1.5
 50
270.0
 51
0.0
  0
LINE
  5
66D7A
  8
OBRYS
 10
35202.434754878872
 20
406105.00661960948
 30
0.0
 11
35202.434754878806
 21
406117.50661960948
 31
0.0
  0
ARC
  5
66D7B
  8
OBRYS
 10
35203.934754878843
 20
406117.50661960948
 30
0.0
 40
1.5
 50
90.0
 51
180.0
  0
LINE
  5
66D7C
  8
OBRYS
 10
35102.434754878872
 20
406105.00661960943
 30
0.0
 11
35102.434754878806
 21
406117.50661960943
 31
0.0
  0
ARC
  5
66D7D
  8
OBRYS
 10
35100.934754878843
 20
406117.50661960943
 30
0.0
 40
1.5
 50
0.0
 51
90.0
  0
LINE
  5
66D7E
  8
OBRYS
 10
35202.434754878806
 20
406111.00661960948
 30
0.0
 11
35102.434754878806
 21
406111.00661960943
 31
0.0
  0
LINE
  5
66D7F
  8
OSA
 10
35152.434754878806
 20
406131.00661960943
 30
0.0
 11
35152.434754879163
 21
405882.00661960943
 31
0.0
  0
ARC
  5
66D80
  8
OBRYS
 10
35152.434754879017
 20
406000.00661960948
 30
0.0
 40
12.5
 50
270.0
 51
90.0
  0
ARC
  5
66D81
  8
OBRYS
 10
35152.434754879017
 20
406000.00661960948
 30
0.0
 40
12.5
 50
90.0
 51
270.0
  0
LINE
  5
66D82
  8
OBRYS
 10
35149.087757790541
 20
407021.64554218401
 30
0.0
 11
35149.087757790541
 21
407041.81239418389
 31
0.0
  0
LINE
  5
66D83
  8
OBRYS
 10
35139.087757790541
 20
407021.64554218401
 30
0.0
 11
35139.087757790541
 21
407041.81239418389
 31
0.0
  0
LINE
  5
66D84
  8
OSA
 10
35144.087757790527
 20
407001.812394184
 30
0.0
 11
35144.087757790527
 21
407046.81239418389
 31
0.0
  0
ARC
  5
66D85
  8
OBRYS
 10
35144.087757790527
 20
407041.81239418389
 30
0.0
 40
5.0
 50
90.0
 51
180.0
  0
ARC
  5
66D86
  8
OBRYS
 10
35144.087757790527
 20
407041.81239418389
 30
0.0
 40
5.0
 50
0.0
 51
90.0
  0
LINE
  5
66D87
  8
OSA
 10
35063.878018790543
 20
406846.812394184
 30
0.0
 11
35094.087757790527
 21
406846.812394184
 31
0.0
  0
ARC
  5
66D88
  8
OBRYS
 10
35069.587757790527
 20
406820.81238718401
 30
0.0
 40
1.5
 50
180.0
 51
270.0
  0
LINE
  5
66D89
  8
OBRYS
 10
35068.087757790527
 20
406820.81238718401
 30
0.0
 11
35068.087757790527
 21
406872.81238718401
 31
0.0
  0
LINE
  5
66D8A
  8
OBRYS
 10
35069.587757790527
 20
406819.31238718389
 30
0.0
 11
35070.087757790527
 21
406819.31238718389
 31
0.0
  0
ARC
  5
66D8B
  8
OBRYS
 10
35069.587757790527
 20
406872.81238718401
 30
0.0
 40
1.5
 50
90.0
 51
180.0
  0
LINE
  5
66D8C
  8
OBRYS
 10
35069.587757790527
 20
406874.31238718389
 30
0.0
 11
35070.087757790527
 21
406874.31238718389
 31
0.0
  0
LINE
  5
66D8D
  8
OSA
 10
35070.087757790527
 20
406779.63725718402
 30
0.0
 11
35094.087757790527
 21
406779.63725718402
 31
0.0
  0
INSERT
  5
66D8E
  8
OBRYS
 62
     7
 66
     1
  2
SROUB_M8X25_18
 10
35204.087757790541
 20
406779.63725718402
 30
0.0
  0
ATTRIB
  5
66D8F
  8
OBRYS
 10
34679.835050790527
 20
405816.69097318401
 30
0.0
 40
7.0
  1
DIN 912
  2
norma roz.
 70
     1
  0
ATTRIB
  5
66D90
  8
OBRYS
 10
34679.835050790527
 20
405816.69097318401
 30
0.0
 40
7.0
  1
1.25
  2
roztec
 70
     1
  0
ATTRIB
  5
66D91
  8
OBRYS
 10
34679.835050790527
 20
405816.69097318401
 30
0.0
 40
7.0
  1
*N
  2
puvod
 70
     1
  0
SEQEND
  5
66D92
  8
OBRYS
  0
ARC
  5
66D93
  8
OBRYS
 10
35073.087757790527
 20
406836.50751418399
 30
0.0
 40
3.0
 50
180.0
 51
254.64944099902161
  0
ARC
  5
66D94
  8
OBRYS
 10
35081.087757790527
 20
406804.64159818389
 30
0.0
 40
3.0
 50
0.0
 51
34.552034001091762
  0
ARC
  5
66D95
  8
OBRYS
 10
35081.087757790527
 20
406812.9565141839
 30
0.0
 40
3.0
 50
0.0
 51
34.552034001091762
  0
LINE
  5
66D96
  8
OBRYS
 10
35070.616922790527
 20
406833.45163518388
 30
0.0
 11
35083.558591790541
 21
406814.65797718387
 31
0.0
  0
ARC
  5
66D97
  8
OBRYS
 10
35073.087757790527
 20
406835.15309918392
 30
0.0
 40
3.0
 50
180.0
 51
214.5520340010917
  0
LINE
  5
66D98
  8
OBRYS
 10
35070.616922790527
 20
406825.13671918388
 30
0.0
 11
35083.558591790541
 21
406806.34306118393
 31
0.0
  0
ARC
  5
66D99
  8
OBRYS
 10
35073.087757790527
 20
406826.83818318398
 30
0.0
 40
3.0
 50
180.0
 51
214.5520340010917
  0
LINE
  5
66D9A
  8
OBRYS
 10
35072.293584790539
 20
406833.61454118398
 30
0.0
 11
35084.087757790541
 21
406830.37683218397
 31
0.0
  0
LINE
  5
66D9B
  8
OBRYS
 10
35070.202820790539
 20
406885.93125318398
 30
0.0
 11
35076.398975790536
 21
406907.65421318391
 31
0.0
  0
LINE
  5
66D9C
  8
OBRYS
 10
35076.087757790541
 20
406910.00727018388
 30
0.0
 11
35070.202820790539
 21
406889.37540418399
 31
0.0
  0
ARC
  5
66D9D
  8
OBRYS
 10
35076.887757790537
 20
406908.28753118392
 30
0.0
 40
0.8
 50
180.0
 51
270.0
  0
INSERT
  5
66D9E
  8
OBRYS
 62
     7
 66
     1
  2
SROUB_M8X25_19
 10
35204.087757790541
 20
406846.812394184
 30
0.0
  0
ATTRIB
  5
66D9F
  8
OBRYS
 10
34679.835050790527
 20
405816.69097318401
 30
0.0
 40
7.0
  1
DIN 912
  2
norma roz.
 70
     1
  0
ATTRIB
  5
66DA0
  8
OBRYS
 10
34679.835050790527
 20
405816.69097318401
 30
0.0
 40
7.0
  1
1.25
  2
roztec
 70
     1
  0
ATTRIB
  5
66DA1
  8
OBRYS
 10
34679.835050790527
 20
405816.69097318401
 30
0.0
 40
7.0
  1
*N
  2
puvod
 70
     1
  0
SEQEND
  5
66DA2
  8
OBRYS
  0
ARC
  5
66DA3
  8
OBRYS
 10
35073.087757790527
 20
406857.1172741839
 30
0.0
 40
3.0
 50
105.35055900097829
 51
180.0
  0
LINE
  5
66DA4
  8
OBRYS
 10
35072.293584790539
 20
406860.01024718391
 30
0.0
 11
35084.087757790541
 21
406863.24795618397
 31
0.0
  0
ARC
  5
66DA5
  8
OBRYS
 10
35073.087757790527
 20
406866.78660518391
 30
0.0
 40
3.0
 50
145.44796599890819
 51
180.0
  0
LINE
  5
66DA6
  8
OBRYS
 10
35070.616922790527
 20
406868.48806818388
 30
0.0
 11
35083.558591790541
 21
406887.28172618401
 31
0.0
  0
ARC
  5
66DA7
  8
OBRYS
 10
35073.087757790527
 20
406858.47168918402
 30
0.0
 40
3.0
 50
145.44796599890819
 51
180.0
  0
LINE
  5
66DA8
  8
OBRYS
 10
35070.616922790527
 20
406860.17315318389
 30
0.0
 11
35083.558591790541
 21
406878.9668111839
 31
0.0
  0
ARC
  5
66DA9
  8
OBRYS
 10
35081.087757790527
 20
406880.66827418387
 30
0.0
 40
3.0
 50
325.44796599890822
 51
0.0
  0
ARC
  5
66DAA
  8
OBRYS
 10
35081.087757790527
 20
406888.98319018388
 30
0.0
 40
3.0
 50
325.44796599890822
 51
0.0
  0
ARC
  5
66DAB
  8
OBRYS
 10
35081.087757790527
 20
406896.41708118399
 30
0.0
 40
3.0
 50
303.53420599965932
 51
0.0
  0
LINE
  5
66DAC
  8
OBRYS
 10
35071.430453790526
 20
406886.41771918401
 30
0.0
 11
35082.745061790527
 21
406893.91641318391
 31
0.0
  0
ARC
  5
66DAD
  8
OBRYS
 10
35073.087757790527
 20
406888.55251818401
 30
0.0
 40
3.0
 50
164.07997999934781
 51
180.0
  0
ARC
  5
66DAE
  8
OBRYS
 10
35073.087757790527
 20
406883.91705018398
 30
0.0
 40
3.0
 50
123.53420599965931
 51
180.0
  0
ARC
  5
66DAF
  8
OBRYS
 10
35073.087757790527
 20
406885.10836718389
 30
0.0
 40
3.0
 50
164.07997999934781
 51
180.0
  0
ARC
  5
66DB0
  8
OBRYS
 10
35073.087757790527
 20
406889.08033618389
 30
0.0
 40
3.0
 50
146.2072679998366
 51
180.0
  0
ARC
  5
66DB1
  8
OBRYS
 10
35081.087757790527
 20
406706.31238718389
 30
0.0
 40
3.0
 50
270.0
 51
0.0
  0
LINE
  5
66DB2
  8
OBRYS
 10
35084.087757790541
 20
406706.31238718389
 30
0.0
 11
35084.087757790541
 21
406846.812394184
 31
0.0
  0
LINE
  5
66DB3
  8
OBRYS
 10
35048.087757790541
 20
406703.31238718401
 30
0.0
 11
35081.087757790527
 21
406703.31238718401
 31
0.0
  0
ARC
  5
66DB4
  8
OBRYS
 10
35094.087757790527
 20
406739.81238718389
 30
0.0
 40
2.0
 50
90.0
 51
180.0
  0
LINE
  5
66DB5
  8
OBRYS
 10
35092.087757790527
 20
406686.81238718401
 30
0.0
 11
35092.087757790527
 21
406739.81238718389
 31
0.0
  0
LINE
  5
66DB6
  8
OBRYS
 10
35071.587757790527
 20
406801.94636218401
 30
0.0
 11
35084.587757790527
 21
406794.44080818398
 31
0.0
  0
ARC
  5
66DB7
  8
OBRYS
 10
35073.087757790527
 20
406804.54443818401
 30
0.0
 40
3.0
 50
180.0
 51
239.9999999999375
  0
LINE
  5
66DB8
  8
OBRYS
 10
35070.087757790527
 20
406787.15303418401
 30
0.0
 11
35070.087757790527
 21
406889.08033618389
 31
0.0
  0
LINE
  5
66DB9
  8
OBRYS
 10
35045.087757790527
 20
406703.31238718401
 30
0.0
 11
35069.961427790528
 21
406786.29162918392
 31
0.0
  0
ARC
  5
66DBA
  8
OBRYS
 10
35067.087757790541
 20
406787.15303418401
 30
0.0
 40
3.0
 50
343.31349100044542
 51
0.0
  0
LINE
  5
66DBB
  8
OBRYS
 10
35045.087757790527
 20
406686.81238718401
 30
0.0
 11
35045.087757790527
 21
406700.31238718389
 31
0.0
  0
ARC
  5
66DBC
  8
OBRYS
 10
35048.087757790541
 20
406700.31238718389
 30
0.0
 40
3.0
 50
90.0
 51
180.0
  0
LINE
  5
66DBD
  8
OBRYS
 10
35045.087757790527
 20
406703.31238718401
 30
0.0
 11
35045.087757790527
 21
406700.31238918391
 31
0.0
  0
LINE
  5
66DBE
  8
OBRYS
 10
35045.087757790527
 20
406686.81238718401
 30
0.0
 11
35092.087757790527
 21
406686.81238718401
 31
0.0
  0
LINE
  5
66DBF
  8
OBRYS
 10
35055.587757790541
 20
406686.81238718401
 30
0.0
 11
35055.587757790541
 21
406703.31238718401
 31
0.0
  0
LINE
  5
66DC0
  8
OBRYS
 10
35068.587757790541
 20
406686.81238718401
 30
0.0
 11
35068.587757790541
 21
406703.31238718401
 31
0.0
  0
LINE
  5
66DC1
  8
OBRYS
 10
35062.087757790527
 20
406686.81238718401
 30
0.0
 11
35062.087757790527
 21
406703.31238718401
 31
0.0
  0
LINE
  5
66DC2
  8
OSA
 10
35084.087757790541
 20
406751.81238718389
 30
0.0
 11
35094.087757790527
 21
406751.81238718389
 31
0.0
  0
LINE
  5
66DC3
  8
OBRYS
 10
35084.087757790541
 20
406846.812394184
 30
0.0
 11
35084.087757790541
 21
406901.81239418389
 31
0.0
  0
LINE
  5
66DC4
  8
OBRYS
 10
35080.224190790541
 20
406907.48753118399
 30
0.0
 11
35076.887757790537
 21
406907.48753118399
 31
0.0
  0
LINE
  5
66DC5
  8
OBRYS
 10
35076.087757790541
 20
406915.17381018389
 30
0.0
 11
35076.087757790541
 21
406908.28753118392
 31
0.0
  0
LINE
  5
66DC6
  8
OBRYS
 10
35212.087757790541
 20
406915.17381018389
 30
0.0
 11
35212.087757790541
 21
406908.28753118392
 31
0.0
  0
LINE
  5
66DC7
  8
OBRYS
 10
35207.951324790542
 20
406907.48753118399
 30
0.0
 11
35211.287757790538
 21
406907.48753118399
 31
0.0
  0
CIRCLE
  5
66DC8
  8
OBRYS
 10
35184.790951790543
 20
406970.31239418389
 30
0.0
 40
5.5
  0
CIRCLE
  5
66DC9
  8
OBRYS
 10
35184.790951790543
 20
406923.31239418389
 30
0.0
 40
5.5
  0
INSERT
  5
66DCA
  8
OBRYS
 62
     7
 66
     1
  2
SROUB_M6X20_20
 10
35184.790951790543
 20
406970.31239418389
 30
0.0
  0
ATTRIB
  5
66DCB
  8
OBRYS
 10
34679.835050790527
 20
405816.69097318401
 30
0.0
 40
25.0
  1
1
  2
roztec
 70
     1
  0
ATTRIB
  5
66DCC
  8
OBRYS
 10
34679.835050790527
 20
405816.69097318401
 30
0.0
 40
25.0
  1
*N
  2
puvod
 70
     1
  0
ATTRIB
  5
66DCD
  8
OBRYS
 10
34679.835050790527
 20
405816.69097318401
 30
0.0
 40
25.0
  1
CSN 02 1143
  2
norma roz.
 70
     1
  0
SEQEND
  5
66DCE
  8
OBRYS
  0
INSERT
  5
66DCF
  8
OBRYS
 62
     7
 66
     1
  2
SROUB_M6X20_21
 10
35184.790951790543
 20
406923.31239418389
 30
0.0
  0
ATTRIB
  5
66DD0
  8
OBRYS
 10
34679.835050790527
 20
405816.69097318401
 30
0.0
 40
25.0
  1
1
  2
roztec
 70
     1
  0
ATTRIB
  5
66DD1
  8
OBRYS
 10
34679.835050790527
 20
405816.69097318401
 30
0.0
 40
25.0
  1
*N
  2
puvod
 70
     1
  0
ATTRIB
  5
66DD2
  8
OBRYS
 10
34679.835050790527
 20
405816.69097318401
 30
0.0
 40
25.0
  1
CSN 02 1143
  2
norma roz.
 70
     1
  0
SEQEND
  5
66DD3
  8
OBRYS
  0
CIRCLE
  5
66DD4
  8
OBRYS
 10
35103.38456379054
 20
406923.31239418389
 30
0.0
 40
5.5
  0
CIRCLE
  5
66DD5
  8
OBRYS
 10
35103.38456379054
 20
406970.31239418389
 30
0.0
 40
5.5
  0
INSERT
  5
66DD6
  8
OBRYS
 62
     7
 66
     1
  2
SROUB_M6X20_22
 10
35103.38456379054
 20
406923.31239418389
 30
0.0
  0
ATTRIB
  5
66DD7
  8
OBRYS
 10
34679.835050790527
 20
405816.69097318401
 30
0.0
 40
25.0
  1
1
  2
roztec
 70
     1
  0
ATTRIB
  5
66DD8
  8
OBRYS
 10
34679.835050790527
 20
405816.69097318401
 30
0.0
 40
25.0
  1
*N
  2
puvod
 70
     1
  0
ATTRIB
  5
66DD9
  8
OBRYS
 10
34679.835050790527
 20
405816.69097318401
 30
0.0
 40
25.0
  1
CSN 02 1143
  2
norma roz.
 70
     1
  0
SEQEND
  5
66DDA
  8
OBRYS
  0
INSERT
  5
66DDB
  8
OBRYS
 62
     7
 66
     1
  2
SROUB_M6X20_23
 10
35103.38456379054
 20
406970.31239418389
 30
0.0
  0
ATTRIB
  5
66DDC
  8
OBRYS
 10
34679.835050790527
 20
405816.69097318401
 30
0.0
 40
25.0
  1
1
  2
roztec
 70
     1
  0
ATTRIB
  5
66DDD
  8
OBRYS
 10
34679.835050790527
 20
405816.69097318401
 30
0.0
 40
25.0
  1
*N
  2
puvod
 70
     1
  0
ATTRIB
  5
66DDE
  8
OBRYS
 10
34679.835050790527
 20
405816.69097318401
 30
0.0
 40
25.0
  1
CSN 02 1143
  2
norma roz.
 70
     1
  0
SEQEND
  5
66DDF
  8
OBRYS
  0
LINE
  5
66DE0
  8
OBRYS
 10
35204.087757790541
 20
406846.812394184
 30
0.0
 11
35204.087757790541
 21
406901.81239418389
 31
0.0
  0
LINE
  5
66DE1
  8
OBRYS
 10
35194.087757790541
 20
406741.81238718389
 30
0.0
 11
35194.087757790541
 21
406890.9106941839
 31
0.0
  0
LINE
  5
66DE2
  8
OSA
 10
35204.087757790541
 20
406751.81238718389
 30
0.0
 11
35194.087757790541
 21
406751.81238718389
 31
0.0
  0
LINE
  5
66DE3
  8
OBRYS
 10
35226.087757790527
 20
406686.81238718401
 30
0.0
 11
35226.087757790527
 21
406703.31238718401
 31
0.0
  0
LINE
  5
66DE4
  8
OBRYS
 10
35219.587757790541
 20
406686.81238718401
 30
0.0
 11
35219.587757790541
 21
406703.31238718401
 31
0.0
  0
LINE
  5
66DE5
  8
OBRYS
 10
35232.587757790541
 20
406686.81238718401
 30
0.0
 11
35232.587757790541
 21
406703.31238718401
 31
0.0
  0
LINE
  5
66DE6
  8
OBRYS
 10
35243.087757790527
 20
406686.81238718401
 30
0.0
 11
35196.087757790541
 21
406686.81238718401
 31
0.0
  0
LINE
  5
66DE7
  8
OBRYS
 10
35243.087757790527
 20
406703.31238718401
 30
0.0
 11
35243.087757790527
 21
406700.31238918391
 31
0.0
  0
ARC
  5
66DE8
  8
OBRYS
 10
35240.087757790541
 20
406700.31238718389
 30
0.0
 40
3.0
 50
0.0
 51
90.0
  0
LINE
  5
66DE9
  8
OBRYS
 10
35243.087757790527
 20
406686.81238718401
 30
0.0
 11
35243.087757790527
 21
406700.31238718389
 31
0.0
  0
ARC
  5
66DEA
  8
OBRYS
 10
35221.087757790541
 20
406787.15303418401
 30
0.0
 40
3.0
 50
180.0
 51
196.68650899955449
  0
LINE
  5
66DEB
  8
OBRYS
 10
35243.087757790527
 20
406703.31238718401
 30
0.0
 11
35218.21408679054
 21
406786.29162918392
 31
0.0
  0
LINE
  5
66DEC
  8
OBRYS
 10
35218.087757790527
 20
406787.15303418401
 30
0.0
 11
35218.087757790527
 21
406889.08033618389
 31
0.0
  0
ARC
  5
66DED
  8
OBRYS
 10
35215.087757790541
 20
406804.54443818401
 30
0.0
 40
3.0
 50
300.00000000006241
 51
0.0
  0
LINE
  5
66DEE
  8
OBRYS
 10
35216.587757790527
 20
406801.94636218401
 30
0.0
 11
35203.587757790541
 21
406794.44080818398
 31
0.0
  0
LINE
  5
66DEF
  8
OBRYS
 10
35196.087757790541
 20
406686.81238718401
 30
0.0
 11
35196.087757790541
 21
406739.81238718389
 31
0.0
  0
ARC
  5
66DF0
  8
OBRYS
 10
35194.087757790541
 20
406739.81238718389
 30
0.0
 40
2.0
 50
0.0
 51
90.0
  0
LINE
  5
66DF1
  8
OBRYS
 10
35240.087757790541
 20
406703.31238718401
 30
0.0
 11
35207.087757790527
 21
406703.31238718401
 31
0.0
  0
LINE
  5
66DF2
  8
OBRYS
 10
35204.087757790541
 20
406706.31238718389
 30
0.0
 11
35204.087757790541
 21
406846.812394184
 31
0.0
  0
ARC
  5
66DF3
  8
OBRYS
 10
35207.087757790527
 20
406706.31238718389
 30
0.0
 40
3.0
 50
180.0
 51
270.0
  0
ARC
  5
66DF4
  8
OBRYS
 10
35215.087757790541
 20
406889.08033618389
 30
0.0
 40
3.0
 50
0.0
 51
33.792732000163397
  0
ARC
  5
66DF5
  8
OBRYS
 10
35215.087757790541
 20
406885.10836718389
 30
0.0
 40
3.0
 50
0.0
 51
15.92002000065219
  0
ARC
  5
66DF6
  8
OBRYS
 10
35215.087757790541
 20
406883.91705018398
 30
0.0
 40
3.0
 50
0.0
 51
56.465794000340722
  0
ARC
  5
66DF7
  8
OBRYS
 10
35215.087757790541
 20
406888.55251818401
 30
0.0
 40
3.0
 50
0.0
 51
15.92002000065219
  0
LINE
  5
66DF8
  8
OBRYS
 10
35216.745061790542
 20
406886.41771918401
 30
0.0
 11
35205.430453790526
 21
406893.91641318391
 31
0.0
  0
ARC
  5
66DF9
  8
OBRYS
 10
35207.087757790527
 20
406896.41708118399
 30
0.0
 40
3.0
 50
180.0
 51
236.46579400034071
  0
ARC
  5
66DFA
  8
OBRYS
 10
35207.087757790527
 20
406888.98319018388
 30
0.0
 40
3.0
 50
180.0
 51
214.5520340010917
  0
ARC
  5
66DFB
  8
OBRYS
 10
35207.087757790527
 20
406880.66827418387
 30
0.0
 40
3.0
 50
180.0
 51
214.5520340010917
  0
LINE
  5
66DFC
  8
OBRYS
 10
35217.558591790526
 20
406860.17315318389
 30
0.0
 11
35204.616922790541
 21
406878.9668111839
 31
0.0
  0
ARC
  5
66DFD
  8
OBRYS
 10
35215.087757790541
 20
406858.47168918402
 30
0.0
 40
3.0
 50
0.0
 51
34.552034001091762
  0
LINE
  5
66DFE
  8
OBRYS
 10
35217.558591790526
 20
406868.48806818388
 30
0.0
 11
35204.616922790541
 21
406887.28172618401
 31
0.0
  0
ARC
  5
66DFF
  8
OBRYS
 10
35215.087757790541
 20
406866.78660518391
 30
0.0
 40
3.0
 50
0.0
 51
34.552034001091762
  0
LINE
  5
66E00
  8
OBRYS
 10
35215.881929790543
 20
406860.01024718391
 30
0.0
 11
35204.087757790541
 21
406863.24795618397
 31
0.0
  0
ARC
  5
66E01
  8
OBRYS
 10
35215.087757790541
 20
406857.1172741839
 30
0.0
 40
3.0
 50
0.0
 51
74.64944099902165
  0
INSERT
  5
66E02
  8
OBRYS
 62
     7
 66
     1
  2
SROUB_M8X25_24
 10
35084.087757790541
 20
406846.812394184
 30
0.0
  0
ATTRIB
  5
66E03
  8
OBRYS
 10
34679.835050790527
 20
405816.69097318401
 30
0.0
 40
7.0
  1
DIN 912
  2
norma roz.
 70
     1
  0
ATTRIB
  5
66E04
  8
OBRYS
 10
34679.835050790527
 20
405816.69097318401
 30
0.0
 40
7.0
  1
1.25
  2
roztec
 70
     1
  0
ATTRIB
  5
66E05
  8
OBRYS
 10
34679.835050790527
 20
405816.69097318401
 30
0.0
 40
7.0
  1
*N
  2
puvod
 70
     1
  0
SEQEND
  5
66E06
  8
OBRYS
  0
ARC
  5
66E07
  8
OBRYS
 10
35211.287757790538
 20
406908.28753118392
 30
0.0
 40
0.8
 50
270.0
 51
0.0
  0
LINE
  5
66E08
  8
OBRYS
 10
35212.087757790541
 20
406910.00727018388
 30
0.0
 11
35217.972693790543
 21
406889.37540418399
 31
0.0
  0
LINE
  5
66E09
  8
OBRYS
 10
35217.972693790543
 20
406885.93125318398
 30
0.0
 11
35211.776538790538
 21
406907.65421318391
 31
0.0
  0
LINE
  5
66E0A
  8
OBRYS
 10
35215.881929790543
 20
406833.61454118398
 30
0.0
 11
35204.087757790541
 21
406830.37683218397
 31
0.0
  0
ARC
  5
66E0B
  8
OBRYS
 10
35215.087757790541
 20
406826.83818318398
 30
0.0
 40
3.0
 50
325.44796599890822
 51
0.0
  0
LINE
  5
66E0C
  8
OBRYS
 10
35217.558591790526
 20
406825.13671918388
 30
0.0
 11
35204.616922790541
 21
406806.34306118393
 31
0.0
  0
ARC
  5
66E0D
  8
OBRYS
 10
35215.087757790541
 20
406835.15309918392
 30
0.0
 40
3.0
 50
325.44796599890822
 51
0.0
  0
LINE
  5
66E0E
  8
OBRYS
 10
35217.558591790526
 20
406833.45163518388
 30
0.0
 11
35204.616922790541
 21
406814.65797718387
 31
0.0
  0
ARC
  5
66E0F
  8
OBRYS
 10
35207.087757790527
 20
406812.9565141839
 30
0.0
 40
3.0
 50
145.44796599890819
 51
180.0
  0
ARC
  5
66E10
  8
OBRYS
 10
35207.087757790527
 20
406804.64159818389
 30
0.0
 40
3.0
 50
145.44796599890819
 51
180.0
  0
ARC
  5
66E11
  8
OBRYS
 10
35215.087757790541
 20
406836.50751418399
 30
0.0
 40
3.0
 50
285.35055900097842
 51
0.0
  0
INSERT
  5
66E12
  8
OBRYS
 62
     7
 66
     1
  2
SROUB_M8X25_25
 10
35084.087757790541
 20
406779.63725718402
 30
0.0
  0
ATTRIB
  5
66E13
  8
OBRYS
 10
34679.835050790527
 20
405816.69097318401
 30
0.0
 40
7.0
  1
DIN 912
  2
norma roz.
 70
     1
  0
ATTRIB
  5
66E14
  8
OBRYS
 10
34679.835050790527
 20
405816.69097318401
 30
0.0
 40
7.0
  1
1.25
  2
roztec
 70
     1
  0
ATTRIB
  5
66E15
  8
OBRYS
 10
34679.835050790527
 20
405816.69097318401
 30
0.0
 40
7.0
  1
*N
  2
puvod
 70
     1
  0
SEQEND
  5
66E16
  8
OBRYS
  0
LINE
  5
66E17
  8
OSA
 10
35218.087757790527
 20
406779.63725718402
 30
0.0
 11
35194.087757790541
 21
406779.63725718402
 31
0.0
  0
LINE
  5
66E18
  8
OBRYS
 10
35218.587757790527
 20
406874.31238718389
 30
0.0
 11
35218.087757790527
 21
406874.31238718389
 31
0.0
  0
ARC
  5
66E19
  8
OBRYS
 10
35218.587757790527
 20
406872.81238718401
 30
0.0
 40
1.5
 50
0.0
 51
90.0
  0
LINE
  5
66E1A
  8
OBRYS
 10
35218.587757790527
 20
406819.31238718389
 30
0.0
 11
35218.087757790527
 21
406819.31238718389
 31
0.0
  0
LINE
  5
66E1B
  8
OBRYS
 10
35220.087757790527
 20
406820.81238718401
 30
0.0
 11
35220.087757790527
 21
406872.81238718401
 31
0.0
  0
ARC
  5
66E1C
  8
OBRYS
 10
35218.587757790527
 20
406820.81238718401
 30
0.0
 40
1.5
 50
270.0
 51
0.0
  0
LINE
  5
66E1D
  8
OSA
 10
35224.297496790539
 20
406846.812394184
 30
0.0
 11
35194.087757790541
 21
406846.812394184
 31
0.0
  0
ARC
  5
66E1E
  8
OBRYS
 10
35134.587757790527
 20
406737.81239418389
 30
0.0
 40
1.0
 50
180.0
 51
270.0
  0
LINE
  5
66E1F
  8
OBRYS
 10
35153.587757790527
 20
406736.81239418389
 30
0.0
 11
35134.587757790527
 21
406736.81239418389
 31
0.0
  0
LINE
  5
66E20
  8
OBRYS
 10
35133.587757790541
 20
406739.81239418389
 30
0.0
 11
35133.587757790541
 21
406737.81239418389
 31
0.0
  0
ARC
  5
66E21
  8
OBRYS
 10
35153.587757790527
 20
406737.81239418389
 30
0.0
 40
1.0
 50
270.0
 51
0.0
  0
LINE
  5
66E22
  8
OBRYS
 10
35154.587757790541
 20
406739.81239418389
 30
0.0
 11
35154.587757790541
 21
406737.81239418389
 31
0.0
  0
LINE
  5
66E23
  8
OSA
 10
35144.087757790527
 20
407000.14786518388
 30
0.0
 11
35144.087757790527
 21
406736.81239418389
 31
0.0
  0
LINE
  5
66E24
  8
OBRYS
 10
35129.587757790541
 20
406741.81239418389
 30
0.0
 11
35158.587757790541
 21
406741.81239418389
 31
0.0
  0
LINE
  5
66E25
  8
OBRYS
 10
35094.087757790527
 20
406761.812394184
 30
0.0
 11
35094.087757790527
 21
406741.81239418389
 31
0.0
  0
INSERT
  5
66E26
  8
OBRYS
 62
     7
 66
     1
  2
SROUB_M6X20_43
 10
35144.087757790527
 20
406899.81239418389
 30
0.0
  0
ATTRIB
  5
66E27
  8
OBRYS
 10
34679.835050790527
 20
405816.69097318401
 30
0.0
 40
25.0
  1
1
  2
roztec
 70
     1
  0
ATTRIB
  5
66E28
  8
OBRYS
 10
34679.835050790527
 20
405816.69097318401
 30
0.0
 40
25.0
  1
*N
  2
puvod
 70
     1
  0
ATTRIB
  5
66E29
  8
OBRYS
 10
34679.835050790527
 20
405816.69097318401
 30
0.0
 40
25.0
  1
CSN 02 1143
  2
norma roz.
 70
     1
  0
SEQEND
  5
66E2A
  8
OBRYS
  0
INSERT
  5
66E2B
  8
OBRYS
 62
     7
 66
     1
  2
SROUB_M6X20_44
 10
35144.087757790527
 20
406993.81239418389
 30
0.0
  0
ATTRIB
  5
66E2C
  8
OBRYS
 10
34679.835050790527
 20
405816.69097318401
 30
0.0
 40
25.0
  1
1
  2
roztec
 70
     1
  0
ATTRIB
  5
66E2D
  8
OBRYS
 10
34679.835050790527
 20
405816.69097318401
 30
0.0
 40
25.0
  1
*N
  2
puvod
 70
     1
  0
ATTRIB
  5
66E2E
  8
OBRYS
 10
34679.835050790527
 20
405816.69097318401
 30
0.0
 40
25.0
  1
CSN 02 1143
  2
norma roz.
 70
     1
  0
SEQEND
  5
66E2F
  8
OBRYS
  0
LINE
  5
66E30
  8
OSA
 10
35095.087757790541
 20
406946.81239418389
 30
0.0
 11
35194.087757790541
 21
406946.81239418389
 31
0.0
  0
ARC
  5
66E31
  8
OBRYS
 10
35144.087757790527
 20
406946.81239418389
 30
0.0
 40
55.0
 50
90.0
 51
155.38002299894001
  0
ARC
  5
66E32
  8
OBRYS
 10
35144.087757790527
 20
406946.81239418389
 30
0.0
 40
55.0
 50
24.619977001059979
 51
90.0
  0
LINE
  5
66E33
  8
OBRYS
 10
35156.587757790541
 20
406739.81239418389
 30
0.0
 11
35131.587757790541
 21
406739.81239418389
 31
0.0
  0
LINE
  5
66E34
  8
OBRYS
 10
35194.087757790541
 20
406741.81239418389
 30
0.0
 11
35158.587757790541
 21
406741.81239418389
 31
0.0
  0
ARC
  5
66E35
  8
OBRYS
 10
35158.587757790541
 20
406739.81239418389
 30
0.0
 40
2.0
 50
90.0
 51
180.0
  0
LINE
  5
66E36
  8
OBRYS
 10
35094.087757790527
 20
406741.81239418389
 30
0.0
 11
35129.587757790541
 21
406741.81239418389
 31
0.0
  0
ARC
  5
66E37
  8
OBRYS
 10
35129.587757790541
 20
406739.81239418389
 30
0.0
 40
2.0
 50
0.0
 51
90.0
  0
LINE
  5
66E38
  8
OSA
 10
35094.087757790527
 20
406846.812394184
 30
0.0
 11
35194.087757790541
 21
406846.812394184
 31
0.0
  0
LINE
  5
66E39
  8
OSA
 10
35144.087757790527
 20
407000.14786518388
 30
0.0
 11
35144.087757790527
 21
406864.31239418389
 31
0.0
  0
CIRCLE
  5
66E3A
  8
OBRYS
 10
35144.087757790527
 20
406899.81239418389
 30
0.0
 40
5.5
  0
CIRCLE
  5
66E3B
  8
OBRYS
 10
35144.087757790527
 20
406993.81239418389
 30
0.0
 40
5.5
  0
CIRCLE
  5
66E3C
  8
OSA
 10
35144.087757790527
 20
406946.81239418389
 30
0.0
 40
65.0
  0
CIRCLE
  5
66E3D
  8
OSA
 10
35144.087757790527
 20
406946.81239418389
 30
0.0
 40
47.0
  0
LINE
  5
66E3E
  8
OSA
 10
35144.087757790527
 20
406946.81239418389
 30
0.0
 11
35074.087757790541
 21
406946.81239418389
 31
0.0
  0
LINE
  5
66E3F
  8
OSA
 10
35144.087757790527
 20
406946.81239418389
 30
0.0
 11
35214.087757790527
 21
406946.81239418389
 31
0.0
  0
LINE
  5
66E40
  8
OSA
 10
35144.087757790527
 20
406946.81239418389
 30
0.0
 11
35144.087757790527
 21
407016.81239418389
 31
0.0
  0
LINE
  5
66E41
  8
OSA
 10
35144.087757790527
 20
406946.81239418389
 30
0.0
 11
35144.087757790527
 21
406876.81239418389
 31
0.0
  0
CIRCLE
  5
66E42
  8
OBRYS
 10
35144.087757790527
 20
406946.81239418389
 30
0.0
 40
31.0
  0
CIRCLE
  5
66E43
  8
OBRYS
 10
35144.087757790527
 20
406946.81239418389
 30
0.0
 40
55.0
  0
CIRCLE
  5
66E44
  8
OBRYS
 10
35144.087757790527
 20
406946.81239418389
 30
0.0
 40
75.0
  0
CIRCLE
  5
66E45
  8
OBRYS
 10
35098.12581679054
 20
406992.7743351839
 30
0.0
 40
4.5
  0
CIRCLE
  5
66E46
  8
OBRYS
 10
35190.049698790543
 20
406992.7743351839
 30
0.0
 40
4.5
  0
CIRCLE
  5
66E47
  8
OBRYS
 10
35190.049698790543
 20
406900.85045318393
 30
0.0
 40
4.5
  0
CIRCLE
  5
66E48
  8
OBRYS
 10
35098.12581679054
 20
406900.85045318393
 30
0.0
 40
4.5
  0
LINE
  5
66E49
  8
OSA
 10
35103.402476790543
 20
406906.12711318402
 30
0.0
 11
35094.590282790537
 21
406897.3149191839
 31
0.0
  0
LINE
  5
66E4A
  8
OSA
 10
35184.982952790539
 20
406987.70758918388
 30
0.0
 11
35193.585231790537
 21
406996.30986918398
 31
0.0
  0
LINE
  5
66E4B
  8
OSA
 10
35103.155809790544
 20
406987.74434218399
 30
0.0
 11
35094.590282790537
 21
406996.30986918398
 31
0.0
  0
LINE
  5
66E4C
  8
OSA
 10
35183.966657790537
 20
406906.93349418388
 30
0.0
 11
35193.585231790537
 21
406897.3149191839
 31
0.0
  0
LINE
  5
66E4D
  8
OSA
 10
35144.087757790527
 20
406946.81239418389
 30
0.0
 11
35096.456360790537
 21
406974.31239418389
 31
0.0
  0
LINE
  5
66E4E
  8
OSA
 10
35144.087757790527
 20
406946.81239418389
 30
0.0
 11
35191.719154790539
 21
406974.31239418389
 31
0.0
  0
LINE
  5
66E4F
  8
OSA
 10
35144.087757790527
 20
406946.81239418389
 30
0.0
 11
35191.719154790539
 21
406919.31239418389
 31
0.0
  0
LINE
  5
66E50
  8
OSA
 10
35144.087757790527
 20
406946.81239418389
 30
0.0
 11
35096.456360790537
 21
406919.31239418389
 31
0.0
  0
LINE
  5
66E51
  8
OBRYS
 10
35194.087757790541
 20
406890.9106941839
 30
0.0
 11
35194.087757790541
 21
406741.81239418389
 31
0.0
  0
LINE
  5
66E52
  8
OBRYS
 10
35094.087757790527
 20
406890.9106941839
 30
0.0
 11
35094.087757790527
 21
406741.81239418389
 31
0.0
  0
LINE
  5
66E53
  8
OBRYS
 10
35094.087757790527
 20
406761.812394184
 30
0.0
 11
35094.087757790527
 21
406890.9106941839
 31
0.0
  0
LINE
  5
66E54
  8
OBRYS
 10
35148.087757790527
 20
406960.22880218388
 30
0.0
 11
35148.087757790527
 21
406963.71239418403
 31
0.0
  0
LINE
  5
66E55
  8
OBRYS
 10
35148.087757790527
 20
406963.71239418403
 30
0.0
 11
35140.087757790527
 21
406963.71239418403
 31
0.0
  0
LINE
  5
66E56
  8
OBRYS
 10
35140.087757790527
 20
406963.71239418403
 30
0.0
 11
35140.087757790527
 21
406960.22880218388
 31
0.0
  0
ARC
  5
66E57
  8
OBRYS
 10
35144.087757790527
 20
406946.81239418389
 30
0.0
 40
14.0
 50
106.6015499996592
 51
73.398450000340731
  0
CIRCLE
  5
66E58
  8
OBRYS
 10
35144.087757790527
 20
406946.81239418389
 30
0.0
 40
20.0
  0
LINE
  5
66E59
  8
S-OBRYS
  6
CONTINUOUS
 10
34491.434754879032
 20
406000.00661960948
 30
0.0
 11
34491.434754879032
 21
406125.00661960948
 31
0.0
  0
LINE
  5
66E5A
  8
S-OBRYS
  6
CONTINUOUS
 10
34491.434754879032
 20
406125.00661960948
 30
0.0
 11
34741.434754879061
 21
406125.00661960948
 31
0.0
  0
LINE
  5
66E5B
  8
S-OBRYS
  6
CONTINUOUS
 10
34491.434754879032
 20
406000.00661960948
 30
0.0
 11
34491.434754879032
 21
405875.00661960948
 31
0.0
  0
LINE
  5
66E5C
  8
S-OBRYS
  6
CONTINUOUS
 10
34491.434754879032
 20
405875.00661960948
 30
0.0
 11
34741.434754879061
 21
405875.00661960948
 31
0.0
  0
LINE
  5
66E5D
  8
OBRYS
 10
35102.434754878937
 20
405895.00661960948
 30
0.0
 11
35102.434754878937
 21
405883.50661960948
 31
0.0
  0
ARC
  5
66E5E
  8
OBRYS
 10
35103.934754878908
 20
405883.50661960948
 30
0.0
 40
1.5
 50
180.0
 51
270.0
  0
INSERT
  5
66E5F
  8
OBRYS
 62
     7
 66
     1
  2
SROUB_M6X16_27
 10
35109.799003879161
 20
405882.00661960943
 30
0.0
 41
-1.0
 50
90.0
  0
ATTRIB
  5
66E60
  8
OBRYS
 10
36596.920955879563
 20
406142.89454660728
 30
0.0
 40
7.0
  1
DIN 7984
 50
270.0
  2
norma roz.
 70
     1
  0
ATTRIB
  5
66E61
  8
OBRYS
 10
36596.920955879563
 20
406142.89454660728
 30
0.0
 40
7.0
  1
1
 50
270.0
  2
roztec
 70
     1
  0
ATTRIB
  5
66E62
  8
OBRYS
 10
36596.920955879563
 20
406142.89454660728
 30
0.0
 40
7.0
  1
*N
 50
270.0
  2
puvod
 70
     1
  0
SEQEND
  5
66E63
  8
OBRYS
  0
LINE
  5
66E64
  8
OBRYS
 10
35092.434754878857
 20
406105.00661260932
 30
0.0
 11
35081.170121337011
 21
406105.00661260932
 31
0.0
  0
LINE
  5
66E65
  8
OBRYS
 10
35092.434754878857
 20
406105.00661260932
 30
0.0
 11
35102.434754878872
 21
406105.00661260932
 31
0.0
  0
LINE
  5
66E66
  8
OBRYS
 10
35102.434754879047
 20
405969.62379506562
 30
0.0
 11
35102.434754878872
 21
406105.00661260932
 31
0.0
  0
LINE
  5
66E67
  8
OBRYS
 10
35100.434754879083
 20
405954.43014882808
 30
0.0
 11
35100.434754878857
 21
406105.00661260932
 31
0.0
  0
LINE
  5
66E68
  8
OBRYS
 10
35100.434754879083
 20
405954.43014882808
 30
0.0
 11
35100.43475487917
 21
405895.00662660942
 31
0.0
  0
LINE
  5
66E69
  8
OSA
 10
35106.434754879047
 20
406000.00661960943
 30
0.0
 11
35106.434754879047
 21
406000.00661960943
 31
0.0
  0
LINE
  5
66E6A
  8
OBRYS
 10
35102.434754879047
 20
405969.62379506562
 30
0.0
 11
35102.43475487917
 21
405895.00662660942
 31
0.0
  0
LINE
  5
66E6B
  8
OBRYS
 10
35092.43475487917
 20
405895.00662660942
 30
0.0
 11
35102.43475487917
 21
405895.00662660942
 31
0.0
  0
LINE
  5
66E6C
  8
OBRYS
 10
35092.43475487917
 20
405895.00662660942
 30
0.0
 11
35081.170121337011
 21
405895.00662660948
 31
0.0
  0
DIMENSION
  5
66E6D
  8
S-OBRYS
  6
CONTINUOUS
  2
*D70
 10
35220.087757790527
 20
406499.98128618428
 30
0.0
 11
34851.587757790498
 21
406499.98128618428
 31
0.0
 70
   128
 13
34483.087757790483
 23
406721.81238718389
 33
0.0
 14
35220.087757790527
 24
406846.81238718401
 34
0.0
1001
ACAD
1000
DSTYLE
1002
{
1070
    41
1040
0.8
1070
   140
1040
0.6
1002
}
  0
DIMENSION
  5
66E6E
  8
S-OBRYS
  6
CONTINUOUS
  2
*D71
 10
35360.799166225617
 20
405876.92326960951
 30
0.0
 11
35360.799166225552
 21
406165.4649291095
 31
0.0
 70
   128
  1
578
 13
35152.434754878363
 23
406454.00658860942
 33
0.0
 14
35152.434754879199
 24
405876.92326960951
 34
0.0
 50
90.0
1001
ACAD
1000
DSTYLE
1002
{
1070
    41
1040
0.8
1070
   140
1040
0.6
1002
}
  0
DIMENSION
  5
66E6F
  8
S-OBRYS
  6
CONTINUOUS
  2
*D72
 10
35250.934754879127
 20
405670.64239837858
 30
0.0
 11
34871.184754879083
 21
405670.64239837858
 31
0.0
 70
   128
  1
760
 13
34491.434754879032
 23
405875.00661960948
 33
0.0
 14
35250.934754879127
 24
405920.0066196096
 34
0.0
1001
ACAD
1000
DSTYLE
1002
{
1070
    41
1040
0.8
1070
   140
1040
0.6
1002
}
  0
DIMENSION
  5
66E70
  8
S-OBRYS
  6
CONTINUOUS
  2
*D73
 10
35318.118445060398
 20
406080.00661960948
 30
0.0
 11
35278.11844506034
 21
406000.00661960948
 31
0.0
 70
     0
 13
35234.434754879127
 23
405920.00661960948
 33
0.0
 14
35234.434754879127
 24
406080.00661960948
 34
0.0
 50
90.0
1001
ACAD
1000
DSTYLE
1002
{
1070
    41
1040
0.8
1070
   140
1040
0.6
1002
}
  0
DIMENSION
  5
66E71
  8
S-OBRYS
  6
CONTINUOUS
  2
*D74
 10
35375.806458223873
 20
406676.81238718389
 30
0.0
 11
35375.8064582238
 21
406854.31238718389
 31
0.0
 70
   128
 13
34933.087757790541
 23
407031.81238718389
 33
0.0
 14
34973.087757790541
 24
406676.81238718389
 34
0.0
 50
90.0
1001
ACAD
1000
DSTYLE
1002
{
1070
    41
1040
0.8
1070
   140
1040
0.6
1002
}
  0
LINE
  5
66E72
  8
S-OBRYS
  6
CONTINUOUS
 10
34741.434754879061
 20
406040.00661960948
 30
0.0
 11
34679.934754879047
 21
406040.00661960948
 31
0.0
  0
LINE
  5
66E73
  8
S-OBRYS
  6
CONTINUOUS
 10
35076.434754879047
 20
405986.00661960948
 30
0.0
 11
35032.934754879061
 21
405986.00661960948
 31
0.0
  0
LINE
  5
66E74
  8
S-OBRYS
  6
CONTINUOUS
 10
35076.434754879047
 20
406014.00661960948
 30
0.0
 11
35076.434754879047
 21
405986.00661960948
 31
0.0
  0
LINE
  5
66E75
  8
S-OBRYS
  6
CONTINUOUS
 10
35032.934754879061
 20
406014.00661960948
 30
0.0
 11
35076.434754879047
 21
406014.00661960948
 31
0.0
  0
LINE
  5
66E76
  8
S-OBRYS
  6
CONTINUOUS
 10
34636.434754879061
 20
405986.0066196096
 30
0.0
 11
34679.934754879047
 21
405986.00661960948
 31
0.0
  0
LINE
  5
66E77
  8
S-OBRYS
  6
CONTINUOUS
 10
34636.434754879061
 20
406014.00661960948
 30
0.0
 11
34636.434754879061
 21
405986.0066196096
 31
0.0
  0
LINE
  5
66E78
  8
S-OBRYS
  6
CONTINUOUS
 10
34679.934754879047
 20
406014.00661960948
 30
0.0
 11
34636.434754879061
 21
406014.00661960948
 31
0.0
  0
LINE
  5
66E79
  8
S-OBRYS
  6
CONTINUOUS
 10
35032.934754879061
 20
405960.00661960948
 30
0.0
 11
34971.434754879047
 21
405960.00661960948
 31
0.0
  0
LINE
  5
66E7A
  8
S-OBRYS
  6
CONTINUOUS
 10
35032.934754879061
 20
406040.00661960948
 30
0.0
 11
35032.934754879061
 21
405960.00661960948
 31
0.0
  0
LINE
  5
66E7B
  8
S-OBRYS
  6
CONTINUOUS
 10
34971.434754879047
 20
406040.00661960948
 30
0.0
 11
35032.934754879061
 21
406040.00661960948
 31
0.0
  0
LINE
  5
66E7C
  8
S-OBRYS
  6
CONTINUOUS
 10
34679.934754879047
 20
405960.00661960948
 30
0.0
 11
34741.434754879061
 21
405960.00661960948
 31
0.0
  0
LINE
  5
66E7D
  8
S-OBRYS
  6
CONTINUOUS
 10
34679.934754879047
 20
406040.00661960948
 30
0.0
 11
34679.934754879047
 21
405960.00661960948
 31
0.0
  0
LINE
  5
66E7E
  8
S-OBRYS
  6
CONTINUOUS
 10
34971.434754879047
 20
405880.00661960943
 30
0.0
 11
34971.434754879047
 21
406120.00661960948
 31
0.0
  0
LINE
  5
66E7F
  8
S-OBRYS
  6
CONTINUOUS
 10
34741.434754879061
 20
406120.00661960948
 30
0.0
 11
34741.434754879061
 21
405880.00661960943
 31
0.0
  0
LINE
  5
66E80
  8
S-OBRYS
  6
CONTINUOUS
 10
34949.434754879061
 20
406000.00661960948
 30
0.0
 11
35076.434754879047
 21
406000.00661960948
 31
0.0
  0
LINE
  5
66E81
  8
S-OBRYS
  6
CONTINUOUS
 10
34763.434754879047
 20
406000.00661960948
 30
0.0
 11
34949.434754879061
 21
406000.00661960948
 31
0.0
  0
LINE
  5
66E82
  8
S-OBRYS
  6
CONTINUOUS
 10
34636.434754879061
 20
406000.00661960948
 30
0.0
 11
34763.434754879047
 21
406000.00661960948
 31
0.0
  0
LINE
  5
66E83
  8
S-OBRYS
  6
CONTINUOUS
 10
34856.434754879047
 20
405860.00661960948
 30
0.0
 11
34856.434754879047
 21
406189.63893694378
 31
0.0
  0
CIRCLE
  5
66E84
  8
S-OBRYS
  6
CONTINUOUS
 10
34856.434754879047
 20
406000.00661960948
 30
0.0
 40
71.5
  0
LINE
  5
66E85
  8
S-OBRYS
  6
CONTINUOUS
 10
34741.434754879061
 20
406145.00661960948
 30
0.0
 11
34741.434754879061
 21
405855.00661960948
 31
0.0
  0
LINE
  5
66E86
  8
S-OBRYS
  6
CONTINUOUS
 10
34741.434754879061
 20
405855.00661960948
 30
0.0
 11
34971.434754879047
 21
405855.00661960948
 31
0.0
  0
LINE
  5
66E87
  8
S-OBRYS
  6
CONTINUOUS
 10
34971.434754879047
 20
405855.00661960948
 30
0.0
 11
34971.434754879047
 21
406145.00661960948
 31
0.0
  0
LINE
  5
66E88
  8
S-OBRYS
  6
CONTINUOUS
 10
34971.434754879047
 20
406145.00661960948
 30
0.0
 11
34741.434754879061
 21
406145.00661960948
 31
0.0
  0
CIRCLE
  5
66E89
  8
S-OBRYS
  6
CONTINUOUS
 10
34856.434754879047
 20
406000.00661960948
 30
0.0
 40
107.5
  0
CIRCLE
  5
66E8A
  8
S-OBRYS
  6
CONTINUOUS
 10
34856.434754879047
 20
406000.00661960948
 30
0.0
 40
71.5
  0
CIRCLE
  5
66E8B
  8
S-OBRYS
  6
CONTINUOUS
 10
34856.434754879097
 20
406000.00661960948
 30
0.0
 40
90.0
  0
CIRCLE
  5
66E8C
  8
S-OBRYS
  6
CONTINUOUS
 10
34775.81217739611
 20
406040.00661960948
 30
0.0
 40
5.0
  0
CIRCLE
  5
66E8D
  8
S-OBRYS
  6
CONTINUOUS
 10
34775.81217739611
 20
405960.00661960948
 30
0.0
 40
5.0
  0
CIRCLE
  5
66E8E
  8
S-OBRYS
  6
CONTINUOUS
 10
34937.057332362077
 20
406040.00661960948
 30
0.0
 40
5.0
  0
CIRCLE
  5
66E8F
  8
S-OBRYS
  6
CONTINUOUS
 10
34937.057332362077
 20
405960.00661960948
 30
0.0
 40
5.0
  0
LINE
  5
66E90
  8
S-OBRYS
  6
CONTINUOUS
 10
34927.057332362092
 20
406040.00661960948
 30
0.0
 11
34947.057332362092
 21
406040.00661960948
 31
0.0
  0
LINE
  5
66E91
  8
S-OBRYS
  6
CONTINUOUS
 10
34937.057332362077
 20
406030.00661960943
 30
0.0
 11
34937.057332362077
 21
406050.00661960948
 31
0.0
  0
LINE
  5
66E92
  8
S-OBRYS
  6
CONTINUOUS
 10
34765.81217739611
 20
406040.00661960948
 30
0.0
 11
34785.81217739611
 21
406040.00661960948
 31
0.0
  0
LINE
  5
66E93
  8
S-OBRYS
  6
CONTINUOUS
 10
34775.81217739611
 20
406030.00661960943
 30
0.0
 11
34775.81217739611
 21
406050.00661960948
 31
0.0
  0
LINE
  5
66E94
  8
S-OBRYS
  6
CONTINUOUS
 10
34765.81217739611
 20
405960.00661960948
 30
0.0
 11
34785.81217739611
 21
405960.00661960948
 31
0.0
  0
LINE
  5
66E95
  8
S-OBRYS
  6
CONTINUOUS
 10
34775.81217739611
 20
405950.00661960948
 30
0.0
 11
34775.81217739611
 21
405970.00661960948
 31
0.0
  0
LINE
  5
66E96
  8
S-OBRYS
  6
CONTINUOUS
 10
34927.057332362092
 20
405960.00661960948
 30
0.0
 11
34947.057332362092
 21
405960.00661960948
 31
0.0
  0
LINE
  5
66E97
  8
S-OBRYS
  6
CONTINUOUS
 10
34937.057332362077
 20
405950.00661960948
 30
0.0
 11
34937.057332362077
 21
405970.00661960948
 31
0.0
  0
INSERT
  5
66E98
  8
OSA
  6
CONTINUOUS
  2
_17
 10
35102.434754878959
 20
406000.00661960948
 30
0.0
 41
-1.0
 50
90.0
  0
DIMENSION
  5
66E99
  8
S-OBRYS
  6
CONTINUOUS
  2
*D75
 10
34636.434754879061
 20
405769.7709752107
 30
0.0
 11
34856.43475487901
 21
405809.7709752107
 31
0.0
 70
     0
 13
35076.434754878959
 23
406000.00661960948
 33
0.0
 14
34636.434754879061
 24
406000.00661960948
 34
0.0
1001
ACAD
1000
DSTYLE
1002
{
1070
    41
1040
0.8
1070
   140
1040
0.6
1002
}
  0
DIMENSION
  5
66E9A
  8
S-OBRYS
  6
CONTINUOUS
  2
*D76
 10
34741.434754879061
 20
406201.21707912872
 30
0.0
 11
34856.434754879047
 21
406241.21707912872
 31
0.0
 70
     0
 13
34971.434754879047
 23
406145.00661960948
 33
0.0
 14
34741.434754879061
 24
406145.00661960948
 34
0.0
1001
ACAD
1000
DSTYLE
1002
{
1070
    41
1040
0.8
1070
   140
1040
0.6
1002
}
  0
DIMENSION
  5
66E9B
  8
S-OBRYS
  6
CONTINUOUS
  2
*D77
 10
34491.434754879032
 20
406201.21707912872
 30
0.0
 11
34616.434754879039
 21
406201.21707912872
 31
0.0
 70
   128
 13
34741.434754879061
 23
406125.00661960948
 33
0.0
 14
34491.434754879032
 24
406125.00661960948
 34
0.0
1001
ACAD
1000
DSTYLE
1002
{
1070
    41
1040
0.8
1070
   140
1040
0.6
1002
}
  0
DIMENSION
  5
66E9C
  8
S-OBRYS
  6
CONTINUOUS
  2
*D78
 10
34925.827782461827
 20
405982.7770600419
 30
0.0
 11
34634.653099661919
 21
406055.07267412072
 31
0.0
 70
   131
 15
34787.041727296302
 25
406017.23617917718
 35
0.0
 40
0.0
1001
ACAD
1000
DSTYLE
1002
{
1070
    41
1040
0.8
1070
   140
1040
0.6
1002
}
  0
CIRCLE
  5
66E9D
  8
S-OBRYS
  6
CONTINUOUS
 10
34856.434754879301
 20
406000.00661960948
 30
0.0
 40
76.0
  0
DIMENSION
  5
66E9E
  8
S-OBRYS
  6
CONTINUOUS
  2
*D79
 10
34932.412574720802
 20
406001.84261855722
 30
0.0
 11
34561.66212666285
 21
405992.88345871319
 31
0.0
 70
   131
 15
34780.456935037822
 25
405998.17062066152
 35
0.0
 40
0.0
1001
ACAD
1000
DSTYLE
1002
{
1070
    41
1040
0.8
1070
   140
1040
0.6
1002
}
  0
LINE
  5
66E9F
  8
S-OBRYS
  6
CONTINUOUS
 10
34776.587757790527
 20
407031.81238718389
 30
0.0
 11
34919.587757790541
 21
407031.81238718389
 31
0.0
  0
DIMENSION
  5
66EA0
  8
S-OBRYS
  6
CONTINUOUS
  2
*D80
 10
34919.587757790541
 20
407089.63974470331
 30
0.0
 11
35061.328842368857
 21
407089.63974470331
 31
0.0
 70
   128
  1
%%c<>
 13
34776.587757790527
 23
407031.81238718389
 33
0.0
 14
34919.587757790541
 24
407031.81238718389
 34
0.0
1001
ACAD
1000
DSTYLE
1002
{
1070
    41
1040
0.8
1070
   140
1040
0.6
1002
}
  0
VIEWPORT
  5
1FAB5
 67
     1
  8
0
  6
ČERCHOVANÁ
 10
12.669026204836801
 20
9.4585013259736659
 30
0.0
 40
41.707206501782828
 41
24.2248555085413
 68
     1
 69
     1
1001
ACAD
1000
MVIEW
1002
{
1070
    16
1010
0.0
1020
0.0
1030
0.0
1010
0.0
1020
0.0
1030
1.0
1040
0.0
1040
24.2248555085413
1040
12.669026204836801
1040
9.4585013259736659
1040
50.0
1040
0.0
1040
0.0
1070
     0
1070
   100
1070
     1
1070
     1
1070
     0
1070
     0
1070
     0
1070
     0
1040
0.0
1040
0.0
1040
0.0
1040
10.0
1040
10.0
1040
10.0
1040
10.0
1070
     0
1002
{
1002
}
1002
}
  0
VIEWPORT
  5
1FAB7
 67
     1
  8
2-VZT
  6
ČERCHOVANÁ
 10
5.24999976158142
 20
3.99999976158142
 30
0.0
 40
8.3999996185302717
 41
6.3999996185302717
 68
     2
 69
     2
1001
ACAD
1000
MVIEW
1002
{
1070
    16
1010
0.0
1020
0.0
1030
0.0
1010
0.0
1020
0.0
1030
1.0
1040
0.0
1040
517776.44812413253
1040
-335493.7046016907
1040
-205251.99203018961
1040
50.0
1040
0.0
1040
0.0
1070
     0
1070
   100
1070
     1
1070
     0
1070
     0
1070
     0
1070
     0
1070
     0
1040
0.0
1040
0.0
1040
0.0
1040
1.0
1040
1.0
1040
1.0
1040
1.0
1070
     0
1002
{
1002
}
1002
}
  0
ENDSEC
  0
EOF
